osu file format v14

[General]
AudioFilename: furioso melodia.mp3
AudioLeadIn: 0
PreviewTime: 72877
Countdown: 0
SampleSet: Normal
StackLeniency: 0.6
Mode: 0
LetterboxInBreaks: 0
WidescreenStoryboard: 0

[Editor]
Bookmarks: 1652,72877,122426,131716,134813,143329,147200,159587,235458,275716,277264,290426,291200,296619
DistanceSpacing: 0.4
BeatDivisor: 4
GridSize: 4
TimelineZoom: 2.1

[Metadata]
Title:furioso melodia
TitleUnicode:furioso melodia
Artist:gmtn. (witch's slave)
ArtistUnicode:gmtn. (witch's slave)
Creator:huu
Version:Reborn
Source:BMS
Tags:gmtn witch's slave furioso melodia experiment gothic hardcore 2010 bms gumtune
BeatmapID:2070115
BeatmapSetID:918751

[Difficulty]
HPDrainRate:6
CircleSize:4
OverallDifficulty:8.5
ApproachRate:9.3
SliderMultiplier:1.1
SliderTickRate:1

[Events]
//Background and Video events
0,0,"map bg.jpg",0,0
//Break Periods
2,26626,32019
2,110239,121872
2,210884,222517
//Storyboard Layer 0 (Background)
//Storyboard Layer 1 (Fail)
//Storyboard Layer 2 (Pass)
//Storyboard Layer 3 (Foreground)
//Storyboard Layer 4 (Overlay)
//Storyboard Sound Samples

[TimingPoints]
1652,387.096774193548,4,2,1,50,1,0
1652,-66.6666666666667,4,2,1,50,0,0
14039,-66.6666666666667,4,2,2,50,0,0
26426,-200,4,2,1,25,0,0
32619,-100,4,1,1,70,0,0
35716,-80,4,1,1,75,0,0
40361,-80,4,1,1,25,0,0
41135,-80,4,1,1,35,0,0
41910,-80,4,1,1,50,0,0
43845,-80,4,1,1,65,0,0
45781,-80,4,1,1,75,0,0
60490,-66.6666666666667,4,1,1,75,0,0
72877,-50,4,1,1,75,0,1
110039,-100,4,1,1,75,0,0
131716,-100,4,3,1,70,0,0
134813,-66.6666666666667,4,3,1,75,0,0
153393,-66.6666666666667,4,3,1,75,0,0
159587,-66.6666666666667,4,3,1,70,0,0
171974,-66.6666666666667,4,3,1,70,0,0
173522,-57.1428571428571,4,1,1,75,0,1
185910,-57.1428571428571,4,1,1,5,0,0
186297,-57.1428571428571,4,1,1,75,0,1
204490,-66.6666666666667,4,3,1,75,0,1
205910,-66.6666666666667,4,1,1,75,0,1
206168,-66.6666666666667,4,3,1,75,0,1
206813,-66.6666666666667,4,1,1,75,0,1
207071,-66.6666666666667,4,1,1,75,0,1
210684,-66.6666666666667,4,1,1,75,0,0
223071,-100,4,2,1,50,0,0
235458,-66.6666666666667,4,3,1,70,0,0
247845,-57.1428571428571,4,1,1,75,0,0
261781,-50,4,1,1,75,0,1
311329,-66.6666666666667,4,1,1,75,0,0

[Colours]
Combo1 : 52,193,17
Combo2 : 26,137,22

[HitObjects]
224,296,14039,6,0,B|224:216|224:216|272:160|272:160|272:52,1,247.500009441376,2|0,0:0|0:0,0:0:0:0:
124,32,14813,2,0,P|64:60|172:112,1,247.500009441376,2|0,0:0|0:0,0:0:0:0:
300,132,15587,6,0,B|368:132|368:132|324:184|324:184|360:228|360:228|288:228,1,247.500009441376,2|0,0:0|0:0,0:0:0:0:
232,180,16361,2,0,B|168:156|168:156|180:212|180:212|120:188|120:188|136:264,1,247.500009441376,2|0,0:0|0:0,0:0:0:0:
168,156,17135,6,0,P|216:80|300:80,1,165.000006294251,2|0,0:0|0:0,0:0:0:0:
284,73,17716,1,0,0:0:0:0:
168,156,17910,1,2,0:0:0:0:
164,272,18297,5,0,0:0:0:0:
240,224,18490,1,0,0:0:0:0:
313,175,18684,2,0,L|336:156,6,27.5000010490418,2|0|0|0|0|0|0,0:0|0:0|0:0|0:0|0:0|0:0|0:0,0:0:0:0:
384,112,19264,2,0,B|404:152|404:152|404:200,1,82.5000031471254,0|2,0:0|0:0,0:0:0:0:
356,252,19651,1,0,0:0:0:0:
272,288,19845,1,0,0:0:0:0:
168,256,20039,1,0,0:0:0:0:
128,116,20232,6,0,P|184:156|260:104,1,165.000006294251,2|0,0:0|0:0,0:0:0:0:
192,88,20813,1,0,0:0:0:0:
192,88,21006,1,2,0:0:0:0:
320,176,21393,6,0,L|320:128,2,41.2500015735627,0|0|0,0:0|0:0|0:0,0:0:0:0:
312,264,21781,2,0,B|345:264|345:264|385:236,2,82.5000031471254,2|0|0,0:0|0:0|0:0,0:0:0:0:
228,264,22361,1,0,0:0:0:0:
144,264,22555,2,0,B|111:264|111:264|71:236,2,82.5000031471254,2|0|0,0:0|0:0|0:0,0:0:0:0:
128,176,23135,1,0,0:0:0:0:
88,96,23329,6,0,L|88:13,1,82.5000031471254,2|0,0:0|0:0,0:0:0:0:
172,13,23716,2,0,L|172:96,1,82.5000031471254,0|0,0:0|0:0,0:0:0:0:
256,96,24103,2,0,L|256:13,1,82.5000031471254,2|0,0:0|0:0,0:0:0:0:
344,13,24490,2,0,L|344:96,1,82.5000031471254,0|0,0:0|0:0,0:0:0:0:
428,12,24877,2,0,L|428:177,1,165.000006294251,2|0,0:0|0:0,0:0:0:0:
352,212,25458,5,0,0:0:0:0:
296,160,25651,2,0,L|320:140,6,27.5000010490418,2|0|0|0|0|0|0,0:0|0:0|0:0|0:0|0:0|0:0|0:0,0:0:0:0:
216,96,26232,5,0,0:0:0:0:
216,96,26426,1,6,0:0:0:0:
464,152,32619,6,0,L|464:108,2,36.6666666666667,6|0|0,0:2|0:0|0:0,0:0:0:0:
396,116,33006,2,0,L|396:164,2,36.6666666666667,2|0|0,0:0|0:0|0:0,0:0:0:0:
328,152,33393,2,0,L|328:104,2,36.6666666666667,2|0|0,0:0|0:0|0:0,0:0:0:0:
260,112,33781,2,0,L|260:160,2,36.6666666666667,2|0|0,0:0|0:0|0:0,0:0:0:0:
128,72,34168,5,2,0:0:0:0:
168,72,34264,1,0,0:0:0:0:
152,104,34361,1,0,0:0:0:0:
120,104,34458,1,0,0:0:0:0:
116,132,34555,2,0,L|116:168,3,27.5,2|0|0|0,0:0|0:0|0:0|0:0,0:0:0:0:
168,148,34942,5,2,0:0:0:0:
208,148,35039,1,0,0:0:0:0:
188,180,35135,1,0,0:0:0:0:
144,180,35232,1,0,0:0:0:0:
160,208,35329,2,0,L|160:244,2,27.5,2|0|0,0:0|0:0|0:0,0:0:0:0:
384,100,35716,6,0,B|352:84|352:84|316:84,1,68.75,6|0,0:0|0:0,0:0:0:0:
216,84,36103,2,0,B|172:84|172:84|148:116,1,68.75,8|0,0:0|0:0,0:0:0:0:
116,200,36490,1,2,0:0:0:0:
172,288,36684,2,0,B|248:288|248:288|320:244,1,137.5
384,232,37264,6,0,B|384:188|384:188|368:156,1,68.75,2|0,0:0|0:0,0:0:0:0:
336,88,37651,2,0,B|288:76|288:76|240:76,1,68.75,8|0,0:0|0:0,0:0:0:0:
244,168,38039,1,2,0:0:0:0:
136,88,38232,1,0,0:0:0:0:
112,220,38426,1,8,0:0:0:0:
136,88,38619,1,0,0:0:0:0:
84,292,38813,6,0,B|128:292|128:292|156:272,1,68.75,2|0,0:0|0:0,0:0:0:0:
232,288,39200,2,0,B|232:240|232:240|216:212,1,68.75,8|0,0:0|0:0,0:0:0:0:
160,152,39587,1,2,0:0:0:0:
80,72,39781,2,0,B|144:40|144:40|216:40,1,137.5,0|0,0:0|0:0,0:0:0:0:
296,84,40361,5,6,0:0:0:0:
296,84,40555,1,0,0:0:0:0:
228,256,40748,1,8,0:0:0:0:
228,256,40942,1,0,0:0:0:0:
176,144,41136,1,2,0:0:0:0:
344,180,41329,1,0,0:0:0:0:
176,144,41523,1,8,0:0:0:0:
344,180,41716,1,0,0:0:0:0:
140,260,41910,6,0,B|140:300|140:300|160:328,1,68.75,2|0,0:2|0:0,0:0:0:0:
208,272,42297,2,0,B|208:236|208:236|180:200,1,68.75,8|0,0:0|0:0,0:0:0:0:
120,160,42684,1,10,0:2:0:0:
136,84,42877,2,0,B|204:84|204:84|264:128,1,137.5,0|0,0:0|0:0,0:0:0:0:
404,120,43458,2,0,B|404:84|404:84|384:48,1,68.75,10|0,0:2|0:0,0:0:0:0:
332,104,43845,2,0,B|332:144|332:144|356:180,1,68.75,8|0,0:0|0:0,0:0:0:0:
420,176,44232,2,0,B|420:220|420:220|392:248,1,68.75,10|0,0:2|0:2,0:2:0:0:
292,228,44619,2,0,B|260:208|260:208|220:208,1,68.75,8|0,0:0|0:0,0:0:0:0:
168,252,45006,5,10,0:2:0:0:
84,328,45200,1,0,0:0:0:0:
172,328,45394,1,8,0:0:0:0:
84,252,45587,1,0,0:0:0:0:
124,132,45781,5,10,0:2:0:0:
124,132,45974,2,0,B|176:172|176:172|256:172,1,137.5,0|0,0:0|0:0,0:0:0:0:
372,156,46555,2,0,L|372:138,8,17.1875,10|0|0|0|0|0|0|0|0,0:2|0:0|0:0|0:0|0:0|0:0|0:0|0:0|0:0,0:0:0:0:
296,80,47135,2,0,L|296:40,1,34.375,0|0,0:0|0:0,0:0:0:0:
220,40,47329,2,0,L|220:88,1,34.375,2|0,0:2|0:0,0:0:0:0:
148,84,47522,2,0,L|148:32,1,34.375,0|0,0:0|0:0,0:0:0:0:
76,40,47716,2,0,L|76:80,1,34.375,0|0,0:0|0:0,0:0:0:0:
96,216,47910,1,0,0:0:0:0:
256,192,48103,5,4,0:0:0:0:
160,252,48490,2,0,B|160:296|160:296|188:320,1,68.75,0|0,0:0|0:0,0:0:0:0:
256,192,48877,1,0,0:0:0:0:
256,84,49071,2,0,L|256:56,3,22.9166666666667,0|0|0|0,0:0|0:0|0:0|0:0,0:0:0:0:
184,140,49458,1,0,0:0:0:0:
184,140,49651,5,8,0:0:0:0:
108,228,49845,2,0,L|60:228,2,34.375,8|8|8,0:0|0:0|0:0,0:0:0:0:
184,140,50232,1,8,0:0:0:0:
228,72,50426,2,0,B|256:48|256:48|292:48,1,68.75,8|8,0:0|0:0,0:0:0:0:
324,140,50813,1,8,0:0:0:0:
256,244,51006,2,8,L|256:266,3,22.9166666666667,8|8|8|8,0:0|0:0|0:0|0:0,0:0:0:0:
384,176,51587,5,0,0:0:0:0:
384,176,51781,1,0,0:0:0:0:
184,176,51974,1,0,0:0:0:0:
392,184,52168,1,0,0:0:0:0:
392,184,52264,1,0,0:0:0:0:
392,184,52361,1,0,0:0:0:0:
184,176,52555,1,0,0:0:0:0:
176,296,52748,5,8,0:0:0:0:
176,296,52845,1,8,0:0:0:0:
176,296,52942,1,8,0:0:0:0:
284,256,53135,1,8,0:0:0:0:
316,176,53329,1,8,0:0:0:0:
280,144,53426,1,8,0:0:0:0:
244,112,53522,2,8,L|200:68,2,45.8333333333333,8|8|8,0:0|0:0|0:0,0:0:0:0:
288,160,53910,2,8,L|308:180,5,22.9166666666667,8|8|8|8|8|8,0:0|0:0|0:0|0:0|0:0|0:0,0:0:0:0:
168,160,54297,6,0,B|144:132|144:132|108:132,1,68.75,4|0,0:0|0:0,0:0:0:0:
160,240,54684,2,0,B|196:240|196:240|228:216,1,68.75,0|0,0:0|0:0,0:0:0:0:
292,124,55071,1,0,0:0:0:0:
192,40,55264,1,0,0:0:0:0:
200,48,55361,1,0,0:0:0:0:
200,48,55458,2,0,P|167:57|144:82,1,68.75,0|0,0:0|0:0,0:0:0:0:
88,184,55845,6,8,L|88:218,4,34.375,8|8|8|8|8,0:0|0:0|0:0|0:0|0:0,0:0:0:0:
196,184,56426,1,8,0:0:0:0:
308,188,56619,1,8,0:0:0:0:
308,188,56715,1,8,0:0:0:0:
308,188,56812,1,8,0:0:0:0:
204,192,57006,1,8,0:0:0:0:
204,192,57103,1,8,0:0:0:0:
204,192,57200,1,8,0:0:0:0:
308,188,57394,5,12,0:0:0:0:
408,164,57781,2,0,B|408:128|408:128|380:108,1,68.75,0|0,0:0|0:0,0:0:0:0:
248,108,58168,1,0,0:0:0:0:
112,108,58361,2,0,L|72:108,2,34.375,0|0|0,0:0|0:0|0:0,0:0:0:0:
248,108,58748,1,0,0:0:0:0:
180,196,58942,5,8,0:0:0:0:
180,196,59039,1,8,0:0:0:0:
180,196,59135,1,8,0:0:0:0:
324,252,59329,1,8,0:0:0:0:
324,252,59523,1,8,0:0:0:0:
420,143,59716,2,8,L|420:96,2,45.8333333333333,8|8|8,0:0|0:0|0:0,0:0:0:0:
328,72,60103,1,8,0:0:0:0:
224,120,60297,1,8,0:0:0:0:
256,192,60490,6,0,B|300:192|300:192|340:172,1,82.5000031471254,6|0,0:0|0:0,0:0:0:0:
224,120,60878,1,8,0:0:0:0:
232,268,61071,1,0,0:0:0:0:
224,120,61265,1,2,0:0:0:0:
64,100,61458,1,0,0:0:0:0:
64,116,61555,1,0,0:0:0:0:
64,132,61651,2,0,B|64:180|64:180|84:224,1,82.5000031471254,8|0,0:0|0:0,0:0:0:0:
200,68,62039,5,2,0:0:0:0:
224,68,62135,1,0,0:0:0:0:
224,96,62232,1,8,0:0:0:0:
200,96,62329,1,0,0:0:0:0:
200,68,62426,1,2,0:0:0:0:
224,68,62522,1,0,0:0:0:0:
224,96,62619,1,8,0:0:0:0:
200,96,62716,1,0,0:0:0:0:
200,68,62813,1,2,0:0:0:0:
224,68,62909,1,0,0:0:0:0:
224,96,63006,1,8,0:0:0:0:
200,96,63103,1,0,0:0:0:0:
208,120,63200,2,0,L|208:160,4,27.5000010490418,2|0|0|8|0,0:0|0:0|0:0|0:0|0:0,0:0:0:0:
308,152,63587,5,6,0:0:0:0:
352,240,63974,2,0,B|390:240|390:240|426:212,1,82.5000031471254,8|0,0:0|0:0,0:0:0:0:
308,152,64361,1,2,0:0:0:0:
256,276,64555,1,0,0:0:0:0:
256,276,64651,1,0,0:0:0:0:
256,276,64748,2,0,B|200:276|200:276|152:252,1,82.5000031471254,8|0,0:0|0:0,0:0:0:0:
112,92,65136,5,2,0:0:0:0:
152,92,65232,1,0,0:0:0:0:
132,136,65329,1,8,0:0:0:0:
92,136,65426,1,0,0:0:0:0:
112,92,65523,1,2,0:0:0:0:
152,92,65619,1,0,0:0:0:0:
132,136,65716,1,8,0:0:0:0:
92,136,65813,1,0,0:0:0:0:
112,92,65910,5,2,0:0:0:0:
152,92,66006,1,0,0:0:0:0:
132,136,66103,1,8,0:0:0:0:
92,136,66200,1,0,0:0:0:0:
72,108,66297,2,0,L|44:108,4,27.5000010490418,2|0|0|8|0,0:0|0:0|0:0|0:0|0:0,0:0:0:0:
256,192,66684,5,6,0:0:0:0:
160,264,67071,1,8,0:0:0:0:
160,264,67264,1,0,0:0:0:0:
136,152,67458,1,2,0:0:0:0:
136,152,67651,2,0,L|136:120,3,27.5000010490418,0|0|0|8,0:0|0:0|0:0|0:0,0:0:0:0:
160,264,68039,1,0,0:0:0:0:
56,320,68232,5,2,0:0:0:0:
80,280,68328,1,0,0:0:0:0:
104,320,68426,1,8,0:0:0:0:
56,320,68522,1,0,0:0:0:0:
80,280,68619,1,2,0:0:0:0:
104,320,68715,1,0,0:0:0:0:
56,320,68812,1,8,0:0:0:0:
80,280,68910,1,0,0:0:0:0:
104,320,69006,1,2,0:0:0:0:
56,320,69102,1,0,0:0:0:0:
80,280,69200,1,8,0:0:0:0:
104,320,69297,1,0,0:0:0:0:
132,280,69393,2,0,L|160:264,4,27.5000010490418,2|0|0|8|0,0:0|0:0|0:0|0:0|0:0,0:0:0:0:
236,280,69781,5,12,0:0:0:0:
280,280,69877,1,0,0:0:0:0:
308,240,69974,1,0,0:0:0:0:
260,240,70071,1,0,0:0:0:0:
280,204,70168,1,8,0:0:0:0:
236,200,70264,1,0,0:0:0:0:
260,168,70361,1,0,0:0:0:0:
308,168,70458,1,0,0:0:0:0:
240,136,70555,5,12,0:0:0:0:
284,136,70651,1,0,0:0:0:0:
264,100,70748,1,0,0:0:0:0:
308,100,70845,1,0,0:0:0:0:
244,64,70942,1,8,0:0:0:0:
288,64,71039,1,0,0:0:0:0:
264,100,71135,1,0,0:0:0:0:
308,100,71232,1,0,0:0:0:0:
244,64,71329,6,0,B|177:64|145:28|145:28|109:72,1,165.000006294251,6|8,0:0|0:0,0:0:0:0:
220,152,71813,1,0,0:0:0:0:
220,152,71910,1,0,0:0:0:0:
220,152,72006,1,0,0:0:0:0:
318,131,72103,2,0,B|342:71|342:71|286:83|234:59,1,165.000006294251,2|8,0:0|0:0,0:0:0:0:
240,120,72877,6,0,B|176:120|176:120|150:158,1,110,6|0,0:0|0:0,0:0:0:0:
236,196,73264,1,8,0:0:0:0:
272,264,73458,2,0,B|336:264|336:264|361:225,1,110,0|2,0:0|0:0,0:0:0:0:
362,114,73845,2,0,L|362:76,3,36.6666666666667,0|0|0|8,0:0|0:0|0:0|0:0,0:0:0:0:
256,172,74232,1,0,0:0:0:0:
136,60,74426,5,10,0:0:0:0:
176,60,74522,1,0,0:0:0:0:
176,96,74619,1,0,0:0:0:0:
136,96,74716,1,0,0:0:0:0:
136,60,74813,1,8,0:0:0:0:
176,60,74909,1,0,0:0:0:0:
176,96,75006,1,0,0:0:0:0:
136,96,75103,1,0,0:0:0:0:
136,60,75200,5,10,0:0:0:0:
176,60,75297,1,0,0:0:0:0:
176,96,75393,1,0,0:0:0:0:
136,96,75490,1,0,0:0:0:0:
156,120,75587,2,0,L|156:156,5,36.6666666666667,10|0|2|0|2|0,0:0|0:0|0:0|0:0|0:0|0:0,0:0:0:0:
248,128,75974,6,0,B|317:163|357:119|413:119|413:119|429:167,1,220,6|8,0:0|0:0,0:0:0:0:
348,224,76555,1,0,0:0:0:0:
264,276,76748,1,2,0:0:0:0:
264,276,76942,2,0,L|228:276,3,36.6666666666667,0|0|0|8,0:0|0:0|0:0|0:0,0:0:0:0:
348,224,77329,1,0,0:0:0:0:
248,128,77523,5,2,0:0:0:0:
344,136,77716,2,0,L|392:124,3,36.6666666666667,0|0|0|8,0:0|0:0|0:0|0:0,0:0:0:0:
248,128,78103,1,0,0:0:0:0:
144,172,78297,1,2,0:0:0:0:
144,193,78394,1,0,0:0:0:0:
144,215,78490,1,0,0:0:0:0:
144,236,78587,1,0,0:0:0:0:
144,256,78684,2,0,L|143:295,4,36.6666666666667,10|0|0|10|0,0:0|0:0|0:0|0:0|0:0,0:0:0:0:
320,200,79071,6,0,P|332:96|236:80,1,220,6|8,0:0|0:0,0:0:0:0:
238,78,79652,1,0,0:0:0:0:
320,200,79845,1,2,0:0:0:0:
272,144,80039,2,0,L|232:176,3,36.6666666666667,0|0|0|8,0:0|0:0|0:0|0:0,0:0:0:0:
320,200,80426,1,0,0:0:0:0:
272,272,80619,5,10,0:0:0:0:
324,272,80715,1,0,0:0:0:0:
334,312,80812,1,0,0:0:0:0:
382,312,80909,1,0,0:0:0:0:
405,267,81006,1,8,0:0:0:0:
373,227,81102,1,0,0:0:0:0:
324,231,81200,1,0,0:0:0:0:
300,271,81296,1,0,0:0:0:0:
276,303,81393,5,10,0:0:0:0:
248,343,81489,1,0,0:0:0:0:
290,370,81586,1,0,0:0:0:0:
322,330,81684,1,0,0:0:0:0:
349,289,81781,2,0,L|349:253,5,36.6666666666667,10|0|2|0|2|0,0:0|0:0|0:0|0:0|0:0|0:0,0:0:0:0:
248,184,82168,5,6,0:0:0:0:
340,96,82361,1,0,0:0:0:0:
248,184,82555,1,8,0:0:0:0:
340,96,82749,1,0,0:0:0:0:
232,100,82942,5,2,0:0:0:0:
352,184,83135,2,0,L|384:204,3,36.6666666666667,0|0|0|8,0:0|0:0|0:0|0:0,0:0:0:0:
232,100,83523,1,0,0:0:0:0:
136,48,83716,5,10,0:0:0:0:
112,84,83812,1,0,0:0:0:0:
160,80,83909,1,0,0:0:0:0:
136,108,84006,1,0,0:0:0:0:
112,136,84103,1,8,0:0:0:0:
160,136,84199,1,0,0:0:0:0:
136,164,84296,1,0,0:0:0:0:
116,196,84393,1,0,0:0:0:0:
160,196,84490,5,10,0:0:0:0:
136,264,84684,2,0,L|136:300,2,36.6666666666667,2|0|2,0:0|0:0|0:0,0:0:0:0:
136,164,84877,1,0,0:0:0:0:
136,164,84974,1,0,0:0:0:0:
136,164,85071,2,0,L|186:194,1,55
252,232,85264,5,6,0:0:0:0:
136,164,85458,1,0,0:0:0:0:
240,116,85651,1,8,0:0:0:0:
136,264,85845,1,0,0:0:0:0:
240,116,86039,1,2,0:0:0:0:
52,107,86232,2,0,L|14:107,3,36.6666666666667,0|0|0|8,0:0|0:0|0:0|0:0,0:0:0:0:
96,240,86619,1,0,0:0:0:0:
48,312,86813,6,0,L|104:312,1,55,10|0,0:0|0:0,0:0:0:0:
96,240,87006,2,0,L|156:240,1,55,0|0,0:0|0:0,0:0:0:0:
172,312,87200,2,0,L|228:312,1,55,8|0,0:0|0:0,0:0:0:0:
220,240,87393,2,0,L|276:240,1,55,0|0,0:0|0:0,0:0:0:0:
296,312,87587,2,0,L|352:312,1,55,10|0,0:0|0:0,0:0:0:0:
344,240,87781,2,0,L|412:240,1,55,0|0,0:0|0:0,0:0:0:0:
265,164,87974,2,0,L|228:164,5,36.6666666666667,10|0|2|0|2|0,0:0|0:0|0:0|0:0|0:0|0:0,0:0:0:0:
322,104,88361,6,0,P|426:164|398:240,1,220,2|8,0:0|0:0,0:0:0:0:
220,240,88942,1,0,0:0:0:0:
322,104,89136,1,2,0:0:0:0:
220,240,89329,2,0,L|190:279,3,36.6666666666667,0|0|0|8,0:0|0:0|0:0|0:0,0:0:0:0:
322,104,89716,1,0,0:0:0:0:
208,124,89910,5,2,0:0:0:0:
128,208,90103,2,0,L|91:208,3,36.6666666666667,0|0|0|8,0:0|0:0|0:0|0:0,0:0:0:0:
208,124,90490,1,0,0:0:0:0:
348,100,90684,2,0,L|348:35,1,55,2|0,0:0|0:0,0:0:0:0:
304,72,90878,2,0,L|304:128,1,55,0|0,0:0|0:0,0:0:0:0:
348,136,91071,2,0,L|348:176,4,36.6666666666667,10|0|0|2|0,0:0|0:0|0:0|0:0|0:0,0:0:0:0:
232,200,91458,6,0,B|176:200|176:200|144:244,1,110,6|0,0:0|0:0,0:0:0:0:
224,276,91845,1,8,0:0:0:0:
212,352,92039,2,0,B|268:352|268:352|300:308,1,110,0|2,0:0|0:0,0:0:0:0:
301,185,92426,2,0,L|301:146,3,36.6666666666667,0|0|0|8,0:0|0:0|0:0|0:0,0:0:0:0:
224,276,92813,1,0,0:0:0:0:
80,240,93007,6,0,L|80:295,1,55,10|0,0:0|0:0,0:0:0:0:
144,243,93200,2,0,L|144:188,1,55
204,240,93394,2,0,L|204:295,1,55,8|0,0:0|0:0,0:0:0:0:
258,243,93587,2,0,L|258:179,1,55,0|0,0:0|0:0,0:0:0:0:
316,240,93781,2,0,L|316:295,1,55,10|0,0:0|0:0,0:0:0:0:
372,244,93974,2,0,L|372:189,1,55,0|0,0:0|0:0,0:0:0:0:
428,259,94168,2,0,L|428:296,5,36.6666666666667,10|0|2|0|2|0,0:0|0:0|0:0|0:0|0:0|0:0,0:0:0:0:
412,132,94555,5,6,0:0:0:0:
264,144,94749,1,0,0:0:0:0:
264,144,94942,1,8,0:0:0:0:
412,132,95135,1,0,0:0:0:0:
344,236,95329,5,2,0:0:0:0:
333,61,95522,2,0,L|331:22,3,36.6666666666667,0|0|0|8,0:0|0:0|0:0|0:0,0:0:0:0:
344,236,95910,1,0,0:0:0:0:
172,184,96103,5,10,0:0:0:0:
208,184,96199,1,0,0:0:0:0:
212,144,96296,1,0,0:0:0:0:
172,144,96393,1,0,0:0:0:0:
172,184,96490,1,8,0:0:0:0:
208,184,96587,1,0,0:0:0:0:
188,216,96684,2,0,L|188:264,3,36.6666666666667,0|0|0|10,0:0|0:0|0:0|0:0,0:0:0:0:
264,220,97071,6,0,L|264:270,2,36.6666666666667
188,252,97264,2,0,L|188:178,1,55,8|0,0:0|0:0,0:0:0:0:
263,164,97458,2,0,L|328:164,1,55
300,128,97651,6,0,B|330:86|330:86|204:86|204:86|236:128,1,220,6|8,0:0|0:0,0:0:0:0:
268,224,98232,1,0,0:0:0:0:
268,224,98426,1,2,0:0:0:0:
180,276,98619,1,0,0:0:0:0:
180,276,98813,1,8,0:0:0:0:
224,152,99007,1,0,0:0:0:0:
224,152,99200,6,0,B|176:120|176:120|176:56,2,110,2|0|8,0:0|0:0|0:0,0:0:0:0:
316,216,99781,1,0,0:0:0:0:
380,256,99974,2,0,B|351:305|351:305|263:289,1,146.666666666667,2|0,0:0|0:0,0:0:0:0:
144,287,100361,6,0,L|144:231,3,55,2|0|8|0,0:0|0:0|0:0|0:0,0:0:0:0:
100,232,100748,1,6,0:0:0:0:
128,200,100844,1,0,0:0:0:0:
165,218,100941,1,8,0:0:0:0:
193,186,101039,1,0,0:0:0:0:
195,146,101135,1,2,0:0:0:0:
149,146,101232,1,0,0:0:0:0:
149,186,101328,5,8,0:0:0:0:
193,186,101425,1,0,0:0:0:0:
216,232,101522,2,0,L|216:296,1,55,2|0,0:1|0:0,0:0:0:0:
256,312,101716,2,0,L|256:248,1,55,8|0,0:0|0:0,0:0:0:0:
296,232,101910,2,0,L|296:288,1,55,2|0,0:1|0:0,0:0:0:0:
340,312,102103,2,0,L|340:252,1,55,8|0,0:0|0:0,0:0:0:0:
376,236,102297,5,2,0:0:0:0:
376,204,102394,1,0,0:0:0:0:
376,176,102490,2,0,L|376:120,1,55,8|0,0:0|0:0,0:0:0:0:
241,110,102684,2,0,L|241:72,5,36.6666666666667,2|0|0|8|0|0,0:0|0:0|0:0|0:0|0:0|0:0,0:0:0:0:
376,176,103071,6,0,B|339:220|339:220|283:174|283:174|238:219|238:219|184:168|184:168|120:230,1,330,2|8,0:0|0:0,0:0:0:0:
181,275,103845,6,0,B|217:311|217:311|277:311,1,110,6|0,0:0|0:0,0:0:0:0:
374,277,104232,2,0,B|314:277|314:277|274:313,1,110,8|0,0:0|0:0,0:0:0:0:
185,168,104619,2,0,B|185:112|185:112|225:64,1,110,2|0,0:0|0:0,0:0:0:0:
377,135,105007,2,0,B|323:135|323:135|277:180,1,110,8|0,0:0|0:0,0:0:0:0:
184,216,105297,1,0,0:0:0:0:
184,216,105393,6,0,B|184:280|184:280|240:312,1,110,6|0,0:0|0:0,0:0:0:0:
280,224,105781,2,0,B|223:255|223:255|223:314,1,110,8|0,0:0|0:0,0:0:0:0:
260,304,106168,2,0,L|320:304,4,55,2|0|0|0|8,0:0|0:0|0:0|0:0|0:0,0:0:0:0:
217,298,106651,1,0,0:0:0:0:
184,280,106749,1,0,0:0:0:0:
152,260,106845,1,0,0:0:0:0:
76,352,106942,6,0,L|76:296,1,55,6|0,0:0|0:0,0:0:0:0:
120,304,107135,2,0,L|120:248,1,55,8|0,0:0|0:0,0:0:0:0:
76,256,107329,2,0,L|76:200,1,55,2|0,0:0|0:0,0:0:0:0:
120,208,107522,2,0,L|120:152,1,55,8|0,0:0|0:0,0:0:0:0:
68,116,107716,5,2,0:0:0:0:
120,116,107812,1,0,0:0:0:0:
120,68,107909,1,8,0:0:0:0:
72,68,108006,1,0,0:0:0:0:
69,117,108103,2,0,L|70:172,5,36.6666666666667,2|0|0|8|0|0,0:0|0:0|0:0|0:0|0:0|0:0,0:0:0:0:
116,267,108490,6,0,L|179:267,1,55,2|0,0:0|0:0,0:0:0:0:
328,333,108684,1,0,0:0:0:0:
328,333,108781,1,0,0:0:0:0:
328,333,108877,2,0,L|356:270,1,55,8|0,0:0|0:0,0:0:0:0:
264,124,109071,2,0,B|300:84|300:84|356:84,1,110,12|2,0:0|0:0,0:0:0:0:
256,229,109458,1,8,0:0:0:0:
115,191,109651,6,0,L|77:191,3,36.6666666666667,8|0|0|0,0:0|0:0|0:0|0:0,0:0:0:0:
264,124,110039,5,6,0:0:0:0:
176,84,122426,5,2,0:0:0:0:
316,84,122619,2,0,L|352:84,2,27.5,2|0|2,0:0|0:0|0:0,0:0:0:0:
176,84,123006,2,0,L|124:84,2,27.5,2|0|2,0:0|0:0|0:0,0:0:0:0:
316,84,123393,2,0,B|316:138|316:138|301:191,1,110,2|2,0:0|0:0,0:0:0:0:
236,264,123974,5,2,0:0:0:0:
164,196,124168,1,2,0:0:0:0:
164,196,124265,1,0,0:0:0:0:
164,196,124362,1,2,0:0:0:0:
236,264,124555,2,0,L|236:296,2,27.5,2|0|2,0:0|0:0|0:0,0:0:0:0:
300,191,124942,1,2,0:0:0:0:
300,191,125039,1,0,0:0:0:0:
300,191,125135,1,2,0:0:0:0:
236,264,125329,1,2,0:0:0:0:
164,196,125522,6,0,B|164:160|164:160|192:128,1,55,2|2,0:0|0:0,0:0:0:0:
180,152,125813,1,0,0:0:0:0:
180,152,125910,1,2,0:0:0:0:
292,156,126103,2,0,L|332:156,2,27.5,2|0|2,0:0|0:0|0:0,0:0:0:0:
180,152,126490,2,0,B|132:124|148:88|96:60,1,110,2|2,0:0|0:0,0:0:0:0:
64,144,127071,5,2,0:0:0:0:
72,264,127264,1,2,0:0:0:0:
72,264,127361,1,0,0:0:0:0:
72,264,127458,1,2,0:0:0:0:
172,200,127651,1,2,0:0:0:0:
172,200,127748,1,0,0:0:0:0:
172,200,127845,1,2,0:0:0:0:
304,228,128039,1,2,0:0:0:0:
172,200,128232,1,2,0:0:0:0:
304,228,128426,1,2,0:0:0:0:
172,200,128619,6,0,L|171:138,1,55,2|2,0:0|0:0,0:0:0:0:
172,146,128910,1,0,0:0:0:0:
172,146,129006,1,2,0:0:0:0:
276,140,129200,2,0,L|276:100,2,27.5,2|0|2,0:0|0:0|0:0,0:0:0:0:
276,224,129587,2,0,B|317:252|317:252|377:252,1,110,2|2,0:0|0:0,0:0:0:0:
352,180,130168,5,2,0:0:0:0:
192,180,130361,2,0,L|148:180,2,27.5,2|0|2,0:0|0:0|0:0,0:0:0:0:
351,180,130748,2,0,L|379:180,2,27.5,2|0|2,0:0|0:0|0:0,0:0:0:0:
192,180,131135,1,2,0:0:0:0:
351,180,131329,1,2,0:0:0:0:
192,180,131522,1,2,0:0:0:0:
351,180,131716,6,0,L|351:228,2,36.6666666666667,8|0|0,0:2|0:0|0:0,0:0:0:0:
192,180,132103,2,0,L|192:132,2,36.6666666666667,8|0|0,0:0|0:0|0:0,0:0:0:0:
351,180,132490,2,0,L|400:180,2,36.6666666666667,8|0|0,0:2|0:0|0:0,0:0:0:0:
192,180,132877,2,0,L|144:180,2,36.6666666666667,8|0|0,0:0|0:0|0:0,0:0:0:0:
351,180,133264,6,0,B|307:200|307:200|271:200,1,73.3333333333333,8|0,0:2|0:0,0:0:0:0:
192,180,133651,2,0,B|157:208|157:208|109:208,1,73.3333333333333,8|0,0:2|0:0,0:0:0:0:
64,208,134039,6,0,L|8:208,2,36.6666666666667,8|8|8,0:2|0:2|0:2,0:2:0:0:
192,180,134426,1,8,0:2:0:0:
372,308,134813,6,0,B|372:244|372:244|404:212,1,110.000004196167,12|0,0:0|0:0,0:0:0:0:
300,268,135200,2,0,B|300:212|300:212|348:164,1,110.000004196167,8|0,0:0|0:0,0:0:0:0:
232,236,135587,2,0,B|232:172|232:172|264:140,1,110.000004196167,8|0,0:0|0:0,0:0:0:0:
160,196,135974,2,0,B|160:140|160:140|208:92,1,110.000004196167,8|0,0:0|0:0,0:0:0:0:
232,236,136361,2,0,B|232:172|232:172|264:140,1,110.000004196167,8|0,0:0|0:0,0:0:0:0:
300,268,136748,2,0,B|300:212|300:212|348:164,1,110.000004196167,8|0,0:0|0:0,0:0:0:0:
372,308,137135,2,0,B|372:244|372:244|404:212,1,110.000004196167,8|0,0:0|0:0,0:0:0:0:
300,216,137522,2,0,L|340:172,2,55.0000020980836,8|0|0,0:0|0:0|0:0,0:0:0:0:
100,156,137910,6,0,B|144:192|144:192|144:248,1,110.000004196167,12|0,0:0|0:0,0:0:0:0:
212,216,138297,2,0,B|212:156|212:156|168:124,1,110.000004196167,8|0,0:0|0:0,0:0:0:0:
236,84,138684,2,0,B|280:120|280:120|280:176,1,110.000004196167,12|0,0:0|0:0,0:0:0:0:
348,144,139071,2,0,B|348:84|348:84|304:52,1,110.000004196167,8|0,0:0|0:0,0:0:0:0:
236,84,139458,2,0,B|280:120|280:120|280:176,1,110.000004196167,12|0,0:0|0:0,0:0:0:0:
212,216,139845,2,0,B|212:156|212:156|168:124,1,110.000004196167,8|0,0:0|0:0,0:0:0:0:
100,156,140232,6,0,B|144:192|144:192|144:248,1,110.000004196167,12|0,0:0|0:0,0:0:0:0:
344,196,140619,2,0,L|344:136,2,55.0000020980836,8|0|8,0:0|0:0|0:0,0:0:0:0:
384,328,141006,6,0,B|328:328|296:312|296:312|268:328,1,110.000004196167,12|0,0:0|0:0,0:0:0:0:
208,324,141393,2,0,B|152:324|120:308|120:308|92:324,1,110.000004196167,8|0,0:0|0:0,0:0:0:0:
172,252,141781,6,0,B|228:252|260:236|260:236|288:252,1,110.000004196167,12|0,0:0|0:0,0:0:0:0:
348,248,142168,2,0,B|404:248|436:232|436:232|464:248,1,110.000004196167,8|0,0:0|0:0,0:0:0:0:
384,148,142555,6,0,B|328:148|296:132|296:132|268:148,1,110.000004196167,12|0,0:0|0:0,0:0:0:0:
208,144,142942,2,0,B|152:144|120:128|120:128|92:144,1,110.000004196167,8|0,0:0|0:0,0:0:0:0:
172,252,143329,6,0,B|228:252|260:236|260:236|288:252,1,110.000004196167,12|0,0:0|0:0,0:0:0:0:
348,248,143716,2,0,L|408:244,2,55.0000020980836,8|0|8,0:0|0:0|0:0,0:0:0:0:
460,72,144103,6,0,B|460:152|460:152|440:188,1,110.000004196167,12|0,0:0|0:0,0:0:0:0:
376,236,144490,2,0,B|376:156|376:156|400:112,1,110.000004196167,8|0,0:0|0:0,0:0:0:0:
304,72,144877,6,0,B|304:152|304:152|284:188,1,110.000004196167,12|0,0:0|0:0,0:0:0:0:
220,236,145264,2,0,B|220:156|220:156|244:112,1,110.000004196167,8|0,0:0|0:0,0:0:0:0:
304,128,145651,2,0,L|304:60,3,55.0000020980836,12|0|0|8,0:0|0:0|0:0|0:0,0:0:0:0:
188,72,146297,1,12,0:0:0:0:
304,73,146555,1,12,0:0:0:0:
188,72,146813,1,12,0:0:0:0:
304,73,147071,1,12,0:0:0:0:
188,136,147200,5,14,0:0:0:0:
236,136,147329,1,2,0:0:0:0:
212,180,147458,1,2,0:0:0:0:
168,180,147587,2,0,L|112:180,2,55.0000020980836,2|2|2,0:0|0:0|0:0,0:0:0:0:
324,176,147974,5,10,0:3:0:0:
368,176,148103,1,2,0:0:0:0:
348,136,148232,1,2,0:0:0:0:
388,136,148361,2,0,L|444:136,2,55.0000020980836,2|2|2,0:0|0:0|0:0,0:0:0:0:
304,244,148748,5,10,0:0:0:0:
256,244,148877,1,2,0:0:0:0:
280,284,149006,1,2,0:0:0:0:
236,284,149135,2,0,L|176:284,2,55.0000020980836,2|2|2,0:0|0:0|0:0,0:0:0:0:
256,140,149523,5,10,0:3:0:0:
300,140,149651,1,2,0:0:0:0:
276,176,149781,1,2,0:0:0:0:
312,176,149910,2,0,L|368:176,2,55.0000020980836,2|2|2,0:0|0:0|0:0,0:0:0:0:
161,125,150297,5,10,0:0:0:0:
128,92,150426,1,2,0:0:0:0:
170,83,150555,1,2,0:0:0:0:
144,58,150684,2,0,L|104:18,2,55.0000020980836,2|2|2,0:0|0:0|0:0,0:0:0:0:
356,240,151071,5,10,0:3:0:0:
384,268,151200,1,2,0:0:0:0:
336,276,151329,1,2,0:0:0:0:
367,307,151458,2,0,L|406:346,2,55.0000020980836,2|2|2,0:0|0:0|0:0,0:0:0:0:
236,120,151845,6,0,L|236:60,2,55.0000020980836,10|2|2,0:0|0:0|0:0,0:0:0:0:
216,152,152232,1,2,0:0:0:0:
256,152,152361,1,2,0:0:0:0:
236,176,152490,1,2,0:0:0:0:
236,208,152619,2,0,L|236:264,2,55.0000020980836,10|2|2,0:3|0:0|0:0,0:0:0:0:
304,260,153006,2,0,L|304:204,2,55.0000020980836,2|2|2,0:0|0:0|0:0,0:0:0:0:
156,272,153393,6,0,L|96:272,2,55.0000020980836,14|2|2,0:0|0:0|0:0,0:0:0:0:
84,196,153781,1,2,0:0:0:0:
84,196,153910,1,2,0:0:0:0:
84,196,154039,1,2,0:0:0:0:
216,204,154168,1,10,0:3:0:0:
216,204,154297,1,2,0:0:0:0:
216,204,154426,1,2,0:0:0:0:
148,96,154555,1,2,0:0:0:0:
148,96,154684,1,2,0:0:0:0:
148,96,154813,1,2,0:0:0:0:
316,84,154942,6,0,L|380:84,2,55.0000020980836,14|2|2,0:0|0:0|0:0,0:0:0:0:
248,152,155329,1,2,0:0:0:0:
248,152,155458,1,2,0:0:0:0:
248,152,155587,1,2,0:0:0:0:
156,208,155716,2,0,L|156:264,2,55.0000020980836,10|2|2,0:3|0:0|0:0,0:0:0:0:
248,276,156103,1,2,0:0:0:0:
248,276,156232,1,2,0:0:0:0:
248,276,156361,1,10,0:0:0:0:
156,136,156490,6,0,L|156:80,2,55.0000020980836,10|2|2,0:0|0:0|0:0,0:0:0:0:
248,248,156878,2,8,L|248:276,4,27.5000010490418,10|8|10|8|10,0:0|0:0|0:0|0:0|0:0,0:0:0:0:
252,124,157264,5,2,0:0:0:0:
272,80,157393,1,2,0:0:0:0:
292,124,157522,1,2,0:0:0:0:
272,168,157651,2,0,L|272:200,4,27.5000010490418,10|0|10|0|10,0:2|0:2|0:2|0:2|0:2,0:2:0:0:
160,240,158039,6,0,L|96:240,2,55.0000020980836,0|0|0,0:0|0:0|0:0,0:0:0:0:
368,240,158426,2,0,L|368:185,2,55.0000020980836,0|0|0,0:0|0:0|0:0,0:0:0:0:
256,288,158813,6,0,L|256:344,2,55.0000020980836,0|0|0,0:0|0:0|0:0,0:0:0:0:
240,172,159200,1,2,0:0:0:0:
296,172,159329,1,2,0:0:0:0:
296,124,159458,1,2,0:0:0:0:
240,124,159587,5,6,0:0:0:0:
164,224,159974,5,4,0:0:0:0:
164,96,160361,1,8,0:0:0:0:
380,96,160748,1,8,0:0:0:0:
380,224,161135,1,4,0:0:0:0:
320,144,162684,6,0,L|384:144,2,55.0000020980836,10|0|8,0:2|0:0|0:0,0:0:0:0:
160,144,163071,2,0,B|160:68|160:68|192:36,1,110.000004196167,10|8,0:2|0:0,0:0:0:0:
256,72,163458,2,0,B|232:100|232:100|232:184,1,110.000004196167,10|8,0:2|0:0,0:0:0:0:
312,128,163845,1,10,0:2:0:0:
236,264,164103,1,8,0:0:0:0:
236,264,164232,1,14,0:2:0:0:
192,324,165781,5,10,0:2:0:0:
192,324,165910,1,8,0:0:0:0:
192,324,166039,1,8,0:0:0:0:
116,308,166168,2,8,B|136:248|136:248|184:248,1,110.000004196167,10|8,0:2|0:0,0:0:0:0:
268,204,166555,2,8,B|292:248|292:248|264:300,1,110.000004196167,10|0,0:2|0:0,0:0:0:0:
184,176,166942,1,10,0:2:0:0:
184,176,167071,1,8,0:0:0:0:
256,92,167329,5,6,0:2:0:0:
408,88,167587,2,0,L|408:152,1,55.0000020980836,0|2,0:0|0:2,0:0:0:0:
332,212,167974,2,0,L|332:152,1,55.0000020980836,0|2,0:0|0:2,0:0:0:0:
256,92,168361,2,0,L|256:148,1,55.0000020980836,0|2,0:0|0:2,0:0:0:0:
332,212,168749,1,0,0:0:0:0:
332,296,168877,6,0,L|332:352,2,55.0000020980836,2|0|0,0:0|0:0|0:0,0:0:0:0:
332,157,169264,2,0,L|332:101,2,55.0000020980836,2|0|0,0:2|0:0|0:0,0:0:0:0:
332,296,169652,2,0,L|292:344,2,55.0000020980836,2|0|0,0:2|0:0|0:0,0:0:0:0:
332,157,170039,2,0,L|360:120,4,27.5000010490418,2|0|0|0|0,0:2|0:0|0:0|0:0|0:0,0:0:0:0:
136,192,170426,6,0,L|76:192,2,55.0000020980836,2|0|0,0:2|0:0|0:0,0:0:0:0:
136,116,170813,2,0,L|136:60,2,55.0000020980836,2|0|0,0:2|0:0|0:0,0:0:0:0:
220,220,171200,1,2,0:2:0:0:
220,252,171329,1,0,0:0:0:0:
220,280,171458,1,0,0:0:0:0:
224,112,171587,1,2,0:2:0:0:
224,84,171716,1,0,0:0:0:0:
224,60,171845,1,0,0:0:0:0:
256,192,171974,12,0,173329,0:0:0:0:
376,80,173522,6,0,B|376:152|376:152|348:200,1,128.333334557215,14|0,0:0|0:0,0:0:0:0:
296,132,173910,1,8,0:0:0:0:
160,204,174168,2,0,B|160:248|160:248|184:276,2,64.1666672786077,0|10|0,0:0|0:0|0:0,0:0:0:0:
244,280,174555,2,0,B|244:240|244:240|220:208,2,64.1666672786077,0|8|0,0:0|0:0|0:0,0:0:0:0:
228,120,174942,1,0,0:0:0:0:
144,68,175071,5,10,0:0:0:0:
168,112,175200,1,0,0:0:0:0:
116,112,175329,1,0,0:0:0:0:
144,144,175458,2,0,L|144:212,2,64.1666672786077,8|0|0,0:0|0:0|0:0,0:0:0:0:
236,64,175845,5,10,0:0:0:0:
284,64,175974,1,0,0:0:0:0:
248,108,176103,1,0,0:0:0:0:
292,108,176232,2,0,L|292:140,5,32.0833336393039,8|0|8|0|8|0,0:0|0:0|0:0|0:0|0:0|0:0,0:0:0:0:
352,180,176619,6,0,B|292:108|292:108|220:184,1,192.500001835823,14|8,0:0|0:0,0:0:0:0:
288,232,177265,1,0,0:0:0:0:
288,232,177393,2,0,L|288:301,2,64.1666672786077,10|0|0,0:0|0:0|0:0,0:0:0:0:
186,258,177781,1,8,0:0:0:0:
288,232,178039,1,0,0:0:0:0:
200,128,178168,6,0,L|200:64,2,64.1666672786077,10|0|0,0:0|0:0|0:0,0:0:0:0:
256,192,178555,1,8,0:0:0:0:
316,252,178813,2,0,L|316:316,2,64.1666672786077,0|10|0,0:0|0:0|0:0,0:0:0:0:
256,192,179200,1,0,0:0:0:0:
200,128,179329,2,0,L|200:80,4,32.0833336393039,8|0|8|0|8,0:0|0:0|0:0|0:0|0:0,0:0:0:0:
128,212,179716,5,10,0:0:0:0:
136,308,179974,1,0,0:0:0:0:
136,308,180103,1,8,0:0:0:0:
240,308,180361,2,0,L|308:308,2,64.1666672786077,0|10|0,0:0|0:0|0:0,0:0:0:0:
268,216,180749,1,0,0:0:0:0:
268,216,180878,1,8,0:0:0:0:
216,88,181136,1,0,0:0:0:0:
144,48,181264,6,0,L|144:128,2,64.1666672786077,10|0|0,0:0|0:0|0:0,0:0:0:0:
216,88,181652,2,0,L|216:160,2,64.1666672786077,8|0|0,0:0|0:0|0:0,0:0:0:0:
144,184,182039,2,0,L|144:248,2,64.1666672786077,10|0|0,0:0|0:0|0:0,0:0:0:0:
216,228,182426,2,0,L|216:261,5,32.0833336393039,8|0|8|0|8|0,0:0|0:0|0:0|0:0|0:0|0:0,0:0:0:0:
104,308,182813,6,0,B|124:364|124:364|260:364,1,192.500001835823,10|8,0:0|0:0,0:0:0:0:
388,268,183458,1,0,0:0:0:0:
388,268,183587,2,0,B|388:227|388:227|369:202,2,64.1666672786077,10|0|0,0:0|0:0|0:0,0:0:0:0:
254,225,183974,1,8,0:0:0:0:
272,112,184232,1,0,0:0:0:0:
240,64,184361,5,10,0:0:0:0:
296,64,184490,1,0,0:0:0:0:
272,112,184619,1,0,0:0:0:0:
320,112,184748,2,0,L|384:112,2,64.1666672786077,8|0|0,0:0|0:0|0:0,0:0:0:0:
240,200,185135,5,10,0:0:0:0:
192,200,185265,1,0,0:0:0:0:
220,240,185394,1,0,0:0:0:0:
172,240,185522,2,0,L|100:240,2,64.1666672786077,8|0|0,0:0|0:0|0:0,0:0:0:0:
107,240,185910,6,0,B|70:182|125:140|125:140|125:58,1,192.500001835823,10|8,0:0|0:0,0:0:0:0:
200,208,186555,2,0,L|200:280,2,64.1666672786077,0|10|0,0:0|0:0|0:0,0:0:0:0:
200,208,186942,2,0,L|264:208,1,64.1666672786077,0|8,0:0|0:0,0:0:0:0:
268,276,187329,1,0,0:0:0:0:
200,272,187458,6,0,L|200:207,2,64.1666672786077,10|0|0,0:0|0:0|0:0,0:0:0:0:
200,208,187845,2,0,L|136:208,2,64.1666672786077,8|0|0,0:0|0:0|0:0,0:0:0:0:
200,208,188232,2,0,L|264:208,2,64.1666672786077,10|0|0,0:0|0:0|0:0,0:0:0:0:
200,208,188619,2,0,L|200:164,5,32.0833336393039,8|0|8|0|8|0,0:0|0:0|0:0|0:0|0:0|0:0,0:0:0:0:
344,144,189006,6,0,B|344:236|344:236|280:320,1,192.500001835823,10|8,0:0|0:0,0:0:0:0:
116,304,189652,1,0,0:0:0:0:
116,304,189781,2,0,L|117:232,2,64.1666672786077,10|0|0,0:0|0:0|0:0,0:0:0:0:
117,153,190168,1,8,0:0:0:0:
268,120,190426,5,0,0:0:0:0:
268,120,190555,2,0,L|268:192,2,64.1666672786077,10|0|0,0:0|0:0|0:0,0:0:0:0:
204,232,190942,2,0,B|236:264|236:264|320:264,1,128.333334557215,8|0,0:0|0:0,0:0:0:0:
328,328,191329,2,0,L|392:328,2,64.1666672786077,10|0|0,0:0|0:0|0:0,0:0:0:0:
204,232,191716,2,0,L|204:196,4,32.0833336393039,8|0|8|0|8,0:0|0:0|0:0|0:0|0:0,0:0:0:0:
388,88,192103,6,0,B|388:156|388:156|356:216,1,128.333334557215,10|0,0:0|0:0,0:0:0:0:
440,256,192490,2,0,B|372:280|372:280|308:280,1,128.333334557215,8|0,0:0|0:0,0:0:0:0:
177,220,192877,2,0,L|177:286,2,64.1666672786077,10|0|0,0:0|0:0|0:0,0:0:0:0:
80,136,193264,2,0,B|140:96|140:96|212:96,1,128.333334557215,8|0,0:0|0:0,0:0:0:0:
344,100,193652,6,0,L|408:100,2,64.1666672786077,10|0|0,0:0|0:0|0:0,0:0:0:0:
344,100,194039,2,0,L|380:160,2,64.1666672786077,8|0|0,0:0|0:0|0:0,0:0:0:0:
344,100,194426,2,0,L|313:156,2,64.1666672786077,10|0|0,0:0|0:0|0:0,0:0:0:0:
344,100,194813,2,0,L|300:100,5,32.0833336393039,8|0|8|0|8|0,0:0|0:0|0:0|0:0|0:0|0:0,0:0:0:0:
348,164,195200,6,0,B|296:260|296:260|212:260,1,192.500001835823,10|8,0:0|0:0,0:0:0:0:
244,185,195845,1,0,0:0:0:0:
244,185,195974,2,0,L|244:115,2,64.1666672786077,10|0|0,0:0|0:0|0:0,0:0:0:0:
320,232,196361,2,0,B|356:168|356:168|356:104,1,128.333334557215,8|8,0:0|0:0,0:0:0:0:
232,156,196748,5,10,0:0:0:0:
192,156,196878,1,0,0:0:0:0:
216,192,197007,1,0,0:0:0:0:
176,192,197135,2,0,L|104:192,2,64.1666672786077,8|0|0,0:0|0:0|0:0,0:0:0:0:
284,256,197523,5,10,0:0:0:0:
328,256,197652,1,0,0:0:0:0:
308,288,197781,1,0,0:0:0:0:
348,288,197910,2,0,L|412:288,2,64.1666672786077,8|0|0,0:0|0:0|0:0,0:0:0:0:
240,172,198297,6,0,L|240:44,1,128.333334557215,10|0,0:0|0:0,0:0:0:0:
164,44,198684,2,0,L|164:172,1,128.333334557215,8|0,0:0|0:0,0:0:0:0:
88,172,199071,2,0,L|88:44,1,128.333334557215,10|0,0:0|0:0,0:0:0:0:
16,44,199458,2,0,L|16:173,1,128.333334557215,8|0,0:0|0:0,0:0:0:0:
36,260,199845,6,0,L|140:340,1,128.333334557215,10|0,0:0|0:0,0:0:0:0:
220,300,200232,2,0,L|112:220,1,128.333334557215,8|0,0:0|0:0,0:0:0:0:
177,164,200619,2,0,L|220:196,4,32.0833336393039,10|0|8|0|8,0:0|0:0|0:0|0:0|0:0,0:0:0:0:
256,100,201007,2,0,L|256:28,2,64.1666672786077,8|0|0,0:0|0:0|0:0,0:0:0:0:
256,100,201393,6,0,L|256:164,2,64.1666672786077,10|2|2,0:0|0:0|0:0,0:0:0:0:
296,104,201781,1,10,0:0:0:0:
256,100,201910,1,2,0:0:0:0:
224,104,202039,1,2,0:0:0:0:
256,164,202168,6,0,L|256:228,2,64.1666672786077,10|2|2,0:0|0:0|0:0,0:0:0:0:
296,168,202555,1,10,0:0:0:0:
256,164,202684,1,2,0:0:0:0:
224,168,202813,1,2,0:0:0:0:
256,228,202942,6,0,L|256:296,2,64.1666672786077,10|2|2,0:0|0:0|0:0,0:0:0:0:
296,232,203329,1,10,0:0:0:0:
256,228,203458,1,2,0:0:0:0:
224,232,203587,1,2,0:0:0:0:
395,298,203716,2,0,B|284:338|256:383|256:383|226:338|128:298,1,320.833336393039,10|0,0:0|0:0,0:0:0:0:
46,227,204490,5,10,0:0:0:0:
124,148,204749,1,2,0:0:0:0:
124,148,204878,1,10,0:0:0:0:
224,196,205135,2,0,L|224:252,1,55.0000020980836,2|10,0:0|0:0,0:0:0:0:
124,276,205523,1,2,0:0:0:0:
124,276,205652,1,10,0:0:0:0:
124,148,205910,2,0,L|60:148,1,55.0000020980836,2|10,0:0|0:0,0:0:0:0:
128,280,206297,5,2,0:0:0:0:
128,280,206426,1,10,0:0:0:0:
228,200,206684,1,2,0:0:0:0:
228,200,206813,2,0,L|292:201,2,55.0000020980836,10|2|2,0:0|0:0|0:0,0:0:0:0:
256,296,207200,5,10,0:0:0:0:
212,296,207329,1,2,0:0:0:0:
240,264,207458,1,2,0:0:0:0:
200,264,207587,1,10,0:0:0:0:
212,232,207716,1,10,0:0:0:0:
176,232,207845,1,10,0:0:0:0:
196,200,207974,2,8,L|196:168,4,27.5000010490418,10|8|10|8|10,0:0|0:0|0:0|0:0|0:0,0:0:0:0:
296,112,208361,5,10,0:0:0:0:
328,72,208490,1,10,0:0:0:0:
276,72,208619,1,10,0:0:0:0:
256,112,208748,2,8,L|212:112,4,27.5000010490418,10|8|10|8|10,0:0|0:0|0:0|0:0|0:0,0:0:0:0:
112,132,209135,5,10,0:0:0:0:
268,136,209393,1,10,0:0:0:0:
268,136,209522,1,10,0:0:0:0:
348,256,209781,2,8,B|304:280|304:280|244:280,1,110.000004196167,2|2,0:0|0:0,0:0:0:0:
188,203,210168,2,8,L|188:176,4,27.5000010490418,2|8|10|8|2,0:0|0:0|0:0|0:0|0:0,0:0:0:0:
112,132,210555,1,10,0:0:0:0:
112,132,210684,1,14,0:0:0:0:
224,92,223071,6,0,B|224:136|224:136|252:176,1,73.3333333333333,0|2,0:0|0:0,0:0:0:0:
336,92,223458,2,0,B|336:136|336:136|308:176,1,73.3333333333333,0|2,0:0|0:0,0:0:0:0:
224,232,223845,2,0,B|224:276|224:276|252:316,1,73.3333333333333,0|2,0:0|0:0,0:0:0:0:
336,232,224232,2,0,B|336:276|336:276|308:316,1,73.3333333333333,0|2,0:0|0:0,0:0:0:0:
240,300,224619,5,0,0:0:0:0:
240,160,224878,1,2,0:0:0:0:
240,160,225007,1,0,0:0:0:0:
340,96,225265,1,2,0:0:0:0:
340,96,225394,1,0,0:0:0:0:
340,236,225652,1,2,0:0:0:0:
340,236,225781,1,0,0:0:0:0:
296,68,226039,5,2,0:0:0:0:
296,68,226168,2,0,B|264:44|264:44|216:44,1,73.3333333333333,0|2,0:0|0:0,0:0:0:0:
128,88,226555,2,0,B|104:112|104:112|104:156,1,73.3333333333333,0|2,0:0|0:0,0:0:0:0:
160,236,226942,1,0,0:0:0:0:
96,320,227200,1,2,0:0:0:0:
96,320,227329,6,0,B|132:344|132:344|176:344,1,73.3333333333333,0|2,0:0|0:0,0:0:0:0:
272,288,227716,1,0,0:0:0:0:
420,280,227974,1,2,0:0:0:0:
420,280,228103,6,0,B|420:253|420:253|396:213,1,73.3333333333333,0|2,0:0|0:0,0:0:0:0:
396,213,228490,2,0,B|396:179|396:179|372:147,1,73.3333333333333,0|2,0:0|0:0,0:0:0:0:
372,147,228877,6,2,L|372:111,2,36.6666666666667,2|2|2,0:0|0:0|0:0,0:0:0:0:
396,213,229264,2,0,B|364:249|364:249|364:281,1,73.3333333333333,0|2,0:0|0:0,0:0:0:0:
396,213,229652,2,0,B|396:164|396:164|416:144,1,73.3333333333333,0|2,0:0|0:0,0:0:0:0:
413,146,230039,2,0,B|412:96|412:96|388:76,1,73.3333333333333,0|2,0:0|0:0,0:0:0:0:
394,81,230426,2,0,B|354:81|354:81|324:108,1,73.3333333333333,0|2,0:0|0:0,0:0:0:0:
280,172,230813,5,0,0:0:0:0:
168,172,231071,2,0,L|118:172,1,36.6666666666667,2|0,0:0|0:0,0:0:0:0:
280,172,231458,1,2,0:0:0:0:
284,176,231587,1,0,0:0:0:0:
168,172,231845,2,0,L|168:212,1,36.6666666666667,2|0,0:0|0:0,0:0:0:0:
92,260,232232,1,2,0:0:0:0:
92,260,232361,1,6,0:0:0:0:
256,192,233135,5,6,0:0:0:0:
172,284,233910,5,0,0:0:0:0:
136,176,234103,1,0,0:0:0:0:
136,176,234200,1,0,0:0:0:0:
136,176,234297,1,0,0:0:0:0:
248,176,234426,1,0,0:0:0:0:
368,176,234684,2,4,L|368:204,1,27.5,4|4,0:0|0:0,0:0:0:0:
248,176,234877,2,0,L|248:216,4,27.5,4|8|8|8|8,0:0|0:0|0:0|0:0|0:0,0:0:0:0:
368,176,235458,5,10,0:2:0:0:
296,260,235652,2,0,B|260:292|260:292|208:292,1,82.5000031471254,0|8,0:0|0:0,0:0:0:0:
136,176,236039,1,0,0:0:0:0:
136,176,236232,2,0,B|135:132|135:132|156:96,1,82.5000031471254,10|0,0:2|0:0,0:0:0:0:
156,304,236619,2,0,B|192:328|192:328|236:328,1,82.5000031471254,8|0,0:0|0:0,0:0:0:0:
336,268,237006,5,10,0:2:0:0:
336,268,237200,1,0,0:0:0:0:
192,216,237393,1,8,0:0:0:0:
192,216,237587,1,0,0:0:0:0:
312,136,237781,1,10,0:2:0:0:
312,136,237974,1,0,0:0:0:0:
192,216,238168,2,0,B|192:260|192:260|216:292,1,82.5000031471254,8|0,0:0|0:0,0:0:0:0:
324,216,238555,5,10,0:2:0:0:
256,280,238749,1,0,0:0:0:0:
192,216,238942,1,8,0:0:0:0:
256,160,239136,1,0,0:0:0:0:
328,96,239329,5,10,0:2:0:0:
256,160,239523,1,0,0:0:0:0:
192,216,239716,1,8,0:0:0:0:
256,280,239910,1,0,0:0:0:0:
256,160,240103,5,10,0:2:0:0:
256,280,240297,1,0,0:0:0:0:
256,160,240490,1,8,0:0:0:0:
256,280,240684,1,0,0:0:0:0:
256,160,240878,1,10,0:2:0:0:
148,228,241071,2,0,B|116:200|116:200|76:228,1,82.5000031471254,0|8,0:0|0:0,0:0:0:0:
180,312,241458,1,0,0:0:0:0:
216,312,241555,1,0,0:0:0:0:
252,312,241651,5,10,0:2:0:0:
416,324,241845,2,0,B|440:296|440:296|440:240,1,82.5000031471254,0|8,0:0|0:0,0:0:0:0:
444,148,242232,1,0,0:0:0:0:
444,148,242426,2,0,B|444:100|444:100|412:64,1,82.5000031471254,10|0,0:2|0:0,0:0:0:0:
220,76,242813,1,8,0:0:0:0:
220,76,243007,2,0,B|176:76|176:76|128:108,1,82.5000031471254,0|10,0:0|0:2,0:0:0:0:
144,308,243394,5,0,0:0:0:0:
144,200,243587,1,8,0:0:0:0:
264,200,243781,1,0,0:0:0:0:
144,200,243974,1,10,0:2:0:0:
144,308,244168,1,0,0:0:0:0:
144,200,244361,1,8,0:0:0:0:
264,200,244555,1,0,0:0:0:0:
280,132,244748,6,0,B|280:88|280:88|252:52,1,82.5000031471254,14|0,0:2|0:0,0:0:0:0:
208,116,245136,1,8,0:0:0:0:
208,116,245329,1,0,0:0:0:0:
280,132,245522,6,0,B|300:172|300:172|300:220,1,82.5000031471254,14|8,0:2|0:0,0:0:0:0:
212,216,245910,1,8,0:0:0:0:
212,216,246103,1,8,0:0:0:0:
128,184,246297,6,0,B|108:232|108:232|108:280,1,82.5000031471254,14|8,0:2|0:0,0:0:0:0:
212,216,246684,2,0,B|196:252|196:252|196:296,1,82.5000031471254,14|8,0:2|0:0,0:0:0:0:
316,296,247071,2,8,L|316:340,4,41.2500015735627,10|8|8|8|8,0:2|0:2|0:2|0:2|0:2,0:2:0:0:
316,204,247651,1,8,0:0:0:0:
416,148,247845,5,10,0:2:0:0:
296,100,248039,1,0,0:0:0:0:
296,100,248136,1,0,0:0:0:0:
296,100,248232,1,8,0:0:0:0:
320,208,248426,1,0,0:0:0:0:
320,208,248522,1,0,0:0:0:0:
320,208,248619,1,10,0:2:0:0:
416,148,248813,2,0,L|448:148,3,32.0833336393039,0|0|0|0,0:0|0:0|0:0|0:0,0:0:0:0:
320,208,249200,1,0,0:0:0:0:
147,226,249393,5,10,0:2:0:0:
147,226,249587,2,0,L|90:226,2,48.1250004589558,0|0|8,0:0|0:0|0:0,0:0:0:0:
320,228,249974,2,0,L|368:228,2,48.1250004589558,0|0|10,0:0|0:0|0:2,0:0:0:0:
244,148,250361,2,0,L|244:100,3,32.0833336393039,0|0|0|8,0:0|0:0|0:0|0:0,0:0:0:0:
147,226,250748,1,0,0:0:0:0:
244,115,250942,5,10,0:2:0:0:
348,224,251136,2,0,L|348:276,2,48.1250004589558,0|0|8,0:0|0:0|0:0,0:0:0:0:
167,133,251523,1,0,0:0:0:0:
187,171,251619,1,0,0:0:0:0:
152,172,251716,5,10,0:2:0:0:
180,208,251813,1,0,0:0:0:0:
140,208,251910,1,0,0:0:0:0:
120,172,252007,1,0,0:0:0:0:
152,172,252103,1,8,0:0:0:0:
183,172,252200,1,0,0:0:0:0:
161,207,252297,1,0,0:0:0:0:
192,206,252393,1,0,0:0:0:0:
214,208,252490,5,10,0:2:0:0:
306,127,252684,1,8,0:0:0:0:
306,127,252781,1,0,0:0:0:0:
306,127,252877,1,8,0:0:0:0:
337,248,253071,2,0,B|400:248|400:248|412:216,1,96.2500009179115,8|10,0:0|0:2,0:0:0:0:
160,248,253458,2,0,B|97:248|97:248|85:280,1,96.2500009179115,8|10,0:0|0:2,0:0:0:0:
337,248,253845,1,0,0:0:0:0:
160,248,254039,5,10,0:2:0:0:
252,152,254232,1,8,0:2:0:0:
252,152,254329,1,0,0:0:0:0:
252,152,254426,1,8,0:2:0:0:
324,248,254619,1,8,0:2:0:0:
160,248,254813,1,10,0:2:0:0:
328,252,255006,1,8,0:2:0:0:
328,252,255103,1,0,0:0:0:0:
328,252,255200,2,8,B|359:217|359:217|359:164,1,96.2500009179115,8|8,0:0|0:0,0:0:0:0:
252,152,255587,5,10,0:2:0:0:
260,32,255781,1,8,0:2:0:0:
260,32,255877,1,0,0:0:0:0:
260,32,255974,1,8,0:2:0:0:
252,152,256168,1,8,0:2:0:0:
144,152,256361,1,10,0:2:0:0:
368,152,256555,1,8,0:2:0:0:
368,152,256651,1,0,0:0:0:0:
368,152,256748,2,8,B|368:208|368:208|404:232,1,96.2500009179115,8|8,0:0|0:0,0:0:0:0:
248,80,257135,5,10,0:2:0:0:
248,80,257231,1,8,0:0:0:0:
248,80,257328,1,8,0:0:0:0:
376,160,257522,5,8,0:0:0:0:
376,160,257618,1,8,0:0:0:0:
376,160,257715,1,8,0:0:0:0:
248,80,257910,5,10,0:2:0:0:
248,80,258006,1,8,0:0:0:0:
248,80,258103,1,8,0:0:0:0:
148,164,258297,5,8,0:0:0:0:
148,164,258394,1,8,0:0:0:0:
148,164,258490,1,8,0:0:0:0:
252,268,258684,6,8,L|316:268,2,64.1666672786077,10|8|8,0:2|0:0|0:0,0:0:0:0:
252,268,259071,2,8,L|252:196,2,64.1666672786077,8|8|8,0:0|0:0|0:0,0:0:0:0:
316,268,259458,5,10,0:2:0:0:
288,268,259587,1,8,0:0:0:0:
252,268,259716,1,8,0:0:0:0:
252,240,259845,1,8,0:0:0:0:
252,203,259974,1,8,0:0:0:0:
252,232,260103,1,8,0:0:0:0:
251,327,260232,6,0,B|279:327|279:327|279:253|279:253|372:253,1,192.500001835823,4|0,0:0|0:0,0:0:0:0:
430,225,260716,1,0,0:0:0:0:
430,225,260813,1,0,0:0:0:0:
430,225,260910,1,0,0:0:0:0:
399,153,261006,2,0,B|399:135|399:135|338:135|338:135|338:17,1,192.500001835823,0|8,0:0|0:1,0:0:0:0:
144,56,261781,6,0,B|144:108|144:108|180:160,1,110,6|0,0:0|0:0,0:0:0:0:
252,256,262168,1,8,0:0:0:0:
177,155,262361,1,0,0:0:0:0:
252,256,262555,1,2,0:0:0:0:
184,164,262749,1,0,0:0:0:0:
184,164,262845,1,0,0:0:0:0:
184,164,262942,1,8,0:0:0:0:
252,256,263136,1,0,0:0:0:0:
108,240,263329,5,10,0:0:0:0:
148,240,263425,1,0,0:0:0:0:
148,280,263522,1,0,0:0:0:0:
108,280,263619,1,0,0:0:0:0:
108,240,263716,1,8,0:0:0:0:
148,240,263812,1,0,0:0:0:0:
148,280,263909,1,0,0:0:0:0:
108,280,264006,1,0,0:0:0:0:
108,240,264103,5,10,0:0:0:0:
148,240,264199,1,0,0:0:0:0:
148,280,264296,1,0,0:0:0:0:
108,280,264393,1,0,0:0:0:0:
128,312,264490,2,0,L|128:352,5,36.6666666666667,8|0|2|0|2|0,0:0|0:0|0:0|0:0|0:0|0:0,0:0:0:0:
232,290,264878,6,0,B|296:290|296:290|356:230|440:272,1,220,2|8,0:0|0:0,0:0:0:0:
376,336,265458,1,0,0:0:0:0:
232,290,265652,1,2,0:0:0:0:
320,184,265845,1,0,0:0:0:0:
320,184,265942,1,0,0:0:0:0:
320,184,266039,1,8,0:0:0:0:
232,290,266232,1,0,0:0:0:0:
320,184,266426,5,2,0:0:0:0:
216,84,266619,1,0,0:0:0:0:
216,84,266716,1,0,0:0:0:0:
216,84,266813,1,8,0:0:0:0:
320,184,267007,1,0,0:0:0:0:
180,200,267200,5,10,0:0:0:0:
196,240,267296,1,0,0:0:0:0:
160,240,267393,1,0,0:0:0:0:
180,200,267490,1,0,0:0:0:0:
160,240,267587,2,0,L|212:240,4,36.6666666666667,10|0|2|8|2,0:0|0:0|0:0|0:0|0:0,0:0:0:0:
152,328,267974,6,0,B|270:328|270:328|366:296,1,220,2|8,0:0|0:0,0:0:0:0:
272,328,268555,1,0,0:0:0:0:
248,200,268748,1,2,0:0:0:0:
280,336,268942,1,0,0:0:0:0:
280,336,269039,1,0,0:0:0:0:
280,336,269135,1,8,0:0:0:0:
248,200,269329,1,0,0:0:0:0:
280,281,269523,6,0,L|280:336,1,55,10|0,0:0|0:0,0:0:0:0:
216,264,269716,2,0,L|216:204,1,55,0|0,0:0|0:0,0:0:0:0:
280,152,269910,2,0,L|280:207,1,55,8|0,0:0|0:0,0:0:0:0:
216,132,270103,2,0,L|216:76,1,55,0|0,0:0|0:0,0:0:0:0:
280,152,270297,2,0,L|280:207,1,55,10|0,0:0|0:0,0:0:0:0:
216,132,270490,2,0,L|216:77,1,55,0|0,0:0|0:0,0:0:0:0:
280,152,270684,2,0,L|280:188,5,36.6666666666667,8|0|2|0|2|0,0:0|0:0|0:0|0:0|0:0|0:0,0:0:0:0:
218,34,271071,5,6,0:0:0:0:
147,116,271265,1,0,0:0:0:0:
216,209,271458,1,8,0:0:0:0:
280,281,271652,1,0,0:0:0:0:
216,209,271845,5,2,0:0:0:0:
295,159,272039,2,0,L|319:192,3,36.6666666666667,0|0|0|8,0:0|0:0|0:0|0:0,0:0:0:0:
216,77,272426,1,0,0:0:0:0:
408,64,272619,5,10,0:0:0:0:
448,64,272715,1,0,0:0:0:0:
424,104,272812,1,0,0:0:0:0:
388,104,272909,1,0,0:0:0:0:
437,136,273006,1,8,0:0:0:0:
468,135,273102,1,0,0:0:0:0:
424,168,273200,1,0,0:0:0:0:
388,168,273296,1,0,0:0:0:0:
400,224,273393,6,0,L|400:279,1,55,10|0,0:0|0:0,0:0:0:0:
372,316,273587,2,0,L|372:261,1,55
400,224,273781,2,0,L|400:280,1,55,8|0,0:0|0:0,0:0:0:0:
372,316,273974,2,0,L|372:256,1,55
248,256,274168,5,6,0:0:0:0:
168,192,274361,1,0,0:0:0:0:
248,124,274555,1,8,0:0:0:0:
248,256,274749,1,0,0:0:0:0:
168,192,274942,1,2,0:0:0:0:
248,124,275135,2,0,L|248:80,3,36.6666666666667,0|0|0|8,0:0|0:0|0:0|0:0,0:0:0:0:
248,256,275523,1,0,0:0:0:0:
96,240,275716,5,10,0:0:0:0:
96,284,275813,1,0,0:0:0:0:
136,264,275910,1,0,0:0:0:0:
136,216,276006,1,0,0:0:0:0:
96,240,276103,1,8,0:0:0:0:
96,284,276200,1,0,0:0:0:0:
136,264,276297,1,0,0:0:0:0:
136,216,276393,1,0,0:0:0:0:
96,240,276490,5,10,0:0:0:0:
96,284,276587,1,0,0:0:0:0:
136,264,276684,1,0,0:0:0:0:
136,216,276781,1,0,0:0:0:0:
96,240,276877,2,0,L|44:240,4,36.6666666666667,10|0|2|0|2,0:0|0:0|0:0|0:0|0:0,0:0:0:0:
268,280,277264,5,2,0:0:0:0:
392,244,277458,1,0,0:0:0:0:
268,280,277651,1,8,0:0:0:0:
392,244,277845,2,0,B|416:196|416:196|416:140,1,110,0|2,0:0|0:0,0:0:0:0:
416,56,278232,2,0,L|416:19,3,36.6666666666667,0|0|0|8,0:0|0:0|0:0|0:0,0:0:0:0:
392,244,278619,1,0,0:0:0:0:
288,140,278813,5,2,0:0:0:0:
156,192,279006,2,0,L|116:192,3,36.6666666666667,0|0|0|8,0:0|0:0|0:0|0:0,0:0:0:0:
288,140,279394,1,0,0:0:0:0:
160,80,279587,1,10,0:0:0:0:
184,80,279684,1,0,0:0:0:0:
172,100,279781,1,0,0:0:0:0:
192,100,279877,1,0,0:0:0:0:
208,80,279974,2,0,L|252:80,4,36.6666666666667,10|0|2|0|2,0:0|0:0|0:0|0:0|0:0,0:0:0:0:
336,148,280361,6,0,B|336:232|336:232|276:232|276:232|276:309,1,220,2|8,0:0|0:0,0:0:0:0:
184,208,280942,2,0,B|154:167|154:167|154:107,1,110,0|2,0:0|0:0,0:0:0:0:
80,212,281329,2,0,L|80:248,3,36.6666666666667,0|0|0|8,0:0|0:0|0:0|0:0,0:0:0:0:
154,107,281716,1,0,0:0:0:0:
248,288,281910,6,0,L|248:343,3,55,10|0|0|0,0:0|0:0|0:0|0:0,0:0:0:0:
248,288,282297,2,0,L|304:288,3,55,8|0|0|0,0:0|0:0|0:0|0:0,0:0:0:0:
248,288,282684,2,0,L|248:233,3,55,10|0|0|0,0:0|0:0|0:0|0:0,0:0:0:0:
248,288,283071,2,0,L|196:288,5,36.6666666666667,10|0|2|0|2|0,0:0|0:0|0:0|0:0|0:0|0:0,0:0:0:0:
248,160,283458,5,6,0:0:0:0:
376,160,283652,1,0,0:0:0:0:
376,60,283845,1,8,0:0:0:0:
248,60,284039,1,0,0:0:0:0:
376,160,284232,5,2,0:0:0:0:
248,173,284426,2,0,L|248:211,3,36.6666666666667,0|0|0|8,0:0|0:0|0:0|0:0,0:0:0:0:
248,60,284813,1,0,0:0:0:0:
148,112,285007,5,10,0:0:0:0:
168,152,285103,1,0,0:0:0:0:
124,152,285200,1,0,0:0:0:0:
148,184,285297,1,0,0:0:0:0:
168,216,285394,1,8,0:0:0:0:
128,216,285490,1,0,0:0:0:0:
148,244,285587,1,0,0:0:0:0:
172,264,285684,1,0,0:0:0:0:
128,264,285781,6,0,L|128:332,1,55,10|0,0:0|0:0,0:0:0:0:
148,244,285974,2,0,L|148:184,1,55,8|0,0:0|0:0,0:0:0:0:
124,152,286168,2,0,L|124:208,1,55,8|0,0:0|0:0,0:0:0:0:
148,112,286361,2,0,L|148:40,1,55,8|0,0:0|0:0,0:0:0:0:
272,72,286555,6,0,B|272:126|272:126|252:180,1,110,10|0,0:0|0:0,0:0:0:0:
272,304,286942,1,8,0:0:0:0:
252,178,287136,1,0,0:0:0:0:
272,72,287329,1,10,0:0:0:0:
252,178,287523,1,0,0:0:0:0:
272,304,287716,1,8,0:0:0:0:
252,178,287910,1,0,0:0:0:0:
200,72,288103,6,0,B|132:72|132:72|92:44,1,110,2|0,0:0|0:0,0:0:0:0:
252,178,288490,2,0,B|252:240|252:240|216:284,1,110,8|0,0:0|0:0,0:0:0:0:
328,72,288878,2,0,L|392:72,4,36.6666666666667,2|0|0|0|0,0:0|0:0|0:0|0:0|0:0,0:0:0:0:
408,232,289264,6,0,L|408:296,3,55,8|0|0|0,0:0|0:0|0:0|0:0,0:0:0:0:
384,204,289651,1,10,0:0:0:0:
408,164,289748,1,0,0:0:0:0:
436,132,289845,1,8,0:0:0:0:
380,132,289942,1,0,0:0:0:0:
408,96,290039,5,10,0:0:0:0:
436,64,290135,1,0,0:0:0:0:
380,64,290232,1,8,0:0:0:0:
408,24,290329,1,0,0:0:0:0:
360,40,290426,2,0,L|304:40,1,55,10|0,0:0|0:0,0:0:0:0:
320,88,290619,2,0,L|265:88,1,55,8|0,0:0|0:0,0:0:0:0:
352,116,290813,6,0,L|352:184,1,55,10|0,0:0|0:0,0:0:0:0:
304,160,291006,2,0,L|304:215,1,55,8|0,0:0|0:0,0:0:0:0:
352,232,291199,1,10,0:0:0:0:
308,256,291296,1,0,0:0:0:0:
348,276,291393,1,8,0:0:0:0:
312,300,291490,1,0,0:0:0:0:
352,232,291587,2,0,L|352:176,5,36.6666666666667,10|0|0|8|0|0,0:0|0:0|0:0|0:0|0:0|0:0,0:0:0:0:
494,232,291974,2,0,B|400:283|356:335|356:335|310:286|190:230,1,366.666666666667,8|0,0:0|0:0,0:0:0:0:
240,72,292748,6,0,B|239:126|239:126|260:180,1,110,2|0,0:0|0:0,0:0:0:0:
244,291,293135,1,8,0:0:0:0:
260,178,293329,1,0,0:0:0:0:
240,72,293522,1,2,0:0:0:0:
260,178,293716,1,0,0:0:0:0:
244,291,293909,1,8,0:0:0:0:
260,178,294103,1,0,0:0:0:0:
312,72,294296,6,0,B|380:72|380:72|420:44,1,110,2|0,0:0|0:0,0:0:0:0:
260,178,294683,2,0,B|260:240|260:240|296:284,1,110,8|0,0:0|0:0,0:0:0:0:
184,72,295071,2,0,L|120:72,4,36.6666666666667,2|0|0|0|0,0:0|0:0|0:0|0:0|0:0,0:0:0:0:
104,232,295458,6,0,L|104:296,3,55,10|0|8|0,0:0|0:0|0:0|0:0,0:0:0:0:
128,204,295844,5,14,0:0:0:0:
104,164,295941,1,0,0:0:0:0:
76,132,296038,1,8,0:0:0:0:
132,132,296135,1,0,0:0:0:0:
104,96,296232,5,10,0:0:0:0:
76,64,296328,1,0,0:0:0:0:
132,64,296425,1,8,0:0:0:0:
104,24,296522,1,0,0:0:0:0:
152,40,296619,2,0,L|208:40,1,55,10|0,0:0|0:0,0:0:0:0:
192,88,296813,2,0,L|247:88,1,55,8|0,0:0|0:0,0:0:0:0:
160,116,297006,2,0,L|160:184,1,55,10|0,0:0|0:0,0:0:0:0:
208,160,297200,2,0,L|208:215,1,55,8|0,0:0|0:0,0:0:0:0:
160,228,297393,6,0,L|160:284,1,55,10|0,0:0|0:0,0:0:0:0:
208,320,297587,2,0,L|208:260,1,55,8|0,0:0|0:0,0:0:0:0:
160,228,297781,2,0,L|160:284,1,55,10|0,0:0|0:0,0:0:0:0:
208,320,297974,2,0,L|208:264,1,55,8|0,0:0|0:0,0:0:0:0:
160,228,298168,2,0,L|160:284,1,55,10|0,0:0|0:0,0:0:0:0:
208,316,298361,2,0,L|208:280,3,36.6666666666667,8|0|0|10,0:0|0:0|0:0|0:0,0:0:0:0:
160,228,298749,1,8,0:0:0:0:
272,312,298942,6,0,B|272:257|272:257|252:204,1,110,6|0,0:0|0:0,0:0:0:0:
272,80,299329,1,8,0:0:0:0:
252,206,299523,1,0,0:0:0:0:
272,312,299716,1,2,0:0:0:0:
252,206,299910,1,0,0:0:0:0:
272,80,300103,1,8,0:0:0:0:
252,206,300297,1,0,0:0:0:0:
200,312,300490,6,0,B|132:312|132:312|92:340,1,110,2|0,0:0|0:0,0:0:0:0:
252,206,300877,2,0,B|252:144|252:144|216:100,1,110,8|0,0:0|0:0,0:0:0:0:
328,312,301265,2,0,L|392:312,4,36.6666666666667,2|0|0|0|0,0:0|0:0|0:0|0:0|0:0,0:0:0:0:
408,152,301651,6,0,L|408:88,3,55,12|0|0|0,0:0|0:0|0:0|0:0,0:0:0:0:
384,180,302038,1,12,0:0:0:0:
408,220,302135,1,0,0:0:0:0:
436,252,302232,1,0,0:0:0:0:
380,252,302329,1,0,0:0:0:0:
408,288,302426,5,12,0:0:0:0:
436,320,302522,1,0,0:0:0:0:
380,320,302619,1,0,0:0:0:0:
408,360,302716,1,0,0:0:0:0:
360,344,302813,2,0,L|304:344,1,55,12|0,0:0|0:0,0:0:0:0:
320,296,303006,2,0,L|265:296,1,55,0|0,0:0|0:0,0:0:0:0:
352,268,303200,6,0,L|352:200,1,55,12|0,0:0|0:0,0:0:0:0:
304,224,303393,2,0,L|304:169,1,55,0|0,0:0|0:0,0:0:0:0:
352,152,303586,1,12,0:0:0:0:
308,128,303683,1,0,0:0:0:0:
348,108,303780,1,0,0:0:0:0:
312,84,303877,1,0,0:0:0:0:
352,152,303974,2,0,L|352:208,5,36.6666666666667,12|0|0|0|0|0,0:0|0:0|0:0|0:0|0:0|0:0,0:0:0:0:
320,278,304361,2,0,B|216:312|157:381|157:381|116:305|21:274,1,366.666666666667,8|0,0:0|0:0,0:0:0:0:
240,312,305135,6,0,B|239:258|239:258|260:204,1,110,6|0,0:0|0:0,0:0:0:0:
240,80,305522,1,8,0:0:0:0:
260,206,305716,1,0,0:0:0:0:
240,312,305909,1,2,0:0:0:0:
260,206,306103,1,0,0:0:0:0:
240,80,306296,1,8,0:0:0:0:
268,212,306490,1,0,0:0:0:0:
268,212,306587,1,0,0:0:0:0:
268,212,306683,6,0,B|336:212|336:212|376:240,1,110,2|0,0:0|0:0,0:0:0:0:
268,212,307070,2,0,B|268:150|268:150|304:106,1,110,8|0,0:0|0:0,0:0:0:0:
184,312,307458,2,0,L|120:312,4,36.6666666666667,2|0|0|0|0,0:0|0:0|0:0|0:0|0:0,0:0:0:0:
104,152,307845,6,0,L|104:88,3,55,10|0|8|0,0:0|0:0|0:0|0:0,0:0:0:0:
128,180,308231,1,10,0:0:0:0:
104,220,308328,1,0,0:0:0:0:
76,252,308425,1,8,0:0:0:0:
132,252,308522,1,0,0:0:0:0:
104,288,308619,5,10,0:0:0:0:
76,320,308715,1,0,0:0:0:0:
132,320,308812,1,8,0:0:0:0:
104,360,308909,1,0,0:0:0:0:
152,344,309006,2,0,L|208:344,1,55,10|0,0:0|0:0,0:0:0:0:
192,296,309200,2,0,L|247:296,1,55,8|0,0:0|0:0,0:0:0:0:
160,268,309393,6,0,L|160:200,1,55,10|0,0:0|0:0,0:0:0:0:
208,224,309587,2,0,L|208:169,1,55,8|0,0:0|0:0,0:0:0:0:
160,268,309781,6,0,B|153:208|153:208|165:158,1,110,2|8,0:0|0:0,0:0:0:0:
257,101,310071,1,0,0:0:0:0:
257,101,310168,1,0,0:0:0:0:
257,101,310264,1,0,0:0:0:0:
336,176,310361,2,0,L|336:136,5,36.6666666666667,0|0|0|2|0|0,0:0|0:0|0:0|0:0|0:0|0:0,0:0:0:0:
336,176,310748,1,0,0:0:0:0:
216,176,310942,1,8,0:0:0:0:
216,176,311039,1,8,0:0:0:0:
216,176,311136,1,8,0:0:0:0:
268,84,311329,1,6,0:0:0:0:
