osu file format v14

[General]
AudioFilename: audio.mp3
AudioLeadIn: 0
PreviewTime: 116178
Countdown: 0
SampleSet: Soft
StackLeniency: 0.4
Mode: 0
LetterboxInBreaks: 0
WidescreenStoryboard: 1

[Editor]
DistanceSpacing: 1
BeatDivisor: 6
GridSize: 8
TimelineZoom: 3

[Metadata]
Title:furioso melodia (2017 VIP)
TitleUnicode:furioso melodia (2017 VIP)
Artist:gmtn. (witch's slave)
ArtistUnicode:gmtn. (witch's slave)
Creator:Cheri
Version:Normal
Source:
Tags:BMS Hardcore Instrumental Hailie Yukiya Bashe DJ Lucky
BeatmapID:2115741
BeatmapSetID:1009732

[Difficulty]
HPDrainRate:3
CircleSize:3
OverallDifficulty:3
ApproachRate:6
SliderMultiplier:1.1
SliderTickRate:1

[Events]
//Background and Video events
0,0,"re.jpg",0,0
//Break Periods
2,66820,90344
//Storyboard Layer 0 (Background)
//Storyboard Layer 1 (Fail)
//Storyboard Layer 2 (Pass)
//Storyboard Layer 3 (Foreground)
//Storyboard Layer 4 (Overlay)
//Storyboard Sound Samples

[TimingPoints]
1588,387.096774193548,4,2,1,40,1,0
1588,-100,4,2,1,40,0,0
4684,-100,4,2,1,50,0,0
15523,-100,4,2,1,50,0,0
17071,-100,4,2,1,50,0,0
18620,-100,4,2,1,60,0,0
20168,-100,4,2,1,60,0,0
22104,-100,4,2,1,70,0,0
26362,-100,4,2,1,80,0,0
29458,-100,4,2,1,90,0,0
41071,-100,4,2,1,90,0,0
41846,-100,4,2,1,100,0,1
53458,-100,4,2,1,100,0,0
54039,-100,4,2,1,100,0,0
54233,-100,4,2,1,100,0,1
60426,-100,4,2,1,100,0,1
65652,-100,4,2,1,100,0,1
66620,-100,4,2,1,50,0,0
79007,-100,4,2,1,50,0,0
90620,-100,4,2,1,70,0,0
117717,-100,4,2,1,100,0,1
129329,-100,4,2,1,100,0,0
130104,-100,4,2,1,100,0,1
135523,-100,4,2,1,100,0,1
136297,-100,4,2,1,100,0,1
141523,-100,4,2,1,100,0,1
142491,-100,4,2,1,100,0,0

[Colours]
Combo1 : 192,192,192
Combo2 : 255,128,64
Combo3 : 170,85,85
Combo4 : 128,0,0

[HitObjects]
51,60,4684,6,0,P|82:122|97:162,1,110,0|2,3:2|0:0,0:0:0:0:
209,117,5458,2,0,P|212:147|208:235,1,110,0|2,0:0|0:0,0:0:0:0:
336,227,6233,2,0,P|331:278|316:336,1,110,2|2,3:2|0:0,0:0:0:0:
435,356,7007,1,2,0:0:0:0:
315,356,7394,1,2,0:0:0:0:
233,268,7781,6,0,P|246:226|278:165,1,110,0|0,3:2|0:0,0:0:0:0:
222,65,8555,2,0,P|254:54|337:51,1,110,0|0,0:0|0:0,0:0:0:0:
450,93,9329,5,2,3:2:0:0:
366,167,9717,1,2,0:0:0:0:
250,166,10104,1,2,0:0:0:0:
164,97,10491,1,2,0:0:0:0:
76,168,10878,6,0,L|58:284,1,110,0|0,3:2|0:0,0:0:0:0:
183,289,11652,2,0,L|179:179,1,110,0|0,0:0|0:0,0:0:0:0:
277,109,12426,5,2,3:2:0:0:
388,122,12813,1,2,0:0:0:0:
462,209,13200,1,2,0:0:0:0:
451,322,13587,1,2,0:0:0:0:
341,364,13975,5,0,3:2:0:0:
232,341,14362,1,0,3:2:0:0:
163,254,14749,2,0,L|175:186,1,55,0|0,3:2|0:0,0:0:0:0:
124,170,15136,2,0,L|134:109,1,55,0|0,3:2|0:0,0:0:0:0:
139,68,15523,6,0,B|219:68|219:68|226:88|226:88|257:88,1,110,0|0,0:0|0:0,0:0:0:0:
297,83,16104,1,0,0:0:0:0:
355,99,16297,2,0,P|375:151|360:221,1,110,2|0,0:0|0:0,0:0:0:0:
265,257,17071,1,2,3:2:0:0:
265,257,17458,2,0,P|208:259|150:267,1,110,0|0,0:0|0:0,0:0:0:0:
98,246,18039,2,0,L|31:248,1,55,2|2,0:0|0:0,0:0:0:0:
24,189,18426,1,0,0:0:0:0:
48,133,18620,6,0,P|71:76|91:18,1,110,2|2,3:2|3:2,0:0:0:0:
207,25,19394,2,0,L|196:101,1,55,2|2,3:2|3:2,0:0:0:0:
220,136,19781,2,0,L|214:202,1,55,2|2,3:2|3:2,0:0:0:0:
252,240,20168,6,0,P|311:255|367:248,1,110,10|0,3:2|0:0,0:0:0:0:
457,180,20942,1,0,0:0:0:0:
457,180,21136,2,0,L|456:110,2,55,2|2|0,0:0|0:0|0:0,0:0:0:0:
476,237,21717,2,0,L|471:308,1,55,2|2,3:2|3:2,0:0:0:0:
422,327,22104,6,0,P|357:344|308:305,1,110,2|2,3:2|3:2,0:0:0:0:
264,306,22684,2,0,L|193:331,2,55,2|2|2,0:0|3:2|3:2,0:0:0:0:
241,249,23265,5,2,3:2:0:0:
322,159,23652,1,2,3:2:0:0:
437,194,24039,1,2,3:2:0:0:
437,194,24233,2,0,L|446:263,1,55,2|2,3:2|3:2,0:0:0:0:
416,302,24620,1,2,3:2:0:0:
367,321,24813,6,0,P|304:347|260:343,1,110,2|2,3:2|3:2,0:0:0:0:
145,316,25587,1,2,3:2:0:0:
145,316,25781,2,0,L|77:315,2,55,2|2|2,3:2|3:2|3:2,0:0:0:0:
160,255,26362,6,0,L|136:143,1,110,2|2,3:2|3:2,0:0:0:0:
240,85,27136,1,2,3:2:0:0:
240,85,27329,2,0,L|257:13,1,55,2|2,3:2|3:2,0:0:0:0:
313,39,27717,1,2,3:2:0:0:
359,77,27910,5,10,3:2:0:0:
314,189,28297,1,0,3:2:0:0:
394,273,28684,1,0,3:2:0:0:
303,342,29071,2,0,P|245:353|233:347,1,55,0|0,3:2|0:0,0:0:0:0:
202,318,29458,6,0,P|147:310|75:337,1,110,4|2,3:2|3:2,0:0:0:0:
50,213,30233,1,2,3:2:0:0:
50,213,30426,2,0,L|19:144,2,55,2|2|2,0:0|3:2|0:0,0:0:0:0:
109,202,31007,2,0,P|148:204|226:201,1,110,2|2,3:2|3:2,0:0:0:0:
320,117,31781,2,0,L|347:51,2,55,2|2|2,3:2|0:0|3:2,0:0:0:0:
323,177,32362,1,2,0:0:0:0:
330,236,32555,6,0,P|383:246|434:227,1,110,4|2,3:2|3:2,0:0:0:0:
488,119,33329,2,0,P|488:92|482:48,1,55,2|0,3:2|0:0,0:0:0:0:
426,49,33717,2,0,L|362:51,1,55,2|2,3:2|0:0,0:0:0:0:
325,85,34104,1,2,3:2:0:0:
325,85,34297,2,0,L|309:143,1,55,2|2,0:0|3:2,0:0:0:0:
247,241,34878,2,0,L|246:310,2,55,2|2|2,3:2|0:0|3:2,0:0:0:0:
191,216,35458,1,2,3:2:0:0:
133,234,35652,6,0,P|101:168|105:113,1,110,4|2,3:2|3:2,0:0:0:0:
166,31,36426,2,0,P|204:86|220:142,1,110,2|2,3:2|3:2,0:0:0:0:
304,210,37200,2,0,L|305:268,2,55,2|2|2,3:2|0:0|3:2,0:0:0:0:
357,181,37781,1,2,0:0:0:0:
416,193,37975,1,2,3:2:0:0:
474,86,38362,2,0,L|480:18,1,55,2|2,3:2|0:0,0:0:0:0:
418,25,38749,6,0,P|343:36|311:78,1,110,4|0,3:2|3:2,0:0:0:0:
203,85,39523,1,2,3:2:0:0:
203,85,39717,2,0,L|161:135,1,55,2|2,0:0|3:2,0:0:0:0:
63,189,40297,2,0,L|49:257,1,55,2|2,3:2|0:0,0:0:0:0:
93,287,40684,2,0,L|116:338,1,55,2|2,3:2|0:0,0:0:0:0:
176,334,41071,1,2,3:2:0:0:
296,341,41458,2,0,P|332:339|355:338,1,55,2|2,3:2|3:2,0:0:0:0:
403,306,41846,6,0,P|408:268|438:189,1,110,4|2,3:2|3:2,0:0:0:0:
457,82,42621,1,2,3:2:0:0:
457,82,42814,2,0,L|426:13,2,55,2|2|2,0:0|3:2|0:0,0:0:0:0:
396,81,43395,2,0,P|341:83|286:81,1,110,2|2,3:2|3:2,0:0:0:0:
225,85,43975,1,2,0:0:0:0:
166,67,44169,2,0,L|193:1,2,55,2|2|2,3:2|0:0|3:2,0:0:0:0:
124,110,44750,1,2,0:0:0:0:
104,167,44943,6,0,P|118:223|117:283,1,110,4|2,3:2|3:2,0:0:0:0:
239,305,45717,2,0,P|257:304|310:310,1,55,0|2,3:2|0:0,0:0:0:0:
351,288,46105,2,0,L|356:223,1,55,2|2,3:2|0:0,0:0:0:0:
387,181,46492,1,0,3:2:0:0:
387,181,46685,2,0,L|391:113,1,55,2|2,0:0|3:2,0:0:0:0:
286,63,47266,6,0,L|231:49,2,55,2|2|2,3:2|0:0|3:2,0:0:0:0:
279,122,47846,1,2,3:2:0:0:
246,172,48040,6,0,P|310:180|372:189,1,110,4|2,3:2|3:2,0:0:0:0:
409,159,48620,1,2,0:0:0:0:
469,166,48814,2,0,P|471:228|474:280,1,110,2|2,3:2|3:2,0:0:0:0:
373,330,49588,2,0,L|374:388,2,55,2|2|2,3:2|0:0|3:2,0:0:0:0:
321,298,50169,1,2,0:0:0:0:
262,313,50363,1,2,3:2:0:0:
179,224,50750,2,0,L|185:156,1,55,2|2,3:2|0:0,0:0:0:0:
176,108,51137,6,0,P|101:119|57:140,1,110,4|2,3:2|3:2,0:0:0:0:
41,179,51717,1,2,3:2:0:0:
44,239,51911,1,2,3:2:0:0:
75,290,52105,2,0,L|58:351,1,55,2|2,3:2|3:2,0:0:0:0:
166,302,52685,2,0,L|152:370,2,55,2|2|2,3:2|3:2|3:2,0:0:0:0:
175,242,53265,1,2,3:2:0:0:
233,226,53459,1,2,3:2:0:0:
344,178,53846,2,0,P|345:153|339:111,1,55,2|2,3:2|3:2,0:0:0:0:
303,76,54233,6,0,P|255:61|194:73,1,110,4|2,3:2|3:2,0:0:0:0:
114,148,55007,2,0,P|127:194|136:222,2,55,2|0|2,3:2|0:0|3:2,0:0:0:0:
174,145,55587,1,0,0:0:0:0:
226,174,55781,2,0,L|249:291,1,110,2|2,3:2|3:2,0:0:0:0:
352,340,56555,2,0,L|397:381,2,55,2|2|2,3:2|0:0|3:2,0:0:0:0:
335,281,57136,1,2,0:0:0:0:
381,243,57329,6,0,P|388:161|399:116,1,110,2|2,3:2|3:2,0:0:0:0:
273,118,58104,2,0,P|273:152|276:183,2,55,2|2|2,3:2|0:0|3:2,0:0:0:0:
152,117,58878,2,0,L|150:186,1,55,2|2,3:2|0:0,0:0:0:0:
108,216,59265,2,0,L|120:275,1,55,2|2,3:2|0:0,0:0:0:0:
85,320,59652,5,4,3:2:0:0:
85,320,60426,6,0,P|125:347|185:344,1,110,2|2,3:2|3:2,0:0:0:0:
280,270,61200,2,0,P|330:268|355:258,2,55,2|2|2,3:2|3:2|3:2,0:0:0:0:
237,226,61781,1,2,3:2:0:0:
177,236,61975,1,2,3:2:0:0:
65,177,62362,2,0,L|60:110,1,55,2|2,3:2|3:2,0:0:0:0:
113,91,62749,2,0,L|125:22,2,55,2|2|2,3:2|3:2|3:2,0:0:0:0:
199,175,63523,6,0,L|207:254,2,55,2|2|2,3:2|3:2|3:2,0:0:0:0:
282,87,64297,2,0,L|262:19,2,55,2|2|2,3:2|3:2|3:2,0:0:0:0:
375,155,65071,1,2,3:2:0:0:
434,224,65362,1,2,3:2:0:0:
395,305,65652,5,2,3:2:0:0:
274,306,66039,1,2,3:2:0:0:
274,306,66233,2,0,L|258:372,1,55,2|2,3:2|3:2,0:0:0:0:
200,358,66620,5,4,3:2:0:0:
0,55,91394,6,0,P|38:156|40:179,1,110,0|0,3:2|3:2,0:0:0:0:
41,278,92168,1,0,3:2:0:0:
182,250,92555,2,0,P|208:212|213:182,1,73.3333333333333,0|2,3:2|3:2,0:0:0:0:
228,148,92942,6,0,P|276:184|324:202,1,110,0|0,3:2|3:2,0:0:0:0:
430,147,93716,1,0,3:2:0:0:
430,147,94103,2,0,P|432:98|425:73,1,73.3333333333333,0|2,3:2|3:2,0:0:0:0:
411,36,94491,6,0,P|401:83|405:146,1,110,0|0,3:2|3:2,0:0:0:0:
357,255,95265,1,0,3:2:0:0:
357,255,95652,1,0,3:2:0:0:
357,255,96039,2,0,L|364:371,1,110,0|0,3:2|3:2,0:0:0:0:
290,374,96684,1,0,0:0:0:0:
290,374,96813,2,0,P|231:382|202:375,1,73.3333333333333,0|2,3:2|0:0,0:0:0:0:
186,360,97200,1,0,3:0:0:0:
149,296,97458,1,0,0:0:0:0:
149,296,97587,6,0,P|89:304|48:274,1,110,0|0,3:2|3:2,0:0:0:0:
40,167,98362,2,0,B|22:123|22:123|42:62,1,110,0|0,3:2|3:2,0:0:0:0:
150,48,99136,2,0,P|215:46|259:48,1,110,2|0,3:2|3:2,0:0:0:0:
366,96,99910,1,0,3:2:0:0:
441,168,100297,2,0,P|414:230|411:240,1,73.3333333333333,0|2,3:2|3:2,0:0:0:0:
402,270,100684,6,0,L|291:275,1,110,0|0,3:2|3:2,0:0:0:0:
332,169,101458,2,0,L|445:168,1,110,0|0,3:2|3:2,0:0:0:0:
363,75,102233,1,0,3:2:0:0:
252,124,102620,1,2,3:2:0:0:
235,202,102878,6,0,L|270:276,3,73.3333333333333,2|2|2|0,3:2|3:2|3:2|3:2,0:0:0:0:
295,296,103781,6,0,P|362:304|406:320,1,110,2|2,3:2|3:2,0:0:0:0:
469,219,104555,2,0,P|402:230|356:227,1,110,2|2,3:2|3:2,0:0:0:0:
290,132,105329,2,0,L|246:122,2,36.6666666666667,2|0|10,3:2|0:0|0:0,0:0:0:0:
298,171,105717,2,0,L|347:170,2,36.6666666666667,2|0|10,3:2|0:0|0:0,0:0:0:0:
272,202,106104,1,2,3:2:0:0:
272,322,106491,1,2,3:2:0:0:
151,315,106878,6,0,L|61:383,1,110,2|2,3:2|3:2,0:0:0:0:
13,270,107652,2,0,L|106:205,1,110,2|2,3:2|3:2,0:0:0:0:
193,126,108426,2,0,L|243:124,2,36.6666666666667,2|0|10,3:2|0:0|0:0,0:0:0:0:
180,87,108813,2,0,L|137:88,2,36.6666666666667,2|0|10,3:2|0:0|0:0,0:0:0:0:
202,53,109200,1,0,3:2:0:0:
307,36,109587,1,2,3:2:0:0:
415,108,109975,5,2,3:2:0:0:
415,108,110362,1,2,3:2:0:0:
429,228,110749,2,0,L|471:258,2,36.6666666666667,2|0|8,3:2|0:0|0:0,0:0:0:0:
396,252,111136,1,2,3:2:0:0:
279,285,111523,5,8,3:2:0:0:
189,203,111910,1,10,0:0:0:0:
230,89,112297,2,0,L|219:37,2,36.6666666666667,2|0|10,3:2|0:0|0:0,0:0:0:0:
263,65,112684,1,10,0:0:0:0:
343,65,112942,1,10,0:0:0:0:
343,65,113071,6,0,L|397:61,1,55,2|0,3:2|0:0,0:0:0:0:
418,137,113458,2,0,L|348:150,1,55,2|0,3:2|0:0,0:0:0:0:
343,204,113846,2,0,L|288:204,1,55,0|0,3:2|0:0,0:0:0:0:
262,259,114233,2,2,L|221:259,2,36.6666666666667,2|2|0,3:2|0:0|3:2,0:0:0:0:
262,299,114620,1,2,3:2:0:0:
256,192,114684,12,8,116168,3:2:0:0:
58,339,117717,6,0,B|71:284|71:284|64:221,1,110,4|2,3:2|3:2,0:0:0:0:
112,120,118492,1,2,3:2:0:0:
112,120,118685,2,0,L|143:51,2,55,2|2|2,0:0|3:2|0:0,0:0:0:0:
171,129,119266,2,0,P|221:139|281:129,1,110,2|2,3:2|3:2,0:0:0:0:
320,86,119846,1,2,0:0:0:0:
381,65,120040,2,0,L|365:-1,2,55,2|2|2,3:2|0:0|3:2,0:0:0:0:
438,85,120621,1,2,0:0:0:0:
469,137,120814,6,0,P|477:193|456:253,1,110,4|2,3:2|3:2,0:0:0:0:
356,303,121588,2,0,P|338:302|285:308,1,55,2|2,3:2|0:0,0:0:0:0:
259,260,121976,2,0,L|255:194,1,55,2|2,3:2|0:0,0:0:0:0:
197,187,122363,1,2,3:2:0:0:
197,187,122556,2,0,L|170:132,1,55,2|2,0:0|3:2,0:0:0:0:
54,110,123137,6,0,L|51:52,2,55,2|2|2,3:2|0:0|3:2,0:0:0:0:
25,163,123717,1,2,3:2:0:0:
46,219,123911,6,0,P|48:260|106:294,1,110,4|2,3:2|3:2,0:0:0:0:
137,245,124491,1,2,0:0:0:0:
197,242,124685,2,0,P|203:304|192:356,1,110,2|2,3:2|3:2,0:0:0:0:
313,330,125459,2,0,L|312:388,2,55,2|2|2,3:2|0:0|3:2,0:0:0:0:
351,283,126040,1,2,0:0:0:0:
413,296,126233,2,0,L|462:260,1,55,2|2,3:2|0:0,0:0:0:0:
499,219,126621,2,0,L|492:151,1,55,2|2,3:2|0:0,0:0:0:0:
463,107,127008,6,0,P|410:100|357:82,1,110,4|2,3:2|3:2,0:0:0:0:
244,128,127782,1,2,3:2:0:0:
206,172,127976,2,0,L|142:188,1,55,0|2,3:2|3:2,0:0:0:0:
82,284,128556,2,0,L|96:352,2,55,2|2|2,3:2|3:2|3:2,0:0:0:0:
141,276,129136,1,2,3:2:0:0:
201,270,129330,1,2,3:2:0:0:
237,222,129523,2,0,L|236:152,2,55,2|2|2,3:2|3:2|3:2,0:0:0:0:
297,224,130104,6,0,P|345:209|406:221,1,110,4|2,3:2|3:2,0:0:0:0:
492,138,130878,2,0,L|506:77,2,55,2|0|2,3:2|0:0|3:2,0:0:0:0:
440,169,131458,1,0,0:0:0:0:
404,218,131652,2,0,L|405:341,1,110,2|2,3:2|3:2,0:0:0:0:
282,333,132426,2,0,L|237:374,2,55,2|2|2,3:2|0:0|3:2,0:0:0:0:
246,283,133007,1,2,0:0:0:0:
188,263,133200,6,0,P|180:198|171:145,1,110,2|2,3:2|3:2,0:0:0:0:
255,65,133975,2,0,P|256:37|256:10,2,55,2|2|2,3:2|0:0|3:2,0:0:0:0:
307,95,134555,1,2,0:0:0:0:
359,125,134749,2,0,L|361:194,1,55,2|2,3:2|0:0,0:0:0:0:
417,200,135136,2,0,L|405:259,1,55,2|2,3:2|0:0,0:0:0:0:
453,291,135523,5,4,3:2:0:0:
453,291,136297,6,0,P|413:318|353:315,1,110,2|2,3:2|3:2,0:0:0:0:
232,322,137071,2,0,P|182:320|166:329,2,55,2|2|2,3:2|3:2|3:2,0:0:0:0:
254,265,137652,1,0,3:2:0:0:
224,212,137846,1,2,3:2:0:0:
115,159,138233,2,0,L|120:92,1,55,2|2,3:2|3:2,0:0:0:0:
167,68,138620,2,2,L|155:-1,2,55,2|2|2,3:2|3:2|3:2,3:2:0:0:
221,94,139200,1,2,3:2:0:0:
256,142,139394,6,0,L|248:221,2,55,2|2|2,3:2|3:2|3:2,0:0:0:0:
351,73,140168,2,0,L|345:17,2,55,2|2|2,3:2|3:2|3:2,0:0:0:0:
405,99,140749,1,2,3:2:0:0:
431,152,140942,1,2,3:2:0:0:
429,242,141233,1,0,3:2:0:0:
346,279,141523,5,4,3:2:0:0:
225,267,141910,1,2,3:2:0:0:
225,267,142104,2,0,L|176:242,1,55,2|2,3:2|3:2,0:0:0:0:
149,296,142491,5,4,3:2:0:0:
