osu file format v14

[General]
AudioFilename: audio.mp3
AudioLeadIn: 0
PreviewTime: 164514
Countdown: 0
SampleSet: Soft
StackLeniency: 0.4
Mode: 0
LetterboxInBreaks: 0
WidescreenStoryboard: 1

[Editor]
Bookmarks: 11000,21971,32943,43914,54886,65857,76829,87800,98771,109743,120714,131686,148143,164600,181057,198885,209856,220828,231799,242771,253742,264714,275685,286656,301160
DistanceSpacing: 0.5
BeatDivisor: 4
GridSize: 8
TimelineZoom: 2.600001

[Metadata]
Title:Illegal Paradise (Grimoire rmx)
TitleUnicode:堕楽の園 (Grimoire rmx)
Artist:gmtn. (witch's slave)
ArtistUnicode:gmtn. (witch's slave)
Creator:Nuvolina
Version:Nuvolina & Chaos' Expert
Source:Arcaea
Tags:Electronic Instrumental Hardcore Chaos DTM9_Nowa DTM9 Nowa Nowaie ILLEGAL GOTHIC SCHRANZ team grimoire remix
BeatmapID:3142477
BeatmapSetID:1536934

[Difficulty]
HPDrainRate:5
CircleSize:3.8
OverallDifficulty:9.2
ApproachRate:9.5
SliderMultiplier:1.9
SliderTickRate:1

[Events]
//Background and Video events
0,0,"bb_bg.jpg",0,0
//Break Periods
//Storyboard Layer 0 (Background)
//Storyboard Layer 1 (Fail)
//Storyboard Layer 2 (Pass)
//Storyboard Layer 3 (Foreground)
//Storyboard Layer 4 (Overlay)
//Storyboard Sound Samples

[TimingPoints]
29,342.857142857143,4,2,1,50,1,0
29,-133.333333333333,4,2,1,50,0,0
18371,-66.6666666666667,4,2,1,50,0,0
21971,-100,4,2,1,70,0,0
22914,-100,4,2,1,5,0,0
23000,-100,4,2,1,70,0,0
23943,-100,4,2,1,5,0,0
24029,-100,4,2,1,70,0,0
24457,-100,4,2,1,5,0,0
24543,-100,4,2,1,70,0,0
24629,-100,4,2,1,5,0,0
24715,-100,4,2,1,70,0,0
25657,-100,4,2,1,5,0,0
25743,-100,4,2,1,70,0,0
26857,-100,4,2,1,5,0,0
26943,-100,4,2,1,70,0,0
27029,-100,4,2,1,5,0,0
27115,-100,4,2,1,70,0,0
27200,-100,4,2,1,5,0,0
27286,-100,4,2,1,70,0,0
28400,-100,4,2,1,5,0,0
28486,-100,4,2,1,70,0,0
29429,-100,4,2,1,5,0,0
29515,-100,4,2,1,70,0,0
29943,-100,4,2,1,5,0,0
30029,-100,4,2,1,70,0,0
30114,-100,4,2,1,5,0,0
30200,-100,4,2,1,70,0,0
31143,-100,4,2,1,5,0,0
31229,-100,4,2,1,70,0,0
31743,-66.6666666666667,4,2,1,70,0,0
32086,-100,4,2,1,70,0,0
32171,-100,4,2,1,5,0,0
32257,-100,4,2,1,70,0,0
32343,-100,4,2,1,5,0,0
32429,-100,4,2,1,70,0,0
33886,-100,4,2,1,5,0,0
33972,-100,4,2,1,70,0,0
34914,-100,4,2,1,5,0,0
35000,-100,4,2,1,70,0,0
35429,-100,4,2,1,5,0,0
35515,-100,4,2,1,70,0,0
35600,-100,4,2,1,5,0,0
35686,-100,4,2,1,70,0,0
36629,-100,4,2,1,5,0,0
36715,-100,4,2,1,70,0,0
37657,-100,4,2,1,5,0,0
37743,-100,4,2,1,70,0,0
43914,-55.5555555555556,4,2,1,85,0,1
44171,-55.5555555555556,4,2,1,5,0,0
44257,-55.5555555555556,4,2,1,85,0,0
44514,-55.5555555555556,4,2,1,5,0,0
44600,-55.5555555555556,4,2,1,85,0,0
44857,-55.5555555555556,4,2,1,5,0,0
44943,-55.5555555555556,4,2,1,85,0,0
45200,-55.5555555555556,4,2,1,5,0,0
45286,-55.5555555555556,4,2,1,85,0,0
45543,-55.5555555555556,4,2,1,5,0,0
45629,-55.5555555555556,4,2,1,85,0,0
45886,-55.5555555555556,4,2,1,5,0,0
45972,-55.5555555555556,4,2,1,85,0,0
46229,-55.5555555555556,4,2,1,5,0,0
46315,-55.5555555555556,4,2,1,85,0,0
46571,-55.5555555555556,4,2,1,5,0,0
46657,-55.5555555555556,4,2,1,85,0,0
46914,-55.5555555555556,4,2,1,5,0,0
47000,-55.5555555555556,4,2,1,85,0,0
47257,-55.5555555555556,4,2,1,5,0,0
47343,-55.5555555555556,4,2,1,85,0,0
47600,-55.5555555555556,4,2,1,5,0,0
47686,-55.5555555555556,4,2,1,85,0,0
47943,-55.5555555555556,4,2,1,5,0,0
48029,-55.5555555555556,4,2,1,85,0,0
48286,-55.5555555555556,4,2,1,5,0,0
48372,-55.5555555555556,4,2,1,85,0,0
48629,-55.5555555555556,4,2,1,5,0,0
48715,-55.5555555555556,4,2,1,85,0,0
48971,-55.5555555555556,4,2,1,5,0,0
49057,-55.5555555555556,4,2,1,85,0,0
49143,-55.5555555555556,4,2,1,5,0,0
49229,-55.5555555555556,4,2,1,85,0,0
49314,-55.5555555555556,4,2,1,5,0,0
49400,-55.5555555555556,4,2,1,85,0,0
49657,-55.5555555555556,4,2,1,5,0,0
49743,-55.5555555555556,4,2,1,85,0,0
50000,-55.5555555555556,4,2,1,5,0,0
50086,-55.5555555555556,4,2,1,85,0,0
50343,-55.5555555555556,4,2,1,5,0,0
50429,-55.5555555555556,4,2,1,85,0,0
50686,-55.5555555555556,4,2,1,5,0,0
50772,-55.5555555555556,4,2,1,85,0,0
51029,-55.5555555555556,4,2,1,5,0,0
51115,-55.5555555555556,4,2,1,85,0,0
51371,-55.5555555555556,4,2,1,5,0,0
51457,-55.5555555555556,4,2,1,85,0,0
51714,-55.5555555555556,4,2,1,5,0,0
51800,-55.5555555555556,4,2,1,85,0,0
52057,-55.5555555555556,4,2,1,5,0,0
52143,-55.5555555555556,4,2,1,85,0,0
52229,-55.5555555555556,4,2,1,5,0,0
52315,-55.5555555555556,4,2,1,85,0,0
52400,-55.5555555555556,4,2,1,5,0,0
52486,-55.5555555555556,4,2,1,85,0,0
52743,-55.5555555555556,4,2,1,5,0,0
52829,-55.5555555555556,4,2,1,85,0,0
53086,-55.5555555555556,4,2,1,5,0,0
53172,-55.5555555555556,4,2,1,85,0,0
53429,-55.5555555555556,4,2,1,5,0,0
53515,-55.5555555555556,4,2,1,85,0,0
53771,-55.5555555555556,4,2,1,5,0,0
53857,-55.5555555555556,4,2,1,85,0,0
54114,-55.5555555555556,4,2,1,5,0,0
54200,-43.4782608695652,4,2,1,85,0,0
54457,-55.5555555555556,4,2,1,5,0,0
54543,-55.5555555555556,4,2,1,85,0,0
54886,-55.5555555555556,4,2,1,85,0,0
55229,-55.5555555555556,4,2,1,85,0,1
55486,-55.5555555555556,4,2,1,5,0,0
55572,-55.5555555555556,4,2,1,85,0,0
55829,-55.5555555555556,4,2,1,5,0,0
55915,-55.5555555555556,4,2,1,85,0,0
56171,-55.5555555555556,4,2,1,5,0,0
56257,-55.5555555555556,4,2,1,85,0,0
56514,-55.5555555555556,4,2,1,5,0,0
56600,-55.5555555555556,4,2,1,85,0,0
56857,-55.5555555555556,4,2,1,5,0,0
56943,-55.5555555555556,4,2,1,85,0,0
57200,-55.5555555555556,4,2,1,5,0,0
57286,-55.5555555555556,4,2,1,85,0,0
57886,-55.5555555555556,4,2,1,5,0,0
57972,-55.5555555555556,4,2,1,85,0,0
58229,-55.5555555555556,4,2,1,5,0,0
58315,-55.5555555555556,4,2,1,85,0,0
58571,-55.5555555555556,4,2,1,5,0,0
58657,-55.5555555555556,4,2,1,85,0,0
58914,-55.5555555555556,4,2,1,5,0,0
59000,-55.5555555555556,4,2,1,85,0,0
59257,-55.5555555555556,4,2,1,5,0,0
59343,-55.5555555555556,4,2,1,85,0,0
59600,-55.5555555555556,4,2,1,5,0,0
59686,-55.5555555555556,4,2,1,85,0,0
59943,-55.5555555555556,4,2,1,5,0,0
60029,-55.5555555555556,4,2,1,85,0,0
63200,-55.5555555555556,4,2,1,5,0,0
63286,-55.5555555555556,4,2,1,85,0,0
63371,-55.5555555555556,4,2,1,5,0,0
63457,-55.5555555555556,4,2,1,85,0,0
63543,-55.5555555555556,4,2,1,5,0,0
63629,-55.5555555555556,4,2,1,85,0,0
63714,-55.5555555555556,4,2,1,5,0,0
63800,-55.5555555555556,4,2,1,85,0,0
63886,-55.5555555555556,4,2,1,5,0,0
63972,-55.5555555555556,4,2,1,85,0,0
64057,-55.5555555555556,4,2,1,5,0,0
64143,-55.5555555555556,4,2,1,85,0,0
64229,-55.5555555555556,4,2,1,5,0,0
64315,-55.5555555555556,4,2,1,85,0,0
64400,-55.5555555555556,4,2,1,5,0,0
64486,-55.5555555555556,4,2,1,85,0,0
65171,-43.4782608695652,4,2,1,85,0,0
65429,-43.4782608695652,4,2,1,5,0,0
65514,-55.5555555555556,4,2,1,85,0,0
65600,-55.5555555555556,4,2,1,5,0,0
65686,-55.5555555555556,4,2,1,85,0,0
65771,-55.5555555555556,4,2,1,5,0,0
65857,-55.5555555555556,4,2,1,85,0,0
66114,-55.5555555555556,4,2,1,5,0,0
66200,-55.5555555555556,4,2,1,85,0,0
66286,-55.5555555555556,4,2,1,5,0,0
66372,-55.5555555555556,4,2,1,85,0,0
66800,-55.5555555555556,4,2,1,5,0,0
66886,-55.5555555555556,4,2,1,85,0,0
67314,-55.5555555555556,4,2,1,5,0,0
67400,-55.5555555555556,4,2,1,85,0,0
67829,-55.5555555555556,4,2,1,5,0,0
67915,-55.5555555555556,4,2,1,85,0,0
68343,-55.5555555555556,4,2,1,5,0,0
68429,-55.5555555555556,4,2,1,85,0,0
69029,-55.5555555555556,4,2,1,5,0,0
69115,-55.5555555555556,4,2,1,85,0,0
70057,-55.5555555555556,4,2,1,5,0,0
70143,-55.5555555555556,4,2,1,85,0,0
71086,-55.5555555555556,4,2,1,5,0,0
71172,-55.5555555555556,4,2,1,85,0,0
71257,-55.5555555555556,4,2,1,5,0,0
71343,-55.5555555555556,4,2,1,85,0,0
71771,-55.5555555555556,4,2,1,5,0,0
71857,-55.5555555555556,4,2,1,85,0,0
72286,-55.5555555555556,4,2,1,5,0,0
72372,-55.5555555555556,4,2,1,85,0,0
72800,-55.5555555555556,4,2,1,5,0,0
72886,-55.5555555555556,4,2,1,85,0,0
73314,-55.5555555555556,4,2,1,5,0,0
73400,-55.5555555555556,4,2,1,85,0,0
73829,-55.5555555555556,4,2,1,5,0,0
73915,-55.5555555555556,4,2,1,85,0,0
74514,-55.5555555555556,4,2,1,5,0,0
74600,-55.5555555555556,4,2,1,85,0,0
75029,-55.5555555555556,4,2,1,5,0,0
75115,-55.5555555555556,4,2,1,85,0,0
75886,-55.5555555555556,4,2,1,5,0,0
75972,-55.5555555555556,4,2,1,85,0,0
76057,-55.5555555555556,4,2,1,5,0,0
76143,-55.5555555555556,4,2,1,85,0,0
76486,-43.4782608695652,4,2,1,85,0,0
76743,-43.4782608695652,4,2,1,5,0,0
76829,-43.4782608695652,4,2,1,85,0,0
77000,-55.5555555555556,4,2,1,85,0,0
79314,-55.5555555555556,4,2,1,5,0,0
79400,-55.5555555555556,4,2,1,85,0,0
79657,-55.5555555555556,4,2,1,5,0,0
79743,-55.5555555555556,4,2,1,85,0,0
81629,-43.4782608695652,4,2,1,85,0,0
81886,-43.4782608695652,4,2,1,5,0,0
81971,-43.4782608695652,4,2,1,65,0,0
82314,-55.5555555555556,4,2,1,85,0,0
82400,-55.5555555555556,4,2,1,5,0,0
82486,-55.5555555555556,4,2,1,85,0,0
82571,-55.5555555555556,4,2,1,5,0,0
82657,-55.5555555555556,4,2,1,85,0,0
83429,-55.5555555555556,4,2,1,5,0,0
83515,-55.5555555555556,4,2,1,85,0,0
84800,-55.5555555555556,4,2,1,5,0,0
84886,-55.5555555555556,4,2,1,85,0,0
85143,-55.5555555555556,4,2,1,5,0,0
85229,-55.5555555555556,4,2,1,85,0,0
85314,-55.5555555555556,4,2,1,5,0,0
85400,-55.5555555555556,4,2,1,85,0,0
85486,-55.5555555555556,4,2,1,5,0,0
85572,-55.5555555555556,4,2,1,85,0,0
85657,-55.5555555555556,4,2,1,5,0,0
85743,-55.5555555555556,4,2,1,85,0,0
85829,-55.5555555555556,4,2,1,5,0,0
85915,-55.5555555555556,4,2,1,85,0,0
86000,-55.5555555555556,4,2,1,5,0,0
86086,-55.5555555555556,4,2,1,85,0,0
86171,-55.5555555555556,4,2,1,5,0,0
86257,-55.5555555555556,4,2,1,85,0,0
86343,-55.5555555555556,4,2,1,5,0,0
86429,-55.5555555555556,4,2,1,85,0,0
87114,-66.6666666666667,4,2,1,85,0,0
87371,-66.6666666666667,4,2,1,5,0,0
87457,-66.6666666666667,4,2,1,85,0,0
87800,-55.5555555555556,4,2,1,85,0,1
88057,-55.5555555555556,4,2,1,85,0,0
88743,-55.5555555555556,4,2,1,5,0,0
88829,-55.5555555555556,4,2,1,85,0,0
90200,-66.6666666666667,4,2,1,85,0,0
90286,-66.6666666666667,4,2,1,5,0,0
90371,-66.6666666666667,4,2,1,85,0,0
90457,-66.6666666666667,4,2,1,5,0,0
90543,-55.5555555555556,4,2,1,85,0,0
91486,-55.5555555555556,4,2,1,5,0,0
91572,-55.5555555555556,4,2,1,85,0,0
94229,-55.5555555555556,4,2,1,5,0,0
94315,-55.5555555555556,4,2,1,85,0,0
95686,-66.6666666666667,4,2,1,85,0,0
95771,-66.6666666666667,4,2,1,5,0,0
95857,-66.6666666666667,4,2,1,85,0,0
95943,-55.5555555555556,4,2,1,5,0,0
96029,-55.5555555555556,4,2,1,85,0,0
96971,-55.5555555555556,4,2,1,5,0,0
97057,-55.5555555555556,4,2,1,85,0,0
98714,-55.5555555555556,4,2,1,5,0,0
98771,-55.5555555555556,4,2,1,85,0,0
99200,-55.5555555555556,4,2,1,5,0,0
99286,-55.5555555555556,4,2,1,85,0,0
99714,-55.5555555555556,4,2,1,5,0,0
99800,-55.5555555555556,4,2,1,85,0,0
101686,-55.5555555555556,4,2,1,85,0,0
101943,-55.5555555555556,4,2,1,5,0,0
102029,-55.5555555555556,4,2,1,85,0,0
102457,-55.5555555555556,4,2,1,5,0,0
102543,-55.5555555555556,4,2,1,85,0,0
104686,-55.5555555555556,4,2,1,5,0,0
104772,-55.5555555555556,4,2,1,85,0,0
105200,-55.5555555555556,4,2,1,5,0,0
105286,-55.5555555555556,4,2,1,85,0,0
107172,-55.5555555555556,4,2,1,85,0,0
107429,-55.5555555555556,4,2,1,5,0,0
107515,-55.5555555555556,4,2,1,85,0,0
107600,-55.5555555555556,4,2,1,5,0,0
107686,-55.5555555555556,4,2,1,85,0,0
107943,-55.5555555555556,4,2,1,5,0,0
108029,-55.5555555555556,4,2,1,85,0,0
108114,-55.5555555555556,4,2,1,5,0,0
108200,-55.5555555555556,4,2,1,85,0,0
108286,-55.5555555555556,4,2,1,5,0,0
108372,-55.5555555555556,4,2,1,85,0,0
109743,-66.6666666666667,4,2,1,70,0,0
110686,-66.6666666666667,4,2,1,5,0,0
110771,-66.6666666666667,4,2,1,70,0,0
112057,-66.6666666666667,4,2,1,5,0,0
112143,-66.6666666666667,4,2,1,70,0,0
112400,-66.6666666666667,4,2,1,5,0,0
112486,-66.6666666666667,4,2,1,70,0,0
113429,-66.6666666666667,4,2,1,5,0,0
113514,-66.6666666666667,4,2,1,70,0,0
113943,-66.6666666666667,4,2,1,5,0,0
114028,-66.6666666666667,4,2,1,70,0,0
114114,-66.6666666666667,4,2,1,5,0,0
114199,-66.6666666666667,4,2,1,70,0,0
114886,-55.5555555555556,4,2,1,70,0,0
114971,-66.6666666666667,4,2,1,5,0,0
115056,-55.5555555555556,4,2,1,70,0,0
115143,-66.6666666666667,4,2,1,5,0,0
115229,-66.6666666666667,4,2,1,70,0,0
116171,-66.6666666666667,4,2,1,5,0,0
116256,-66.6666666666667,4,2,1,70,0,0
117543,-66.6666666666667,4,2,1,5,0,0
117629,-66.6666666666667,4,2,1,70,0,0
117886,-66.6666666666667,4,2,1,5,0,0
117971,-66.6666666666667,4,2,1,70,0,0
118143,-55.5555555555556,4,2,1,70,0,0
118229,-55.5555555555556,4,2,1,5,0,0
118314,-55.5555555555556,4,2,1,70,0,0
118400,-55.5555555555556,4,2,1,5,0,0
118486,-66.6666666666667,4,2,1,70,0,0
119343,-55.5555555555556,4,2,1,70,0,0
119429,-55.5555555555556,4,2,1,5,0,0
119514,-55.5555555555556,4,2,1,70,0,0
119600,-55.5555555555556,4,2,1,5,0,0
119685,-55.5555555555556,4,2,1,70,0,0
119771,-55.5555555555556,4,2,1,5,0,0
119856,-55.5555555555556,4,2,1,70,0,0
119943,-55.5555555555556,4,2,1,5,0,0
120028,-55.5555555555556,4,2,1,70,0,0
120114,-55.5555555555556,4,2,1,5,0,0
120199,-55.5555555555556,4,2,1,70,0,0
120286,-55.5555555555556,4,2,1,5,0,0
120371,-55.5555555555556,4,2,1,70,0,0
120714,-66.6666666666667,4,2,1,70,0,0
121657,-66.6666666666667,4,2,1,5,0,0
121742,-66.6666666666667,4,2,1,70,0,0
123029,-66.6666666666667,4,2,1,5,0,0
123114,-66.6666666666667,4,2,1,70,0,0
123371,-66.6666666666667,4,2,1,5,0,0
123457,-66.6666666666667,4,2,1,70,0,0
124400,-66.6666666666667,4,2,1,5,0,0
124486,-52.6315789473684,4,2,1,70,0,0
125171,-66.6666666666667,4,2,1,70,0,0
125857,-55.5555555555556,4,2,1,70,0,0
125943,-55.5555555555556,4,2,1,5,0,0
126029,-55.5555555555556,4,2,1,70,0,0
126114,-55.5555555555556,4,2,1,5,0,0
126200,-55.5555555555556,4,2,1,70,0,0
126286,-55.5555555555556,4,2,1,5,0,0
126372,-55.5555555555556,4,2,1,70,0,0
126457,-55.5555555555556,4,2,1,5,0,0
126543,-55.5555555555556,4,2,1,70,0,0
126629,-55.5555555555556,4,2,1,5,0,0
126714,-66.6666666666667,4,2,1,70,0,0
127143,-66.6666666666667,4,2,1,5,0,0
127228,-66.6666666666667,4,2,1,70,0,0
128256,-66.6666666666667,4,2,1,70,0,0
128514,-66.6666666666667,4,2,1,5,0,0
128600,-45.4545454545455,4,2,1,70,0,0
128943,-55.5555555555556,4,2,1,70,0,0
129029,-55.5555555555556,4,2,1,5,0,0
129115,-55.5555555555556,4,2,1,70,0,0
129200,-55.5555555555556,4,2,1,5,0,0
129286,-55.5555555555556,4,2,1,70,0,0
129371,-55.5555555555556,4,2,1,5,0,0
129457,-55.5555555555556,4,2,1,70,0,0
129543,-55.5555555555556,4,2,1,5,0,0
129629,-55.5555555555556,4,2,1,70,0,0
129714,-55.5555555555556,4,2,1,5,0,0
129800,-55.5555555555556,4,2,1,70,0,0
129886,-55.5555555555556,4,2,1,5,0,0
129972,-55.5555555555556,4,2,1,70,0,0
130057,-55.5555555555556,4,2,1,5,0,0
130143,-55.5555555555556,4,2,1,70,0,0
130229,-55.5555555555556,4,2,1,5,0,0
130315,-55.5555555555556,4,2,1,70,0,0
131343,-55.5555555555556,4,2,1,70,0,0
131600,-55.5555555555556,4,2,1,5,0,0
131686,342.857142857143,3,2,1,50,1,0
131686,-133.333333333333,3,2,1,50,0,0
135800,-100,3,2,1,60,0,0
137257,-100,3,2,1,5,0,0
137343,-100,3,2,1,60,0,0
137600,-100,3,2,1,5,0,0
137686,-100,3,2,1,60,0,0
139314,-100,3,2,1,5,0,0
139400,-100,3,2,1,60,0,0
139486,-100,3,2,1,5,0,0
139571,-100,3,2,1,60,0,0
139914,-83.3333333333333,3,2,1,70,0,0
143771,-83.3333333333333,3,2,1,5,0,0
143857,-83.3333333333333,3,2,1,70,0,0
143943,-83.3333333333333,3,2,1,5,0,0
144028,-71.4285714285714,3,2,1,80,0,0
145143,-71.4285714285714,3,2,1,5,0,0
145228,-71.4285714285714,3,2,1,80,0,0
145486,-71.4285714285714,3,2,1,5,0,0
145571,-71.4285714285714,3,2,1,80,0,0
145657,-71.4285714285714,3,2,1,5,0,0
145743,-71.4285714285714,3,2,1,80,0,0
146000,-71.4285714285714,3,2,1,5,0,0
146086,-71.4285714285714,3,2,1,80,0,0
149257,-71.4285714285714,3,2,1,5,0,0
149343,-71.4285714285714,3,2,1,80,0,0
151314,-71.4285714285714,3,2,1,5,0,0
151400,-71.4285714285714,3,2,1,80,0,0
155428,-71.4285714285714,3,2,1,5,0,0
155514,-71.4285714285714,3,2,1,80,0,0
157143,-71.4285714285714,3,2,1,5,0,0
157229,-71.4285714285714,3,2,1,80,0,0
162971,-71.4285714285714,3,2,1,5,0,0
163057,-71.4285714285714,3,2,1,80,0,0
163143,-71.4285714285714,3,2,1,5,0,0
163228,-71.4285714285714,3,2,1,80,0,0
163486,-71.4285714285714,3,2,1,5,0,0
163571,-71.4285714285714,3,2,1,80,0,0
164171,-71.4285714285714,3,2,1,5,0,0
164257,-58.8235294117647,3,2,1,80,0,0
164343,-58.8235294117647,3,2,1,5,0,0
164428,-58.8235294117647,3,2,1,80,0,0
164514,-58.8235294117647,3,2,1,5,0,0
164600,-55.5555555555556,3,2,1,100,0,1
164857,-55.5555555555556,3,2,1,100,0,1
165714,-55.5555555555556,3,2,1,5,0,1
165800,-55.5555555555556,3,2,1,100,0,1
166228,-55.5555555555556,3,2,1,5,0,1
166314,-55.5555555555556,3,2,1,100,0,1
166743,-55.5555555555556,3,2,1,5,0,1
166828,-55.5555555555556,3,2,1,100,0,1
167771,-55.5555555555556,3,2,1,5,0,1
167856,-55.5555555555556,3,2,1,100,0,1
168286,-55.5555555555556,3,2,1,5,0,1
168371,-55.5555555555556,3,2,1,100,0,1
168628,-55.5555555555556,3,2,1,5,0,1
168713,-55.5555555555556,3,2,1,100,0,1
168800,-55.5555555555556,3,2,1,5,0,1
168885,-55.5555555555556,3,2,1,100,0,1
169828,-55.5555555555556,3,2,1,5,0,1
169913,-55.5555555555556,3,2,1,100,0,1
170171,-55.5555555555556,3,2,1,5,0,1
170256,-55.5555555555556,3,2,1,100,0,1
170686,-55.5555555555556,3,2,1,5,0,1
170771,-55.5555555555556,3,2,1,100,0,1
171886,-55.5555555555556,3,2,1,5,0,1
171971,-55.5555555555556,3,2,1,100,0,1
172228,-55.5555555555556,3,2,1,5,0,1
172313,-55.5555555555556,3,2,1,100,0,1
173943,-55.5555555555556,3,2,1,5,0,1
174028,-55.5555555555556,3,2,1,100,0,1
174457,-55.5555555555556,3,2,1,5,0,1
174542,-55.5555555555556,3,2,1,100,0,1
174971,-55.5555555555556,3,2,1,5,0,1
175056,-55.5555555555556,3,2,1,100,0,1
176000,-55.5555555555556,3,2,1,5,0,1
176085,-55.5555555555556,3,2,1,100,0,1
176514,-55.5555555555556,3,2,1,5,0,1
176599,-55.5555555555556,3,2,1,100,0,1
177028,-55.5555555555556,3,2,1,5,0,1
177113,-55.5555555555556,3,2,1,100,0,1
178057,-55.5555555555556,3,2,1,5,0,1
178142,-55.5555555555556,3,2,1,100,0,1
178400,-55.5555555555556,3,2,1,5,0,1
178485,-55.5555555555556,3,2,1,100,0,1
178914,-55.5555555555556,3,2,1,5,0,1
178999,-55.5555555555556,3,2,1,100,0,1
180028,-55.5555555555556,3,2,1,100,0,0
181057,-55.5555555555556,3,2,1,100,0,1
182171,-55.5555555555556,3,2,1,5,0,1
182257,-55.5555555555556,3,2,1,100,0,1
182686,-55.5555555555556,3,2,1,5,0,1
182772,-55.5555555555556,3,2,1,100,0,1
183200,-55.5555555555556,3,2,1,5,0,1
183286,-55.5555555555556,3,2,1,100,0,1
184228,-55.5555555555556,3,2,1,5,0,1
184314,-55.5555555555556,3,2,1,100,0,1
184743,-55.5555555555556,3,2,1,5,0,1
184829,-55.5555555555556,3,2,1,100,0,1
185257,-55.5555555555556,3,2,1,5,0,1
185343,-55.5555555555556,3,2,1,100,0,1
186286,-55.5555555555556,3,2,1,5,0,1
186372,-55.5555555555556,3,2,1,100,0,1
186628,-55.5555555555556,3,2,1,5,0,1
186714,-55.5555555555556,3,2,1,100,0,1
188343,-55.5555555555556,3,2,1,5,0,1
188429,-55.5555555555556,3,2,1,100,0,1
188686,-55.5555555555556,3,2,1,5,0,1
188772,-55.5555555555556,3,2,1,100,0,1
188857,-55.5555555555556,3,2,1,5,0,1
188943,-55.5555555555556,3,2,1,100,0,1
189200,-55.5555555555556,3,2,1,5,0,1
189286,-55.5555555555556,3,2,1,100,0,1
190057,-55.5555555555556,3,2,1,5,0,1
190143,-55.5555555555556,3,2,1,100,0,1
190400,-55.5555555555556,3,2,1,5,0,1
190486,-55.5555555555556,3,2,1,100,0,1
194171,-55.5555555555556,3,2,1,5,0,1
194257,-55.5555555555556,3,2,1,100,0,1
194343,-55.5555555555556,3,2,1,5,0,1
194429,-55.5555555555556,3,2,1,100,0,1
194857,-55.5555555555556,3,2,1,5,0,1
194943,-55.5555555555556,3,2,1,100,0,1
197086,-55.5555555555556,3,2,1,5,0,1
197172,-55.5555555555556,3,2,1,100,0,1
197257,-55.5555555555556,3,2,1,5,0,1
197343,-55.5555555555556,3,2,1,100,0,1
197428,-55.5555555555556,3,2,1,5,0,1
197514,342.857142857143,4,2,1,100,1,0
197514,-55.5555555555556,3,2,1,100,0,0
197856,-71.4285714285714,4,2,1,100,0,0
198114,-55.5555555555556,3,2,1,5,0,0
198199,-71.4285714285714,3,2,1,100,0,0
198456,-55.5555555555556,3,2,1,5,0,0
198542,-71.4285714285714,3,2,1,100,0,0
198799,-55.5555555555556,3,2,1,5,0,0
198885,-66.6666666666667,3,2,1,85,0,0
199142,-66.6666666666667,3,2,1,5,0,0
199228,-66.6666666666667,3,2,1,85,0,0
199485,-66.6666666666667,3,2,1,5,0,0
199571,-66.6666666666667,3,2,1,85,0,0
199656,-66.6666666666667,3,2,1,5,0,0
199742,-66.6666666666667,3,2,1,85,0,0
200514,-66.6666666666667,3,2,1,5,0,0
200600,-66.6666666666667,3,2,1,85,0,0
200856,-66.6666666666667,3,2,1,5,0,0
200942,-66.6666666666667,3,2,1,85,0,0
201199,-66.6666666666667,3,2,1,5,0,0
201285,-66.6666666666667,3,2,1,85,0,0
201885,-66.6666666666667,3,2,1,5,0,0
201971,-66.6666666666667,3,2,1,85,0,0
203256,-66.6666666666667,3,2,1,5,0,0
203342,-66.6666666666667,3,2,1,85,0,0
203428,-66.6666666666667,3,2,1,5,0,0
203514,-66.6666666666667,3,2,1,85,0,0
203942,-66.6666666666667,3,2,1,5,0,0
204028,-66.6666666666667,3,2,1,85,0,0
204371,-55.5555555555556,3,2,1,100,0,0
204628,-55.5555555555556,3,2,1,5,0,0
204714,-55.5555555555556,3,2,1,85,0,0
204971,-55.5555555555556,3,2,1,5,0,0
205057,-55.5555555555556,3,2,1,85,0,0
205142,-55.5555555555556,3,2,1,5,0,0
205228,-55.5555555555556,3,2,1,85,0,0
205999,-55.5555555555556,3,2,1,5,0,0
206085,-55.5555555555556,3,2,1,85,0,0
206514,-55.5555555555556,3,2,1,5,0,0
206600,-55.5555555555556,3,2,1,85,0,0
206685,-55.5555555555556,3,2,1,5,0,0
206771,-55.5555555555556,3,2,1,85,0,0
215342,-55.5555555555556,3,2,1,85,0,1
215599,-55.5555555555556,3,2,1,85,0,0
216285,-55.5555555555556,3,2,1,5,0,0
216371,-55.5555555555556,3,2,1,85,0,0
217828,-55.5555555555556,3,2,1,5,0,0
217914,-55.5555555555556,3,2,1,85,0,0
217999,-55.5555555555556,3,2,1,5,0,0
218085,-55.5555555555556,3,2,1,85,0,0
219028,-55.5555555555556,3,2,1,5,0,0
219114,-55.5555555555556,3,2,1,85,0,0
220999,-55.5555555555556,3,2,1,85,0,0
221256,-55.5555555555556,3,2,1,5,0,0
221341,-55.5555555555556,3,2,1,85,0,0
221771,-55.5555555555556,3,2,1,5,0,0
221856,-55.5555555555556,3,2,1,85,0,0
223741,-55.5555555555556,3,2,1,85,0,0
223999,-55.5555555555556,3,2,1,5,0,0
224084,-55.5555555555556,3,2,1,85,0,0
224514,-55.5555555555556,3,2,1,5,0,0
224599,-55.5555555555556,3,2,1,85,0,0
226484,-55.5555555555556,3,2,1,85,0,0
226742,-55.5555555555556,3,2,1,5,0,0
226827,-55.5555555555556,3,2,1,85,0,0
227256,-55.5555555555556,3,2,1,5,0,0
227341,-55.5555555555556,3,2,1,85,0,0
229485,-55.5555555555556,3,2,1,5,0,0
229570,-55.5555555555556,3,2,1,85,0,0
229656,-55.5555555555556,3,2,1,5,0,0
229741,-55.5555555555556,3,2,1,85,0,0
229999,-55.5555555555556,3,2,1,5,0,0
230084,-55.5555555555556,3,2,1,85,0,0
230171,-55.5555555555556,3,2,1,5,0,0
230256,-55.5555555555556,3,2,1,85,0,0
230342,-55.5555555555556,3,2,1,5,0,0
230427,-55.5555555555556,3,2,1,85,0,0
231799,-66.6666666666667,3,2,1,70,0,0
232742,-66.6666666666667,3,2,1,5,0,0
232828,-55.5555555555556,3,2,1,70,0,0
233856,-66.6666666666667,3,2,1,70,0,0
234114,-66.6666666666667,3,2,1,5,0,0
234199,-58.8235294117647,3,2,1,70,0,0
234456,-58.8235294117647,3,2,1,5,0,0
234542,-66.6666666666667,3,2,1,70,0,0
235485,-66.6666666666667,3,2,1,5,0,0
235571,-52.6315789473684,3,2,1,70,0,0
236085,-66.6666666666667,3,2,1,70,0,0
236171,-66.6666666666667,3,2,1,5,0,0
236256,-66.6666666666667,3,2,1,70,0,0
236942,-55.5555555555556,3,2,1,70,0,0
237028,-55.5555555555556,3,2,1,5,0,0
237114,-55.5555555555556,3,2,1,70,0,0
237199,-55.5555555555556,3,2,1,5,0,0
237285,-55.5555555555556,3,2,1,70,0,0
237456,-66.6666666666667,3,2,1,70,0,0
238228,-66.6666666666667,3,2,1,5,0,0
238314,-55.5555555555556,3,2,1,70,0,0
239342,-66.6666666666667,3,2,1,70,0,0
239599,-66.6666666666667,3,2,1,5,0,0
239685,-58.8235294117647,3,2,1,70,0,0
239942,-58.8235294117647,3,2,1,5,0,0
240028,-58.8235294117647,3,2,1,70,0,0
240199,-55.5555555555556,3,2,1,70,0,0
240285,-55.5555555555556,3,2,1,5,0,0
240371,-55.5555555555556,3,2,1,70,0,0
240456,-55.5555555555556,3,2,1,5,0,0
240542,-66.6666666666667,3,2,1,70,0,0
241056,-52.6315789473684,3,2,1,70,0,0
241399,-66.6666666666667,3,2,1,70,0,0
241485,-66.6666666666667,3,2,1,5,0,0
241571,-66.6666666666667,3,2,1,70,0,0
241656,-66.6666666666667,3,2,1,5,0,0
241742,-66.6666666666667,3,2,1,70,0,0
241828,-66.6666666666667,3,2,1,5,0,0
241914,-66.6666666666667,3,2,1,70,0,0
241999,-66.6666666666667,3,2,1,5,0,0
242085,-66.6666666666667,3,2,1,70,0,0
243714,-66.6666666666667,3,2,1,5,0,0
243799,-55.5555555555556,3,2,1,70,0,0
244314,-66.6666666666667,3,2,1,70,0,0
244485,-66.6666666666667,3,2,1,70,0,0
244656,-66.6666666666667,3,2,1,70,0,0
244828,-66.6666666666667,3,2,1,70,0,0
245085,-66.6666666666667,3,2,1,5,0,0
245171,-58.8235294117647,3,2,1,70,0,0
245428,-58.8235294117647,3,2,1,5,0,0
245514,-66.6666666666667,3,2,1,70,0,0
246456,-66.6666666666667,3,2,1,5,0,0
246542,-52.6315789473684,3,2,1,70,0,0
246885,-66.6666666666667,3,2,1,70,0,0
246971,-66.6666666666667,3,2,1,5,0,0
247056,-66.6666666666667,3,2,1,70,0,0
247142,-66.6666666666667,3,2,1,5,0,0
247228,-66.6666666666667,3,2,1,70,0,0
248256,-55.5555555555556,3,2,1,70,0,0
248342,-55.5555555555556,3,2,1,5,0,0
248428,-55.5555555555556,3,2,1,70,0,0
248514,-55.5555555555556,3,2,1,5,0,0
248599,-55.5555555555556,3,2,1,70,0,0
248685,-55.5555555555556,3,2,1,5,0,0
248771,-66.6666666666667,3,2,1,70,0,0
249199,-66.6666666666667,3,2,1,5,0,0
249285,-55.5555555555556,3,2,1,70,0,0
249628,-66.6666666666667,3,2,1,70,0,0
249800,-66.6666666666667,3,2,1,70,0,0
249971,-66.6666666666667,3,2,1,70,0,0
250143,-66.6666666666667,3,2,1,70,0,0
250314,-66.6666666666667,3,2,1,70,0,0
250399,-66.6666666666667,3,2,1,5,0,0
250485,-66.6666666666667,3,2,1,70,0,0
250571,-66.6666666666667,3,2,1,5,0,0
250656,-58.8235294117647,3,2,1,70,0,0
250914,-58.8235294117647,3,2,1,5,0,0
250999,-58.8235294117647,3,2,1,70,0,0
251171,-55.5555555555556,3,2,1,70,0,0
251256,-55.5555555555556,3,2,1,5,0,0
251342,-55.5555555555556,3,2,1,70,0,0
251428,-55.5555555555556,3,2,1,5,0,0
251514,-66.6666666666667,3,2,1,70,0,0
252028,-52.6315789473684,3,2,1,70,0,0
252371,-66.6666666666667,3,2,1,70,0,0
252457,-66.6666666666667,3,2,1,5,0,0
252543,-66.6666666666667,3,2,1,70,0,0
252714,-55.5555555555556,3,2,1,70,0,0
252800,-66.6666666666667,3,2,1,5,0,0
252885,-55.5555555555556,3,2,1,70,0,0
252971,-66.6666666666667,3,2,1,5,0,0
253056,-66.6666666666667,3,2,1,70,0,0
253742,-83.3333333333333,3,2,1,70,0,0
255028,-83.3333333333333,3,2,1,5,0,0
255114,-83.3333333333333,3,2,1,70,0,0
256056,-83.3333333333333,3,2,1,5,0,0
256142,-83.3333333333333,3,2,1,70,0,0
256399,-83.3333333333333,3,2,1,5,0,0
256485,-83.3333333333333,3,2,1,70,0,0
256571,-83.3333333333333,3,2,1,5,0,0
256656,-83.3333333333333,3,2,1,70,0,0
257514,-66.6666666666667,3,2,1,70,0,0
257771,-83.3333333333333,3,2,1,5,0,0
257857,-83.3333333333333,3,2,1,70,0,0
258199,-83.3333333333333,3,2,1,70,0,0
260514,-83.3333333333333,3,2,1,5,0,0
260600,-83.3333333333333,3,2,1,70,0,0
261542,-83.3333333333333,3,2,1,5,0,0
261628,-83.3333333333333,3,2,1,70,0,0
261885,-83.3333333333333,3,2,1,5,0,0
261971,-83.3333333333333,3,2,1,70,0,0
262999,-66.6666666666667,3,2,1,70,0,0
263256,-66.6666666666667,3,2,1,5,0,0
263342,-66.6666666666667,3,2,1,70,0,0
264714,-83.3333333333333,3,2,1,70,0,0
265999,-83.3333333333333,3,2,1,5,0,0
266085,-83.3333333333333,3,2,1,70,0,0
267028,-83.3333333333333,3,2,1,5,0,0
267114,-83.3333333333333,3,2,1,70,0,0
267371,-83.3333333333333,3,2,1,5,0,0
267456,-83.3333333333333,3,2,1,70,0,0
267542,-83.3333333333333,3,2,1,5,0,0
267628,-83.3333333333333,3,2,1,70,0,0
268485,-66.6666666666667,3,2,1,70,0,0
268742,-83.3333333333333,3,2,1,5,0,0
268827,-83.3333333333333,3,2,1,70,0,0
271485,-83.3333333333333,3,2,1,5,0,0
271571,-83.3333333333333,3,2,1,70,0,0
272514,-83.3333333333333,3,2,1,5,0,0
272599,-83.3333333333333,3,2,1,70,0,0
272856,-83.3333333333333,3,2,1,5,0,0
272942,-83.3333333333333,3,2,1,70,0,0
273971,-66.6666666666667,3,2,1,70,0,0
274228,-66.6666666666667,3,2,1,5,0,0
274314,-83.3333333333333,3,2,1,70,0,0
275256,-83.3333333333333,3,2,1,5,0,0
275342,-83.3333333333333,3,2,1,70,0,0
275428,-83.3333333333333,3,2,1,5,0,0
275514,-83.3333333333333,3,2,1,70,0,0
275599,-83.3333333333333,3,2,1,5,0,0
275685,-100,3,2,1,70,0,0
276628,-100,3,2,1,5,0,0
276714,-100,3,2,1,70,0,0
277656,-100,3,2,1,5,0,0
277742,-100,3,2,1,70,0,0
278171,-100,3,2,1,5,0,0
278257,-100,3,2,1,70,0,0
278342,-100,3,2,1,5,0,0
278428,-100,3,2,1,70,0,0
279371,-100,3,2,1,5,0,0
279457,-100,3,2,1,70,0,0
280399,-100,3,2,1,5,0,0
280485,-100,3,2,1,70,0,0
282114,-100,3,2,1,5,0,0
282200,-100,3,2,1,70,0,0
283142,-100,3,2,1,5,0,0
283228,-100,3,2,1,70,0,0
283656,-100,3,2,1,5,0,0
283742,-100,3,2,1,70,0,0
283828,-100,3,2,1,5,0,0
283914,-100,3,2,1,70,0,0
284856,-100,3,2,1,5,0,0
284942,-100,3,2,1,70,0,0
287599,-100,3,2,1,5,0,0
287685,-100,3,2,1,70,0,0
288628,-100,3,2,1,5,0,0
288714,-100,3,2,1,70,0,0
290342,-100,3,2,1,5,0,0
290428,-100,3,2,1,70,0,0
291371,-100,3,2,1,5,0,0
291457,-100,3,2,1,70,0,0
293085,-100,3,2,1,5,0,0
293171,-100,3,2,1,70,0,0
294885,-133.333333333333,3,2,1,55,0,0
297628,346.820809248555,3,2,1,40,1,0
297802,355.029585798817,3,2,1,40,1,0
297980,389.61038961039,3,2,1,40,1,0
298175,413.793103448276,3,2,1,40,1,0
298382,451.127819548872,3,2,1,40,1,0
298608,500,3,2,1,35,1,0
298857,512.820512820513,3,2,1,35,1,0
299114,625,3,2,1,35,1,0
299426,731.707317073171,3,2,1,30,1,0
299792,821.91780821918,3,2,1,30,1,0
299997,1052.63157894737,3,2,1,30,1,0
300260,1200,3,2,1,20,1,0
301160,-100,3,2,1,5,0,0

[Colours]
Combo1 : 81,143,174
Combo2 : 180,143,239
Combo3 : 132,53,219
Combo4 : 60,77,196

[HitObjects]
37,84,29,5,6,1:2:0:0:
184,136,286,1,2,0:2:0:0:
184,136,371,1,2,1:2:0:0:
238,69,543,1,0,0:2:0:0:
376,109,714,1,0,1:2:0:0:
37,84,1057,5,2,1:2:0:0:
184,136,1314,1,2,0:2:0:0:
184,136,1399,1,2,1:2:0:0:
238,69,1571,1,2,0:2:0:0:
276,148,1742,1,2,1:2:0:0:
421,332,2086,6,0,P|452:347|443:315,1,71.2500027179719,0|0,1:2|0:2,0:2:0:0:
399,248,2429,1,0,1:2:0:0:
214,370,2771,1,0,1:2:0:0:
33,252,3114,1,0,1:2:0:0:
345,73,3457,6,0,P|314:58|323:90,1,71.2500027179719,0|0,1:2|0:2,0:2:0:0:
364,166,3800,1,0,1:2:0:0:
199,36,4142,1,0,1:2:0:0:
45,167,4485,1,0,1:2:0:0:
322,323,4829,6,0,P|353:338|344:306,1,71.2500027179719,0|0,1:2|0:2,0:2:0:0:
228,246,5171,1,0,1:2:0:0:
341,193,5343,1,0,1:2:0:0:
224,116,5514,1,0,1:2:0:0:
395,43,5857,1,0,1:2:0:0:
104,7,6200,6,0,P|89:38|121:29,1,71.2500027179719,0|0,1:2|0:2,0:2:0:0:
203,0,6543,1,0,1:2:0:0:
79,147,6886,1,0,1:2:0:0:
196,293,7229,1,0,1:2:0:0:
443,59,7571,6,0,P|458:28|426:37,1,71.2500027179719,0|0,1:2|0:2,0:2:0:0:
344,66,7914,1,0,1:2:0:0:
291,292,8257,1,0,1:2:0:0:
389,244,8429,1,0,1:2:0:0:
369,357,8600,1,0,1:2:0:0:
82,249,8943,6,0,P|67:280|99:271,1,71.2500027179719,0|0,1:2|0:2,0:2:0:0:
174,203,9286,1,0,1:2:0:0:
93,32,9629,1,0,1:2:0:0:
37,121,9800,1,0,1:2:0:0:
28,140,9886,1,0,1:2:0:0:
19,157,9971,1,0,1:2:0:0:
84,52,10143,1,0,1:2:0:0:
174,203,10314,6,0,P|203:220|197:187,1,71.2500027179719,0|0,1:2|0:2,0:2:0:0:
241,89,10657,1,0,1:2:0:0:
336,160,10829,1,0,1:2:0:0:
261,293,11000,5,2,1:2:0:0:
174,162,11257,1,2,0:2:0:0:
174,162,11343,1,2,1:2:0:0:
99,229,11514,1,2,0:2:0:0:
23,96,11686,1,2,1:2:0:0:
261,293,12029,5,2,1:2:0:0:
174,162,12286,1,2,0:2:0:0:
174,162,12372,1,2,1:2:0:0:
99,229,12543,1,2,0:2:0:0:
7,188,12714,1,2,1:2:0:0:
152,23,13057,2,0,P|168:-9|188:28,1,71.2500027179719,0|0,1:2|0:2,0:2:0:0:
205,91,13400,1,0,1:2:0:0:
166,307,13743,5,0,1:2:0:0:
350,231,14086,1,0,1:2:0:0:
507,351,14429,2,0,P|491:383|471:346,1,71.2500027179719,0|0,1:2|0:2,0:2:0:0:
457,290,14771,1,0,1:2:0:0:
479,42,15114,5,0,1:2:0:0:
366,223,15457,1,0,1:2:0:0:
295,21,15800,2,0,P|265:9|254:39,1,71.2500027179719,0|0,1:2|0:2,0:2:0:0:
307,107,16143,1,0,1:2:0:0:
145,74,16314,1,0,1:2:0:0:
170,245,16486,5,0,1:2:0:0:
41,144,16657,1,0,1:2:0:0:
230,177,16829,1,0,1:2:0:0:
315,367,17171,2,0,P|303:333|343:345,1,71.2500027179719,0|0,1:2|0:2,0:2:0:0:
407,378,17514,1,0,1:2:0:0:
157,342,17857,5,0,1:2:0:0:
227,148,18200,1,0,1:2:0:0:
140,27,18371,2,0,B|151:12|151:12|144:-7,4,35.625001358986,0|0|0|0|0,1:2|0:2|0:2|0:2|0:2,0:2:0:0:
119,42,18629,1,0,1:2:0:0:
103,61,18714,1,0,1:2:0:0:
93,84,18800,1,0,1:2:0:0:
88,108,18886,1,0,1:2:0:0:
158,252,19057,1,0,1:2:0:0:
387,170,19229,1,4,1:2:0:0:
256,192,20771,12,0,21886,0:2:0:0:
387,170,21971,6,0,P|362:219|366:269,1,95,4|0,0:2|0:2,0:2:0:0:
415,342,22229,1,2,0:2:0:0:
415,342,22313,1,10,0:2:0:0:
286,378,22486,1,2,0:2:0:0:
187,287,22657,2,0,L|262:166,1,142.5,10|0,0:2|0:2,0:2:0:0:
387,170,23000,6,0,P|362:219|366:269,1,95,10|0,0:2|0:2,0:2:0:0:
415,342,23257,1,2,0:2:0:0:
415,342,23343,1,10,0:2:0:0:
286,378,23513,1,2,0:2:0:0:
187,287,23686,2,0,P|119:288|70:357,1,142.5,10|0,0:2|0:2,0:2:0:0:
111,250,24029,6,0,L|103:153,1,95,10|0,0:2|0:2,0:2:0:0:
190,95,24286,1,2,0:2:0:0:
190,95,24371,2,0,L|181:158,1,47.5,10|0,0:2|0:2,0:2:0:0:
19,103,24543,2,0,L|28:166,1,47.5,10|0,0:2|0:2,0:2:0:0:
106,19,24714,6,0,L|211:7,1,95,10|0,0:2|0:2,0:2:0:0:
283,58,24971,1,2,0:2:0:0:
283,58,25057,1,10,0:2:0:0:
408,11,25229,1,2,0:2:0:0:
480,122,25400,2,0,P|421:160|353:121,1,142.5,10|0,0:2|0:2,0:2:0:0:
276,62,25743,6,0,L|283:168,1,95,10|0,0:2|0:2,0:2:0:0:
239,237,26000,1,2,0:2:0:0:
239,237,26086,1,8,0:2:0:0:
366,275,26257,1,2,0:0:0:0:
274,372,26429,2,0,P|222:353|162:368,1,95,10|0,0:2|0:2,0:2:0:0:
37,314,26771,6,0,L|66:353,1,47.5,10|0,0:2|0:2,0:2:0:0:
127,193,26943,2,0,L|98:232,1,47.5,10|0,0:2|0:2,0:2:0:0:
18,91,27114,2,0,L|47:130,1,47.5,10|0,0:2|0:2,0:2:0:0:
97,13,27286,1,10,0:2:0:0:
257,64,27457,6,0,P|306:89|356:85,1,95,10|0,0:2|0:2,0:2:0:0:
429,36,27715,1,2,0:2:0:0:
429,36,27799,1,10,0:2:0:0:
465,165,27971,1,2,0:2:0:0:
374,264,28143,2,0,L|253:189,1,142.5,10|0,0:2|0:2,0:2:0:0:
257,64,28486,6,0,P|306:89|356:85,1,95,10|0,0:2|0:2,0:2:0:0:
429,36,28743,1,2,0:2:0:0:
429,36,28829,1,10,0:2:0:0:
465,165,28999,1,2,0:2:0:0:
374,264,29172,2,0,P|385:333|461:359,1,142.5,10|0,0:2|0:2,0:2:0:0:
342,335,29514,6,0,L|236:316,1,95,10|0,0:2|0:2,0:2:0:0:
138,384,29771,1,2,0:2:0:0:
138,384,29857,2,0,L|205:370,1,47.5,10|0,0:2|0:2,0:2:0:0:
158,235,30029,2,0,L|225:249,1,47.5,10|0,0:2|0:2,0:2:0:0:
67,294,30200,6,0,L|54:172,1,95,10|0,0:2|0:2,0:2:0:0:
16,116,30457,1,2,0:2:0:0:
16,116,30543,1,10,0:2:0:0:
135,58,30714,1,2,0:2:0:0:
252,121,30886,2,0,P|303:95|312:9,1,142.5,10|0,0:2|0:2,0:2:0:0:
343,100,31229,6,0,L|454:132,1,95,10|0,0:2|0:2,0:2:0:0:
511,86,31486,1,2,0:2:0:0:
511,86,31571,1,10,0:2:0:0:
499,226,31743,2,0,L|500:266,4,35.625001358986,10|0|0|0|8,0:2|0:2|0:2|0:2|0:2,0:2:0:0:
355,364,32086,2,0,L|372:305,1,47.5,10|0,0:2|0:2,0:2:0:0:
237,296,32257,2,0,L|276:345,1,47.5,10|0,0:2|0:2,0:2:0:0:
314,239,32429,5,10,0:2:0:0:
314,239,32514,1,2,0:2:0:0:
314,239,32600,1,10,0:2:0:0:
240,128,32771,1,10,0:2:0:0:
98,292,32943,6,0,P|109:247|83:186,1,95,12|0,1:2|0:2,0:2:0:0:
21,124,33200,1,2,0:2:0:0:
21,124,33286,1,10,1:2:0:0:
114,1,33457,1,2,0:2:0:0:
216,90,33629,2,0,P|234:173|203:229,1,142.5,10|0,1:2|0:2,0:2:0:0:
98,292,33971,6,0,P|109:247|83:186,1,95,10|0,1:2|0:2,0:2:0:0:
21,124,34229,1,2,0:2:0:0:
21,124,34314,1,10,1:2:0:0:
114,1,34486,1,2,0:2:0:0:
216,90,34657,2,0,P|299:123|359:98,1,142.5,10|0,1:2|0:2,0:2:0:0:
220,142,35000,6,0,P|198:204|199:237,1,95,10|0,1:2|0:2,0:2:0:0:
260,330,35257,1,2,0:2:0:0:
260,330,35343,2,0,L|314:313,1,47.5,10|0,1:2|0:2,0:2:0:0:
451,369,35514,2,0,L|397:352,1,47.5,8|0,1:2|0:2,0:2:0:0:
343,238,35686,6,0,P|326:182|346:124,1,95,10|0,1:2|0:2,0:2:0:0:
413,62,35943,1,2,0:2:0:0:
413,62,36029,1,10,1:2:0:0:
268,0,36200,1,2,0:2:0:0:
150,69,36371,2,0,P|158:149|202:191,1,142.5,10|0,1:2|0:2,0:2:0:0:
343,238,36714,6,0,P|326:182|346:124,1,95,10|0,1:2|0:2,0:2:0:0:
413,62,36971,1,2,0:2:0:0:
413,62,37057,1,10,1:2:0:0:
268,0,37228,1,2,0:2:0:0:
150,69,37400,2,0,L|131:223,1,142.5,10|0,1:2|0:2,0:2:0:0:
79,312,37743,1,10,1:2:0:0:
215,379,37914,1,2,0:2:0:0:
386,300,38086,1,10,1:2:0:0:
381,264,38171,1,10,0:2:0:0:
377,229,38257,1,10,0:2:0:0:
372,193,38343,1,10,0:2:0:0:
368,158,38429,5,10,1:2:0:0:
258,216,38600,1,2,0:2:0:0:
285,68,38771,1,10,1:2:0:0:
458,141,38943,1,0,0:2:0:0:
285,68,39114,2,0,P|253:75|204:117,1,95,10|0,1:2|0:2,0:2:0:0:
140,278,39457,6,0,L|127:181,1,95,10|0,1:2|0:2,0:2:0:0:
53,113,39714,1,2,0:2:0:0:
53,113,39800,1,10,1:2:0:0:
216,39,39971,1,2,0:2:0:0:
185,237,40143,1,10,1:2:0:0:
131,35,40314,1,2,0:2:0:0:
264,176,40486,6,0,L|367:154,1,95,10|0,1:2|0:2,0:2:0:0:
441,72,40743,1,2,0:2:0:0:
441,72,40829,1,10,1:2:0:0:
262,11,41000,1,2,0:2:0:0:
324,220,41171,5,6,1:2:0:0:
322,234,41257,1,8,0:2:0:0:
320,248,41343,1,10,0:2:0:0:
318,262,41428,1,10,0:2:0:0:
316,276,41514,5,10,1:2:0:0:
310,298,41599,1,8,0:2:0:0:
299,319,41685,1,10,0:2:0:0:
283,337,41771,1,8,0:2:0:0:
263,350,41856,5,10,1:2:0:0:
230,358,41943,1,8,0:2:0:0:
197,357,42029,1,8,0:2:0:0:
165,348,42115,1,8,0:2:0:0:
137,330,42200,5,10,1:2:0:0:
115,293,42286,1,8,0:2:0:0:
111,251,42372,1,8,0:2:0:0:
126,211,42458,1,10,0:2:0:0:
156,181,42543,5,10,1:2:0:0:
185,138,42629,1,8,0:2:0:0:
189,87,42715,1,8,0:2:0:0:
167,41,42801,1,10,0:2:0:0:
123,13,42886,5,10,1:2:0:0:
62,8,42972,1,8,0:2:0:0:
14,44,43057,1,8,0:2:0:0:
2,103,43144,1,8,0:2:0:0:
32,155,43229,6,0,P|85:177|135:172,1,95,2|0,0:2|0:2,0:2:0:0:
228,125,43486,1,2,0:2:0:0:
228,125,43571,1,2,0:2:0:0:
200,292,43743,1,2,0:2:0:0:
476,200,43914,6,0,B|436:159|390:163|360:198|357:201|355:205|320:242|280:244|221:205,1,256.499992172241,4|0,3:1|0:2,0:2:0:0:
267,41,44257,2,0,P|329:119|233:79,1,256.499992172241,0|0,3:0|0:2,0:2:0:0:
102,0,44600,2,0,B|124:75|124:75|77:159|77:159|103:247,1,256.499992172241,0|0,3:2|0:2,0:2:0:0:
46,345,44943,2,0,B|86:386|132:382|162:347|165:344|167:340|202:303|242:301|301:340,1,256.499992172241,0|0,3:2|0:2,0:2:0:0:
450,384,45286,6,0,P|399:294|524:293,1,256.499992172241,0|0,3:2|0:2,0:2:0:0:
372,153,45629,2,0,L|106:175,1,256.499992172241,0|0,3:2|0:2,0:2:0:0:
184,58,45971,2,0,B|183:123|239:158|239:158|311:195|328:274,1,256.499992172241,0|0,3:2|0:2,0:2:0:0:
208,290,46314,2,0,B|192:219|245:174|245:174|301:116|292:46,1,256.499992172241,0|0,3:2|0:2,0:2:0:0:
116,174,46657,6,0,L|371:152,1,256.499992172241,0|0,3:2|0:2,0:2:0:0:
512,274,47000,2,0,P|403:284|450:384,1,256.499992172241,0|0,3:2|0:2,0:2:0:0:
305,340,47343,2,0,B|230:318|230:318|146:365|146:365|58:339,1,256.499992172241,0|0,3:2|0:2,0:2:0:0:
169,200,47686,2,0,B|198:268|116:294|46:271|45:179|126:179|111:110|76:105,1,256.499992172241,0|0,3:2|0:0,0:0:0:0:
26,27,48029,6,0,B|66:-14|112:-10|142:25|145:28|147:32|182:69|222:71|281:32,1,256.499992172241,0|0,3:2|0:2,0:2:0:0:
377,10,48371,2,0,B|441:38|441:38|346:201,1,256.499992172241,0|0,3:2|0:0,0:0:0:0:
430,306,48714,2,0,P|531:236|431:224,1,256.499992172241,0|0,3:2|0:2,0:2:0:0:
246,289,49057,2,0,P|300:303|341:284,1,85.4999973907472,0|0,3:2|0:2,0:2:0:0:
210,141,49229,2,0,P|264:127|305:146,1,85.4999973907472,0|0,3:2|0:2,0:2:0:0:
124,240,49400,6,0,B|149:189|132:147|94:128|92:127|90:125|36:101|22:66|52:9,1,256.499992172241,0|0,3:2|0:2,0:2:0:0:
150,28,49744,2,0,B|130:96|130:96|44:149|44:149|14:231,1,256.499992172241,0|0,3:2|0:2,0:2:0:0:
69,357,50086,2,0,L|338:341,1,256.499992172241,0|0,3:2|0:0,0:0:0:0:
478,296,50429,2,0,P|388:245|493:187,1,256.499992172241,0|0,3:2|0:0,0:0:0:0:
415,39,50771,6,0,B|341:8|356:122|261:156|190:74|226:25,1,256.499992172241,0|0,3:2|0:2,0:2:0:0:
84,12,51114,2,0,B|127:64|127:64|57:245,1,256.499992172241,0|0,3:2|0:2,0:2:0:0:
111,375,51457,2,0,P|162:303|271:391,1,256.499992172241,0|0,3:2|0:0,0:0:0:0:
400,384,51800,2,0,B|375:334|392:292|430:273|432:272|434:270|488:246|502:211|478:166,1,256.499992172241,0|0,3:2|0:2,0:2:0:0:
478,50,52143,6,0,P|437:50|405:77,1,85.4999973907472,0|0,3:0|0:0,0:0:0:0:
321,172,52314,2,0,P|353:200|395:200,1,85.4999973907472,0|0,3:0|0:0,0:0:0:0:
326,31,52486,2,0,P|215:4|164:117,1,256.499992172241,0|0,3:2|0:0,0:0:0:0:
8,193,52829,2,0,P|123:197|83:302,1,256.499992172241,0|0,3:2|0:0,0:0:0:0:
248,251,53171,2,0,P|245:159|287:250,1,256.499992172241,0|0,3:2|0:0,0:0:0:0:
195,384,53514,6,0,L|166:115,1,256.499992172241,0|0,3:2|0:0,0:0:0:0:
39,70,53857,2,0,B|73:143|73:143|18:223|18:223|52:314,1,256.499992172241,0|0,3:2|0:2,0:2:0:0:
195,384,54200,6,0,B|191:350|188:334|188:334|234:342|246:304|246:304|296:327|333:310|333:310|362:346|446:331,1,327.750006251335,2|0,0:1|0:0,0:0:0:0:
503,248,54543,1,4,3:3:0:0:
388,106,54714,1,4,3:3:0:0:
503,248,55057,5,0,3:2:0:0:
388,106,55229,2,0,B|264:140|264:140|235:269,1,256.499992172241,8|0,3:2|0:2,0:2:0:0:
167,384,55571,2,0,P|158:288|23:218,1,256.499992172241,8|8,3:2|0:2,0:2:0:0:
5,111,55914,2,0,P|142:84|224:5,1,256.499992172241,8|0,3:2|0:2,0:2:0:0:
431,10,56257,6,0,B|372:85|372:85|411:152|411:152|374:241,1,256.499992172241,8|0,3:2|0:2,0:2:0:0:
252,375,56600,2,0,B|281:304|251:261|243:255|236:249|177:228|199:133,1,256.499992172241,8|0,3:2|0:2,0:2:0:0:
88,28,56943,2,0,P|11:63|122:118,1,256.499992172241,8|0,3:2|0:2,0:2:0:0:
349,1,57286,1,8,3:2:0:0:
320,161,57457,1,8,0:2:0:0:
462,357,57629,6,0,P|467:252|313:198,1,256.499992172241,8|0,3:2|0:2,0:2:0:0:
192,56,57971,2,0,B|163:74|142:121|152:158|214:186|271:181|289:113|334:92,1,256.499992172241,8|0,3:2|0:2,0:2:0:0:
481,12,58314,2,0,B|414:45|414:45|380:250,1,256.499992172241,8|0,3:2|0:2,0:2:0:0:
307,365,58657,2,0,P|240:261|150:351,1,256.499992172241,8|0,3:2|0:2,0:2:0:0:
6,358,59000,6,0,B|52:300|52:300|72:195|72:195|30:118,1,256.499992172241,8|0,3:2|0:2,0:2:0:0:
79,25,59343,2,0,B|133:93|193:61|205:53|213:47|301:45|334:97,1,256.499992172241,8|0,3:2|0:2,0:2:0:0:
427,238,59686,2,0,B|329:155|329:155|251:265,1,256.499992172241,8|0,3:2|0:2,0:2:0:0:
121,381,60029,6,0,L|122:329,1,42.7499986953736,8|0,0:2|0:2,0:2:0:0:
97,353,60114,2,0,L|111:303,1,42.7499986953736,8|0,0:2|0:2,0:2:0:0:
81,321,60200,2,0,L|108:277,1,42.7499986953736,8|0,0:2|0:2,0:2:0:0:
73,285,60286,2,0,L|110:249,1,42.7499986953736,8|0,0:2|0:2,0:2:0:0:
76,250,60371,5,8,3:2:0:0:
248,206,60543,1,2,0:3:0:0:
78,159,60714,5,8,3:2:0:0:
248,206,60886,1,2,0:3:0:0:
106,62,61057,5,8,3:2:0:0:
248,206,61229,1,2,0:3:0:0:
197,8,61400,5,8,3:2:0:0:
248,206,61572,1,2,0:3:0:0:
306,0,61743,5,8,3:2:0:0:
248,206,61915,1,2,0:3:0:0:
400,57,62086,5,8,3:2:0:0:
248,206,62258,1,2,0:3:0:0:
495,142,62429,5,8,3:2:0:0:
248,206,62601,1,2,0:3:0:0:
493,274,62772,5,8,3:2:0:0:
248,206,62944,1,2,0:3:0:0:
347,42,63114,6,0,P|304:86|313:117,1,85.4999973907472,0|0,3:2|0:2,0:2:0:0:
338,242,63286,2,0,P|294:199|263:208,1,85.4999973907472,0|0,3:2|0:2,0:2:0:0:
138,233,63457,2,0,P|181:189|172:158,1,85.4999973907472,0|0,3:2|0:2,0:2:0:0:
147,33,63629,2,0,P|191:76|222:67,1,85.4999973907472,0|0,3:2|0:2,0:2:0:0:
377,42,63800,6,0,P|372:10|321:20,1,85.4999973907472,0|0,3:2|0:2,0:2:0:0:
147,3,63971,2,0,P|114:8|125:59,1,85.4999973907472,0|0,3:2|0:2,0:2:0:0:
108,233,64143,2,0,P|113:265|164:255,1,85.4999973907472,0|0,3:2|0:2,0:2:0:0:
338,272,64314,2,0,P|370:267|360:216,1,85.4999973907472,0|0,3:2|0:2,0:2:0:0:
220,0,64486,5,0,3:2:0:0:
214,46,64571,1,0,3:2:0:0:
208,93,64657,1,0,3:2:0:0:
203,140,64743,1,0,3:2:0:0:
197,187,64828,1,0,3:2:0:0:
192,235,64914,1,0,3:2:0:0:
186,281,65000,1,0,3:2:0:0:
181,329,65085,1,0,3:2:0:0:
175,376,65171,6,0,B|208:342|249:331|249:331|287:377|315:378|315:378|356:365|356:365|373:325|432:348|432:348|440:313,1,327.750006251335,2|0,0:1|0:2,0:2:0:0:
446,83,65514,6,0,B|406:104|406:104|408:144,1,85.4999973907472,2|0,0:3|0:2,0:2:0:0:
329,277,65686,2,0,B|348:236|348:236|345:195,1,85.4999973907472,2|0,0:3|0:2,0:2:0:0:
251,71,65857,5,6,0:2:0:0:
183,288,66029,2,0,P|183:247|156:215,1,85.4999973907472,2|0,3:0|0:0,0:0:0:0:
28,109,66200,2,0,P|0:141|0:183,1,85.4999973907472,2|0,3:0|0:0,0:0:0:0:
145,103,66371,1,2,0:0:0:0:
122,359,66543,2,0,B|197:381|197:381|281:334|281:334|369:360,1,256.499992172241,2|0,3:2|0:2,0:2:0:0:
498,356,66886,6,0,P|451:277|490:187,1,170.999994781494,2|0,3:2|0:2,0:2:0:0:
512,70,67143,1,2,0:2:0:0:
462,54,67229,2,0,L|384:89,1,85.4999973907472,2|0,3:2|0:2,0:2:0:0:
340,202,67400,1,2,0:2:0:0:
63,47,67571,2,0,B|103:88|149:84|179:49|182:46|184:42|214:4|255:0|313:43,1,256.499992172241,2|0,3:2|0:2,0:2:0:0:
273,154,67914,6,0,P|217:137|281:124,1,170.999994781494,2|0,3:2|0:2,0:2:0:0:
149,249,68171,1,2,0:2:0:0:
112,285,68257,2,0,P|70:287|38:245,1,85.4999973907472,2|0,3:2|0:2,0:2:0:0:
6,140,68429,1,2,0:2:0:0:
239,348,68600,6,0,L|269:158,1,170.999994781494,2|0,3:2|0:2,0:2:0:0:
342,73,68857,1,2,0:2:0:0:
383,104,68943,2,0,L|367:211,1,85.4999973907472,2|0,3:2|0:2,0:2:0:0:
425,295,69114,1,2,0:2:0:0:
137,199,69286,2,0,L|164:17,1,170.999994781494,2|0,3:2|0:2,0:2:0:0:
444,284,69629,6,0,L|254:254,1,170.999994781494,2|0,3:2|0:2,0:2:0:0:
137,199,69886,1,2,0:2:0:0:
168,158,69972,2,0,L|275:174,1,85.4999973907472,2|0,3:2|0:2,0:2:0:0:
383,104,70143,1,2,0:2:0:0:
293,369,70315,2,0,L|108:340,1,170.999994781494,2|0,3:2|0:2,0:2:0:0:
53,146,70657,6,0,P|56:80|14:131,1,170.999994781494,2|0,3:2|0:2,0:2:0:0:
163,55,70914,1,2,0:2:0:0:
206,27,71000,2,0,L|307:44,1,85.4999973907472,2|0,3:2|0:2,0:2:0:0:
467,88,71171,2,0,L|372:105,1,85.4999973907472,2|0,3:2|0:2,0:2:0:0:
328,242,71343,6,0,P|396:265|398:367,1,170.999994781494,2|0,3:2|0:0,0:0:0:0:
258,370,71600,1,2,0:0:0:0:
213,344,71686,2,0,L|221:249,1,85.4999973907472,2|0,3:2|0:0,0:0:0:0:
288,148,71857,1,2,0:2:0:0:
39,284,72029,2,0,B|62:223|62:223|19:117|19:117|56:25,1,256.499992172241,2|0,3:2|0:0,0:0:0:0:
151,0,72372,6,0,L|168:191,1,170.999994781494,2|0,3:2|0:2,0:2:0:0:
174,312,72629,1,2,0:2:0:0:
213,344,72715,2,0,P|247:318|304:320,1,85.4999973907472,2|0,3:2|0:2,0:2:0:0:
417,359,72886,1,2,0:2:0:0:
512,148,73057,2,0,B|472:107|426:111|396:146|393:149|391:153|356:190|316:192|257:153,1,256.499992172241,2|0,3:2|0:2,0:2:0:0:
303,26,73400,6,0,P|358:57|286:64,1,170.999994781494,2|0,3:2|0:2,0:2:0:0:
160,30,73657,1,2,0:2:0:0:
130,72,73743,2,0,L|164:159,1,85.4999973907472,2|0,3:2|0:2,0:2:0:0:
235,258,73915,1,2,0:2:0:0:
4,354,74086,6,0,P|11:252|94:237,1,170.999994781494,2|0,3:2|0:2,0:2:0:0:
137,367,74343,1,2,0:2:0:0:
187,378,74429,2,0,L|272:371,1,85.4999973907472,2|0,3:2|0:2,0:2:0:0:
401,315,74600,1,2,0:2:0:0:
262,50,74772,2,0,B|249:121|249:121|308:205|308:205|285:287,1,256.499992172241,2|0,3:2|0:2,0:2:0:0:
176,180,75115,6,0,P|109:228|215:228,1,256.499992172241,2|2,3:2|0:2,0:2:0:0:
389,208,75457,1,0,3:2:0:0:
400,157,75543,1,0,3:2:0:0:
410,106,75629,1,0,3:2:0:0:
420,56,75714,1,0,3:2:0:0:
428,5,75800,2,0,L|321:29,1,85.4999973907472,0|0,3:2|0:0,0:0:0:0:
180,50,75971,2,0,L|273:114,1,85.4999973907472,0|0,3:2|0:0,0:0:0:0:
196,200,76143,6,0,P|128:224|142:324,1,170.999994781494,2|0,3:2|0:2,0:2:0:0:
243,377,76400,1,2,0:2:0:0:
285,383,76486,6,0,B|332:378|356:279|356:279|346:356|409:326|409:326|435:353|435:353|487:352|492:295,1,327.750006251335,2|0,0:1|0:0,0:0:0:0:
512,121,76829,5,6,3:2:0:0:
309,25,77000,1,2,0:2:0:0:
342,17,77086,1,2,0:2:0:0:
375,9,77171,2,0,P|326:110|343:169,1,170.999994781494,2|0,3:2|0:2,0:2:0:0:
243,377,77514,2,0,P|248:298|173:319,1,170.999994781494,2|0,3:2|0:2,0:2:0:0:
5,177,77857,2,0,P|58:225|141:181,1,170.999994781494,2|0,3:2|0:2,0:2:0:0:
197,45,78114,1,2,0:2:0:0:
223,0,78200,6,0,L|246:182,1,170.999994781494,2|0,3:2|0:2,0:2:0:0:
283,301,78457,1,2,0:2:0:0:
325,329,78543,2,0,P|375:339|451:231,1,170.999994781494,2|0,3:2|0:2,0:2:0:0:
510,143,78800,1,2,0:2:0:0:
466,169,78886,2,0,P|406:140|433:39,1,170.999994781494,2|0,3:2|0:2,0:2:0:0:
272,16,79143,1,2,0:2:0:0:
223,0,79229,2,0,L|234:90,1,85.4999973907472,2|0,3:2|0:2,0:2:0:0:
282,219,79400,1,2,0:2:0:0:
108,88,79571,6,0,P|58:95|19:128,1,85.4999973907472,2|0,3:2|0:2,0:2:0:0:
27,306,79742,1,2,0:2:0:0:
35,273,79828,1,2,0:2:0:0:
43,240,79914,2,0,P|149:292|203:274,1,170.999994781494,2|0,3:2|0:2,0:2:0:0:
284,62,80257,2,0,P|217:154|241:176,1,170.999994781494,2|0,3:2|0:2,0:2:0:0:
498,121,80600,2,0,P|491:39|412:67,1,170.999994781494,2|0,3:2|0:2,0:2:0:0:
312,169,80857,1,2,0:2:0:0:
294,217,80943,6,0,P|296:304|353:372,1,170.999994781494,2|0,3:2|0:2,0:2:0:0:
228,64,81200,1,2,0:2:0:0:
240,114,81286,2,0,P|187:195|113:182,1,170.999994781494,2|0,3:2|0:2,0:2:0:0:
18,69,81543,1,2,0:2:0:0:
0,115,81629,6,0,B|-5:151|26:182|26:182|1:220|1:220|34:257|34:257|11:314|23:346|47:360|47:360|83:336|113:348,1,327.750006251335,2|0,0:1|0:2,1:2:0:0:
219,380,81971,1,8,0:3:0:0:
254,378,82057,1,8,0:3:0:0:
286,363,82143,1,8,0:3:0:0:
310,335,82229,1,8,0:3:0:0:
319,301,82314,6,0,L|306:208,1,85.4999973907472,6|0,3:2|0:2,0:2:0:0:
260,40,82486,2,2,L|247:133,1,85.4999973907472,2|0,3:2|0:2,3:2:0:0:
209,305,82657,2,0,P|224:250|174:295,1,170.999994781494,2|0,3:2|0:2,0:2:0:0:
9,195,83000,1,2,3:2:0:0:
42,188,83086,1,2,0:2:0:0:
75,181,83171,1,2,0:2:0:0:
23,20,83343,2,0,P|78:3|115:14,1,85.4999973907472,2|0,3:2|0:2,0:2:0:0:
213,81,83514,1,2,0:2:0:0:
209,305,83686,6,0,P|252:205|314:212,1,170.999994781494,6|0,3:2|0:2,0:2:0:0:
442,290,83943,1,2,0:2:0:0:
491,275,84029,2,0,P|517:184|440:137,1,170.999994781494,2|0,3:2|0:2,0:2:0:0:
309,117,84286,1,2,0:2:0:0:
271,82,84371,2,0,P|272:28|359:61,1,170.999994781494,2|0,3:2|0:2,0:2:0:0:
425,160,84629,1,2,0:2:0:0:
391,198,84714,2,0,P|376:161|392:104,1,85.4999973907472,2|0,3:2|0:2,0:2:0:0:
453,7,84886,1,2,0:2:0:0:
185,106,85057,6,0,P|145:109|97:154,1,85.4999973907472,4|0,3:2|0:2,0:2:0:0:
39,240,85229,2,0,P|102:213|119:227,1,85.4999973907472,0|0,3:2|0:2,0:2:0:0:
207,360,85400,2,0,P|184:304|209:276,1,85.4999973907472,0|0,3:2|0:2,0:2:0:0:
280,130,85571,2,0,L|263:214,1,85.4999973907472,0|0,3:2|0:2,0:2:0:0:
358,377,85743,6,0,P|409:376|447:335,1,85.4999973907472,4|0,3:2|0:2,0:2:0:0:
512,231,85914,2,0,P|484:263|439:255,1,85.4999973907472,0|0,3:2|0:2,0:2:0:0:
263,213,86086,2,0,P|307:209|310:168,1,85.4999973907472,0|0,3:2|0:2,0:2:0:0:
368,21,86257,2,0,P|401:23|387:60,1,85.4999973907472,0|0,3:2|0:2,0:2:0:0:
174,194,86429,5,4,3:2:0:0:
101,171,86515,1,0,3:2:0:0:
66,107,86600,1,0,3:2:0:0:
88,37,86686,1,0,3:2:0:0:
153,2,86772,1,4,3:2:0:0:
222,22,86858,1,0,3:2:0:0:
256,86,86943,1,0,3:2:0:0:
236,156,87029,1,0,3:2:0:0:
174,194,87114,6,0,B|215:192|250:170|250:170|309:211|309:211|339:188|381:195,1,213.750008153916,2|0,0:2|0:2,0:2:0:0:
512,273,87457,2,0,B|481:278|463:265|463:265|435:237|435:237|416:222|379:225,1,142.500005435944,2|0,0:2|0:2,0:2:0:0:
161,97,87800,5,4,3:1:0:0:
52,384,87971,1,2,0:2:0:0:
4,323,88057,1,2,0:2:0:0:
40,254,88143,2,0,P|129:245|155:318,1,170.999994781494,2|0,3:2|0:2,0:2:0:0:
265,146,88486,1,2,3:2:0:0:
265,146,88571,1,2,0:2:0:0:
265,145,88657,2,0,P|237:176|244:217,1,85.4999973907472,2|0,0:2|0:2,0:2:0:0:
161,97,88829,5,2,3:2:0:0:
347,222,89000,1,2,0:2:0:0:
429,27,89171,5,0,3:2:0:0:
385,88,89257,1,2,0:2:0:0:
396,163,89343,1,2,0:2:0:0:
461,207,89429,1,2,0:2:0:0:
512,268,89514,5,2,3:2:0:0:
494,321,89600,1,2,0:2:0:0:
440,340,89686,1,2,0:2:0:0:
390,313,89771,1,2,0:2:0:0:
389,261,89857,5,2,3:2:0:0:
425,241,89943,1,2,0:2:0:0:
459,261,90029,1,2,0:2:0:0:
446,295,90114,1,2,0:2:0:0:
399,303,90200,6,0,P|350:294|331:264,1,71.2500027179719,0|0,3:2|0:2,0:2:0:0:
219,244,90371,2,0,P|232:206|277:190,1,71.2500027179719,2|0,0:2|0:2,0:2:0:0:
380,128,90543,5,2,3:2:0:0:
167,60,90714,1,2,0:2:0:0:
100,104,90800,1,2,0:2:0:0:
28,79,90886,2,0,P|19:168|92:194,1,170.999994781494,2|0,3:2|0:2,0:2:0:0:
23,379,91229,1,2,3:2:0:0:
23,379,91314,1,2,0:2:0:0:
23,379,91400,2,0,P|40:345|92:338,1,85.4999973907472,2|0,0:2|0:2,0:2:0:0:
202,382,91572,5,2,3:2:0:0:
295,159,91743,1,2,0:0:0:0:
450,327,91914,5,2,3:2:0:0:
379,355,92000,1,2,0:0:0:0:
351,285,92086,1,2,0:0:0:0:
420,258,92171,1,2,0:0:0:0:
438,326,92257,5,2,3:2:0:0:
379,344,92343,1,2,0:0:0:0:
361,286,92429,1,2,0:0:0:0:
419,268,92514,1,2,0:0:0:0:
403,312,92600,6,0,L|457:368,5,56.9999982604981,2|2|2|2|2|2,3:2|0:0|0:0|0:0|0:0|0:0,0:0:0:0:
302,332,92943,5,2,3:2:0:0:
276,322,93000,1,2,0:0:0:0:
248,327,93057,1,2,0:0:0:0:
223,341,93114,1,2,0:0:0:0:
197,353,93171,1,2,0:0:0:0:
170,363,93229,1,2,0:0:0:0:
142,368,93286,5,2,3:2:0:0:
117,125,93457,1,2,0:2:0:0:
150,200,93543,1,2,0:2:0:0:
91,259,93629,2,0,P|4:238|4:160,1,170.999994781494,2|0,3:2|0:2,0:2:0:0:
133,23,93971,1,2,3:2:0:0:
133,23,94057,1,0,0:2:0:0:
133,23,94143,2,0,P|96:18|62:58,1,85.4999973907472,2|0,0:2|0:2,0:2:0:0:
202,94,94314,5,2,3:2:0:0:
398,7,94486,1,2,0:2:0:0:
487,213,94657,5,2,3:2:0:0:
423,169,94743,1,2,0:2:0:0:
344,182,94829,1,2,0:2:0:0:
318,256,94915,1,2,0:2:0:0:
356,322,95000,5,2,3:2:0:0:
415,311,95086,1,2,0:2:0:0:
423,251,95172,1,2,0:2:0:0:
372,219,95257,1,2,0:2:0:0:
333,265,95343,5,2,3:2:0:0:
296,287,95429,1,2,0:2:0:0:
253,288,95515,1,2,0:2:0:0:
216,265,95600,1,2,0:2:0:0:
196,234,95686,6,0,L|203:164,1,71.2500027179719,2|0,3:2|0:2,0:2:0:0:
44,284,95857,2,0,L|57:209,1,71.2500027179719,2|0,0:2|0:2,0:2:0:0:
144,365,96029,5,2,3:2:0:0:
416,282,96200,1,2,0:0:0:0:
357,331,96286,1,2,0:0:0:0:
296,287,96371,2,0,P|286:194|342:129,1,170.999994781494,2|0,3:2|0:0,0:0:0:0:
508,164,96714,1,2,3:2:0:0:
508,164,96800,1,2,0:2:0:0:
508,164,96886,2,0,P|513:114|488:78,1,85.4999973907472,2|0,0:2|0:0,0:0:0:0:
374,8,97057,5,2,3:2:0:0:
268,196,97229,1,2,0:0:0:0:
119,36,97400,5,2,3:2:0:0:
171,90,97486,1,2,0:0:0:0:
119,142,97572,1,2,0:0:0:0:
65,90,97657,1,2,0:0:0:0:
115,46,97743,5,2,3:2:0:0:
161,86,97829,1,2,0:0:0:0:
122,132,97915,1,2,0:0:0:0:
75,93,98000,1,2,0:0:0:0:
116,67,98086,5,2,3:2:0:0:
151,62,98143,1,2,0:0:0:0:
187,58,98200,1,2,0:0:0:0:
222,54,98257,1,2,0:0:0:0:
258,51,98314,1,2,0:0:0:0:
294,47,98371,1,2,0:0:0:0:
330,43,98429,6,0,L|371:93,2,56.9999982604981,2|2|2,3:2|0:0|0:0,0:0:0:0:
466,94,98600,2,0,L|375:208,1,113.999996520996,2|0,3:2|0:0,0:0:0:0:
367,294,98771,6,0,L|283:262,1,85.4999973907472,4|2,1:2|0:2,0:2:0:0:
208,168,98943,1,2,3:2:0:0:
129,211,99029,1,2,0:2:0:0:
46,177,99114,2,0,P|21:139|24:82,1,85.4999973907472,2|0,3:2|0:2,0:2:0:0:
77,9,99286,1,0,0:2:0:0:
77,9,99371,1,2,0:2:0:0:
77,9,99457,1,2,3:2:0:0:
162,37,99543,1,2,0:2:0:0:
244,0,99629,2,0,P|283:2|315:48,1,85.4999973907472,2|0,0:2|0:2,0:2:0:0:
365,221,99800,5,2,3:2:0:0:
416,0,99971,1,2,0:2:0:0:
208,168,100143,6,0,L|192:259,1,85.4999973907472,4|0,3:1|0:2,0:2:0:0:
179,277,100286,1,2,0:2:0:0:
156,294,100343,1,2,0:2:0:0:
127,297,100400,2,0,P|106:278|90:247,2,56.9999982604981,4|0|0,0:1|0:2|0:2,0:2:0:0:
121,115,100600,5,2,0:2:0:0:
139,93,100657,1,4,3:1:0:0:
162,77,100714,1,2,0:2:0:0:
189,68,100771,1,2,0:2:0:0:
217,66,100829,6,0,L|279:90,2,56.9999982604981,4|0|0,3:1|0:2|0:2,0:2:0:0:
439,95,101000,2,0,L|377:119,2,56.9999982604981,4|0|0,3:2|0:2|0:2,0:2:0:0:
261,213,101171,2,0,L|323:189,2,56.9999982604981,4|0|0,3:2|0:2|0:2,0:2:0:0:
483,242,101343,2,0,L|421:218,2,56.9999982604981,4|0|0,3:2|0:2|0:2,0:2:0:0:
294,375,101514,6,0,L|277:288,1,85.4999973907472,6|2,3:2|0:2,0:2:0:0:
149,200,101686,1,2,0:2:0:0:
199,126,101771,1,2,0:2:0:0:
143,54,101857,2,0,P|104:63|84:104,1,85.4999973907472,2|0,3:2|0:2,0:2:0:0:
311,1,102029,1,2,0:2:0:0:
311,1,102114,1,2,0:2:0:0:
311,1,102200,1,2,3:2:0:0:
257,73,102286,1,2,0:2:0:0:
285,157,102371,2,0,P|324:181|371:175,1,85.4999973907472,2|0,0:2|0:2,0:2:0:0:
485,62,102543,5,2,3:2:0:0:
455,292,102714,1,2,0:2:0:0:
285,157,102886,5,6,3:2:0:0:
209,149,102971,1,2,0:2:0:0:
148,193,103058,1,2,0:2:0:0:
129,265,103144,1,2,3:2:0:0:
162,333,103229,5,2,0:2:0:0:
126,282,103314,1,2,0:2:0:0:
64,276,103400,1,2,3:2:0:0:
19,319,103486,1,2,0:2:0:0:
22,381,103571,5,2,3:2:0:0:
41,360,103629,1,2,0:2:0:0:
54,335,103686,1,2,0:2:0:0:
59,307,103743,1,2,0:2:0:0:
55,278,103800,1,6,0:2:0:0:
43,253,103857,1,2,0:2:0:0:
24,231,103914,2,0,P|7:213|15:174,2,56.9999982604981,2|2|6,0:2|0:2|0:2,0:2:0:0:
104,143,104086,2,0,P|107:118|78:91,2,56.9999982604981,2|2|2,3:2|0:2|0:2,0:2:0:0:
44,26,104257,6,0,L|132:52,1,85.4999973907472,4|2,1:2|0:2,0:2:0:0:
269,6,104429,1,2,0:2:0:0:
214,76,104514,1,2,0:2:0:0:
228,164,104600,2,0,P|262:188|323:175,1,85.4999973907472,2|0,3:2|0:2,0:2:0:0:
443,122,104771,1,0,0:2:0:0:
443,122,104857,1,2,0:2:0:0:
443,122,104943,1,2,3:2:0:0:
389,194,105029,1,2,0:2:0:0:
396,282,105114,2,0,P|425:321|461:330,1,85.4999973907472,2|0,0:2|0:2,0:2:0:0:
512,234,105286,5,2,3:2:0:0:
286,320,105457,1,2,0:2:0:0:
318,105,105629,6,0,P|326:164|236:203,1,170.999994781494,0|0,3:2|0:2,0:2:0:0:
127,149,105886,1,4,3:1:0:0:
108,120,105971,6,0,L|116:59,2,56.9999982604981,2|0|0,0:2|0:2|0:2,0:2:0:0:
36,170,106143,1,4,0:1:0:0:
38,192,106200,1,2,0:2:0:0:
41,215,106257,1,2,0:2:0:0:
43,237,106314,6,0,L|99:254,2,56.9999982604981,4|0|0,3:1|0:2|0:2,0:2:0:0:
164,370,106486,2,0,L|220:353,2,56.9999982604981,4|0|0,3:2|0:2|0:2,0:2:0:0:
272,188,106657,2,0,L|328:205,2,56.9999982604981,4|0|0,3:2|0:2|0:2,0:2:0:0:
393,321,106829,2,0,L|449:304,2,56.9999982604981,4|0|0,3:2|0:2|0:2,0:2:0:0:
502,180,107000,6,0,L|476:98,1,85.4999973907472,4|2,3:1|0:2,0:2:0:0:
345,4,107171,1,2,3:2:0:0:
384,84,107257,1,2,0:2:0:0:
346,165,107343,2,0,P|308:172|260:140,1,85.4999973907472,2|0,3:2|0:2,0:2:0:0:
185,18,107514,2,0,P|231:49|218:90,1,85.4999973907472,2|0,3:2|0:2,0:2:0:0:
165,229,107686,1,2,3:2:0:0:
104,163,107771,1,2,0:2:0:0:
18,190,107857,2,0,P|-8:244|-2:283,1,85.4999973907472,2|0,0:2|0:2,0:2:0:0:
113,363,108029,2,0,L|196:344,1,85.4999973907472,2|0,3:2|0:2,0:2:0:0:
399,308,108200,2,0,P|358:307|312:276,1,85.4999973907472,2|0,3:2|0:2,0:2:0:0:
217,146,108371,5,2,3:2:0:0:
255,59,108457,1,2,3:2:0:0:
349,68,108543,1,2,3:2:0:0:
368,160,108629,1,2,3:2:0:0:
286,207,108714,5,2,3:2:0:0:
306,298,108800,1,2,3:2:0:0:
399,308,108886,1,2,3:2:0:0:
437,221,108971,1,2,3:2:0:0:
368,160,109057,5,6,3:2:0:0:
135,148,109171,1,6,3:2:0:0:
241,353,109286,1,6,3:2:0:0:
393,227,109400,5,6,3:2:0:0:
181,91,109514,1,6,3:2:0:0:
170,342,109629,1,6,3:2:0:0:
259,212,109743,5,4,3:1:0:0:
259,212,109829,1,2,0:2:0:0:
259,212,109914,2,0,B|268:139|268:139|260:137|260:137|269:139|269:139|276:79,1,142.500005435944,2|0,0:2|3:2,0:2:0:0:
438,17,110257,2,0,B|447:90|447:90|439:92|439:92|448:90|448:90|455:150,1,142.500005435944,2|0,0:2|3:2,0:2:0:0:
422,344,110600,2,0,P|451:365|503:356,1,71.2500027179719,2|0,0:2|0:2,0:2:0:0:
482,232,110771,2,0,L|338:288,1,142.500005435944,2|0,3:2|0:2,0:2:0:0:
173,384,111114,5,2,3:2:0:0:
292,167,111286,1,2,0:3:0:0:
260,372,111457,5,2,3:2:0:0:
221,108,111629,1,2,0:3:0:0:
49,288,111800,6,0,B|81:285|81:285|79:274|79:274|81:285|81:285|132:279|132:279|133:291|133:291|132:279|132:279|248:267,1,213.750008153916,0|0,3:2|0:2,0:2:0:0:
215,270,112143,2,0,L|-20:295,1,213.750008153916,2|0,3:2|0:2,0:2:0:0:
49,151,112486,5,0,3:2:0:0:
49,151,112571,1,2,0:0:0:0:
49,151,112657,2,0,B|88:115|88:115|177:180,1,142.500005435944,2|0,0:2|3:2,0:2:0:0:
311,128,113000,2,0,B|347:89|347:89|282:0,1,142.500005435944,2|0,0:2|3:2,0:2:0:0:
351,264,113343,2,0,P|384:265|423:232,1,71.2500027179719,2|0,0:2|0:2,0:2:0:0:
282,212,113514,2,0,L|164:303,1,142.500005435944,2|0,3:2|0:2,0:2:0:0:
0,368,113857,6,0,L|23:292,1,71.2500027179719,2|0,3:2|0:2,0:2:0:0:
134,350,114029,2,0,L|111:274,1,71.2500027179719,2|0,0:2|0:2,0:2:0:0:
51,106,114200,2,0,P|68:170|-9:217,1,142.500005435944,2|0,3:2|0:2,0:2:0:0:
251,367,114543,2,0,P|234:301|284:255,1,142.500005435944,2|0,3:2|0:2,0:2:0:0:
480,45,114886,6,0,P|439:45|407:72,1,85.4999973907472,2|0,3:2|0:2,0:2:0:0:
323,167,115057,2,0,P|355:195|397:195,1,85.4999973907472,2|0,3:2|0:2,0:2:0:0:
291,63,115229,5,2,0:0:0:0:
291,63,115314,1,2,0:0:0:0:
291,63,115400,2,0,B|218:72|218:72|216:64|216:64|218:73|218:73|158:80,1,142.500005435944,2|0,0:2|3:2,0:2:0:0:
172,278,115743,2,0,B|99:287|99:287|97:279|97:279|99:288|99:288|39:295,1,142.500005435944,2|0,0:2|3:2,0:2:0:0:
322,222,116086,2,0,P|343:193|334:141,1,71.2500027179719,2|0,0:2|0:2,0:2:0:0:
215,164,116257,2,0,L|271:308,1,142.500005435944,2|0,3:2|0:2,0:2:0:0:
439,362,116600,5,2,3:2:0:0:
157,236,116771,1,2,0:3:0:0:
422,271,116943,5,2,3:2:0:0:
170,342,117115,1,2,0:3:0:0:
493,224,117286,6,0,B|490:202|490:202|479:204|479:204|490:202|490:202|484:151|484:151|496:150|496:150|484:151|484:151|468:43,1,213.750008153916,2|0,3:2|0:2,0:2:0:0:
470,58,117629,2,0,L|503:285,1,213.750008153916,2|0,3:2|0:2,0:2:0:0:
376,199,117971,5,4,0:2:0:0:
190,101,118143,2,0,P|148:101|116:129,1,85.4999973907472,4|0,3:1|0:2,0:2:0:0:
199,223,118314,2,0,P|231:250|272:250,1,85.4999973907472,2|0,3:2|0:2,0:2:0:0:
72,237,118486,2,0,B|31:228|31:228|-5:117,1,142.500005435944,2|0,0:2|3:2,0:2:0:0:
131,355,118829,1,2,0:2:0:0:
272,250,119000,2,0,B|313:259|313:259|349:370,1,142.500005435944,2|0,3:2|0:2,0:2:0:0:
194,157,119343,6,0,P|152:159|119:132,1,85.4999973907472,2|0,3:2|0:2,0:2:0:0:
409,33,119515,2,0,P|450:32|483:59,1,85.4999973907472,2|0,3:2|0:2,0:2:0:0:
187,54,119686,2,0,P|220:27|262:29,1,85.4999973907472,2|0,3:2|0:2,0:2:0:0:
415,125,119857,2,0,P|382:152|341:150,1,85.4999973907472,2|0,3:2|0:2,0:2:0:0:
280,248,120029,6,0,L|305:331,1,85.4999973907472,2|0,3:2|0:2,0:2:0:0:
253,277,120200,2,0,L|278:360,1,85.4999973907472,2|0,3:2|0:2,0:2:0:0:
389,373,120371,2,0,L|402:325,6,42.7499986953736,2|0|0|0|0|0|0,0:2|0:2|0:2|0:2|0:2|0:2|0:2,0:2:0:0:
479,248,120714,5,4,3:2:0:0:
479,248,120800,1,2,0:2:0:0:
479,248,120886,2,0,B|468:213|468:213|453:192|453:192|464:172|464:172|449:152|449:152|439:117,1,142.500005435944,2|0,0:2|3:2,0:2:0:0:
262,185,121229,2,0,B|272:150|272:150|287:129|287:129|276:109|276:109|291:89|291:89|301:54,1,142.500005435944,2|0,0:2|3:2,0:2:0:0:
383,303,121571,2,0,P|351:285|307:289,1,71.2500027179719,2|0,0:2|0:2,0:2:0:0:
182,384,121743,2,0,L|182:232,1,142.500005435944,2|0,3:2|0:2,0:2:0:0:
227,32,122086,5,0,3:2:0:0:
132,245,122257,1,2,0:3:0:0:
129,12,122429,5,2,3:2:0:0:
255,264,122600,1,2,0:3:0:0:
318,12,122771,6,0,B|270:47|270:47|287:143|287:143|240:178,1,213.750008153916,2|0,3:2|0:2,0:2:0:0:
241,177,123114,2,0,B|287:143|287:143|270:47|270:47|318:12,1,213.750008153916,2|0,3:2|0:2,0:2:0:0:
468,40,123457,5,2,3:2:0:0:
468,40,123543,1,2,0:2:0:0:
468,40,123629,2,0,B|430:63|430:63|419:169,1,142.500005435944,2|0,0:2|3:2,0:2:0:0:
334,333,123971,2,0,B|355:294|355:294|311:196,1,142.500005435944,2|0,0:2|3:2,0:2:0:0:
203,125,124314,2,0,P|169:158|166:203,1,71.2500027179719,2|0,0:2|0:2,0:2:0:0:
59,321,124486,2,0,B|93:317|93:317|97:321|97:321|141:321|141:321|145:313|149:321|149:321|193:321|193:321|197:317|197:317|231:321,1,180.49999518013,2|0,3:2|0:2,0:2:0:0:
386,354,124829,5,2,3:2:0:0:
454,153,125000,1,2,0:2:0:0:
309,306,125171,2,0,P|331:237|267:205,1,142.500005435944,2|0,3:2|0:2,0:2:0:0:
106,264,125514,2,0,P|146:202|123:123,1,142.500005435944,2|0,3:2|0:2,0:2:0:0:
217,364,125857,6,0,P|222:330|188:293,1,85.4999973907472,2|0,3:2|0:2,0:2:0:0:
9,269,126029,2,0,P|43:274|80:240,1,85.4999973907472,2|0,3:2|0:2,0:2:0:0:
126,63,126200,2,0,P|112:94|135:139,1,85.4999973907472,4|0,3:1|0:2,0:2:0:0:
259,234,126371,2,0,P|231:213|229:163,1,85.4999973907472,2|0,3:2|0:2,0:2:0:0:
323,26,126543,2,0,P|295:46|293:96,1,85.4999973907472,2|0,3:2|0:2,0:2:0:0:
413,205,126714,6,0,P|442:157|406:82,1,142.500005435944,2|0,0:2|3:2,0:2:0:0:
299,306,127057,2,0,P|278:347|286:388,1,71.2500027179719,2|0,0:2|0:2,0:2:0:0:
116,234,127229,2,0,L|268:234,1,142.500005435944,2|0,3:2|0:2,0:2:0:0:
411,295,127571,5,2,3:2:0:0:
170,150,127743,1,2,0:3:0:0:
412,149,127914,5,2,3:2:0:0:
159,322,128086,1,2,0:3:0:0:
315,297,128257,6,0,B|333:229|333:229|271:189|271:189|290:122,1,213.750008153916,2|0,3:2|0:2,0:2:0:0:
290,122,128600,6,0,B|313:106|313:106|346:113,6,52.2500015945435,2|0|0|0|0|0|0,0:2|0:2|0:2|0:2|0:2|0:2|0:2,0:2:0:0:
442,0,128943,6,0,L|462:100,1,85.4999973907472,2|0,3:2|0:2,0:2:0:0:
387,265,129114,2,0,L|407:165,1,85.4999973907472,2|0,3:2|0:2,0:2:0:0:
304,50,129286,2,0,P|342:76|334:114,1,85.4999973907472,2|0,3:2|0:2,0:2:0:0:
254,282,129457,2,0,L|169:254,1,85.4999973907472,2|0,3:2|0:2,0:2:0:0:
35,171,129629,2,0,P|72:204|114:193,1,85.4999973907472,2|0,3:2|0:2,0:2:0:0:
202,30,129800,2,0,L|222:130,1,85.4999973907472,2|0,3:2|0:2,0:2:0:0:
339,300,129971,2,0,L|359:200,1,85.4999973907472,2|0,3:2|0:2,0:2:0:0:
452,74,130143,2,0,P|461:114|436:149,1,85.4999973907472,2|0,3:2|0:2,0:2:0:0:
248,218,130314,5,2,3:2:0:0:
182,163,130400,1,0,3:2:0:0:
173,78,130485,1,2,3:2:0:0:
228,12,130571,1,0,3:2:0:0:
313,4,130657,1,2,3:2:0:0:
379,58,130743,1,0,3:2:0:0:
387,143,130828,1,2,3:2:0:0:
333,209,130914,1,0,3:2:0:0:
248,218,131000,1,2,3:2:0:0:
182,163,131086,1,0,3:2:0:0:
97,172,131172,1,0,3:2:0:0:
42,238,131258,1,0,3:2:0:0:
51,322,131343,6,0,B|61:290|91:261|91:261|63:232|54:193|54:193|70:180|76:156|76:156|55:129|55:129|61:108|54:95,1,256.499992172241,2|0,0:2|0:2,0:2:0:0:
64,11,131686,6,0,L|142:38,1,71.2500027179719,4|2,3:1|0:2,0:2:0:0:
233,42,131943,1,2,0:2:0:0:
233,42,132028,2,0,L|276:26,3,35.625001358986,2|2|2|2,0:2|0:2|0:2|0:2,0:2:0:0:
193,115,132371,1,2,0:2:0:0:
219,138,132456,1,2,0:2:0:0:
254,146,132542,1,2,0:2:0:0:
288,137,132628,1,2,0:2:0:0:
314,113,132714,5,2,0:2:0:0:
457,144,132886,1,2,0:2:0:0:
460,131,132971,1,2,0:2:0:0:
464,119,133057,2,0,L|483:42,1,71.2500027179719,2|0,0:2|0:2,0:2:0:0:
371,200,133400,2,0,L|390:277,1,71.2500027179719,2|0,0:2|0:2,0:2:0:0:
317,374,133743,5,2,3:2:0:0:
214,301,133914,1,2,3:2:0:0:
214,301,134000,1,2,0:2:0:0:
214,301,134086,2,0,L|225:252,1,35.625001358986,6|2,0:2|0:2,0:2:0:0:
135,337,134257,2,0,L|124:288,1,35.625001358986,2|2,3:2|0:2,0:2:0:0:
44,282,134428,1,2,0:2:0:0:
51,247,134513,1,2,0:2:0:0:
59,212,134599,1,2,0:2:0:0:
67,177,134686,1,2,0:2:0:0:
75,142,134770,5,2,0:2:0:0:
170,42,134943,1,2,0:2:0:0:
148,39,135028,1,2,0:2:0:0:
130,36,135114,2,0,L|46:21,1,71.2500027179719,2|0,0:2|0:2,0:2:0:0:
169,139,135457,2,0,P|201:142|233:114,1,71.2500027179719,2|0,1:2|0:2,0:2:0:0:
322,23,135800,5,4,3:1:0:0:
399,150,135971,1,2,0:2:0:0:
399,150,136057,1,2,0:2:0:0:
399,150,136143,5,2,0:2:0:0:
444,140,136228,1,2,0:2:0:0:
472,102,136314,1,2,0:2:0:0:
468,56,136400,1,2,0:2:0:0:
430,28,136486,5,2,0:2:0:0:
445,73,136571,1,2,0:2:0:0:
460,118,136657,1,2,0:2:0:0:
475,163,136743,1,2,0:2:0:0:
492,207,136828,5,2,0:2:0:0:
366,263,137000,2,0,L|381:317,2,31.6666666666667,2|2|2,0:2|0:2|0:2,0:2:0:0:
330,232,137171,2,0,L|345:157,1,47.5,2|0,3:2|0:2,0:2:0:0:
311,105,137343,1,2,3:2:0:0:
204,209,137514,2,0,L|220:274,1,47.5,2|0,1:2|0:2,0:2:0:0:
174,332,137686,1,2,3:2:0:0:
53,245,137858,5,2,3:2:0:0:
51,198,137943,1,2,0:2:0:0:
48,151,138029,1,2,3:2:0:0:
45,103,138115,1,2,0:2:0:0:
17,65,138200,5,2,3:2:0:0:
44,103,138285,1,2,0:2:0:0:
89,112,138371,1,2,3:2:0:0:
128,86,138457,1,2,0:2:0:0:
160,51,138543,6,0,L|153:-7,3,47.5,2|2|2|2,0:2|0:2|0:2|0:2,0:2:0:0:
229,117,138886,5,2,1:2:0:0:
410,63,139057,1,2,3:2:0:0:
410,63,139143,1,2,0:2:0:0:
410,63,139228,6,0,L|396:126,1,47.5,2|0,3:2|0:2,0:2:0:0:
348,238,139400,2,0,L|337:192,1,47.5,2|0,3:2|0:2,0:2:0:0:
447,196,139571,2,0,L|485:203,3,31.6666666666667,2|2|2|2,3:2|0:2|0:2|0:2,0:2:0:0:
501,351,139914,6,0,P|447:342|407:379,1,113.999996520996,2|0,3:2|0:2,0:2:0:0:
304,352,140171,1,2,0:2:0:0:
304,352,140257,2,0,L|248:339,3,56.9999982604981,2|2|2|2,0:2|0:2|0:2|0:2,0:2:0:0:
158,296,140600,1,2,0:2:0:0:
199,275,140685,1,2,0:2:0:0:
224,236,140771,1,2,0:2:0:0:
226,189,140857,1,2,0:2:0:0:
205,148,140942,5,2,0:2:0:0:
16,68,141114,1,2,0:2:0:0:
35,49,141199,1,2,0:2:0:0:
56,35,141285,2,0,P|101:42|119:103,1,113.999996520996,2|0,0:2|0:2,0:2:0:0:
215,235,141628,2,0,P|179:207|123:238,1,113.999996520996,2|0,0:2|0:2,0:2:0:0:
256,46,141971,5,2,3:2:0:0:
419,160,142142,1,2,3:2:0:0:
419,160,142228,1,2,0:2:0:0:
419,160,142314,5,2,0:2:0:0:
375,126,142399,1,2,0:2:0:0:
324,144,142485,1,2,0:2:0:0:
312,198,142571,1,2,0:2:0:0:
349,241,142657,5,2,0:2:0:0:
344,184,142742,1,2,0:2:0:0:
339,127,142828,1,2,0:2:0:0:
334,70,142914,1,2,0:2:0:0:
330,13,142999,5,2,0:2:0:0:
194,100,143171,1,2,0:2:0:0:
194,100,143257,1,2,0:2:0:0:
194,100,143343,2,0,L|140:91,6,28.4999991302491,2|0|0|0|0|0|0,1:2|0:2|0:2|0:2|0:2|0:2|0:2,0:2:0:0:
90,37,143686,2,2,L|30:65,1,56.9999982604981,2|2,3:2|0:2,0:2:0:0:
54,160,143857,2,0,L|-6:132,1,56.9999982604981,2|0,3:2|0:2,0:2:0:0:
150,207,144028,5,2,0:2:0:0:
81,384,144200,1,2,0:2:0:0:
81,384,144286,1,2,0:2:0:0:
81,384,144372,5,2,0:2:0:0:
115,340,144457,1,2,0:2:0:0:
97,289,144543,1,2,0:2:0:0:
43,277,144629,1,2,0:2:0:0:
0,314,144715,5,2,0:2:0:0:
57,309,144800,1,2,0:2:0:0:
114,304,144886,1,2,0:2:0:0:
171,299,144972,1,2,0:2:0:0:
228,295,145057,6,0,L|305:337,1,66.4999979705811,2|0,0:2|0:2,0:2:0:0:
389,366,145228,2,0,L|445:360,2,44.3333319803874,2|2|2,0:2|0:2|0:2,0:2:0:0:
361,281,145400,6,0,P|357:244|391:203,1,66.4999979705811,2|0,0:2|0:2,0:2:0:0:
496,245,145571,2,0,P|500:208|466:167,1,66.4999979705811,2|0,0:2|0:2,0:2:0:0:
377,57,145743,5,2,0:2:0:0:
332,79,145828,1,2,0:2:0:0:
287,97,145914,2,0,L|206:83,1,66.4999979705811,2|0,0:2|0:2,0:2:0:0:
117,19,146086,5,2,3:2:0:0:
78,45,146171,1,2,0:2:0:0:
65,90,146257,1,2,0:2:0:0:
83,133,146343,1,2,0:2:0:0:
114,169,146429,5,2,3:2:0:0:
132,221,146514,1,2,0:2:0:0:
117,273,146600,1,2,0:2:0:0:
71,306,146686,1,2,0:2:0:0:
7,290,146771,5,2,3:2:0:0:
74,294,146856,1,2,0:2:0:0:
140,298,146942,1,2,0:2:0:0:
207,302,147028,1,2,0:2:0:0:
273,305,147114,6,0,L|259:365,4,33.2499989852906,2|0|0|0|0,0:2|0:2|0:2|0:2|0:2,0:2:0:0:
293,61,147457,5,2,1:2:0:0:
244,170,147571,1,2,1:2:0:0:
340,243,147686,1,2,1:2:0:0:
496,206,147800,5,2,1:2:0:0:
343,144,147914,1,2,1:2:0:0:
273,305,148028,1,2,1:2:0:0:
432,337,148143,6,0,L|409:203,1,132.999995941162,14|0,3:2|0:2,0:2:0:0:
440,125,148400,1,2,0:2:0:0:
430,101,148486,5,10,0:2:0:0:
387,83,148571,1,2,0:2:0:0:
341,87,148657,1,2,0:2:0:0:
301,111,148743,1,2,0:2:0:0:
277,150,148829,5,10,0:2:0:0:
291,86,148914,1,2,0:2:0:0:
260,29,149000,1,2,0:2:0:0:
199,5,149086,1,2,0:2:0:0:
138,27,149171,6,0,P|111:64|101:102,1,66.4999979705811,10|0,3:2|0:2,0:2:0:0:
65,270,149343,1,2,0:2:0:0:
62,236,149428,1,2,0:2:0:0:
59,203,149514,2,0,L|46:54,1,132.999995941162,10|0,0:2|0:2,0:2:0:0:
206,295,149857,2,0,L|269:159,1,132.999995941162,10|0,0:2|0:2,0:2:0:0:
443,47,150200,5,10,3:2:0:0:
208,30,150371,1,2,0:2:0:0:
233,21,150457,1,2,0:2:0:0:
259,25,150544,5,10,0:2:0:0:
288,60,150629,1,2,0:2:0:0:
330,80,150715,1,2,0:2:0:0:
376,81,150801,1,2,0:2:0:0:
419,64,150886,5,10,0:2:0:0:
361,95,150971,1,2,0:2:0:0:
322,149,151057,1,2,0:2:0:0:
310,213,151143,1,2,0:2:0:0:
327,277,151228,6,0,P|311:258|256:241,1,66.4999979705811,10|0,3:2|0:2,0:2:0:0:
102,236,151400,1,2,0:2:0:0:
71,249,151486,1,2,0:2:0:0:
51,275,151571,2,0,P|68:368|116:390,1,132.999995941162,10|0,0:2|0:2,0:2:0:0:
176,162,151914,2,0,P|201:87|173:32,1,132.999995941162,10|0,3:2|0:2,0:2:0:0:
222,355,152257,5,10,3:2:0:0:
291,168,152428,1,2,3:2:0:0:
316,158,152514,1,2,0:2:0:0:
342,161,152600,5,10,0:2:0:0:
378,189,152686,1,2,0:2:0:0:
423,193,152772,1,2,0:2:0:0:
464,171,152858,1,2,0:2:0:0:
486,131,152943,5,10,0:2:0:0:
424,117,153029,1,2,0:2:0:0:
405,56,153115,1,2,0:2:0:0:
449,10,153201,1,2,0:2:0:0:
510,26,153286,5,10,3:2:0:0:
486,131,153457,1,2,0:2:0:0:
486,144,153514,1,2,0:2:0:0:
485,156,153571,1,2,0:2:0:0:
484,168,153628,1,10,3:2:0:0:
312,91,153800,1,2,3:2:0:0:
401,278,153971,1,10,3:2:0:0:
436,59,154143,1,2,3:2:0:0:
328,214,154314,5,10,3:2:0:0:
297,180,154399,1,2,0:2:0:0:
252,171,154485,1,2,0:2:0:0:
211,192,154571,1,2,0:2:0:0:
191,233,154656,5,10,3:2:0:0:
146,279,154744,1,2,0:2:0:0:
81,279,154828,1,2,0:2:0:0:
38,231,154914,1,2,0:2:0:0:
43,167,155001,5,10,3:2:0:0:
80,156,155087,1,2,0:2:0:0:
79,118,155171,1,2,0:2:0:0:
44,105,155258,1,2,0:2:0:0:
21,135,155343,6,0,P|35:103|43:59,1,66.4999979705811,10|0,0:2|0:2,0:2:0:0:
160,0,155514,1,2,0:2:0:0:
139,26,155600,1,2,0:2:0:0:
139,59,155686,1,10,1:2:0:0:
334,0,155857,1,2,3:2:0:0:
226,128,156028,1,10,3:2:0:0:
226,141,156085,1,2,0:2:0:0:
226,154,156142,1,2,0:2:0:0:
226,167,156199,1,2,0:2:0:0:
391,83,156371,6,0,P|457:123|433:172,1,132.999995941162,10|0,0:2|0:2,0:2:0:0:
351,228,156628,1,2,0:2:0:0:
326,238,156714,5,10,0:2:0:0:
300,276,156799,1,2,0:2:0:0:
300,322,156885,1,2,0:2:0:0:
325,360,156971,1,2,0:2:0:0:
368,378,157057,6,0,P|384:341|384:298,1,66.4999979705811,10|0,0:2|0:2,0:2:0:0:
496,256,157228,1,2,0:2:0:0:
491,222,157314,1,2,0:2:0:0:
486,188,157400,1,10,3:2:0:0:
411,28,157571,1,2,0:2:0:0:
406,62,157657,1,2,0:2:0:0:
401,96,157743,5,10,0:2:0:0:
378,72,157829,1,2,0:2:0:0:
346,62,157915,1,2,0:2:0:0:
314,68,158001,1,2,0:2:0:0:
247,125,158086,5,10,0:2:0:0:
207,132,158172,1,2,0:2:0:0:
170,120,158258,1,2,0:2:0:0:
142,91,158344,1,2,0:2:0:0:
109,0,158428,5,10,3:2:0:0:
69,226,158600,1,2,3:2:0:0:
237,273,158771,5,10,3:2:0:0:
109,0,158943,1,2,0:3:0:0:
277,47,159114,5,10,3:2:0:0:
237,273,159286,1,2,0:3:0:0:
466,254,159457,5,10,3:2:0:0:
258,127,159628,1,2,3:3:0:0:
247,82,159714,1,2,0:3:0:0:
277,47,159800,1,10,3:2:0:0:
381,241,159971,1,2,0:2:0:0:
392,286,160057,1,2,0:2:0:0:
362,321,160144,5,10,0:2:0:0:
342,279,160229,1,2,0:2:0:0:
301,260,160315,1,2,0:2:0:0:
257,272,160401,1,2,0:2:0:0:
181,334,160485,5,10,3:2:0:0:
148,341,160571,1,2,0:2:0:0:
117,331,160657,1,2,3:2:0:0:
95,308,160743,1,2,0:2:0:0:
143,222,160828,5,10,0:2:0:0:
165,190,160913,1,2,0:2:0:0:
161,150,160999,1,2,0:2:0:0:
135,121,161085,1,2,0:2:0:0:
42,84,161171,5,10,0:2:0:0:
266,23,161343,1,2,0:2:0:0:
143,222,161514,5,10,3:2:0:0:
245,118,161686,1,2,3:2:0:0:
267,109,161743,1,2,0:2:0:0:
291,109,161800,1,2,0:2:0:0:
313,118,161857,2,0,P|346:197|326:235,1,132.999995941162,10|0,0:2|0:2,0:2:0:0:
225,357,162200,1,10,3:2:0:0:
440,302,162371,1,2,0:2:0:0:
186,252,162543,5,10,0:2:0:0:
163,204,162628,1,2,0:2:0:0:
168,152,162714,1,2,0:2:0:0:
199,109,162800,1,2,0:2:0:0:
247,88,162886,2,0,P|286:89|318:113,1,66.4999979705811,10|0,0:2|0:2,0:2:0:0:
423,159,163057,2,0,P|385:170|360:201,1,66.4999979705811,2|0,0:2|0:2,0:2:0:0:
301,284,163228,1,10,0:2:0:0:
299,317,163314,1,2,0:2:0:0:
315,346,163400,2,0,P|345:368|391:366,1,66.4999979705811,2|0,0:2|0:2,0:2:0:0:
505,296,163571,5,6,0:2:0:0:
512,230,163656,1,2,0:2:0:0:
489,167,163742,1,2,0:2:0:0:
443,121,163828,1,2,0:2:0:0:
379,106,163915,1,2,3:2:0:0:
328,61,164001,1,2,0:2:0:0:
305,3,164086,2,0,P|304:49|283:83,1,66.4999979705811,2|0,0:2|0:2,0:2:0:0:
168,186,164257,6,0,B|140:182|120:171|120:171|136:170|152:160,1,80.750001540184,6|0,0:2|0:2,0:2:0:0:
386,202,164428,2,0,B|414:206|434:217|434:217|418:218|402:228,1,80.750001540184,6|0,0:2|0:2,0:2:0:0:
223,338,164600,6,0,L|287:169,1,170.999994781494,4|0,3:1|0:0,0:0:0:0:
234,4,164857,1,0,0:0:0:0:
234,4,164943,5,2,3:2:0:0:
197,48,165028,1,2,0:2:0:0:
144,70,165114,1,2,0:2:0:0:
87,66,165200,1,2,0:2:0:0:
36,8,165286,5,2,3:2:0:0:
53,79,165371,1,2,0:0:0:0:
70,151,165457,1,2,0:0:0:0:
87,223,165543,1,2,0:0:0:0:
107,296,165628,6,0,P|120:270|195:277,1,85.4999973907472,0|0,3:2|0:0,0:0:0:0:
289,293,165800,1,2,0:0:0:0:
301,336,165886,1,2,0:0:0:0:
271,369,165971,2,0,P|211:277|316:217,1,256.499992172241,2|0,3:2|0:0,0:0:0:0:
461,352,166314,2,0,L|408:189,1,170.999994781494,2|0,3:2|0:0,0:0:0:0:
113,58,166657,6,0,P|152:82|197:71,1,85.4999973907472,2|0,3:2|0:0,0:0:0:0:
307,10,166828,1,2,0:2:0:0:
307,10,166914,1,2,0:2:0:0:
307,10,167000,5,2,3:2:0:0:
257,48,167086,1,2,0:2:0:0:
266,111,167171,1,2,0:2:0:0:
325,137,167257,1,2,0:2:0:0:
409,141,167343,5,2,3:2:0:0:
335,168,167428,1,2,0:2:0:0:
262,196,167514,1,2,0:2:0:0:
189,223,167600,1,2,0:2:0:0:
110,242,167686,6,0,P|108:202|135:154,1,85.4999973907472,2|0,3:2|0:0,0:0:0:0:
166,347,167857,1,2,0:2:0:0:
207,377,167943,1,2,0:2:0:0:
254,366,168028,2,0,B|295:331|344:337|411:406|458:401|504:360,1,256.499992172241,2|0,3:2|0:2,0:2:0:0:
425,247,168371,6,0,L|436:291,2,42.7499986953736,2|0|0,1:2|1:2|1:2,0:2:0:0:
504,149,168543,2,0,L|482:66,1,85.4999973907472,2|0,3:2|0:2,0:2:0:0:
329,153,168714,6,0,P|361:131|368:71,1,85.4999973907472,2|0,3:2|0:2,0:2:0:0:
227,36,168886,1,2,0:2:0:0:
227,36,168971,1,2,0:2:0:0:
227,36,169057,5,2,3:2:0:0:
275,64,169142,1,2,0:2:0:0:
287,121,169228,1,2,0:2:0:0:
251,163,169314,1,2,0:2:0:0:
169,190,169399,5,2,3:2:0:0:
98,157,169486,1,2,0:2:0:0:
24,180,169571,1,2,0:2:0:0:
7,256,169657,1,2,0:2:0:0:
52,320,169743,6,0,L|156:310,1,85.4999973907472,0|0,3:2|0:2,0:2:0:0:
297,370,169914,1,2,0:0:0:0:
300,345,169971,1,2,0:0:0:0:
302,319,170028,1,2,0:0:0:0:
305,293,170086,2,0,L|315:189,1,85.4999973907472,0|0,3:2|0:2,0:2:0:0:
229,77,170257,1,2,0:2:0:0:
466,157,170428,2,0,L|484:115,6,42.7499986953736,2|0|0|0|0|0|0,1:2|0:2|0:2|0:2|0:2|0:2|0:2,0:2:0:0:
411,236,170771,5,2,3:2:0:0:
367,238,170856,1,2,0:2:0:0:
348,198,170942,1,2,0:2:0:0:
380,164,171028,1,2,0:2:0:0:
466,157,171114,5,2,3:2:0:0:
511,219,171199,1,2,0:2:0:0:
490,290,171285,1,2,0:2:0:0:
420,317,171371,1,2,0:2:0:0:
339,277,171456,5,2,3:2:0:0:
277,230,171542,1,2,0:2:0:0:
198,223,171628,1,2,0:2:0:0:
144,277,171714,1,2,0:2:0:0:
66,251,171800,6,0,L|96:170,1,85.4999973907472,0|0,3:2|0:2,0:2:0:0:
244,35,171971,2,0,L|271:-4,2,42.7499986953736,0|0|0,1:2|1:2|1:2,0:2:0:0:
196,172,172143,6,0,L|166:91,1,85.4999973907472,2|0,3:2|0:2,0:2:0:0:
80,49,172314,2,0,L|70:-7,2,42.7499986953736,2|0|0,1:2|1:2|0:2,0:2:0:0:
18,155,172486,1,6,0:2:0:0:
27,174,172543,1,2,0:2:0:0:
37,195,172600,1,2,0:2:0:0:
45,213,172657,2,0,L|80:279,2,42.7499986953736,2|0|0,1:2|0:2|0:2,0:2:0:0:
97,350,172828,6,0,P|98:264|170:236,1,170.999994781494,4|0,3:1|0:0,0:0:0:0:
268,342,173085,1,0,0:0:0:0:
268,342,173171,5,2,3:2:0:0:
295,299,173256,1,2,0:2:0:0:
344,286,173342,1,2,0:2:0:0:
394,297,173428,1,2,0:2:0:0:
429,369,173514,5,2,3:2:0:0:
412,298,173599,1,2,0:0:0:0:
395,226,173685,1,2,0:0:0:0:
378,154,173771,1,2,0:0:0:0:
362,75,173857,6,0,P|400:57|458:87,1,85.4999973907472,0|0,3:2|0:0,0:0:0:0:
260,130,174028,1,2,0:0:0:0:
230,166,174113,1,2,0:0:0:0:
187,163,174199,2,0,P|131:71|247:25,1,256.499992172241,2|0,3:2|0:0,0:0:0:0:
30,178,174542,2,0,P|17:115|102:68,1,170.999994781494,2|0,3:2|0:0,0:0:0:0:
124,348,174885,6,0,L|10:327,1,85.4999973907472,2|0,3:2|0:0,0:0:0:0:
186,270,175056,1,2,0:2:0:0:
186,270,175142,1,2,0:2:0:0:
186,270,175228,5,2,3:2:0:0:
224,220,175313,1,2,0:2:0:0:
287,229,175399,1,2,0:2:0:0:
313,288,175485,1,2,0:2:0:0:
350,368,175571,5,2,3:2:0:0:
420,373,175657,1,2,0:0:0:0:
473,328,175742,1,2,0:2:0:0:
452,254,175828,1,2,0:2:0:0:
389,204,175914,6,0,P|364:169|373:121,1,85.4999973907472,2|0,3:2|0:0,0:0:0:0:
509,12,176085,1,2,0:2:0:0:
467,36,176171,1,2,0:2:0:0:
423,21,176257,2,0,B|382:-14|333:-8|266:61|219:56|173:15,1,256.499992172241,2|0,3:2|0:2,0:2:0:0:
40,18,176599,6,0,L|51:62,6,42.7499986953736,2|0|0|0|0|0|0,0:2|0:2|0:2|0:2|0:2|0:2|0:2,0:2:0:0:
99,191,176942,6,0,P|64:223|60:273,1,85.4999973907472,2|0,3:2|0:2,0:2:0:0:
208,370,177114,1,2,0:2:0:0:
208,370,177199,1,2,0:2:0:0:
208,370,177285,5,2,3:2:0:0:
256,342,177370,1,2,0:2:0:0:
268,285,177456,1,2,0:2:0:0:
232,243,177542,1,2,0:2:0:0:
155,195,177628,5,2,3:2:0:0:
229,222,177713,1,2,0:2:0:0:
303,249,177799,1,2,0:2:0:0:
377,276,177885,1,2,0:2:0:0:
459,306,177971,6,0,L|450:213,1,85.4999973907472,0|0,3:2|0:2,0:2:0:0:
512,72,178142,1,2,0:0:0:0:
487,75,178199,1,2,0:0:0:0:
461,77,178256,1,2,0:0:0:0:
435,80,178314,2,0,L|331:90,1,85.4999973907472,0|0,3:2|0:2,0:2:0:0:
216,27,178485,1,2,0:2:0:0:
112,256,178657,2,0,P|130:224|113:173,1,85.4999973907472,2|0,3:2|0:2,0:2:0:0:
2,95,178828,2,0,P|-10:134|8:172,1,85.4999973907472,2|0,3:2|0:2,0:2:0:0:
93,274,178999,5,2,3:2:0:0:
116,315,179086,1,2,0:2:0:0:
159,326,179170,1,2,0:2:0:0:
195,302,179256,1,2,0:2:0:0:
243,236,179342,5,2,3:2:0:0:
305,191,179427,1,2,0:2:0:0:
376,212,179513,1,2,0:2:0:0:
403,282,179599,1,2,0:2:0:0:
356,360,179686,5,2,3:2:0:0:
343,283,179771,1,2,0:2:0:0:
333,209,179857,1,2,0:2:0:0:
325,134,179943,1,2,0:2:0:0:
311,51,180028,6,0,L|304:7,6,42.7499986953736
426,99,180371,5,2,1:2:0:0:
318,213,180485,1,2,1:2:0:0:
219,110,180600,1,2,1:2:0:0:
435,89,180714,5,2,1:2:0:0:
307,219,180828,1,2,1:2:0:0:
214,101,180942,1,2,1:2:0:0:
461,35,181057,6,0,L|434:203,1,170.999994781494,4|0,3:2|0:2,0:2:0:0:
460,351,181314,1,2,0:2:0:0:
460,351,181400,5,2,3:2:0:0:
430,300,181486,1,2,0:2:0:0:
374,282,181572,1,2,0:2:0:0:
321,305,181658,1,2,0:2:0:0:
274,375,181743,5,2,3:2:0:0:
262,299,181828,1,2,0:2:0:0:
250,223,181914,1,2,0:2:0:0:
237,147,182000,1,2,0:2:0:0:
226,71,182086,6,0,P|271:91|318:77,1,85.4999973907472,2|0,3:2|0:2,0:2:0:0:
262,299,182257,1,2,0:2:0:0:
239,262,182343,1,2,0:2:0:0:
196,256,182428,2,0,B|163:255|127:277|127:277|64:255|41:209|57:155|87:123,1,256.499992172241,2|0,3:2|0:2,0:2:0:0:
284,43,182771,2,0,P|346:85|328:180,1,170.999994781494,2|0,3:2|0:2,0:2:0:0:
263,349,183114,6,0,P|249:304|217:280,1,85.4999973907472,2|0,3:2|0:2,0:2:0:0:
71,269,183286,1,2,0:2:0:0:
71,269,183371,1,2,0:2:0:0:
71,269,183457,5,2,3:2:0:0:
127,251,183543,1,2,0:2:0:0:
163,204,183629,1,2,0:2:0:0:
167,146,183715,1,2,0:2:0:0:
133,67,183800,5,2,3:2:0:0:
190,116,183886,1,2,0:2:0:0:
264,137,183972,1,2,0:2:0:0:
339,125,184058,1,2,0:2:0:0:
402,82,184143,6,0,L|417:-10,1,85.4999973907472,2|0,3:2|0:2,0:2:0:0:
478,282,184314,1,2,0:2:0:0:
470,239,184400,1,2,0:2:0:0:
439,208,184486,2,0,B|339:143|308:285|185:210,1,256.499992172241,2|0,3:2|0:2,0:2:0:0:
266,68,184828,2,0,P|339:128|324:207,1,170.999994781494,2|0,3:2|0:2,0:2:0:0:
192,350,185171,6,0,P|147:355|101:323,1,85.4999973907472,2|0,3:2|0:2,0:2:0:0:
18,246,185343,1,2,0:2:0:0:
18,246,185428,1,2,0:2:0:0:
18,246,185514,5,2,3:2:0:0:
0,189,185600,1,2,0:2:0:0:
18,133,185686,1,2,0:2:0:0:
65,97,185772,1,2,0:2:0:0:
149,105,185857,5,2,3:2:0:0:
211,147,185943,1,2,0:2:0:0:
286,140,186029,1,2,0:2:0:0:
339,87,186115,1,2,0:2:0:0:
347,12,186200,6,0,P|352:63|371:104,1,85.4999973907472,2|0,3:2|0:2,0:2:0:0:
470,176,186371,1,2,0:2:0:0:
448,194,186428,1,2,0:2:0:0:
424,177,186486,1,2,0:2:0:0:
402,195,186543,2,0,L|317:221,1,85.4999973907472,2|0,3:2|0:2,0:2:0:0:
160,168,186714,1,2,0:2:0:0:
242,373,186886,1,2,3:2:0:0:
271,342,186971,1,2,0:2:0:0:
271,299,187057,1,2,0:2:0:0:
375,356,187228,5,2,3:2:0:0:
411,378,187314,1,2,0:2:0:0:
433,341,187400,1,2,0:2:0:0:
397,319,187486,1,2,0:2:0:0:
330,262,187571,5,2,3:2:0:0:
292,215,187657,1,2,0:2:0:0:
338,178,187743,1,2,0:2:0:0:
375,224,187828,1,2,0:2:0:0:
226,280,187914,5,2,3:2:0:0:
152,301,188000,1,2,0:2:0:0:
170,376,188086,1,2,0:2:0:0:
245,356,188171,1,2,0:2:0:0:
178,193,188257,6,0,L|135:100,1,85.4999973907472,2|0,3:2|0:2,0:2:0:0:
50,1,188428,1,2,0:2:0:0:
76,34,188514,1,2,0:2:0:0:
118,40,188600,2,0,P|157:33|197:-1,1,85.4999973907472,2|0,3:2|0:2,0:2:0:0:
331,94,188771,2,0,P|293:85|275:34,1,85.4999973907472,2|0,0:2|0:2,0:2:0:0:
414,25,188943,1,2,3:2:0:0:
440,35,189000,1,2,0:2:0:0:
429,61,189057,1,2,0:2:0:0:
452,76,189114,2,0,P|455:123|444:165,1,85.4999973907472,2|0,0:2|0:2,0:2:0:0:
368,342,189286,6,0,B|378:269|378:269|372:224|338:167,1,170.999994781494,6|0,3:2|0:2,0:2:0:0:
235,113,189543,1,2,0:2:0:0:
235,113,189628,5,2,3:2:0:0:
178,127,189713,1,2,0:2:0:0:
145,176,189799,1,2,0:2:0:0:
153,234,189885,1,2,0:2:0:0:
196,271,189971,6,0,P|163:253|101:260,1,85.4999973907472,2|0,3:2|0:2,0:2:0:0:
0,340,190143,1,2,0:2:0:0:
24,374,190228,1,2,0:2:0:0:
66,373,190314,2,0,L|173:351,1,85.4999973907472,2|0,3:2|0:2,0:2:0:0:
266,378,190486,1,2,0:2:0:0:
266,378,190571,1,2,0:2:0:0:
266,378,190657,5,2,3:2:0:0:
224,336,190743,1,2,0:2:0:0:
216,278,190829,1,2,0:2:0:0:
243,226,190915,1,2,0:2:0:0:
319,189,191000,5,2,3:2:0:0:
245,211,191086,1,2,0:2:0:0:
171,233,191171,1,2,0:2:0:0:
97,255,191257,1,2,0:2:0:0:
23,277,191343,5,2,3:2:0:0:
311,377,191514,1,2,0:2:0:0:
414,234,191686,5,2,3:2:0:0:
77,366,191857,1,2,0:2:0:0:
15,169,192029,5,2,3:2:0:0:
303,269,192200,1,2,0:2:0:0:
464,96,192371,5,2,3:2:0:0:
240,200,192543,1,2,0:2:0:0:
272,160,192628,1,2,0:2:0:0:
264,109,192714,1,2,3:2:0:0:
401,287,192886,1,2,0:2:0:0:
450,274,192971,1,2,0:2:0:0:
471,227,193057,5,2,3:2:0:0:
427,199,193143,1,2,0:2:0:0:
376,205,193228,1,2,0:2:0:0:
339,241,193314,1,2,0:2:0:0:
303,337,193400,5,2,3:2:0:0:
280,305,193486,1,2,0:2:0:0:
242,296,193571,1,2,0:2:0:0:
206,309,193657,1,2,0:2:0:0:
124,384,193743,5,2,3:2:0:0:
74,372,193828,1,2,0:2:0:0:
40,333,193914,1,2,0:2:0:0:
35,281,194000,1,2,0:2:0:0:
95,185,194086,6,0,L|179:163,1,85.4999973907472,2|0,3:2|0:2,0:2:0:0:
280,223,194257,2,0,P|240:223|189:191,1,85.4999973907472,2|0,0:2|0:2,0:2:0:0:
202,26,194428,5,2,3:2:0:0:
362,143,194600,1,2,0:2:0:0:
385,167,194657,1,2,0:2:0:0:
411,145,194714,1,2,0:2:0:0:
431,172,194771,2,0,P|477:166|517:141,1,85.4999973907472,2|0,3:2|0:2,0:2:0:0:
404,21,194943,1,2,0:2:0:0:
263,122,195114,1,2,3:2:0:0:
313,315,195286,1,2,0:2:0:0:
108,223,195457,5,2,3:2:0:0:
63,249,195543,1,2,0:2:0:0:
89,294,195628,1,2,0:2:0:0:
134,268,195714,1,2,0:2:0:0:
162,187,195800,5,2,3:2:0:0:
162,116,195886,1,2,0:2:0:0:
92,116,195971,1,2,0:2:0:0:
93,185,196057,1,2,0:2:0:0:
186,140,196143,5,6,3:2:0:0:
230,63,196229,1,2,0:2:0:0:
157,22,196314,1,2,0:2:0:0:
114,96,196400,1,2,0:2:0:0:
241,154,196486,5,2,3:2:0:0:
305,112,196571,1,2,0:2:0:0:
376,141,196657,1,2,0:2:0:0:
440,99,196742,1,2,0:2:0:0:
511,128,196828,5,10,0:2:0:0:
471,194,196914,1,2,0:2:0:0:
490,268,197000,2,0,L|472:367,1,85.4999973907472,2|0,0:2|0:2,0:2:0:0:
364,362,197171,6,0,B|345:350|315:348|315:348|312:327|292:310,1,85.4999973907472,10|0,0:2|0:2,0:2:0:0:
172,261,197343,2,0,B|191:249|221:247|221:247|224:226|244:209,1,85.4999973907472,2|0,0:2|0:2,0:2:0:0:
289,103,197514,1,4,0:2:0:0:
289,103,197856,6,0,B|225:84|225:84|128:176,1,199.499993911743,2|0,0:2|0:2,0:2:0:0:
19,190,198199,2,0,B|83:171|83:171|133:249|133:249|180:263,1,199.499993911743,2|0,0:2|0:2,0:2:0:0:
120,354,198542,2,0,B|184:319|184:319|222:257|222:257|278:268,1,199.499993911743,2|0,0:2|0:2,0:2:0:0:
360,371,198885,5,6,3:2:0:0:
401,59,199056,2,0,P|399:100|421:135,1,71.2500027179719,2|0,3:2|0:2,0:2:0:0:
501,247,199228,1,0,3:2:0:0:
291,240,199399,2,0,L|200:258,1,71.2500027179719,2|0,3:2|0:2,0:2:0:0:
50,344,199571,2,0,P|53:306|26:264,1,71.2500027179719,0|0,3:2|0:2,0:2:0:0:
102,147,199742,2,0,P|72:124|28:128,1,71.2500027179719,2|0,3:2|0:2,0:2:0:0:
222,36,199914,1,2,3:2:0:0:
270,25,199999,1,2,3:2:0:0:
318,14,200085,2,0,P|337:43|332:83,1,71.2500027179719,2|0,3:2|0:0,0:0:0:0:
433,293,200256,5,0,3:0:0:0:
444,245,200342,2,0,L|385:231,1,35.625001358986,2|0,0:2|0:0,0:0:0:0:
455,197,200428,2,0,L|474:112,1,71.2500027179719,2|0,3:2|0:2,0:2:0:0:
496,0,200599,1,2,3:2:0:0:
267,263,200771,2,0,L|251:187,1,71.2500027179719,2|0,3:2|0:2,0:2:0:0:
210,64,200942,1,2,3:2:0:0:
31,323,201114,2,0,L|45:253,1,71.2500027179719,2|0,3:2|0:2,0:2:0:0:
120,122,201285,1,2,3:2:0:0:
131,171,201371,1,2,3:2:0:0:
141,203,201456,1,2,3:2:0:0:
147,225,201542,1,2,3:2:0:0:
151,238,201628,5,2,3:2:0:0:
413,264,201799,2,0,P|377:258|335:282,1,71.2500027179719,2|0,3:2|0:2,0:2:0:0:
238,346,201971,1,0,3:2:0:0:
512,376,202142,2,0,L|499:284,1,71.2500027179719,2|0,3:2|0:2,0:2:0:0:
455,84,202314,1,2,3:2:0:0:
470,145,202399,1,2,3:2:0:0:
484,203,202485,1,2,3:2:0:0:
303,18,202656,1,2,3:2:0:0:
325,78,202742,1,2,3:2:0:0:
291,123,202828,2,0,P|252:123|207:98,1,71.2500027179719,2|0,3:2|0:2,0:2:0:0:
70,35,202999,5,2,3:2:0:0:
49,96,203085,2,0,L|-8:91,1,35.625001358986,2|0,0:2|0:0,0:0:0:0:
78,146,203171,2,0,L|76:231,1,71.2500027179719,2|0,3:2|0:2,0:2:0:0:
183,348,203342,2,0,P|195:319|175:262,1,71.2500027179719,2|0,3:2|0:2,0:2:0:0:
43,374,203514,1,2,3:2:0:0:
21,299,203599,1,2,3:2:0:0:
0,228,203685,1,2,3:2:0:0:
250,370,203856,2,0,L|168:343,1,71.2500027179719,2|0,3:2|0:2,0:2:0:0:
182,347,204371,5,6,3:2:0:0:
410,363,204542,2,0,P|442:321|436:270,1,85.4999973907472,2|0,3:2|0:2,0:2:0:0:
363,191,204714,1,0,3:2:0:0:
91,246,204885,2,0,L|60:150,1,85.4999973907472,2|0,3:2|0:2,0:2:0:0:
222,100,205056,2,0,L|250:10,1,85.4999973907472,2|0,3:2|0:2,0:2:0:0:
371,199,205228,1,2,3:2:0:0:
371,199,205314,1,2,0:2:0:0:
371,199,205399,1,2,3:2:0:0:
441,158,205485,1,2,3:2:0:0:
503,212,205571,2,0,L|470:314,1,85.4999973907472,2|0,3:2|0:2,0:2:0:0:
305,384,205742,5,2,3:2:0:0:
274,310,205828,2,0,B|216:316,1,42.7499986953736,2|0,0:0|0:0,0:0:0:0:
261,233,205914,2,0,L|233:147,1,85.4999973907472,2|0,3:2|0:2,0:2:0:0:
199,4,206085,2,0,L|117:29,1,85.4999973907472,2|0,3:2|0:2,0:2:0:0:
34,190,206256,1,2,3:2:0:0:
34,190,206342,1,2,0:0:0:0:
34,190,206428,2,0,L|7:108,1,85.4999973907472,2|0,3:2|0:2,0:2:0:0:
22,330,206599,2,0,L|115:301,1,85.4999973907472,2|0,3:2|0:2,0:2:0:0:
283,374,206771,5,2,3:2:0:0:
247,341,206856,1,2,3:2:0:0:
231,297,206942,1,2,3:2:0:0:
237,250,207028,1,2,3:2:0:0:
289,188,207114,5,2,3:2:0:0:
328,162,207199,1,2,3:2:0:0:
352,121,207285,1,2,3:2:0:0:
354,73,207371,1,2,3:2:0:0:
292,33,207456,5,2,3:2:0:0:
260,68,207542,1,2,3:2:0:0:
256,116,207628,1,2,3:2:0:0:
276,159,207714,1,2,3:2:0:0:
350,184,207799,5,2,3:2:0:0:
398,184,207885,1,2,3:2:0:0:
438,161,207971,1,2,3:2:0:0:
461,119,208056,1,2,3:2:0:0:
399,43,208142,5,2,3:2:0:0:
355,104,208228,1,2,3:2:0:0:
350,184,208314,1,2,3:2:0:0:
376,257,208399,1,2,3:2:0:0:
427,320,208485,6,0,L|439:368,7,42.7499986953736,4|0|0|0|0|0|0|0,3:1|0:2|0:2|0:2|0:2|0:2|0:2|0:2,0:2:0:0:
470,244,208828,2,0,L|524:238,7,42.7499986953736,4|0|0|0|0|0|0|0,3:1|0:2|0:2|0:2|0:2|0:2|0:2|0:2,0:2:0:0:
364,246,209171,2,0,L|307:246,15,42.7499986953736,4|0|0|0|0|0|0|0|0|0|0|0|0|0|0|0,3:2|0:2|0:2|0:2|0:2|0:2|0:2|0:2|0:2|0:2|0:2|0:2|0:2|0:2|0:2|0:2,0:2:0:0:
435,163,209856,5,0,3:2:0:0:
435,163,211228,5,0,3:2:0:0:
352,140,211314,1,0,3:2:0:0:
269,117,211399,1,0,3:2:0:0:
111,230,211571,5,0,3:2:0:0:
194,207,211656,1,0,3:2:0:0:
331,326,211828,5,0,3:2:0:0:
248,303,211914,1,0,3:2:0:0:
187,125,212085,1,0,3:2:0:0:
322,17,212256,5,0,3:2:0:0:
344,100,212342,1,0,3:2:0:0:
368,183,212428,1,0,3:2:0:0:
391,266,212514,1,0,3:2:0:0:
414,349,212599,1,4,3:2:0:0:
414,349,213971,5,0,3:2:0:0:
320,141,214142,1,0,3:2:0:0:
298,224,214228,1,0,3:2:0:0:
274,307,214314,1,0,3:2:0:0:
162,135,214485,1,0,3:2:0:0:
406,43,214656,6,0,B|419:72|419:72|409:113,1,56.9999982604981,0|0,3:2|0:2,0:2:0:0:
466,169,214771,2,0,B|453:198|453:198|463:239,1,56.9999982604981,0|0,3:2|0:2,0:2:0:0:
406,295,214885,2,0,B|419:324|419:324|409:365,1,56.9999982604981,0|0,3:2|0:2,0:2:0:0:
263,223,214999,6,0,L|249:277,1,42.7499986953736,0|0,3:2|0:2,0:2:0:0:
226,200,215085,2,0,L|221:255,1,42.7499986953736,0|0,3:2|0:2,0:2:0:0:
183,200,215171,2,0,L|188:255,1,42.7499986953736,0|0,3:2|0:2,0:2:0:0:
147,221,215256,2,0,L|162:274,1,42.7499986953736,0|0,3:2|0:2,0:2:0:0:
127,259,215342,5,4,3:2:0:0:
232,0,215514,1,2,0:2:0:0:
183,58,215599,1,2,0:2:0:0:
220,125,215685,2,0,P|305:147|364:74,1,170.999994781494,2|0,3:2|0:2,0:2:0:0:
512,9,216028,1,2,3:2:0:0:
437,29,216114,1,2,0:2:0:0:
409,99,216199,2,0,P|407:144|426:188,1,85.4999973907472,2|0,0:2|0:2,0:2:0:0:
512,290,216371,5,2,3:2:0:0:
259,260,216542,1,2,0:2:0:0:
322,38,216714,5,2,3:2:0:0:
319,112,216799,1,2,0:2:0:0:
264,164,216885,1,2,0:2:0:0:
189,161,216971,1,2,0:2:0:0:
138,107,217056,5,2,3:2:0:0:
184,143,217142,1,2,0:2:0:0:
207,197,217228,1,2,0:2:0:0:
202,256,217314,1,2,0:2:0:0:
168,304,217399,5,2,3:2:0:0:
188,341,217485,1,2,0:2:0:0:
227,356,217571,1,2,0:2:0:0:
266,340,217657,1,2,0:2:0:0:
285,303,217742,2,0,P|282:257|255:222,1,85.4999973907472,2|0,3:2|0:2,0:2:0:0:
67,180,217914,2,0,P|108:200|152:194,1,85.4999973907472,2|0,0:2|0:2,0:2:0:0:
236,52,218085,5,2,3:2:0:0:
372,255,218256,1,2,0:2:0:0:
334,187,218342,1,2,0:2:0:0:
360,114,218428,2,0,P|465:113|482:168,1,170.999994781494,2|0,3:2|0:2,0:2:0:0:
456,351,218771,1,2,3:2:0:0:
397,303,218856,1,2,0:2:0:0:
326,335,218942,2,0,L|223:350,1,85.4999973907472,2|0,0:2|0:2,0:2:0:0:
131,156,219114,5,2,3:2:0:0:
35,384,219285,1,2,0:2:0:0:
221,268,219456,5,2,3:2:0:0:
198,350,219542,1,2,0:2:0:0:
281,372,219628,1,2,0:2:0:0:
303,290,219713,1,2,0:2:0:0:
227,278,219799,5,2,3:2:0:0:
209,344,219885,1,2,0:2:0:0:
275,362,219971,1,2,0:2:0:0:
293,296,220056,1,2,0:2:0:0:
251,320,220142,5,2,3:2:0:0:
216,301,220199,1,2,0:2:0:0:
176,302,220256,1,2,0:2:0:0:
143,322,220313,1,2,0:2:0:0:
110,342,220371,1,2,0:2:0:0:
70,343,220428,1,2,0:2:0:0:
36,325,220485,6,0,L|23:266,2,56.9999982604981,2|2|2,3:2|0:2|0:2,0:2:0:0:
107,186,220656,2,0,L|120:127,2,56.9999982604981,2|2|2,0:2|0:2|0:2,0:2:0:0:
250,294,220828,6,0,L|231:210,1,85.4999973907472,4|2,1:2|0:2,0:2:0:0:
321,90,221000,1,2,3:2:0:0:
400,47,221086,1,2,0:2:0:0:
481,94,221171,2,0,L|454:200,1,85.4999973907472,2|0,3:2|0:2,0:2:0:0:
504,343,221342,1,2,0:0:0:0:
504,343,221428,1,2,0:2:0:0:
504,343,221514,1,2,3:2:0:0:
419,315,221600,1,2,0:2:0:0:
337,352,221686,2,0,P|298:350|266:304,1,85.4999973907472,2|0,0:2|0:2,0:2:0:0:
218,104,221857,5,2,3:2:0:0:
167,325,222028,1,2,0:2:0:0:
22,139,222199,6,0,L|38:48,1,85.4999973907472,4|0,3:1|0:2,0:2:0:0:
51,30,222343,1,2,0:2:0:0:
74,13,222400,1,2,0:2:0:0:
103,10,222457,2,0,P|124:29|140:60,2,56.9999982604981,4|0|0,0:1|0:2|0:2,0:2:0:0:
125,184,222657,5,2,0:2:0:0:
143,206,222714,1,4,3:1:0:0:
166,222,222771,1,2,0:2:0:0:
193,231,222828,1,2,0:2:0:0:
221,233,222885,6,0,L|283:209,2,56.9999982604981,4|0|0,3:1|0:2|0:2,0:2:0:0:
351,86,223057,2,0,L|375:148,2,56.9999982604981,4|0|0,3:2|0:2|0:2,0:2:0:0:
374,325,223228,2,0,L|350:263,2,56.9999982604981,4|0|0,3:2|0:2|0:2,0:2:0:0:
512,203,223400,2,0,L|447:228,2,56.9999982604981,4|0|0,3:2|0:2|0:2,0:2:0:0:
373,57,223571,6,0,L|286:74,1,85.4999973907472,6|2,3:2|0:2,0:2:0:0:
166,91,223743,1,2,0:2:0:0:
84,40,223828,1,2,0:2:0:0:
29,115,223914,2,0,L|71:193,1,85.4999973907472,2|0,3:2|0:2,0:2:0:0:
48,344,224086,1,2,0:2:0:0:
48,344,224171,1,2,0:2:0:0:
48,344,224257,1,2,3:2:0:0:
126,383,224343,1,2,0:2:0:0:
213,351,224428,2,0,P|220:299|196:264,1,85.4999973907472,2|0,0:2|0:2,0:2:0:0:
151,100,224600,5,2,3:2:0:0:
374,22,224771,1,2,0:2:0:0:
296,228,224942,5,2,3:2:0:0:
373,224,225028,1,2,0:2:0:0:
436,268,225114,1,2,0:2:0:0:
462,340,225199,1,2,3:2:0:0:
398,384,225285,5,2,0:2:0:0:
378,331,225370,1,2,0:2:0:0:
391,276,225456,1,2,3:2:0:0:
432,238,225542,1,2,0:2:0:0:
467,207,225628,5,2,3:2:0:0:
482,178,225685,1,2,0:2:0:0:
491,150,225742,1,2,0:2:0:0:
490,121,225799,1,2,0:2:0:0:
486,93,225856,1,6,0:2:0:0:
475,67,225913,1,2,3:2:0:0:
453,42,225971,2,0,L|391:36,2,56.9999982604981,2|2|6,0:2|0:2|0:2,0:0:0:0:
293,56,226142,2,0,L|306:-16,2,56.9999982604981,2|2|2,3:2|0:2|0:2,0:2:0:0:
173,172,226314,6,0,P|194:142|189:84,1,85.4999973907472,4|2,1:2|0:2,0:2:0:0:
48,17,226486,1,2,0:2:0:0:
0,84,226571,1,2,0:2:0:0:
42,156,226657,2,0,P|43:199|18:246,1,85.4999973907472,2|0,3:2|0:2,0:2:0:0:
120,359,226828,1,0,0:2:0:0:
120,359,226914,1,2,0:2:0:0:
120,359,227000,1,2,3:2:0:0:
198,384,227086,1,2,0:2:0:0:
255,327,227171,2,0,P|298:328|333:363,1,85.4999973907472,2|0,0:2|0:2,0:2:0:0:
512,359,227343,5,2,3:2:0:0:
386,171,227514,1,2,0:2:0:0:
249,308,227686,6,0,P|216:226|283:156,1,170.999994781494,0|0,3:2|0:2,0:2:0:0:
330,37,227943,1,4,3:1:0:0:
359,56,228028,6,0,L|420:48,2,56.9999982604981,2|0|0,0:2|0:2|0:2,0:2:0:0:
236,83,228200,1,4,0:1:0:0:
214,81,228257,1,2,0:2:0:0:
191,78,228314,1,2,0:2:0:0:
169,76,228371,6,0,L|152:20,2,56.9999982604981,4|0|0,3:1|0:2|0:2,0:2:0:0:
52,135,228543,2,0,L|35:191,2,56.9999982604981,4|0|0,3:2|0:2|0:2,0:2:0:0:
187,219,228714,2,0,L|203:273,2,56.9999982604981,4|0|0,3:2|0:2|0:2,0:2:0:0:
56,360,228886,2,0,L|72:305,2,56.9999982604981,4|0|0,3:1|0:2|0:2,0:2:0:0:
231,384,229056,6,0,L|313:358,1,85.4999973907472,4|2,3:1|0:2,0:2:0:0:
465,363,229228,1,2,3:2:0:0:
426,283,229314,1,2,0:2:0:0:
453,195,229400,2,0,L|424:103,1,85.4999973907472,2|0,3:2|0:2,0:2:0:0:
258,34,229571,2,0,P|292:57|291:106,1,85.4999973907472,2|0,3:2|0:2,0:2:0:0:
171,130,229743,1,2,3:2:0:0:
105,67,229828,1,2,0:2:0:0:
30,115,229914,2,0,L|50:207,1,85.4999973907472,2|0,3:2|0:2,0:2:0:0:
27,356,230086,2,0,L|110:337,1,85.4999973907472,2|0,3:2|0:2,0:2:0:0:
299,325,230257,2,0,L|212:293,1,85.4999973907472,2|0,3:2|0:2,0:2:0:0:
171,130,230428,5,2,3:2:0:0:
239,83,230513,1,2,3:2:0:0:
318,107,230599,1,2,3:2:0:0:
350,183,230685,1,2,3:2:0:0:
396,252,230771,5,2,3:2:0:0:
350,183,230856,1,2,3:2:0:0:
374,104,230942,1,2,3:2:0:0:
450,72,231028,1,2,3:2:0:0:
512,125,231114,5,6,3:2:0:0:
437,328,231228,1,6,3:2:0:0:
278,148,231343,1,6,3:2:0:0:
512,146,231457,5,6,3:2:0:0:
419,336,231571,1,6,3:2:0:0:
260,131,231686,1,6,3:2:0:0:
504,180,231799,5,4,3:1:0:0:
504,180,231885,1,2,0:2:0:0:
504,180,231971,2,0,B|472:182|446:164|446:164|426:173|426:173|404:151|368:158,1,142.500005435944,2|0,0:2|3:2,0:2:0:0:
191,82,232314,2,0,B|223:84|249:66|249:66|269:75|269:75|291:53|327:60,1,142.500005435944,2|0,0:2|3:2,0:2:0:0:
446,5,232656,2,0,P|458:47|443:87,1,71.2500027179719,2|0,0:2|0:2,0:2:0:0:
372,240,232828,2,0,B|376:248|376:248|304:248|304:248|300:244|300:244|296:248|296:248|224:248|224:248|228:256,1,170.999994781494,2|0,3:2|0:2,0:2:0:0:
173,138,233171,5,2,3:2:0:0:
238,353,233342,1,2,0:3:0:0:
384,91,233514,5,2,3:2:0:0:
350,354,233685,1,2,0:3:0:0:
499,252,233856,6,0,B|443:227|443:227|415:138|415:138|356:121,1,213.750008153916,2|0,3:2|0:2,0:2:0:0:
358,121,234199,2,0,B|380:139|380:139|414:137|414:137|405:165|405:165|443:190|443:190|442:226|442:226|480:228|480:228|498:251,1,242.250004620552,0|0,3:2|0:2,0:2:0:0:
407,362,234542,5,2,3:2:0:0:
407,362,234628,1,2,0:2:0:0:
407,362,234714,2,0,B|372:339|372:339|326:343|326:343|306:324|260:317,1,142.500005435944,2|0,0:2|3:2,0:2:0:0:
94,369,235056,2,0,B|107:329|107:329|91:285|91:285|104:261|99:215,1,142.500005435944,2|0,0:2|3:2,0:2:0:0:
283,193,235399,2,0,P|306:149|285:117,1,71.2500027179719,2|0,0:2|0:2,0:2:0:0:
184,4,235571,2,0,B|184:36|184:36|180:44|180:44|184:52|184:52|184:80|184:80|192:92|192:92|184:104|184:104|184:128|184:128|180:136|180:136|184:144|184:144|184:176,1,180.49999518013,2|0,3:2|0:2,0:2:0:0:
238,343,235914,5,2,3:2:0:0:
438,242,236085,2,0,L|424:333,1,71.2500027179719,2|0,0:2|0:2,0:2:0:0:
436,68,236256,2,0,P|355:87|353:153,1,142.500005435944,2|0,3:2|0:2,0:2:0:0:
144,147,236599,2,0,P|245:156|263:192,1,142.500005435944,2|0,3:2|0:2,0:2:0:0:
319,371,236942,2,0,P|299:341|251:352,1,85.4999973907472,2|0,3:2|0:2,0:2:0:0:
66,340,237114,2,0,P|85:310|133:321,1,85.4999973907472,2|0,3:2|0:2,0:2:0:0:
290,284,237285,5,2,3:2:0:0:
290,284,237371,1,2,0:2:0:0:
290,284,237456,2,0,B|319:284|337:275|337:275|366:288|384:304|384:304|421:290|444:304,1,142.500005435944,2|0,0:2|3:2,0:2:0:0:
488,124,237799,2,0,B|461:136|441:135|441:135|420:159|411:181|411:181|371:184|356:207,1,142.500005435944,2|0,0:2|3:2,0:2:0:0:
247,277,238142,2,0,P|262:245|250:195,1,71.2500027179719,2|0,0:2|0:2,0:2:0:0:
139,43,238314,2,0,B|135:49|135:49|139:57|139:57|139:117|139:117|135:125|135:125|139:133|139:133|139:193|139:193|143:201|143:201|139:207,1,170.999994781494,2|0,3:2|0:2,0:2:0:0:
264,321,238656,5,2,3:2:0:0:
43,169,238828,1,2,0:3:0:0:
279,128,238999,5,2,3:2:0:0:
29,297,239171,1,2,0:3:0:0:
315,196,239342,6,0,B|387:218|387:218|413:282|413:282|486:299,1,213.750008153916,2|0,3:2|0:2,0:2:0:0:
480,297,239685,2,0,B|463:281|463:281|412:281|412:281|413:258|413:258|389:247|389:247|386:217|386:217|339:228|339:228|314:195,1,242.250004620552,2|0,3:2|0:2,0:2:0:0:
346,92,240028,5,6,3:2:0:0:
190,12,240199,2,0,P|221:56|215:97,1,85.4999973907472,2|0,0:2|0:2,0:2:0:0:
91,170,240371,2,0,P|60:126|66:85,1,85.4999973907472,2|0,3:2|0:2,0:2:0:0:
55,296,240542,2,0,B|89:301|103:282|103:282|133:295|155:296|155:296|180:275|192:287,1,142.500005435944,2|0,0:2|3:2,0:2:0:0:
354,168,240885,1,2,0:2:0:0:
272,384,241056,2,0,B|276:372|276:372|268:344|268:344|272:312|272:312|276:296|276:296|272:280|272:280|268:248|268:248|276:220|276:220|272:208,1,180.49999518013,2|0,3:2|0:2,0:2:0:0:
206,45,241399,6,0,P|236:82|271:95,1,71.2500027179719,2|0,3:2|0:2,0:2:0:0:
459,148,241571,2,0,P|411:161|376:151,1,71.2500027179719,2|0,0:2|0:2,0:2:0:0:
160,200,241742,2,0,P|204:221|240:218,1,71.2500027179719,2|0,0:2|0:2,0:2:0:0:
392,309,241914,2,0,P|343:305|312:284,1,71.2500027179719,2|0,0:2|0:2,0:2:0:0:
173,347,242085,6,0,B|159:371|159:371|171:410,6,35.625001358986,2|0|0|0|0|0|0,0:2|0:2|0:2|0:2|0:2|0:2|0:2,0:2:0:0:
71,289,242428,2,0,B|64:310|64:310|94:302,6,35.625001358986,2|0|0|0|0|0|0,0:2|0:2|0:2|0:2|0:2|0:2|0:2,0:2:0:0:
168,209,242770,5,4,3:1:0:0:
168,209,242856,1,2,0:2:0:0:
168,209,242942,2,0,B|177:150|177:150|169:149|169:149|177:150|177:150|187:75,1,142.500005435944,2|0,0:2|3:2,0:2:0:0:
323,0,243284,2,0,B|291:52|291:52|340:133,1,142.500005435944,2|0,0:2|3:2,0:2:0:0:
480,312,243628,2,0,P|451:291|399:300,1,71.2500027179719,2|0,0:2|0:2,0:2:0:0:
303,225,243799,2,0,B|351:213|351:213|376:192|376:192|416:194|416:194|428:183|428:183|483:164,1,170.999994781494,2|0,3:2|0:2,0:2:0:0:
230,176,244141,5,2,3:2:0:0:
86,377,244313,1,2,0:3:0:0:
273,304,244484,5,2,3:2:0:0:
5,303,244656,1,2,0:3:0:0:
104,99,244828,6,0,B|107:131|107:131|118:129|118:129|107:131|107:131|113:182|113:182|101:183|101:183|113:182|113:182|125:298,1,213.750008153916,0|0,3:2|0:2,0:2:0:0:
121,265,245171,2,0,B|118:233|118:233|107:235|107:235|118:233|118:233|112:182|112:182|124:181|124:181|112:182|112:182|100:59,1,242.250004620552,0|0,3:2|0:2,0:2:0:0:
237,111,245513,5,0,3:2:0:0:
237,111,245599,1,2,0:0:0:0:
237,111,245685,2,0,B|273:72|273:72|208:-17,1,142.500005435944,2|0,0:2|3:2,0:2:0:0:
203,248,246027,2,0,B|242:212|242:212|331:277,1,142.500005435944,2|0,0:2|3:2,0:2:0:0:
496,320,246370,2,0,P|497:353|464:392,1,71.2500027179719,2|0,0:2|0:2,0:2:0:0:
416,248,246542,2,0,B|452:206|452:206|441:143|441:143|492:88,1,180.49999518013,2|0,3:2|0:2,0:2:0:0:
244,86,246885,6,0,L|272:0,1,71.2500027179719,2|0,3:2|0:2,0:2:0:0:
378,68,247056,2,0,L|355:-8,1,71.2500027179719,2|0,0:2|0:2,0:2:0:0:
270,174,247227,2,0,P|206:191|159:114,1,142.500005435944,2|0,3:2|0:2,0:2:0:0:
114,347,247570,2,0,P|131:281|81:235,1,142.500005435944,2|0,3:2|0:2,0:2:0:0:
305,259,247914,2,0,P|255:305|272:370,1,142.500005435944,2|0,3:2|0:2,0:2:0:0:
501,274,248256,6,0,P|501:233|471:199,1,85.4999973907472,2|0,3:2|0:2,0:2:0:0:
399,94,248428,2,0,P|372:125|371:167,1,85.4999973907472,2|0,3:2|0:2,0:2:0:0:
512,266,248599,2,0,P|512:224|485:192,1,85.4999973907472,2|0,3:2|0:2,0:2:0:0:
305,259,248771,2,0,B|232:268|232:268|230:260|230:260|232:269|232:269|172:276,1,142.500005435944,2|0,0:2|3:2,0:2:0:0:
67,126,249113,2,0,P|32:127|4:148,1,71.2500027179719,2|0,0:2|0:2,0:2:0:0:
136,183,249285,2,0,B|171:157|171:157|194:160|194:160|223:132|223:132|254:134|254:134|293:117,1,170.999994781494,2|0,3:2|0:2,0:2:0:0:
461,0,249627,5,2,3:2:0:0:
335,282,249799,1,2,0:3:0:0:
370,17,249970,5,2,3:2:0:0:
441,269,250142,1,2,0:3:0:0:
284,120,250313,6,0,L|189:97,1,71.2500027179719,2|0,3:2|0:0,0:0:0:0:
80,2,250485,2,0,L|176:6,1,71.2500027179719,2|0,3:2|0:0,0:0:0:0:
67,126,250656,2,0,B|84:176|84:176|63:219|63:219|100:252|100:252|79:294|79:294|100:361,1,242.250004620552,2|0,0:2|0:2,0:2:0:0:
186,384,250998,5,6,0:2:0:0:
350,126,251171,2,0,P|308:126|276:154,1,85.4999973907472,4|0,3:1|0:2,0:2:0:0:
359,248,251342,2,0,P|391:275|432:275,1,85.4999973907472,2|0,3:2|0:2,0:2:0:0:
221,262,251514,2,0,B|180:253|180:253|163:132,1,142.500005435944,2|0,0:2|3:2,0:2:0:0:
272,0,251856,1,2,0:2:0:0:
434,181,252028,2,0,B|517:206|517:206|511:301,1,180.49999518013,2|0,3:2|0:2,0:2:0:0:
325,375,252370,5,0,3:2:0:0:
105,289,252541,1,0,3:2:0:0:
165,236,252627,1,0,3:2:0:0:
166,153,252714,2,0,P|133:126|91:128,1,85.4999973907472,2|0,3:2|0:2,0:2:0:0:
110,0,252885,2,0,P|77:27|36:25,1,85.4999973907472,2|0,3:2|0:2,0:2:0:0:
233,64,253056,6,0,L|219:14,6,35.625001358986,2|0|0|0|0|0|0,0:2|0:2|0:2|0:2|0:2|0:2|0:2,0:2:0:0:
327,119,253399,2,0,L|341:69,6,35.625001358986,2|0|0|0|0|0|0,0:2|0:2|0:2|0:2|0:2|0:2|0:2,0:2:0:0:
454,58,253742,5,4,3:2:0:0:
412,269,253914,2,0,B|413:234|413:234|395:190|395:190|394:150,1,113.999996520996,2|0,0:2|3:2,0:2:0:0:
454,58,254256,2,0,B|453:93|453:93|471:137|471:137|472:177,1,113.999996520996,2|0,0:2|3:2,0:2:0:0:
512,291,254599,1,2,0:2:0:0:
312,375,254771,2,0,B|338:319|338:319|323:289|323:289|323:257|323:257|303:203,1,170.999994781494,2|0,3:2|0:2,0:2:0:0:
229,143,255114,5,2,3:2:0:0:
435,184,255285,1,2,0:3:0:0:
158,98,255456,5,2,3:2:0:0:
386,1,255628,1,2,0:3:0:0:
331,229,255799,6,0,L|311:44,1,170.999994781494,2|0,3:2|0:2,0:2:0:0:
294,27,256142,2,0,L|314:212,1,170.999994781494,2|0,3:2|0:2,0:2:0:0:
263,352,256485,5,2,3:2:0:0:
57,285,256656,2,0,B|72:279|94:284|94:284|138:253|138:253|160:260|189:253,1,113.999996520996,2|0,0:2|3:2,0:2:0:0:
312,197,256999,2,0,B|297:191|275:196|275:196|231:165|231:165|209:172|180:165,1,113.999996520996,2|2,0:2|3:2,0:2:0:0:
131,39,257342,1,2,0:2:0:0:
85,258,257514,2,0,B|95:233|128:218|128:218|139:160|139:160|197:156|212:135|243:94,1,213.750008153916,2|0,3:2|0:2,0:2:0:0:
282,28,257856,5,2,3:2:0:0:
314,221,258028,1,2,0:2:0:0:
499,131,258199,2,0,P|448:133|420:73,1,113.999996520996,2|0,3:2|0:2,0:2:0:0:
442,281,258542,2,0,P|364:266|339:223,1,113.999996520996,2|0,3:2|0:2,0:2:0:0:
227,368,258885,1,2,3:2:0:0:
206,131,259056,1,2,0:2:0:0:
49,304,259228,5,2,3:2:0:0:
267,232,259399,2,0,B|252:229|239:217|239:217|195:233|195:233|183:225|162:221,1,113.999996520996,2|0,0:2|3:2,0:2:0:0:
345,90,259742,2,0,B|330:95|320:109|320:109|273:101|273:101|263:111|243:119,1,113.999996520996,2|0,0:2|3:2,0:2:0:0:
79,191,260085,1,2,0:2:0:0:
17,8,260256,2,0,B|45:14|51:37|51:37|97:6|97:6|142:32|168:8,1,170.999994781494,2|0,3:2|0:2,0:2:0:0:
263,77,260599,5,2,3:2:0:0:
202,302,260771,1,2,0:3:0:0:
171,127,260942,5,2,3:2:0:0:
384,259,261114,1,2,0:3:0:0:
449,35,261285,6,0,L|491:212,1,170.999994781494,2|0,3:2|0:2,0:2:0:0:
477,235,261628,2,0,L|435:58,1,170.999994781494,2|0,3:2|0:2,0:2:0:0:
303,9,261971,5,2,3:2:0:0:
237,177,262142,2,0,B|224:161|224:136|224:136|191:116|191:116|178:98|186:73,1,113.999996520996,2|0,0:2|3:2,0:2:0:0:
95,0,262485,2,0,B|86:18|93:42|93:42|66:70|66:70|58:91|72:113,1,113.999996520996,2|0,0:2|3:2,0:2:0:0:
1,239,262828,1,2,0:2:0:0:
190,173,262999,2,0,B|220:217|211:248|211:248|264:239|264:239|266:264|288:284|288:284|315:283|334:291,1,213.750008153916,0|0,3:2|0:2,0:2:0:0:
445,236,263342,6,0,P|447:190|413:158,1,71.2500027179719,2|0,0:2|0:2,0:2:0:0:
303,114,263514,2,0,P|301:160|335:192,1,71.2500027179719,2|0,0:2|0:2,0:2:0:0:
457,215,263685,6,0,P|459:169|425:137,1,71.2500027179719,2|0,3:2|0:2,0:2:0:0:
315,93,263856,2,0,P|313:139|347:171,1,71.2500027179719,2|0,0:2|0:2,0:2:0:0:
469,194,264028,6,0,P|471:148|437:116,1,71.2500027179719,2|0,3:2|0:2,0:2:0:0:
327,72,264199,2,0,P|325:118|359:150,1,71.2500027179719,2|0,0:2|0:2,0:2:0:0:
481,173,264371,6,0,P|483:127|449:95,1,71.2500027179719,2|0,3:2|0:2,0:2:0:0:
383,0,264542,2,0,P|369:43|326:62,1,71.2500027179719,2|0,3:2|0:2,0:2:0:0:
384,201,264714,5,4,3:2:0:0:
276,279,264886,2,0,B|240:294|240:294|159:260,1,113.999996520996,2|0,0:2|3:2,0:2:0:0:
178,132,265228,2,0,B|141:139|141:139|106:163|106:163|69:170,1,113.999996520996,2|0,0:2|3:2,0:2:0:0:
281,173,265571,1,2,0:2:0:0:
60,271,265743,2,0,B|20:102,1,170.999994781494,2|0,3:2|0:2,0:2:0:0:
58,16,266086,5,2,3:2:0:0:
279,114,266257,1,2,0:3:0:0:
72,169,266428,5,2,3:2:0:0:
293,71,266600,1,2,0:3:0:0:
150,299,266771,6,0,L|331:254,1,170.999994781494,2|0,3:2|0:2,0:2:0:0:
344,231,267114,2,0,L|169:276,1,170.999994781494,2|0,3:2|0:2,0:2:0:0:
49,344,267456,5,2,3:2:0:0:
61,154,267628,2,0,B|103:163|103:163|175:127,1,113.999996520996,2|0,0:2|3:2,0:2:0:0:
294,66,267971,2,0,B|288:107|288:107|262:141|262:141|262:181,1,113.999996520996,2|2,0:2|3:2,0:2:0:0:
337,307,268314,1,2,0:2:0:0:
512,157,268485,2,0,B|480:160|480:160|482:171|482:171|480:160|480:160|429:166|429:166|428:154|428:154|429:166|429:166|313:178,1,213.750008153916,0|0,3:2|0:2,0:2:0:0:
200,227,268828,5,2,3:2:0:0:
228,35,269000,1,2,0:2:0:0:
34,111,269171,2,0,B|71:124|71:124|90:197,1,113.999996520996,2|0,3:2|0:2,0:2:0:0:
105,326,269514,2,0,P|50:319|23:263,1,113.999996520996,2|0,3:2|0:2,0:2:0:0:
239,303,269857,1,2,3:2:0:0:
379,160,270028,1,2,0:2:0:0:
428,339,270200,5,2,3:2:0:0:
282,212,270371,2,0,B|255:196|255:196|165:220,1,113.999996520996,2|0,0:2|3:2,0:2:0:0:
289,65,270714,2,0,B|264:84|264:84|217:76|217:76|187:94,1,113.999996520996,2|0,0:2|3:2,0:2:0:0:
353,151,271057,1,2,0:2:0:0:
499,52,271228,2,0,B|490:125|490:125|498:126|498:126|489:125|489:125|477:219,1,170.999994781494,2|0,3:2|0:2,0:2:0:0:
418,305,271571,5,2,3:2:0:0:
193,244,271743,1,2,0:3:0:0:
353,151,271914,5,2,3:2:0:0:
128,212,272085,1,2,0:3:0:0:
271,93,272257,6,0,L|96:50,1,170.999994781494,2|0,3:2|0:2,0:2:0:0:
89,27,272600,2,0,L|271:69,1,170.999994781494,2|0,3:2|0:2,0:2:0:0:
381,28,272943,5,2,3:2:0:0:
478,204,273114,2,0,B|449:174|449:174|361:185,1,113.999996520996,2|0,0:2|3:2,0:2:0:0:
293,280,273457,2,0,B|293:246|293:246|266:214|266:214|270:167,1,113.999996520996,2|0,0:2|3:2,0:2:0:0:
404,303,273800,1,2,0:2:0:0:
159,363,273971,2,0,B|162:331|162:331|173:333|173:333|162:331|162:331|168:280|168:280|156:279|156:279|168:280|168:280|180:164,1,213.750008153916,0|0,3:2|0:2,0:2:0:0:
120,99,274314,5,2,3:2:0:0:
70,315,274485,1,2,0:2:0:0:
269,176,274656,2,0,P|284:125|237:78,1,113.999996520996,2|0,3:2|0:2,0:2:0:0:
389,260,274999,2,0,B|391:235|391:235|402:237|402:237|391:235|391:235|397:184|397:184|385:183|385:183|397:184|397:184|403:117,1,170.999994781494,0|0,3:2|0:2,0:2:0:0:
478,70,275342,2,0,P|495:95|489:135,1,56.9999982604981,2|0,3:2|0:2,0:2:0:0:
356,17,275514,2,0,P|339:39|338:68,1,56.9999982604981,2|0,3:2|0:2,0:2:0:0:
401,136,275685,6,0,B|388:259,1,95,0|0,1:2|0:2,0:2:0:0:
439,325,275942,1,2,0:2:0:0:
439,325,276028,1,2,1:2:0:0:
302,360,276199,1,0,0:2:0:0:
218,267,276371,2,0,P|248:169|285:150,1,142.5,2|0,1:2|0:2,0:2:0:0:
401,136,276714,6,0,B|388:259,1,95,2|0,1:2|0:2,0:2:0:0:
439,325,276971,1,2,0:2:0:0:
439,325,277057,1,2,1:2:0:0:
302,360,277228,1,2,0:2:0:0:
218,267,277399,2,0,P|136:300|132:360,1,142.5,2|0,1:2|0:2,0:2:0:0:
30,296,277742,6,0,B|42:172,1,95,2|0,1:2|0:2,0:2:0:0:
85,87,277999,1,2,0:2:0:0:
85,87,278085,2,0,P|94:118|116:139,1,47.5,2|0,1:2|0:2,0:2:0:0:
170,223,278256,2,0,P|170:190|186:164,1,47.5,2|0,0:2|0:2,0:2:0:0:
256,43,278428,6,0,P|302:88|337:88,1,95,2|0,1:2|0:2,0:2:0:0:
429,59,278685,1,2,0:2:0:0:
429,59,278771,1,2,1:2:0:0:
461,197,278942,1,2,0:2:0:0:
345,245,279114,2,0,P|280:223|253:150,1,142.5,2|0,1:2|0:2,0:2:0:0:
256,43,279456,6,0,P|302:88|337:88,1,95,2|0,1:2|0:2,0:2:0:0:
429,59,279713,1,2,0:2:0:0:
429,59,279799,1,2,1:2:0:0:
461,197,279970,1,2,0:2:0:0:
345,245,280142,2,0,L|194:205,1,142.5,2|0,1:2|0:2,0:2:0:0:
105,261,280485,6,0,P|178:244|205:268,1,95,2|0,1:2|0:2,0:2:0:0:
270,323,280742,1,2,0:2:0:0:
270,323,280828,1,2,1:2:0:0:
309,143,280999,1,2,1:2:0:0:
420,288,281171,6,0,P|402:237|422:193,1,95,4|0,1:2|0:2,0:2:0:0:
507,152,281428,1,2,0:2:0:0:
507,152,281514,1,2,1:2:0:0:
386,61,281685,1,2,0:2:0:0:
280,127,281856,2,0,P|283:214|338:257,1,142.5,2|0,1:2|0:2,0:2:0:0:
420,288,282199,6,0,P|402:237|422:193,1,95,2|0,1:2|0:2,0:2:0:0:
507,152,282456,1,2,0:2:0:0:
507,152,282542,1,2,1:2:0:0:
386,61,282713,1,2,0:2:0:0:
280,127,282885,2,0,L|246:273,1,142.5,2|0,1:2|0:2,0:2:0:0:
139,384,283228,6,0,P|130:305|113:288,1,95,2|0,1:2|0:2,0:2:0:0:
18,254,283485,1,2,0:2:0:0:
18,254,283571,2,0,L|77:232,1,47.5,2|0,1:2|0:2,0:2:0:0:
83,147,283742,2,0,L|142:169,1,47.5,2|0,0:2|0:2,0:2:0:0:
247,265,283914,5,2,1:2:0:0:
428,210,284085,1,2,1:2:0:0:
229,135,284256,1,2,1:2:0:0:
328,83,284428,1,2,0:2:0:0:
428,210,284599,2,0,P|369:206|302:271,1,142.5,2|0,1:2|0:2,0:2:0:0:
247,373,284942,6,0,L|228:273,1,95,2|0,1:2|0:2,0:2:0:0:
149,212,285199,1,2,0:2:0:0:
149,212,285285,1,2,1:2:0:0:
214,53,285456,1,2,1:2:0:0:
211,81,285542,1,2,1:2:0:0:
208,109,285628,1,2,1:2:0:0:
110,0,285799,1,2,1:2:0:0:
5,122,285971,6,0,P|17:175|72:202,1,95,2|0,1:2|0:2,0:2:0:0:
149,212,286228,1,2,0:2:0:0:
149,212,286314,1,2,1:2:0:0:
103,384,286485,1,2,1:2:0:0:
389,317,286656,6,0,L|290:296,1,95,6|0,1:2|0:2,0:2:0:0:
217,345,286914,1,2,0:2:0:0:
217,345,286998,1,2,1:2:0:0:
181,216,287171,1,2,0:2:0:0:
272,117,287342,2,0,P|322:169|399:177,1,142.5,2|0,1:2|0:2,0:2:0:0:
389,317,287685,6,0,L|290:296,1,95,2|0,1:2|0:2,0:2:0:0:
217,345,287942,1,2,0:2:0:0:
217,345,288028,1,2,1:2:0:0:
181,216,288198,1,2,0:2:0:0:
272,117,288371,2,0,P|261:50|196:35,1,142.5,2|0,1:2|0:2,0:2:0:0:
101,99,288714,6,0,L|93:2,1,95,2|0,1:2|0:2,0:2:0:0:
187,124,288971,1,2,0:2:0:0:
187,124,289056,1,2,1:2:0:0:
78,215,289228,1,2,0:0:0:0:
183,321,289399,6,0,P|232:314|277:351,1,95,2|0,1:2|0:2,0:2:0:0:
362,384,289656,1,2,0:2:0:0:
362,384,289742,1,2,1:2:0:0:
380,245,289914,1,2,0:2:0:0:
224,110,290085,2,0,P|246:178|187:229,1,142.5,2|0,1:2|0:2,0:2:0:0:
183,321,290428,6,0,P|232:314|277:351,1,95,2|0,1:2|0:2,0:2:0:0:
362,384,290685,1,2,0:2:0:0:
362,384,290771,1,0,1:2:0:0:
380,245,290942,1,2,0:2:0:0:
224,110,291114,2,0,P|246:178|187:229,1,142.5,2|0,1:2|0:2,0:2:0:0:
77,240,291456,6,0,L|96:130,1,95,2|0,1:2|0:2,0:2:0:0:
28,76,291714,1,2,0:2:0:0:
28,76,291799,1,2,1:2:0:0:
171,0,291971,1,2,1:2:0:0:
249,141,292142,5,2,1:2:0:0:
382,36,292314,1,2,1:2:0:0:
382,36,292399,1,2,0:2:0:0:
382,36,292484,1,2,1:2:0:0:
462,151,292656,1,2,0:2:0:0:
397,272,292828,2,0,P|351:226|276:234,1,142.5,2|0,1:2|0:2,0:2:0:0:
262,337,293171,6,0,P|214:335|174:312,1,95,2|0,1:2|0:2,0:2:0:0:
89,257,293428,1,2,0:2:0:0:
89,257,293514,1,2,1:2:0:0:
176,127,293684,1,2,0:2:0:0:
278,232,293856,1,2,1:2:0:0:
347,132,294028,2,0,L|342:98,3,23.75,2|0|0|0,1:2|0:2|0:2|0:2,0:2:0:0:
379,161,294199,5,2,1:2:0:0:
409,151,294285,1,0,1:2:0:0:
439,142,294371,1,2,1:2:0:0:
469,133,294456,1,2,1:2:0:0:
499,126,294542,2,0,L|487:184,1,47.5,2|0,1:2|0:2,0:2:0:0:
411,60,294714,2,0,L|399:2,1,47.5,2|0,1:2|0:2,0:2:0:0:
319,87,294885,5,6,0:2:0:0:
260,218,295142,1,2,0:2:0:0:
260,218,295227,1,2,0:2:0:0:
174,222,295399,1,2,0:2:0:0:
221,296,295570,1,2,0:2:0:0:
319,87,295913,5,2,0:2:0:0:
260,218,296170,1,2,0:2:0:0:
260,218,296255,1,2,0:2:0:0:
174,222,296427,1,2,0:2:0:0:
113,333,296599,1,2,0:2:0:0:
305,69,296942,5,2,0:2:0:0:
260,218,297199,1,2,0:2:0:0:
260,218,297284,1,2,0:2:0:0:
174,222,297456,1,2,0:2:0:0:
256,192,297628,12,0,301160,0:2:0:0:
