osu file format v14

[General]
AudioFilename: squartatrice fear.mp3
AudioLeadIn: 0
PreviewTime: -1
Countdown: 1
SampleSet: Soft
StackLeniency: 0.7
Mode: 0
LetterboxInBreaks: 0
WidescreenStoryboard: 0

[Editor]
DistanceSpacing: 0.7
BeatDivisor: 3
GridSize: 8
TimelineZoom: 1

[Metadata]
Title:squartatrice
TitleUnicode:squartatrice
Artist:gmtn vs. kozato
ArtistUnicode:gmtn vs. kozato
Creator:W3SON
Version:Insane
Source:
Tags:
BeatmapID:860175
BeatmapSetID:395239

[Difficulty]
HPDrainRate:6
CircleSize:4.1
OverallDifficulty:8.4
ApproachRate:9
SliderMultiplier:1.5
SliderTickRate:1

[Events]
//Background and Video events
0,0,"53623909_p0.jpg",0,0
//Break Periods
2,61509,70042
//Storyboard Layer 0 (Background)
//Storyboard Layer 1 (Fail)
//Storyboard Layer 2 (Pass)
//Storyboard Layer 3 (Foreground)
//Storyboard Sound Samples

[TimingPoints]
-24.1146502016236,333.333333333333,4,2,0,100,1,0
-24,-200,4,2,0,100,0,0
2642,-500,4,2,0,100,0,0
10642,-100,4,2,0,100,0,0
26809,-74.0740740740741,4,2,0,100,0,0
43475,-100,4,2,0,100,0,0
51142,-74.0740740740741,4,2,0,100,0,0

[Colours]
Combo1 : 0,255,255
Combo2 : 98,248,7
Combo3 : 6,249,128
Combo4 : 6,61,249

[HitObjects]
125,117,2642,6,0,L|135:207,1,90
357,163,3975,6,0,P|385:149|420:189,1,90
207,304,5309,6,0,P|158:272|144:240,1,90
301,81,6642,5,0,0:0:0:0:
151,93,7975,5,0,0:0:0:0:
291,257,9309,5,0,0:0:0:0:
256,192,9475,12,0,10642,0:0:0:0:
121,131,10975,5,0,0:0:0:0:
143,272,11142,1,0,0:0:0:0:
137,72,11309,5,0,0:0:0:0:
245,227,11475,1,0,0:0:0:0:
343,103,11642,5,0,0:0:0:0:
298,254,11809,1,0,0:0:0:0:
438,122,11975,5,0,0:0:0:0:
343,295,12142,1,0,0:0:0:0:
242,296,12309,2,0,P|233:255|256:198,2,75
412,270,12809,5,0,0:0:0:0:
401,234,12892,1,0,0:0:0:0:
378,205,12975,1,0,0:0:0:0:
345,186,13059,1,0,0:0:0:0:
308,182,13142,1,0,0:0:0:0:
272,192,13225,1,0,0:0:0:0:
243,215,13309,1,0,0:0:0:0:
86,239,13475,5,0,0:0:0:0:
217,151,13642,1,0,0:0:0:0:
69,95,13809,1,0,0:0:0:0:
236,103,13975,5,0,0:0:0:0:
374,219,14142,1,0,0:0:0:0:
443,77,14309,1,0,0:0:0:0:
294,26,14475,2,0,P|217:47|212:59,1,75
179,188,14809,5,0,0:0:0:0:
296,291,14975,1,0,0:0:0:0:
322,135,15142,1,0,0:0:0:0:
152,303,15309,1,0,0:0:0:0:
200,64,15475,1,0,0:0:0:0:
365,231,15642,1,0,0:0:0:0:
103,163,15809,1,0,0:0:0:0:
212,50,15975,6,0,L|237:151,1,75
303,83,16309,2,0,L|326:183,1,75
125,240,16642,2,0,L|217:267,1,75
223,339,16975,2,0,L|306:308,1,75
402,208,17309,5,0,0:0:0:0:
277,170,17475,1,0,0:0:0:0:
235,60,17642,1,0,0:0:0:0:
108,76,17809,2,0,P|86:142|87:163,1,75
331,180,18142,5,0,0:0:0:0:
462,280,18309,1,0,0:0:0:0:
269,339,18475,1,0,0:0:0:0:
100,240,18642,6,0,P|67:210|144:155,1,150
320,199,19142,1,0,0:0:0:0:
438,84,19309,1,0,0:0:0:0:
315,79,19475,5,0,0:0:0:0:
168,155,19642,1,0,0:0:0:0:
60,133,19809,5,0,0:0:0:0:
112,296,19975,1,0,0:0:0:0:
261,134,20142,5,0,0:0:0:0:
387,252,20309,1,0,0:0:0:0:
214,283,20475,1,0,0:0:0:0:
96,157,20642,6,0,P|129:115|159:118,1,75
177,125,20892,1,0,0:0:0:0:
201,153,20975,1,0,0:0:0:0:
230,176,21058,1,0,0:0:0:0:
263,194,21141,1,0,0:0:0:0:
298,206,21225,1,0,0:0:0:0:
335,212,21308,1,0,0:0:0:0:
359,329,21475,6,0,L|443:347,2,75
215,279,21975,1,0,0:0:0:0:
98,214,22142,2,0,L|10:230,2,75
55,101,22642,1,0,0:0:0:0:
272,83,22809,1,0,0:0:0:0:
403,217,22975,5,0,0:0:0:0:
208,157,23142,1,0,0:0:0:0:
180,303,23309,5,0,0:0:0:0:
289,231,23475,1,0,0:0:0:0:
102,150,23642,6,0,P|51:127|26:98,2,75
213,228,24142,1,0,0:0:0:0:
269,72,24309,1,0,0:0:0:0:
375,199,24475,1,0,0:0:0:0:
255,222,24642,5,0,0:0:0:0:
255,109,24809,1,0,0:0:0:0:
352,165,24975,1,0,0:0:0:0:
219,179,25142,5,0,0:0:0:0:
293,214,25309,1,0,0:0:0:0:
280,132,25475,1,0,0:0:0:0:
134,90,25642,5,0,0:0:0:0:
139,127,25725,1,0,0:0:0:0:
144,164,25808,1,0,0:0:0:0:
149,201,25891,1,0,0:0:0:0:
111,240,25975,5,0,0:0:0:0:
135,268,26058,1,0,0:0:0:0:
164,291,26141,1,0,0:0:0:0:
198,307,26224,1,0,0:0:0:0:
234,316,26308,1,0,0:0:0:0:
272,317,26391,1,0,0:0:0:0:
309,310,26474,1,0,0:0:0:0:
343,296,26558,1,0,0:0:0:0:
374,275,26641,1,0,0:0:0:0:
444,75,26809,5,0,0:0:0:0:
384,161,26975,2,0,L|285:112,1,101.250000386238
211,39,27309,1,0,0:0:0:0:
74,125,27475,1,0,0:0:0:0:
61,333,27642,5,0,0:0:0:0:
190,259,27809,1,0,0:0:0:0:
335,298,27975,1,0,0:0:0:0:
464,243,28142,1,0,0:0:0:0:
398,176,28309,6,0,P|359:116|290:133,1,151.875000579357
239,114,28642,2,0,P|170:153|162:255,1,151.875000579357
102,230,28975,2,0,L|314:319,1,202.500000772476
283,202,29475,1,0,0:0:0:0:
402,193,29642,1,0,0:0:0:0:
292,53,29809,1,0,0:0:0:0:
114,95,29975,2,0,P|91:142|124:197,1,101.250000386238
231,185,30309,5,0,0:0:0:0:
267,201,30392,1,0,0:0:0:0:
303,218,30475,1,0,0:0:0:0:
340,234,30559,1,0,0:0:0:0:
345,193,30642,2,0,P|406:167|318:113,1,202.500000772476
83,89,31309,5,0,0:0:0:0:
93,260,31475,1,0,0:0:0:0:
132,92,31642,5,0,0:0:0:0:
142,263,31808,1,0,0:0:0:0:
211,105,31975,5,0,0:0:0:0:
221,276,32141,1,0,0:0:0:0:
309,127,32309,5,0,0:0:0:0:
319,298,32475,1,0,0:0:0:0:
441,144,32642,5,0,0:0:0:0:
280,192,32809,1,0,0:0:0:0:
256,200,32892,1,0,0:0:0:0:
232,208,32975,1,0,0:0:0:0:
68,42,33142,5,0,0:0:0:0:
85,73,33225,1,0,0:0:0:0:
69,106,33309,2,0,P|81:158|141:163,1,101.250000386238
158,169,33559,1,0,0:0:0:0:
190,183,33642,1,0,0:0:0:0:
193,286,33809,5,0,0:0:0:0:
217,293,33892,1,0,0:0:0:0:
241,300,33975,1,0,0:0:0:0:
359,220,34142,5,0,0:0:0:0:
383,194,34225,1,0,0:0:0:0:
408,168,34309,2,0,P|403:97|384:71,1,101.250000386238
182,79,34642,1,0,0:0:0:0:
324,144,34809,1,0,0:0:0:0:
158,170,34975,1,0,0:0:0:0:
303,67,35142,1,0,0:0:0:0:
98,207,35309,5,0,0:0:0:0:
308,230,35475,1,0,0:0:0:0:
97,260,35642,5,0,0:0:0:0:
307,283,35808,1,0,0:0:0:0:
96,314,35975,5,0,0:0:0:0:
306,337,36141,1,0,0:0:0:0:
155,130,36309,2,0,P|161:193|265:233,1,151.875000579357
226,271,36642,2,0,P|232:203|327:152,1,151.875000579357
283,124,36975,2,0,L|356:325,1,202.500000772476
439,194,37642,5,0,0:0:0:0:
130,98,37975,1,0,0:0:0:0:
308,78,38309,1,0,0:0:0:0:
350,104,38392,1,0,0:0:0:0:
374,147,38475,1,0,0:0:0:0:
364,197,38559,1,0,0:0:0:0:
325,183,38642,2,0,P|321:266|200:269,1,202.500000772476
81,71,39309,5,0,0:0:0:0:
171,115,39475,1,0,0:0:0:0:
223,201,39642,1,0,0:0:0:0:
89,179,39809,5,0,0:0:0:0:
152,75,39975,1,0,0:0:0:0:
273,63,40142,1,0,0:0:0:0:
393,99,40309,5,0,0:0:0:0:
296,215,40475,1,0,0:0:0:0:
199,332,40642,1,0,0:0:0:0:
121,207,40809,5,0,0:0:0:0:
140,177,40892,1,0,0:0:0:0:
156,208,40975,1,0,0:0:0:0:
241,143,41142,6,0,L|286:91,2,50.6250001931191
310,264,41475,5,0,0:0:0:0:
310,233,41559,1,0,0:0:0:0:
336,248,41642,1,0,0:0:0:0:
431,303,41809,5,0,0:0:0:0:
423,252,41892,1,0,0:0:0:0:
415,202,41975,1,0,0:0:0:0:
411,152,42059,1,0,0:0:0:0:
409,101,42142,1,0,0:0:0:0:
408,51,42225,1,0,0:0:0:0:
389,20,42309,5,0,0:0:0:0:
372,68,42392,1,0,0:0:0:0:
343,109,42475,1,0,0:0:0:0:
302,138,42559,1,0,0:0:0:0:
253,150,42642,1,0,0:0:0:0:
96,256,42975,5,0,0:0:0:0:
360,304,43475,6,0,P|400:248|409:167,1,150
405,142,43892,1,0,0:0:0:0:
395,117,43975,1,0,0:0:0:0:
149,111,44142,5,0,0:0:0:0:
277,173,44309,1,0,0:0:0:0:
137,197,44475,1,0,0:0:0:0:
270,248,44642,1,0,0:0:0:0:
379,87,44809,5,0,0:0:0:0:
392,300,44975,1,0,0:0:0:0:
422,91,45142,2,0,B|389:47|350:65|291:81|272:8,1,150
142,97,45809,5,0,0:0:0:0:
232,191,45975,1,0,0:0:0:0:
259,216,46058,1,0,0:0:0:0:
269,251,46141,1,0,0:0:0:0:
261,287,46225,1,0,0:0:0:0:
238,317,46309,2,0,P|172:331|146:332,2,75
412,198,46975,5,0,0:0:0:0:
226,66,47475,5,0,0:0:0:0:
192,211,47809,5,0,0:0:0:0:
280,279,47975,1,0,0:0:0:0:
412,251,48142,1,0,0:0:0:0:
293,316,48309,1,0,0:0:0:0:
387,220,48475,1,0,0:0:0:0:
279,108,48642,5,0,0:0:0:0:
141,224,48809,1,0,0:0:0:0:
275,105,48975,1,0,0:0:0:0:
137,221,49142,1,0,0:0:0:0:
387,152,49475,5,0,0:0:0:0:
294,238,49809,1,0,0:0:0:0:
119,195,49975,5,0,0:0:0:0:
136,127,50086,1,0,0:0:0:0:
154,58,50198,1,0,0:0:0:0:
222,105,50309,5,0,0:0:0:0:
246,170,50420,1,0,0:0:0:0:
280,231,50531,1,0,0:0:0:0:
367,249,50642,6,0,P|406:198|336:125,1,150
264,53,51142,2,0,P|202:93|170:92,1,101.250000386238
102,171,51475,1,0,0:0:0:0:
165,281,51642,2,0,L|277:309,1,101.250000386238
407,211,51975,5,0,0:0:0:0:
241,160,52142,1,0,0:0:0:0:
400,94,52309,1,0,0:0:0:0:
241,28,52475,6,0,P|184:53|166:103,1,101.250000386238
132,177,52809,1,0,0:0:0:0:
296,226,52975,1,0,0:0:0:0:
153,322,53142,2,0,P|101:270|89:228,1,101.250000386238
238,154,53475,5,0,0:0:0:0:
372,46,53642,2,0,P|404:97|412:146,1,101.250000386238
351,277,53976,5,0,0:0:0:0:
328,320,54059,1,0,0:0:0:0:
284,341,54142,1,0,0:0:0:0:
235,331,54226,1,0,0:0:0:0:
204,292,54309,2,0,P|163:222|131:201,1,101.250000386238
264,228,54642,5,0,0:0:0:0:
311,75,54809,1,0,0:0:0:0:
435,189,54975,6,0,L|443:291,1,101.250000386238
271,162,55309,1,0,0:0:0:0:
134,215,55475,2,0,L|106:111,2,101.250000386238
91,330,55975,1,0,0:0:0:0:
302,255,56142,1,0,0:0:0:0:
225,345,56309,5,0,0:0:0:0:
263,120,56475,1,0,0:0:0:0:
410,177,56642,2,0,P|453:226|471:258,2,101.250000386238
317,56,57142,1,0,0:0:0:0:
166,77,57309,2,0,P|100:85|60:71,1,101.250000386238
88,177,57642,5,0,0:0:0:0:
222,223,57809,1,0,0:0:0:0:
329,320,57975,1,0,0:0:0:0:
193,150,58142,5,0,0:0:0:0:
307,234,58309,1,0,0:0:0:0:
447,250,58475,1,0,0:0:0:0:
352,150,58642,5,0,0:0:0:0:
330,120,58725,1,0,0:0:0:0:
297,104,58808,1,0,0:0:0:0:
260,106,58892,1,0,0:0:0:0:
228,125,58975,1,0,0:0:0:0:
98,96,59142,5,0,0:0:0:0:
102,133,59225,1,0,0:0:0:0:
115,167,59308,1,0,0:0:0:0:
137,198,59392,1,0,0:0:0:0:
165,222,59475,1,0,0:0:0:0:
270,271,59642,5,0,0:0:0:0:
308,260,59725,1,0,0:0:0:0:
346,249,59808,1,0,0:0:0:0:
384,238,59892,1,0,0:0:0:0:
401,180,59975,5,0,0:0:0:0:
373,151,60058,1,0,0:0:0:0:
364,113,60141,1,0,0:0:0:0:
378,75,60225,1,0,0:0:0:0:
409,51,60308,1,0,0:0:0:0:
228,89,60475,5,0,0:0:0:0:
200,123,60558,1,0,0:0:0:0:
190,166,60641,1,0,0:0:0:0:
199,208,60725,1,0,0:0:0:0:
226,243,60808,1,0,0:0:0:0:
346,318,60975,5,0,0:0:0:0:
381,280,61059,1,0,0:0:0:0:
415,243,61142,1,0,0:0:0:0:
294,177,61309,5,0,0:0:0:0:
201,146,70642,5,0,0:0:0:0:
309,147,71309,5,0,0:0:0:0:
305,303,71642,6,0,L|335:317,8,25.3125000965595
328,263,72059,2,0,L|400:232,2,50.6250001931191
299,226,72309,1,0,0:0:0:0:
202,104,72642,5,0,0:0:0:0:
170,131,72725,1,0,0:0:0:0:
150,167,72808,1,0,0:0:0:0:
146,209,72891,1,0,0:0:0:0:
158,249,72975,1,0,0:0:0:0:
184,281,73058,1,0,0:0:0:0:
221,301,73141,1,0,0:0:0:0:
262,306,73225,1,0,0:0:0:0:
302,294,73309,2,0,L|342:260,4,50.6250001931191
356,155,73975,5,0,0:0:0:0:
314,137,74058,1,0,0:0:0:0:
272,119,74141,1,0,0:0:0:0:
230,102,74224,1,0,0:0:0:0:
175,123,74309,5,0,0:0:0:0:
181,168,74392,1,0,0:0:0:0:
187,213,74475,1,0,0:0:0:0:
193,259,74558,1,0,0:0:0:0:
245,272,74642,5,0,0:0:0:0:
288,259,74725,1,0,0:0:0:0:
332,245,74808,1,0,0:0:0:0:
375,232,74891,1,0,0:0:0:0:
378,182,74975,5,0,0:0:0:0:
301,72,75309,5,0,0:0:0:0:
262,96,75392,1,0,0:0:0:0:
223,121,75475,1,0,0:0:0:0:
184,146,75558,1,0,0:0:0:0:
146,170,75642,1,0,0:0:0:0:
117,205,75725,5,0,0:0:0:0:
105,248,75808,1,0,0:0:0:0:
121,290,75891,1,0,0:0:0:0:
160,313,75974,1,0,0:0:0:0:
286,250,76142,5,0,0:0:0:0:
308,210,76225,1,0,0:0:0:0:
350,192,76309,1,0,0:0:0:0:
384,162,76392,1,0,0:0:0:0:
397,118,76475,1,0,0:0:0:0:
373,78,76559,1,0,0:0:0:0:
332,57,76642,5,0,0:0:0:0:
287,64,76725,1,0,0:0:0:0:
256,98,76809,1,0,0:0:0:0:
255,143,76892,1,0,0:0:0:0:
273,184,76975,1,0,0:0:0:0:
258,227,77059,1,0,0:0:0:0:
215,242,77142,5,0,0:0:0:0:
128,103,77309,1,0,0:0:0:0:
99,247,77475,2,0,L|84:305,2,50.6250001931191
63,48,77809,1,0,0:0:0:0:
205,137,77975,5,0,0:0:0:0:
202,183,78058,1,0,0:0:0:0:
199,229,78141,1,0,0:0:0:0:
196,274,78224,1,0,0:0:0:0:
193,320,78308,1,0,0:0:0:0:
268,47,78475,5,0,0:0:0:0:
320,129,78642,5,0,0:0:0:0:
314,175,78725,1,0,0:0:0:0:
308,221,78808,1,0,0:0:0:0:
303,268,78891,1,0,0:0:0:0:
297,314,78975,1,0,0:0:0:0:
482,349,79142,5,0,0:0:0:0:
418,244,79309,5,0,0:0:0:0:
418,198,79392,1,0,0:0:0:0:
413,153,79475,1,0,0:0:0:0:
402,109,79558,1,0,0:0:0:0:
385,67,79642,1,0,0:0:0:0:
216,38,79809,5,0,0:0:0:0:
112,129,79975,5,0,0:0:0:0:
128,172,80058,1,0,0:0:0:0:
144,215,80141,1,0,0:0:0:0:
159,258,80224,1,0,0:0:0:0:
175,300,80308,1,0,0:0:0:0:
218,168,80475,5,0,0:0:0:0:
307,63,80642,1,0,0:0:0:0:
310,108,80725,1,0,0:0:0:0:
314,153,80808,1,0,0:0:0:0:
317,199,80891,1,0,0:0:0:0:
321,244,80975,1,0,0:0:0:0:
350,266,81059,5,0,0:0:0:0:
363,221,81142,1,0,0:0:0:0:
375,175,81225,1,0,0:0:0:0:
388,130,81308,1,0,0:0:0:0:
220,81,81642,5,0,0:0:0:0:
186,112,81725,1,0,0:0:0:0:
152,142,81808,1,0,0:0:0:0:
119,173,81891,1,0,0:0:0:0:
118,223,81975,5,0,0:0:0:0:
157,246,82058,1,0,0:0:0:0:
196,270,82141,1,0,0:0:0:0:
235,293,82224,1,0,0:0:0:0:
271,237,82309,5,0,0:0:0:0:
294,197,82392,1,0,0:0:0:0:
317,158,82475,1,0,0:0:0:0:
340,119,82558,1,0,0:0:0:0:
383,142,82642,5,0,0:0:0:0:
388,189,82725,1,0,0:0:0:0:
393,234,82809,2,0,L|402:323,2,50.6250001931191
