osu file format v14

[General]
AudioFilename: squartatrice.mp3
AudioLeadIn: 0
PreviewTime: 666
Countdown: 0
SampleSet: Soft
StackLeniency: 0.7
Mode: 0
LetterboxInBreaks: 0
WidescreenStoryboard: 1

[Editor]
Bookmarks: 2666,10666,24666,26666,34666,40666,41999,42666,44666,46666,48666,50666,52333,53999,54666,56666,58666,61333,70666,71333,71999,77333,77999,78666,79333,79999,80333,80666,80999,81333,81666,82999,85666,88333,90999,93666,96333,98999,101333,101666,104333,106999,109666,110999,112333,113666,114999,120333,122999,125666,128333,132333
DistanceSpacing: 0.5
BeatDivisor: 4
GridSize: 4
TimelineZoom: 3.599998

[Metadata]
Title:squartatrice
TitleUnicode:squartatrice
Artist:gmtn vs kozato
ArtistUnicode:gmtn vs kozato
Creator:riktoi
Version:Sayakaception
Source:BMS
Tags:puella magi madoka magica miki
BeatmapID:811056
BeatmapSetID:339283

[Difficulty]
HPDrainRate:8
CircleSize:4
OverallDifficulty:8
ApproachRate:9.3
SliderMultiplier:1.8
SliderTickRate:2

[Events]
//Background and Video events
0,0,"miki sayaka wallpaper small.png",0,0
//Break Periods
//Storyboard Layer 0 (Background)
//Storyboard Layer 1 (Fail)
//Storyboard Layer 2 (Pass)
//Storyboard Layer 3 (Foreground)
//Storyboard Sound Samples

[TimingPoints]
0,333.333333333333,3,2,0,70,1,0
2666,333.333333333333,3,2,0,70,1,0
26665,-80,3,2,0,70,0,0
58665,333.333333333333,4,2,0,70,1,0
58665,-80,4,2,0,70,0,0
61331,-100,4,2,0,70,0,0
81331,333.333333333333,5,2,0,70,1,0
81331,-50,5,2,0,70,0,0
81664,-100,5,2,0,70,0,0
82997,333.333333333333,4,2,0,70,1,0
82997,-80,4,2,0,70,0,0
93663,-50,4,2,0,70,0,0
93996,-80,4,2,0,70,0,0
104330,-66.6666666666667,4,2,0,70,0,0
112330,-80,4,2,0,70,0,0
114999,-100,4,2,0,70,0,0
120330,-133.333333333333,4,2,0,70,0,0
129999,-100,4,2,0,30,0,0
130665,-100,4,2,0,20,0,0
131332,-100,4,2,0,10,0,0
131999,-100,4,2,0,5,0,0

[Colours]
Combo1 : 120,120,120
Combo2 : 0,128,255
Combo3 : 192,192,192
Combo4 : 0,35,70

[HitObjects]
256,192,332,12,0,2332,0:0:0:0:
136,52,2665,6,0,P|116:96|120:172,1,90,2|0,0:0|0:0,0:0:0:0:
376,332,2999,2,0,P|396:288|392:212,1,90,2|0,0:0|0:0,0:0:0:0:
116,312,3332,2,0,P|160:332|236:328,1,90,2|0,0:0|0:0,0:0:0:0:
396,72,3666,2,0,P|352:52|276:56,1,90,2|0,0:0|0:0,0:0:0:0:
236,96,3999,5,2,0:0:0:0:
152,124,4165,1,0,0:0:0:0:
128,40,4332,1,2,0:0:0:0:
212,12,4499,1,0,0:0:0:0:
152,124,4665,2,0,P|104:132|60:104,1,90,2|0,0:0|0:0,0:0:0:0:
36,48,4999,2,0,P|48:96|28:200,1,135,2|0,0:0|0:0,0:0:0:0:
8,212,5332,6,0,P|60:212|104:232,1,90,2|0,0:0|0:0,0:0:0:0:
256,292,5665,2,0,P|204:292|160:272,1,90,2|0,0:0|0:0,0:0:0:0:
180,188,5999,1,2,0:0:0:0:
260,148,6165,1,0,0:0:0:0:
344,184,6332,2,0,P|352:136|332:92,1,90,2|0,0:0|0:0,0:0:0:0:
180,100,6665,6,0,P|132:84|76:104,1,90,2|0,0:0|0:0,0:0:0:0:
36,156,6999,1,2,0:0:0:0:
20,40,7165,1,2,0:0:0:0:
132,168,7332,2,0,P|144:216|136:264,1,90,2|0,0:0|0:0,0:0:0:0:
76,316,7665,2,0,P|124:296|216:312,1,135,2|0,0:0|0:0,0:0:0:0:
248,324,7999,6,0,P|296:340|356:324,1,90,2|0,0:0|0:0,0:0:0:0:
300,252,8332,2,0,P|350:246|397:206,1,90,2|0,0:0|0:0,0:0:0:0:
320,160,8665,2,0,P|363:133|389:77,2,90,2|0|2,0:0|0:0|0:0,0:0:0:0:
296,72,9165,1,2,0:0:0:0:
236,140,9332,2,0,B|212:128|192:136|192:136|168:144|144:136,1,90,2|0,0:0|0:0,0:0:0:0:
104,60,9665,5,2,0:0:0:0:
80,192,9832,1,0,0:0:0:0:
116,52,9999,5,2,0:0:0:0:
124,260,10165,1,0,0:0:0:0:
124,44,10332,5,2,0:0:0:0:
172,324,10499,1,0,0:0:0:0:
344,192,10665,6,0,B|388:204|388:204|408:244|444:256|488:256|512:240,1,180,4|0,0:0|0:0,0:0:0:0:
468,160,11165,1,0,0:0:0:0:
408,92,11332,2,0,P|448:68|496:72,2,90,2|0|0,0:0|0:0|0:0,0:0:0:0:
320,112,11832,1,0,0:0:0:0:
232,100,11999,2,0,P|192:76|144:80,2,90,0|0|2,0:0|0:0|0:0,0:0:0:0:
164,160,12499,1,0,0:0:0:0:
76,172,12665,6,0,B|80:196|92:216|108:228|108:228|92:256,1,90
88,260,12915,1,0,0:0:0:0:
80,272,12999,2,0,P|64:296|60:324,1,45,2|0,0:0|0:0,0:0:0:0:
144,324,13165,2,0,P|144:352|156:376,1,45
228,328,13332,2,0,P|276:336|324:320,1,90,2|0,0:0|0:0,0:0:0:0:
388,272,13665,6,0,P|432:256|488:260,1,90
328,168,13999,2,0,P|357:131|407:106,1,90
224,115,14332,2,0,P|224:69|248:18,2,90,2|0|0,0:0|0:0|0:0,0:0:0:0:
244,204,14832,1,0,0:0:0:0:
276,288,14999,2,0,P|228:292|184:272,2,90,0|0|2,0:0|0:0|0:0,0:0:0:0:
360,252,15499,1,0,0:0:0:0:
444,220,15665,6,0,L|476:116,1,90
360,136,15999,2,0,L|376:40,1,90
256,100,16332,2,0,L|240:8,1,90,2|0,0:0|0:0,0:0:0:0:
152,88,16665,2,0,P|104:108|48:100,2,90
196,168,17165,1,0,0:0:0:0:
244,244,17332,2,0,P|292:224|348:232,1,90,2|0,0:0|0:0,0:0:0:0:
412,260,17665,6,0,P|448:288|472:344,1,90
380,176,17999,2,0,P|425:174|479:201,1,90
312,111,18332,2,0,P|351:89|412:89,1,90,2|0,0:0|0:0,0:0:0:0:
484,104,18665,5,0,0:0:0:0:
456,20,18832,1,0,0:0:0:0:
312,112,18999,2,0,P|296:156|304:224,2,90,2|0|2,0:0|0:0|0:0,0:0:0:0:
256,40,19499,1,0,0:0:0:0:
200,112,19665,2,0,P|216:156|208:224,2,90
112,136,20165,1,0,0:0:0:0:
28,104,20332,1,2,0:0:0:0:
56,20,20499,1,0,0:0:0:0:
140,48,20665,5,0,0:0:0:0:
112,136,20832,2,0,L|124:184,1,45
96,304,20999,2,0,L|84:256,1,45,2|0,0:0|0:0,0:0:0:0:
172,252,21165,2,0,P|194:251|214:242,1,45
264,180,21332,2,0,P|284:148|288:92,2,90,2|0|0,0:0|0:0|0:0,0:0:0:0:
296,264,21832,1,0,0:0:0:0:
384,280,21999,2,0,P|416:260|472:256,2,90,0|0|2,0:0|0:0|0:0,0:0:0:0:
328,348,22499,1,0,0:0:0:0:
356,196,22665,5,0,0:0:0:0:
424,136,22832,1,0,0:0:0:0:
340,108,22999,2,0,P|368:68|416:48,2,90,0|0|2,0:0|0:0|0:0,0:0:0:0:
256,140,23499,1,0,0:0:0:0:
171,107,23665,6,0,P|147:70|107:50,2,90
156,196,24165,1,0,0:0:0:0:
88,136,24332,1,2,0:0:0:0:
172,108,24499,1,0,0:0:0:0:
256,140,24665,5,0,0:0:0:0:
272,148,24999,5,0,0:0:0:0:
288,156,25332,5,0,0:0:0:0:
304,164,25665,5,2,0:0:0:0:
320,168,25749,1,0,0:0:0:0:
336,168,25832,1,0,0:0:0:0:
352,164,25915,1,0,0:0:0:0:
368,156,25999,5,2,0:0:0:0:
364,188,26082,1,0,0:0:0:0:
368,220,26165,1,0,0:0:0:0:
388,244,26249,1,0,0:0:0:0:
416,260,26332,6,0,L|460:224,1,45,2|2,0:0|0:0,0:0:0:0:
460,332,26499,2,0,L|416:368,1,45,2|2,0:0|0:0,0:0:0:0:
288,316,26665,6,0,P|244:340|140:320,1,112.5,4|0,0:0|0:0,0:0:0:0:
120,248,26999,1,2,0:0:0:0:
32,316,27165,2,0,L|16:196,1,112.5,0|2,0:0|0:0,0:0:0:0:
84,32,27499,2,0,L|100:152,1,112.5
204,184,27832,1,0,0:0:0:0:
236,172,27915,1,0,0:0:0:0:
268,160,27999,2,0,P|288:124|288:88,1,56.25,2|0,0:0|0:0,0:0:0:0:
340,56,28165,2,0,P|304:36|268:36,1,56.25
224,72,28332,1,2,0:0:0:0:
392,132,28499,2,0,P|412:136|448:132,1,56.25
488,80,28665,6,0,P|472:140|500:228,1,112.5
488,216,28915,1,0,0:0:0:0:
500,240,28999,2,0,L|432:260,1,56.25,2|0,0:0|0:0,0:0:0:0:
408,324,29165,2,0,L|340:344,1,56.25
288,292,29332,2,0,P|248:312|164:296,1,112.5,2|0,0:0|0:0,0:0:0:0:
160,288,29582,1,0,0:0:0:0:
136,304,29665,2,0,P|164:244|160:180,1,112.5
140,24,29999,2,0,P|112:84|116:148,1,112.5
196,120,30332,1,2,0:0:0:0:
224,112,30415,1,2,0:0:0:0:
252,108,30499,1,2,0:0:0:0:
280,112,30582,1,2,0:0:0:0:
304,124,30665,6,0,P|356:152|428:144,1,112.5,2|0,0:0|0:0,0:0:0:0:
460,52,30999,2,0,P|440:104|472:280,1,225,0|2,0:0|0:0,0:0:0:0:
384,344,31499,1,0,0:0:0:0:
316,256,31665,2,0,P|264:284|200:280,1,112.5,2|0,0:0|0:0,0:0:0:0:
24,204,31999,2,0,P|76:232|140:228,1,112.5,2|0,0:0|0:0,0:0:0:0:
312,144,32332,2,0,P|260:172|196:168,1,112.5,2|0,0:0|0:0,0:0:0:0:
108,120,32665,5,0,0:0:0:0:
192,44,32832,2,0,L|264:56,1,56.25
328,64,32999,2,0,B|356:72|376:88|388:112|388:112|432:120,1,112.5,2|0,0:0|0:0,0:0:0:0:
440,140,33249,1,0,0:0:0:0:
468,136,33332,2,0,P|460:208|472:260,1,112.5,2|0,0:0|0:0,0:0:0:0:
396,336,33665,2,0,P|344:320|280:328,1,112.5,2|0,0:0|0:0,0:0:0:0:
80,340,33999,2,0,P|132:356|196:348,1,112.5,2|0,0:0|0:0,0:0:0:0:
216,264,34332,2,2,L|188:192,1,56.25
212,76,34499,2,2,L|240:148,1,56.25
136,140,34665,6,0,P|76:124|20:140,2,112.5,2|0|2,0:0|0:0|0:0,0:0:0:0:
296,200,35165,2,0,L|352:232,1,56.25
484,240,35332,2,0,L|428:208,1,56.25,2|0,0:0|0:0,0:0:0:0:
340,108,35499,2,0,L|396:140,1,56.25
480,132,35665,1,2,0:0:0:0:
216,264,35832,2,0,L|160:288,1,56.25
116,348,35999,2,0,P|96:324|84:284,1,56.25,2|0,0:0|0:0,0:0:0:0:
112,228,36165,2,0,P|100:202|82:181,1,56.25
32,240,36332,1,2,0:0:0:0:
208,156,36499,2,0,P|232:164|272:156,1,56.25
296,108,36665,6,0,P|284:176|304:240,1,112.5,2|0,0:0|0:0,0:0:0:0:
316,236,36915,1,0,0:0:0:0:
296,256,36999,2,0,P|364:240|432:272,1,112.5,2|0,0:0|0:0,0:0:0:0:
464,344,37332,1,2,0:0:0:0:
496,192,37499,1,0,0:0:0:0:
464,40,37665,1,2,0:0:0:0:
408,140,37832,2,0,L|352:164,1,56.25
296,108,37999,2,0,L|240:132,1,56.25,2|0,0:0|0:0,0:0:0:0:
184,76,38165,2,0,L|128:100,1,56.25
64,44,38332,2,0,P|48:88|52:120,1,56.25,2|2,0:0|0:0,0:0:0:0:
92,168,38499,2,0,P|88:195|75:220,1,56.25,2|2,0:0|0:0,0:0:0:0:
12,268,38665,6,0,P|68:260|128:296,1,112.5,2|0,0:0|0:0,0:0:0:0:
284,352,38999,2,0,P|228:360|168:324,1,112.5,2|0,0:0|0:0,0:0:0:0:
200,256,39332,1,2,0:0:0:0:
256,82,39499,1,0,0:0:0:0:
312,256,39665,1,2,0:0:0:0:
165,149,39832,1,0,0:0:0:0:
347,149,39999,2,0,P|404:164|460:148,2,112.5,2|0|2,0:0|0:0|0:0,0:0:0:0:
256,82,40499,1,0,0:0:0:0:
164,148,40665,6,0,P|136:164|100:168,1,56.25,6|0,0:0|0:0,0:0:0:0:
40,136,40832,2,0,P|32:168|40:204,1,56.25,6|2,0:0|0:0,0:0:0:0:
92,244,40999,2,0,P|100:264|96:304,1,56.25,6|0,0:0|0:0,0:0:0:0:
144,356,41165,1,2,0:0:0:0:
164,344,41249,1,2,0:0:0:0:
184,332,41332,2,0,P|212:344|256:344,1,56.25,6|0,0:0|0:0,0:0:0:0:
320,348,41499,1,2,0:0:0:0:
344,352,41582,1,0,0:0:0:0:
368,356,41665,2,0,P|372:336|360:296,1,56.25,6|0,0:0|0:0,0:0:0:0:
352,284,41832,1,2,0:0:0:0:
344,264,41915,1,0,0:0:0:0:
340,240,41999,1,2,0:0:0:0:
340,216,42082,1,0,0:0:0:0:
344,192,42165,1,2,0:0:0:0:
352,172,42249,1,0,0:0:0:0:
364,152,42332,2,0,P|396:144|432:152,1,56.25,6|2,0:0|0:0,0:0:0:0:
312,88,42499,2,0,P|280:96|244:88,1,56.25,4|0,0:0|0:0,0:0:0:0:
160,32,42665,6,4,B|132:60|128:108|160:156|160:156|136:200|80:228,1,225
24,264,43165,2,0,P|76:300|132:288,1,112.5
468,252,43499,2,4,B|420:240|396:240|364:264|364:264|340:212|364:152,1,225
424,96,43999,2,0,L|456:112,1,28.125,4|0,0:0|0:0,0:0:0:0:
344,20,44165,2,0,L|384:40,1,28.125,4|0,0:0|0:0,0:0:0:0:
236,20,44332,2,0,L|268:36,1,28.125,4|0,0:0|0:0,0:0:0:0:
264,128,44499,2,0,L|248:156,3,28.125
264,128,44665,6,0,P|236:108|208:104,1,56.25,4|0,0:0|0:0,0:0:0:0:
48,104,44832,2,0,P|76:124|104:128,1,56.25,4|0,0:0|0:0,0:0:0:0:
168,8,44999,2,0,P|148:36|144:64,1,56.25,4|0,0:0|0:0,0:0:0:0:
144,224,45166,2,0,P|164:196|168:168,1,56.25,4|0,0:0|0:0,0:0:0:0:
424,304,45499,1,4,0:0:0:0:
380,44,45832,1,4,0:0:0:0:
384,184,45999,2,0,P|360:208|320:224,1,56.25,4|0,0:0|0:0,0:0:0:0:
312,224,46165,1,0,0:0:0:0:
284,220,46249,1,0,0:0:0:0:
260,208,46332,2,4,L|240:240,1,28.125,4|0,0:0|0:0,0:0:0:0:
92,348,46499,2,0,L|112:316,1,28.125,4|0,0:0|0:0,0:0:0:0:
144,224,46665,6,4,B|112:192|112:192|88:168|92:128|92:128|96:88|64:56|64:56|28:16,1,225
156,44,47165,2,0,P|224:60|280:44,1,112.5
416,336,47499,2,4,B|416:292|432:268|432:268|476:244|492:212|492:168|472:132,1,225
404,44,47999,2,0,L|388:72,1,28.125,4|0,0:0|0:0,0:0:0:0:
256,72,48165,2,0,L|256:100,1,28.125,4|0,0:0|0:0,0:0:0:0:
108,44,48332,2,0,L|124:72,1,28.125,4|0,0:0|0:0,0:0:0:0:
156,172,48499,2,0,L|112:192,3,28.125
156,172,48665,6,0,P|196:188|228:184,1,56.25,4|0,0:0|0:0,0:0:0:0:
388,176,48832,2,0,P|348:160|316:164,1,56.25,4|0,0:0|0:0,0:0:0:0:
156,256,48999,2,0,P|196:272|228:268,1,56.25,4|0,0:0|0:0,0:0:0:0:
388,260,49166,2,0,P|348:244|316:248,1,56.25,4|0,0:0|0:0,0:0:0:0:
108,44,49499,1,4,0:0:0:0:
404,340,49832,1,4,0:0:0:0:
156,256,49999,6,0,B|108:268|108:268|56:260,2,75,4|0|0,0:0|0:0|0:0,0:0:0:0:
356,128,50332,6,0,B|404:116|404:116|456:124,2,75,4|0|0,0:0|0:0|0:0,0:0:0:0:
352,272,50665,6,0,P|328:304|324:328,1,56.25,4|0,0:0|0:0,0:0:0:0:
404,340,50832,2,0,B|428:320|432:304|436:288|436:288|464:288|488:272|504:256,1,112.5,0|2,0:0|0:0,0:0:0:0:
508,164,51165,2,0,P|476:144|456:112,1,56.25
416,56,51332,2,0,P|356:36|296:56,1,112.5
96,80,51665,2,0,P|156:100|216:80,1,112.5,2|0,0:0|0:0,0:0:0:0:
232,12,51999,1,0,0:0:0:0:
280,136,52165,1,0,0:0:0:0:
216,200,52332,2,2,P|248:220|284:220,1,56.25,6|2,0:0|0:0,0:0:0:0:
348,196,52499,2,2,P|364:172|368:140,1,56.25,6|2,0:0|0:0,0:0:0:0:
336,68,52665,5,6,0:0:0:0:
144,152,52832,1,2,0:0:0:0:
400,256,52999,1,2,0:0:0:0:
216,332,53165,1,2,0:0:0:0:
128,264,53332,2,0,P|80:292|16:280,2,112.5,0|2|0,0:0|0:0|0:0,0:0:0:0:
60,172,53832,1,2,0:0:0:0:
88,72,53999,1,4,0:0:0:0:
116,64,54082,1,0,0:0:0:0:
144,64,54165,2,0,P|168:64|212:72,1,56.25
428,128,54332,1,4,0:0:0:0:
400,136,54415,1,0,0:0:0:0:
372,136,54498,2,0,P|348:136|304:124,1,56.25
256,4,54665,6,4,B|272:24|280:40|280:60|280:60|308:40|308:40|344:64|392:64|448:40,1,225
508,132,55165,2,0,P|500:192|512:256,1,112.5
56,340,55499,2,4,B|60:332|60:332|72:328|72:328|80:320|80:320|116:336|156:332|188:308|196:268|196:236|172:208,1,225
112,252,55999,2,0,L|80:240,1,28.125,4|0,0:0|0:0,0:0:0:0:
188,140,56165,2,0,L|168:120,1,28.125,4|0,0:0|0:0,0:0:0:0:
320,108,56332,2,0,L|320:76,1,28.125,4|0,0:0|0:0,0:0:0:0:
440,192,56499,5,0,0:0:0:0:
464,204,56582,1,0,0:0:0:0:
492,208,56665,1,4,0:0:0:0:
374,256,56832,5,0,0:0:0:0:
382,282,56915,1,0,0:0:0:0:
399,304,56999,1,4,0:0:0:0:
280,228,57165,5,0,0:0:0:0:
268,252,57248,1,0,0:0:0:0:
264,280,57331,1,4,0:0:0:0:
228,144,57499,5,0,0:0:0:0:
203,153,57582,1,0,0:0:0:0:
180,169,57665,1,4,0:0:0:0:
104,268,57832,1,4,0:0:0:0:
36,52,57999,1,4,0:0:0:0:
36,332,58165,1,4,0:0:0:0:
104,116,58332,1,4,0:0:0:0:
188,244,58499,1,4,0:0:0:0:
280,80,58665,6,0,L|352:100,1,56.25,4|0,0:0|0:0,0:0:0:0:
400,40,58831,2,0,L|472:60,1,56.25
492,136,58998,1,0,0:0:0:0:
232,304,59165,6,0,L|160:284,1,56.25,4|0,0:0|0:0,0:0:0:0:
112,344,59331,2,0,L|40:324,1,56.25
20,248,59498,1,0,0:0:0:0:
320,192,59665,6,0,P|316:220|296:248,1,56.25,4|0,0:0|0:0,0:0:0:0:
192,192,59831,2,0,P|196:164|216:136,1,56.25
280,80,59998,6,0,L|352:100,1,56.25,4|0,0:0|0:0,0:0:0:0:
400,40,60164,2,0,L|472:60,1,56.25
492,136,60331,1,0,0:0:0:0:
232,304,60498,6,0,L|160:284,1,56.25,4|0,0:0|0:0,0:0:0:0:
112,344,60664,2,0,L|40:324,1,56.25,2|2,0:0|0:0,0:0:0:0:
20,248,60831,1,0,0:0:0:0:
120,56,60998,1,2,0:0:0:0:
392,328,61165,1,0,0:0:0:0:
400,40,61331,5,4,0:0:0:0:
352,116,61498,2,0,P|372:160|364:216,1,90,0|8,0:0|0:0,0:0:0:0:
284,172,61831,1,0,0:0:0:0:
196,196,61998,2,0,B|208:224|224:244|252:252|252:252|252:288|276:320|312:336,1,180,0|8,0:0|0:0,0:0:0:0:
340,256,62498,1,0,0:0:0:0:
184,304,62664,6,0,P|140:320|72:304,1,90
40,248,62998,2,0,P|84:232|152:248,1,90,8|0,0:0|0:0,0:0:0:0:
184,304,63331,1,0,0:0:0:0:
272,316,63498,1,0,0:0:0:0:
340,256,63664,1,8,0:0:0:0:
332,168,63831,1,0,0:0:0:0:
260,112,63998,6,0,P|248:68|260:12,2,90,0|0|8,0:0|0:0|0:0,0:0:0:0:
336,64,64498,1,0,0:0:0:0:
404,120,64664,2,0,P|420:172|408:212,1,90
347,341,64998,2,0,P|331:289|343:249,1,90,8|0,0:0|0:0,0:0:0:0:
416,288,65331,5,0,0:0:0:0:
248,304,65498,2,0,P|200:324|144:312,1,90,0|8,0:0|0:0,0:0:0:0:
100,256,65831,2,0,P|76:296|72:344,2,90
168,196,66331,1,8,0:0:0:0:
100,128,66498,1,0,0:0:0:0:
164,64,66664,6,0,P|124:44|60:48,2,90,0|0|8,0:0|0:0|0:0,0:0:0:0:
228,128,67164,1,0,0:0:0:0:
288,60,67331,2,0,B|312:84|320:112|316:144|316:144|300:168|296:208|324:252,1,180,0|8,0:0|0:0,0:0:0:0:
396,192,67831,1,0,0:0:0:0:
480,228,67998,6,0,P|484:180|468:136,2,90,0|0|8,0:0|0:0|0:0,0:0:0:0:
404,280,68498,1,0,0:0:0:0:
320,248,68664,2,0,P|268:240|216:256,1,90
60,288,68998,2,0,P|112:296|164:280,1,90,8|0,0:0|0:0,0:0:0:0:
160,200,69331,5,0,0:0:0:0:
108,128,69498,2,0,P|136:88|136:36,2,90,0|8|0,0:0|0:0|0:0,0:0:0:0:
52,56,69998,1,0,0:0:0:0:
20,140,70164,1,0,0:0:0:0:
72,212,70331,1,8,0:0:0:0:
160,200,70498,2,0,L|208:224,1,45
216,272,70664,6,0,P|220:220|272:180,1,90,4|0,0:0|0:0,0:0:0:0:
344,48,70998,2,0,P|340:100|288:140,1,90,12|0,0:0|0:0,0:0:0:0:
232,104,71331,1,4,0:0:0:0:
336,216,71498,1,0,0:0:0:0:
424,192,71664,2,0,L|456:184,1,22.5,8|0,0:0|0:0,0:0:0:0:
428,204,71748,2,0,L|464:204,1,22.5
432,216,71831,2,0,L|460:232,1,22.5
428,228,71914,2,0,L|452:248,1,22.5
424,240,71998,5,4,0:0:0:0:
432,260,72081,1,0,0:0:0:0:
436,280,72164,1,0,0:0:0:0:
440,300,72248,1,0,0:0:0:0:
444,320,72331,1,8,0:0:0:0:
360,352,72498,1,0,0:0:0:0:
280,308,72664,5,0,0:0:0:0:
260,300,72748,1,0,0:0:0:0:
240,292,72831,1,0,0:0:0:0:
220,284,72914,1,0,0:0:0:0:
200,276,72998,5,8,0:0:0:0:
180,284,73081,1,0,0:0:0:0:
160,296,73164,1,0,0:0:0:0:
140,308,73248,1,0,0:0:0:0:
120,320,73331,5,0,0:0:0:0:
120,296,73414,1,0,0:0:0:0:
112,276,73498,1,0,0:0:0:0:
100,256,73581,1,0,0:0:0:0:
84,240,73664,1,8,0:0:0:0:
20,176,73831,1,0,0:0:0:0:
88,116,73998,5,0,0:0:0:0:
108,108,74081,1,0,0:0:0:0:
132,104,74164,1,0,0:0:0:0:
156,104,74248,1,0,0:0:0:0:
168,124,74331,5,8,0:0:0:0:
192,124,74414,1,0,0:0:0:0:
216,120,74498,1,0,0:0:0:0:
236,112,74581,1,0,0:0:0:0:
252,96,74664,5,0,0:0:0:0:
260,116,74748,1,0,0:0:0:0:
268,136,74831,1,0,0:0:0:0:
276,156,74914,1,0,0:0:0:0:
284,176,74998,1,8,0:0:0:0:
364,220,75164,1,0,0:0:0:0:
436,168,75331,5,0,0:0:0:0:
448,188,75414,1,0,0:0:0:0:
460,208,75498,1,0,0:0:0:0:
472,228,75581,1,0,0:0:0:0:
484,248,75664,5,8,0:0:0:0:
472,268,75748,1,0,0:0:0:0:
464,288,75831,1,0,0:0:0:0:
456,308,75914,1,0,0:0:0:0:
448,328,75998,5,0,0:0:0:0:
360,348,76164,1,0,0:0:0:0:
340,340,76248,1,0,0:0:0:0:
320,336,76331,1,8,0:0:0:0:
296,336,76414,1,0,0:0:0:0:
272,340,76498,1,0,0:0:0:0:
252,348,76581,1,0,0:0:0:0:
232,360,76664,5,0,0:0:0:0:
236,336,76748,1,0,0:0:0:0:
232,312,76831,1,0,0:0:0:0:
224,292,76914,1,0,0:0:0:0:
212,272,76998,5,8,0:0:0:0:
204,252,77081,1,0,0:0:0:0:
204,228,77164,1,0,0:0:0:0:
212,208,77248,1,0,0:0:0:0:
220,188,77331,5,4,0:0:0:0:
196,180,77414,1,0,0:0:0:0:
168,172,77498,1,0,0:0:0:0:
144,164,77581,1,0,0:0:0:0:
120,156,77664,1,8,0:0:0:0:
36,128,77831,1,0,0:0:0:0:
40,352,77998,5,4,0:0:0:0:
52,324,78081,1,0,0:0:0:0:
64,296,78164,1,0,0:0:0:0:
76,268,78248,1,0,0:0:0:0:
88,240,78331,1,8,0:0:0:0:
120,156,78498,1,0,0:0:0:0:
256,56,78664,5,4,0:0:0:0:
292,68,78748,1,0,0:0:0:0:
324,80,78831,1,0,0:0:0:0:
356,92,78914,1,0,0:0:0:0:
392,104,78998,1,8,0:0:0:0:
476,132,79164,1,0,0:0:0:0:
384,364,79331,5,4,0:0:0:0:
400,328,79414,1,0,0:0:0:0:
416,292,79498,1,0,0:0:0:0:
432,256,79581,1,0,0:0:0:0:
448,220,79664,1,8,0:0:0:0:
476,132,79831,1,0,0:0:0:0:
336,192,79998,6,0,P|304:204|264:200,1,45,4|0,0:0|0:0,0:0:0:0:
216,160,80164,1,0,0:0:0:0:
212,184,80248,2,0,L|200:248,1,45
132,128,80414,1,0,0:0:0:0:
128,152,80498,2,0,L|116:216,1,45
80,284,80664,2,0,L|32:300,1,45
200,308,80831,2,0,L|152:324,1,45,2|0,0:0|0:0,0:0:0:0:
324,328,80998,2,0,L|276:344,1,45,8|2,0:0|0:0,0:0:0:0:
444,352,81165,2,0,L|396:368,1,45,2|2,0:0|0:0,0:0:0:0:
400,260,81331,6,0,P|412:160|312:220,1,270
312,240,81664,5,6,0:0:0:0:
292,228,81747,1,0,0:0:0:0:
272,216,81831,1,0,0:0:0:0:
252,204,81914,1,0,0:0:0:0:
232,192,81997,6,0,P|240:156|236:132,1,45,2|0,0:0|0:0,0:0:0:0:
196,36,82164,2,0,P|188:72|192:96,1,45,2|2,0:0|0:0,0:0:0:0:
272,76,82331,6,0,L|308:68,3,22.5
156,156,82497,2,0,P|124:168|100:172,1,45,2|0,0:0|0:0,0:0:0:0:
52,116,82664,6,0,P|36:144|32:168,1,45,0|2,0:0|0:0,0:0:0:0:
60,232,82831,2,0,L|60:292,1,45
16,344,82997,5,4,0:0:0:0:
128,320,83163,2,0,L|196:300,1,56.25
236,352,83330,2,0,P|216:280|236:232,1,112.5,2|0,0:0|0:0,0:0:0:0:
288,188,83580,2,0,P|308:260|288:308,1,112.5
364,340,83830,2,0,P|424:360|488:340,1,112.5,2|0,0:0|0:0,0:0:0:0:
504,276,84080,2,0,L|508:216,2,56.25
448,164,84330,6,0,B|440:140|440:120|456:96|456:96|408:56,1,112.5,2|0,0:0|0:0,0:0:0:0:
400,56,84580,1,0,0:0:0:0:
376,44,84663,2,0,P|344:52|316:48,1,56.25
188,32,84830,2,0,P|220:24|248:28,1,56.25,2|0,0:0|0:0,0:0:0:0:
264,104,84997,1,0,0:0:0:0:
256,132,85080,1,0,0:0:0:0:
260,160,85163,1,0,0:0:0:0:
272,188,85247,1,0,0:0:0:0:
284,212,85330,1,2,0:0:0:0:
288,240,85413,1,0,0:0:0:0:
280,268,85497,1,0,0:0:0:0:
268,292,85580,1,0,0:0:0:0:
252,316,85663,6,0,P|308:312|368:336,1,112.5
432,364,85913,1,0,0:0:0:0:
420,284,85997,2,0,P|448:232|440:176,1,112.5,2|0,0:0|0:0,0:0:0:0:
388,116,86247,2,0,P|360:168|368:224,1,112.5
420,284,86497,1,2,0:0:0:0:
340,364,86663,2,0,L|268:352,1,56.25
220,288,86830,2,0,L|148:276,1,56.25
104,328,86997,6,0,P|88:276|112:220,1,112.5,2|0,0:0|0:0,0:0:0:0:
128,204,87247,1,0,0:0:0:0:
148,184,87330,2,0,L|144:120,1,56.25
204,20,87497,2,0,L|208:84,1,56.25,2|0,0:0|0:0,0:0:0:0:
268,128,87663,2,0,P|296:140|336:140,1,56.25,2|0,0:0|0:0,0:0:0:0:
436,148,87830,2,0,P|463:145|489:133,1,56.25,2|0,0:0|0:0,0:0:0:0:
396,32,87997,2,0,P|384:60|384:100,1,56.25,2|0,0:0|0:0,0:0:0:0:
376,200,88164,2,0,P|378:227|390:253,1,56.25,2|0,0:0|0:0,0:0:0:0:
460,316,88330,5,2,0:0:0:0:
352,344,88497,2,0,L|288:328,1,56.25
240,368,88663,2,0,P|272:316|264:256,1,112.5,2|0,0:0|0:0,0:0:0:0:
220,200,88913,2,0,P|188:252|196:312,1,112.5
240,368,89163,1,2,0:0:0:0:
124,352,89330,2,0,L|108:280,1,56.25,0|2,0:0|0:0,0:0:0:0:
56,244,89497,2,0,L|40:172,1,56.25,2|0,0:0|0:0,0:0:0:0:
80,116,89663,6,0,P|116:68|184:48,1,112.5,2|0,0:0|0:0,0:0:0:0:
164,136,89913,2,0,P|221:118|284:144,1,112.5,2|0,0:0|0:0,0:0:0:0:
220,200,90163,2,0,P|256:216|304:208,1,56.25,2|0,0:0|0:0,0:0:0:0:
336,172,90330,5,2,0:0:0:0:
364,168,90413,1,0,0:0:0:0:
392,172,90496,1,0,0:0:0:0:
416,184,90580,1,0,0:0:0:0:
436,200,90663,1,2,0:0:0:0:
432,172,90746,1,0,0:0:0:0:
436,144,90830,1,2,0:0:0:0:
448,120,90913,1,2,0:0:0:0:
472,104,90996,5,4,0:0:0:0:
40,280,91330,1,4,0:0:0:0:
104,52,91496,1,4,0:0:0:0:
408,332,91830,1,4,0:0:0:0:
256,100,92163,1,4,0:0:0:0:
256,284,92330,5,0,0:0:0:0:
184,192,92496,2,0,L|136:224,1,56.25
120,292,92663,2,0,P|108:236|32:196,1,112.5,4|0,0:0|0:0,0:0:0:0:
12,104,92996,2,0,P|44:92|80:96,1,56.25,4|0,0:0|0:0,0:0:0:0:
128,144,93163,2,0,P|155:143|181:132,1,56.25
256,100,93330,2,0,P|288:88|324:92,1,56.25,4|0,0:0|0:0,0:0:0:0:
372,140,93497,2,0,P|399:139|425:128,1,56.25
476,64,93663,6,0,B|516:96|512:144|492:176|492:176|508:192|508:192|492:200|492:200|504:212|504:212|476:240|476:280|496:300,1,270
500,308,93996,6,0,P|436:296|380:316,1,112.5,4|0,0:0|0:0,0:0:0:0:
320,340,94246,2,0,P|256:352|200:332,1,112.5,4|0,0:0|0:0,0:0:0:0:
144,300,94496,1,2,0:0:0:0:
36,336,94663,2,0,L|28:264,1,56.25
84,220,94830,2,0,L|92:148,1,56.25
36,104,94996,6,0,P|88:84|148:108,1,112.5,2|0,0:0|0:0,0:0:0:0:
164,112,95246,1,0,0:0:0:0:
188,128,95330,2,0,P|216:136|248:132,1,56.25
368,104,95496,2,0,P|340:96|308:100,1,56.25,2|0,0:0|0:0,0:0:0:0:
308,176,95663,5,0,0:0:0:0:
320,200,95746,1,0,0:0:0:0:
320,228,95830,1,0,0:0:0:0:
308,252,95913,1,0,0:0:0:0:
284,268,95996,1,2,0:0:0:0:
256,272,96080,1,0,0:0:0:0:
228,264,96163,1,0,0:0:0:0:
208,244,96246,1,0,0:0:0:0:
200,216,96330,6,0,P|144:240|72:216,1,112.5
72,216,96580,1,0,0:0:0:0:
60,192,96663,2,0,P|48:136|76:72,1,112.5,2|0,0:0|0:0,0:0:0:0:
136,36,96913,2,0,P|148:92|120:156,1,112.5
60,192,97163,1,2,0:0:0:0:
44,304,97330,2,0,L|112:304,1,56.25
160,356,97496,2,0,L|220:356,1,56.25
276,304,97663,6,0,P|332:316|400:300,1,112.5,2|0,0:0|0:0,0:0:0:0:
408,292,97913,1,0,0:0:0:0:
428,272,97996,2,0,P|440:232|440:204,1,56.25
440,136,98163,2,0,P|436:108|427:81,1,56.25,2|0,0:0|0:0,0:0:0:0:
364,24,98330,2,0,L|300:24,1,56.25,2|0,0:0|0:0,0:0:0:0:
148,56,98496,2,0,L|212:56,1,56.25,2|0,0:0|0:0,0:0:0:0:
356,104,98663,2,0,L|292:104,1,56.25,2|0,0:0|0:0,0:0:0:0:
156,136,98829,2,0,L|220:136,1,56.25,2|0,0:0|0:0,0:0:0:0:
292,184,98996,6,0,P|304:244|276:288,1,112.5,2|0,0:0|0:0,0:0:0:0:
252,296,99246,1,0,0:0:0:0:
224,296,99330,1,0,0:0:0:0:
124,344,99496,2,0,P|112:288|128:232,1,112.5,2|0,0:0|0:0,0:0:0:0:
144,212,99746,1,0,0:0:0:0:
164,192,99830,2,0,L|156:132,2,56.25,0|0|2,0:0|0:0|0:0,0:0:0:0:
256,124,100163,2,0,L|256:60,1,56.25
332,40,100330,6,0,L|332:100,1,56.25,2|0,0:0|0:0,0:0:0:0:
376,160,100496,2,0,P|404:168|440:164,1,56.25
488,116,100663,2,0,P|508:156|504:192,1,56.25,2|0,0:0|0:0,0:0:0:0:
508,244,100830,2,0,P|502:271|487:294,1,56.25,2|2,0:0|0:0,0:0:0:0:
460,304,100996,5,2,0:0:0:0:
432,308,101080,1,0,0:0:0:0:
404,304,101163,1,0,0:0:0:0:
380,292,101246,1,0,0:0:0:0:
299,284,101330,2,0,P|305:256|324:236,1,56.25,6|0,0:0|0:0,0:0:0:0:
400,111,101496,2,0,P|393:138|375:159,1,56.25,2|2,0:0|0:0,0:0:0:0:
292,160,101663,6,0,P|232:172|168:136,1,112.5,4|0,0:0|0:0,0:0:0:0:
136,84,101913,2,0,P|196:72|260:108,1,112.5,2|0,0:0|0:0,0:0:0:0:
292,160,102163,1,2,0:0:0:0:
392,216,102330,2,0,P|424:228|472:216,2,56.25,0|0|2,0:0|0:0|0:0,0:0:0:0:
300,284,102663,2,0,P|304:320|320:344,2,56.25,0|0|2,0:0|0:0|0:0,0:0:0:0:
200,236,102996,5,2,0:0:0:0:
196,252,103080,2,0,L|184:320,1,56.25
124,200,103246,5,2,0:0:0:0:
120,216,103330,2,0,L|108:284,1,56.25,4|0,0:0|0:0,0:0:0:0:
49,164,103496,5,2,0:0:0:0:
45,180,103580,2,0,L|33:248,1,56.25,0|4,0:0|0:0,0:0:0:0:
116,120,103746,5,2,0:0:0:0:
120,104,103830,2,0,L|132:36,1,56.25,0|4,0:0|0:0,0:0:0:0:
200,96,103996,6,0,L|212:28,1,56.25,2|0,0:0|0:0,0:0:0:0:
284,80,104163,6,0,L|296:12,1,56.25,6|0,0:0|0:0,0:0:0:0:
368,60,104330,6,0,B|364:84|364:84|420:76|464:120|464:176|432:216|432:216|440:232|440:232|432:248|432:248|452:292,1,270.000010299683,4|0,0:0|0:0,0:0:0:0:
144,324,104830,2,0,B|148:300|148:300|92:308|48:264|48:208|80:168|80:168|72:152|72:152|80:136|80:136|60:92,1,270.000010299683,4|0,0:0|0:0,0:0:0:0:
376,160,105330,6,0,B|348:192|348:216|360:260|392:280|392:280|392:304|392:304|408:320|408:320|384:364|328:360,1,270.000010299683,4|0,0:0|0:0,0:0:0:0:
136,224,105830,6,0,B|164:192|164:168|152:124|120:104|120:104|120:80|120:80|104:64|104:64|128:20|184:24,1,270.000010299683,4|0,0:0|0:0,0:0:0:0:
376,160,106330,6,0,B|404:172|440:172|452:156|452:156|464:164|464:164|480:156|480:156|512:168,1,135.000005149842,4|0,0:0|0:0,0:0:0:0:
136,224,106663,2,0,B|108:212|72:212|60:228|60:228|48:220|48:220|32:228|32:228|0:216,1,135.000005149842,4|0,0:0|0:0,0:0:0:0:
332,92,106996,6,0,B|376:72|420:76|456:104|472:152|456:192|432:220|432:220|444:232|444:232|436:248|436:248|440:256,1,270.000010299683,4|0,0:0|0:0,0:0:0:0:
180,292,107496,2,0,B|136:312|92:308|56:280|40:232|56:192|80:164|80:164|68:152|68:152|76:136|76:136|72:128,1,270.000010299683,4|0,0:0|0:0,0:0:0:0:
284,28,107996,6,0,B|320:4|352:8|388:24|408:48|412:88|412:88|436:84|436:84|440:104|440:104|468:128|504:116,1,270.000010299683,4|0,0:0|0:0,0:0:0:0:
228,356,108496,2,0,B|192:380|160:376|124:360|104:336|100:296|100:296|76:300|76:300|72:280|72:280|44:256|8:268,1,270.000010299683,4|0,0:0|0:0,0:0:0:0:
356,176,108996,6,0,B|372:188|372:188|388:180|388:180|400:192|400:192|420:180|456:180|484:204,1,135.000005149842,4|0,0:0|0:0,0:0:0:0:
156,208,109330,2,0,B|140:196|140:196|124:204|124:204|112:192|112:192|92:204|56:204|28:180,1,135.000005149842,4|0,0:0|0:0,0:0:0:0:
80,124,109580,1,0,0:0:0:0:
32,64,109663,6,0,P|76:48|152:100,1,135.000005149842,4|0,0:0|0:0,0:0:0:0:
256,172,109996,1,0,0:0:0:0:
364,89,110163,2,0,P|416:49|480:64,2,135.000005149842
148,304,110663,1,0,0:0:0:0:
364,304,110830,1,0,0:0:0:0:
136,64,110996,6,2,L|120:20,2,45.0000017166138
176,84,111163,2,2,L|156:140,2,45.0000017166138
216,64,111330,2,2,L|204:12,2,45.0000017166138
256,84,111496,2,2,L|256:136,2,45.0000017166138
296,64,111663,2,2,L|306:20,2,45.0000017166138
336,84,111830,2,2,L|351:126,2,45.0000017166138,4|2|2,0:0|0:0|0:0,0:0:0:0:
376,64,111996,2,0,P|420:56|500:104,2,135.000005149842,4|0|4,0:0|0:0|0:0,0:0:0:0:
408,172,112496,6,0,L|420:228,1,56.25,2|2,0:0|0:0,0:0:0:0:
476,268,112663,2,0,P|416:256|356:284,1,112.5,0|2,0:0|0:0,0:0:0:0:
288,352,112996,1,0,0:0:0:0:
196,284,113163,2,0,L|128:300,1,56.25,2|2,0:0|0:0,0:0:0:0:
88,348,113330,2,0,P|112:296|84:236,1,112.5,0|2,0:0|0:0,0:0:0:0:
20,160,113663,5,4,0:0:0:0:
308,56,113830,1,0,0:0:0:0:
76,40,113996,1,0,0:0:0:0:
364,176,114163,1,0,0:0:0:0:
424,288,114330,5,0,0:0:0:0:
396,300,114413,1,0,0:0:0:0:
364,300,114496,2,0,P|328:296|300:280,1,56.25
84,256,114663,1,0,0:0:0:0:
112,244,114746,1,0,0:0:0:0:
144,244,114829,2,0,P|180:248|208:264,1,56.25
240,336,114996,5,4,0:0:0:0:
256,192,115080,12,0,120163,0:0:0:0:
184,128,120330,6,0,B|124:156|116:208|132:248|132:248|104:284|64:296|12:280,2,270.000010299683,0|2|0,0:0|0:0|0:0,0:0:0:0:
256,164,121830,1,0,0:0:0:0:
328,128,121996,2,0,B|388:156|396:208|380:248|380:248|408:284|448:296|500:280,1,270.000010299683,2|2,0:0|0:0,0:0:0:0:
464,204,122830,1,0,0:0:0:0:
492,128,122996,6,0,P|468:100|468:44,1,67.5000025749208
388,32,123330,2,0,P|352:28|308:44,1,67.5000025749208,2|0,0:0|0:0,0:0:0:0:
256,80,123663,1,0,0:0:0:0:
189,35,123830,2,0,P|157:27|124:32,1,67.5000025749208,0|2,0:0|0:0,0:0:0:0:
50,70,124164,2,0,P|42:103|19:128,1,67.5000025749208
68,192,124496,1,0,0:0:0:0:
12,252,124663,2,0,P|48:272|136:240,1,135.000005149842,2|0,0:0|0:0,0:0:0:0:
192,192,125163,1,0,0:0:0:0:
256,244,125330,1,2,0:0:0:0:
320,192,125496,1,0,0:0:0:0:
379,244,125663,6,0,P|438:274|500:252,2,135.000005149842,0|2|0,0:0|0:0|0:0,0:0:0:0:
444,196,126496,1,0,0:0:0:0:
488,128,126663,2,0,P|452:116|416:120,1,67.5000025749208,2|0,0:0|0:0,0:0:0:0:
360,168,126996,2,0,P|326:169|294:158,1,67.5000025749208
217,158,127330,2,0,P|185:169|152:168,1,67.5000025749208,2|0,0:0|0:0,0:0:0:0:
89,118,127663,2,0,P|55:116|24:128,1,67.5000025749208
68,196,127996,5,2,0:0:0:0:
256,280,128163,1,0,0:0:0:0:
444,196,128330,1,4,0:0:0:0:
256,192,128413,12,0,132330,0:0:0:0:
