osu file format v14

[General]
AudioFilename: gmtn (witch's slave) - disperagioia.mp3
AudioLeadIn: 0
PreviewTime: 36356
Countdown: 1
SampleSet: None
StackLeniency: 0.5
Mode: 0
LetterboxInBreaks: 1
WidescreenStoryboard: 0

[Editor]
Bookmarks: 21356,41354
DistanceSpacing: 1.6
BeatDivisor: 4
GridSize: 8
TimelineZoom: 3.519999

[Metadata]
Title:disperagioia
TitleUnicode:disperagioia
Artist:gmtn (witch's slave)
ArtistUnicode:gmtn (witch's slave)
Creator:st_stefan
Version:Expert
Source:
Tags:
BeatmapID:1162233
BeatmapSetID:548859

[Difficulty]
HPDrainRate:6
CircleSize:4
OverallDifficulty:9
ApproachRate:9.7
SliderMultiplier:0.9
SliderTickRate:1

[Events]
//Background and Video events
//Break Periods
//Storyboard Layer 0 (Background)
//Storyboard Layer 1 (Fail)
//Storyboard Layer 2 (Pass)
//Storyboard Layer 3 (Foreground)
//Storyboard Sound Samples

[TimingPoints]
4023,166.666666666667,6,3,0,60,1,0
5023,-66.6666666666667,6,3,0,100,0,0
6023,-100,6,3,0,60,0,0
7023,-66.6666666666667,6,3,0,100,0,0
8023,-100,6,3,0,60,0,0
9023,-66.6666666666667,6,3,0,100,0,0
10023,-100,6,3,0,60,0,0
11023,-66.6666666666667,6,3,0,100,0,0
12023,-66.6666666666667,6,3,0,85,0,0
14189,-66.6666666666667,6,3,0,90,0,0
20023,166.666666666667,4,3,0,100,1,0
20356,166.666666666667,6,3,0,100,1,0
36522,-57.1428571428571,6,3,0,100,0,0
37689,166.666666666667,4,3,0,100,1,0
37689,-50,4,3,0,100,0,0
38355,166.666666666667,6,3,0,100,1,0
39355,166.666666666667,4,3,0,100,1,0
39355,-50,4,3,0,100,0,0
40021,166.666666666667,4,3,0,100,1,0
41354,166.666666666667,6,3,0,100,1,0
41354,-50,6,3,0,100,0,0
43354,166.666666666667,4,3,0,100,1,0
43354,-50,4,3,0,100,0,0
45353,166.666666666667,6,3,0,100,1,0
45353,-66.6666666666667,6,3,0,100,0,0
53353,166.666666666667,6,3,0,100,1,0
54019,166.666666666667,6,3,0,100,1,0
54019,-83.3333333333334,6,3,0,100,0,1
55019,-66.6666666666667,6,3,0,100,0,1
56019,-83.3333333333334,6,3,0,100,0,1
57019,-66.6666666666667,6,3,0,100,0,1
58019,-83.3333333333334,6,3,0,100,0,1
59019,-66.6666666666667,6,3,0,100,0,1
60019,-83.3333333333334,6,3,0,100,0,1
61019,-66.6666666666667,6,3,0,100,0,1
62019,-83.3333333333334,6,3,0,100,0,1
63019,-66.6666666666667,6,3,0,100,0,1
64019,-83.3333333333334,6,3,0,100,0,1
65019,-66.6666666666667,6,3,0,100,0,1
66019,-83.3333333333334,6,3,0,100,0,1
67019,-66.6666666666667,6,3,0,100,0,1
68019,-83.3333333333334,6,3,0,100,0,1
69019,-66.6666666666667,6,3,0,100,0,1
70019,-66.6666666666667,6,3,0,100,0,0
78019,-100,6,3,0,100,0,0
90019,-76.9230769230769,6,3,0,100,0,0
91019,-100,6,3,0,100,0,0
93019,-66.6666666666667,6,3,0,100,0,0
95241,-58.8235294117647,6,3,0,100,0,0
97019,-66.6666666666667,6,3,0,100,0,0
97685,-58.8235294117647,6,3,0,100,0,0
107352,166.666666666667,6,3,0,100,1,0
107352,-58.8235294117647,6,3,0,100,0,0
123352,-66.6666666666667,6,3,0,100,0,1
127019,-62.5,6,3,0,100,0,1
129352,-57.1428571428571,6,3,0,100,0,1
131352,-66.6666666666667,6,3,0,100,0,1
135018,-62.5,6,3,0,100,0,1
139352,-50,6,3,0,100,0,1
142352,-100,6,3,0,100,0,0

[HitObjects]
33,277,4023,6,0,P|30:196|81:140,1,135,8|0,0:0|0:0,0:0:0:0:
192,126,4356,1,0,0:0:0:0:
96,314,4523,2,0,B|52:319|52:319|-8:310,2,90
159,142,5023,6,0,P|185:120|218:115,1,67.5000025749208
285,212,5189,2,0,P|317:206|343:185,1,67.5000025749208
326,97,5356,6,0,L|310:32,1,67.5000025749208
426,210,5523,2,0,L|496:223,1,67.5000025749208,8|0,0:0|0:0,0:0:0:0:
239,118,5689,2,0,L|160:131,1,67.5000025749208
311,232,5856,6,0,B|307:201|307:201|285:168,1,67.5000025749208,8|0,0:0|0:0,0:0:0:0:
193,334,6023,6,0,P|274:337|330:286,1,135,8|0,0:0|0:0,0:0:0:0:
372,172,6356,1,0,0:0:0:0:
196,214,6523,1,0,0:0:0:0:
232,14,6689,1,0,0:0:0:0:
319,234,6856,1,0,0:0:0:0:
167,78,7023,6,0,L|94:69,1,67.5000025749208,8|0,0:0|0:0,0:0:0:0:
225,220,7189,2,0,L|298:229,1,67.5000025749208,8|0,0:0|0:0,0:0:0:0:
204,153,7356,6,0,L|187:97,2,33.7500012874604
264,310,7523,2,0,L|255:376,1,67.5000025749208,8|0,0:0|0:0,0:0:0:0:
352,158,7689,5,0,0:0:0:0:
120,152,7856,2,0,B|106:115|106:115|114:67,1,67.5000025749208
246,193,8023,2,0,B|259:229|259:229|244:334,1,135,8|0,0:0|0:0,0:0:0:0:
128,168,8356,1,0,0:0:0:0:
272,102,8523,2,0,B|313:93|313:93|376:102,2,90
168,95,9023,6,0,L|154:28,1,67.5000025749208,8|0,0:0|0:0,0:0:0:0:
144,230,9189,2,0,L|240:262,1,67.5000025749208
287,192,9356,6,0,L|358:196,1,67.5000025749208,8|0,0:0|0:0,0:0:0:0:
158,90,9523,2,0,L|144:23,1,67.5000025749208,8|0,0:0|0:0,0:0:0:0:
320,109,9689,6,0,L|306:175,1,67.5000025749208
440,118,9856,2,0,L|426:51,1,67.5000025749208,8|0,0:0|0:0,0:0:0:0:
288,190,10023,6,0,P|330:257|390:252,1,135,8|0,0:0|0:0,0:0:0:0:
423,133,10356,1,0,0:0:0:0:
455,310,10523,1,0,0:0:0:0:
275,311,10689,1,0,0:0:0:0:
442,207,10856,1,0,0:0:0:0:
360,318,11023,5,8,0:0:0:0:
424,278,11106,1,8,0:0:0:0:
442,207,11189,1,8,0:0:0:0:
416,70,11356,5,0,0:0:0:0:
314,201,11523,2,0,L|302:133,1,67.5000025749208,8|4,0:0|0:0,0:0:0:0:
488,53,11689,1,0,0:0:0:0:
423,280,11856,1,2,0:0:0:0:
200,46,12023,5,8,0:0:0:0:
336,158,12189,1,0,0:0:0:0:
361,150,12273,1,0,0:0:0:0:
386,142,12356,1,2,0:0:0:0:
153,214,12523,1,0,0:0:0:0:
288,326,12689,1,0,0:0:0:0:
56,253,12856,1,2,0:0:0:0:
340,166,13023,5,8,0:0:0:0:
94,70,13189,1,0,0:0:0:0:
69,62,13273,1,0,0:0:0:0:
44,54,13356,1,2,0:0:0:0:
253,18,13523,1,0,0:0:0:0:
182,186,13689,1,0,0:0:0:0:
358,14,13856,1,2,0:0:0:0:
81,156,14023,5,8,0:0:0:0:
328,238,14189,1,0,0:0:0:0:
336,263,14273,1,0,0:0:0:0:
344,288,14356,1,2,0:0:0:0:
368,110,14523,1,0,0:0:0:0:
232,270,14689,1,0,0:0:0:0:
320,46,14856,1,2,0:0:0:0:
472,238,15023,5,8,0:0:0:0:
256,118,15189,1,0,0:0:0:0:
248,93,15273,1,0,0:0:0:0:
240,68,15356,1,2,0:0:0:0:
160,230,15523,1,0,0:0:0:0:
400,318,15689,1,0,0:0:0:0:
240,68,15856,1,2,0:0:0:0:
256,206,16023,5,8,0:0:0:0:
352,78,16189,1,0,0:0:0:0:
377,70,16273,1,0,0:0:0:0:
402,62,16356,1,8,0:0:0:0:
136,182,16523,1,0,0:0:0:0:
111,174,16607,1,0,0:0:0:0:
86,166,16690,1,8,0:0:0:0:
360,262,16856,1,0,0:0:0:0:
385,254,16940,1,0,0:0:0:0:
410,246,17023,1,8,0:0:0:0:
256,294,17189,6,0,P|259:327|272:358,1,67.5000025749208,8|0,0:0|0:0,0:0:0:0:
248,166,17356,1,8,0:0:0:0:
233,114,17439,1,0,0:0:0:0:
193,79,17522,1,0,0:0:0:0:
140,73,17605,1,0,0:0:0:0:
92,97,17689,1,8,0:0:0:0:
272,270,17856,5,8,0:0:0:0:
352,54,18023,1,4,0:0:0:0:
408,150,18189,6,0,L|448:158,2,33.7500012874604
288,94,18356,1,4,0:0:0:0:
424,230,18523,6,0,L|464:238,2,33.7500012874604
352,54,18689,1,12,0:0:0:0:
270,249,18856,5,8,0:0:0:0:
320,177,18939,1,8,0:0:0:0:
288,94,19023,6,0,L|200:94,1,67.5000025749208,4|0,0:0|0:0,0:0:0:0:
408,246,19189,2,0,L|496:246,1,67.5000025749208,8|0,0:0|0:0,0:0:0:0:
247,170,19356,2,0,L|159:170,1,67.5000025749208,4|0,0:0|0:0,0:0:0:0:
384,66,19523,2,0,L|472:66,1,67.5000025749208,8|0,0:0|0:0,0:0:0:0:
292,249,19689,2,0,L|204:249,1,67.5000025749208,4|0,0:0|0:0,0:0:0:0:
421,150,19856,2,0,L|509:150,1,67.5000025749208,10|0,0:0|0:0,0:0:0:0:
331,141,20023,6,0,P|293:83|314:8,1,135.000005149842,4|0,0:0|0:0,0:0:0:0:
256,192,20356,12,0,21022,0:0:0:0:
185,98,21356,5,8,0:0:0:0:
40,165,21522,2,0,L|53:208,1,45
222,328,21689,2,0,B|187:212|187:212|137:161,1,180,0|2,0:0|0:0,0:0:0:0:
69,248,22189,2,0,L|131:257,1,45,8|0,0:0|0:0,0:0:0:0:
264,158,22356,6,0,P|334:105|419:123,1,180,8|0,0:0|0:0,0:0:0:0:
279,296,22856,1,0,0:0:0:0:
263,280,22939,1,0,0:0:0:0:
247,264,23022,6,0,L|259:174,1,90,2|8,0:0|0:0,0:0:0:0:
400,158,23272,1,0,0:0:0:0:
416,134,23356,1,8,0:0:0:0:
320,100,23522,6,0,L|328:37,1,45
352,221,23689,5,0,0:0:0:0:
364,273,23772,1,0,0:0:0:0:
341,321,23855,1,0,0:0:0:0:
293,343,23938,1,0,0:0:0:0:
285,264,24022,5,2,0:0:0:0:
456,318,24189,2,0,L|467:367,1,45,8|0,0:0|0:0,0:0:0:0:
344,222,24356,5,8,0:0:0:0:
408,62,24522,2,0,L|472:46,1,45
243,148,24689,5,2,0:0:0:0:
368,278,24856,2,0,L|375:343,1,45
263,69,25022,5,2,0:0:0:0:
377,213,25189,2,0,L|384:278,1,45,8|0,0:0|0:0,0:0:0:0:
295,14,25356,5,8,0:0:0:0:
216,134,25522,2,0,L|166:126,1,45
294,229,25689,2,0,L|398:222,1,90,2|0,0:0|0:0,0:0:0:0:
167,113,26022,2,0,P|170:84|181:52,1,45,8|0,0:0|0:0,0:0:0:0:
144,270,26189,2,0,P|132:288|117:306,1,45,8|0,0:0|0:0,0:0:0:0:
267,129,26356,5,8,0:0:0:0:
311,234,26522,2,0,L|361:242,1,45
125,122,26689,2,0,L|21:129,1,90,2|0,0:0|0:0,0:0:0:0:
208,246,27022,6,0,L|201:201,1,45,8|0,0:0|0:0,0:0:0:0:
105,335,27189,2,0,L|111:379,1,45,8|0,0:0|0:0,0:0:0:0:
240,102,27356,5,12,0:0:0:0:
120,182,27522,2,0,L|69:183,1,45
309,180,27689,1,2,0:0:0:0:
158,95,27856,6,0,L|150:46,1,45,8|0,0:0|0:0,0:0:0:0:
104,286,28022,1,8,0:0:0:0:
217,169,28189,2,0,L|261:174,1,45,8|0,0:0|0:0,0:0:0:0:
336,294,28356,5,8,0:0:0:0:
320,94,28522,2,0,L|314:39,1,45
136,118,28690,5,8,0:0:0:0:
424,86,28855,2,0,L|479:79,1,45
336,294,29022,5,8,0:0:0:0:
221,60,29189,1,8,0:0:0:0:
170,22,29272,1,0,0:0:0:0:
107,21,29356,6,0,P|64:46|39:94,1,90,12|0,0:0|0:0,0:0:0:0:
159,266,29689,2,0,L|154:206,1,45,2|0,0:0|0:0,0:0:0:0:
221,60,29856,2,0,L|217:104,1,45
56,94,30022,6,0,L|-4:99,1,45,2|0,0:0|0:0,0:0:0:0:
246,260,30189,2,0,L|306:255,1,45
238,52,30356,6,0,P|321:56|374:116,1,135,8|0,0:0|0:0,0:0:0:0:
432,254,30689,2,0,L|437:161,1,90,2|0,0:0|0:0,0:0:0:0:
312,270,31022,6,0,L|356:274,1,45,2|0,0:0|0:0,0:0:0:0:
192,110,31189,2,0,L|147:114,1,45
248,30,31356,5,8,0:0:0:0:
218,257,31522,2,0,L|209:316,1,45,8|0,0:0|0:0,0:0:0:0:
296,102,31689,5,8,0:0:0:0:
335,66,31772,1,0,0:0:0:0:
388,65,31855,1,0,0:0:0:0:
430,98,31938,1,0,0:0:0:0:
363,141,32022,5,2,0:0:0:0:
144,22,32189,2,0,L|64:14,1,45,8|0,0:0|0:0,0:0:0:0:
192,214,32356,5,2,0:0:0:0:
312,22,32522,2,0,L|392:14,1,45,8|0,0:0|0:0,0:0:0:0:
348,245,32689,5,8,0:0:0:0:
231,114,32855,2,0,L|239:34,1,45,2|0,0:0|0:0,0:0:0:0:
264,274,33022,5,8,0:0:0:0:
344,70,33189,2,0,L|349:25,1,45,2|0,0:0|0:0,0:0:0:0:
216,134,33356,5,8,0:0:0:0:
422,169,33522,2,0,L|478:161,1,45
357,277,33689,2,0,L|266:261,1,90,8|0,0:0|0:0,0:0:0:0:
192,86,34022,6,0,P|203:105|208:131,1,45,2|0,0:0|0:0,0:0:0:0:
96,212,34189,2,0,P|81:195|72:174,1,45,2|0,0:0|0:0,0:0:0:0:
224,278,34356,5,8,0:0:0:0:
71,152,34522,2,0,L|25:146,1,45
250,77,34689,2,0,L|341:66,1,90,8|0,0:0|0:0,0:0:0:0:
456,150,35022,6,0,L|450:76,1,45,2|0,0:0|0:0,0:0:0:0:
280,198,35189,2,0,L|286:272,1,45,2|0,0:0|0:0,0:0:0:0:
328,46,35356,5,8,0:0:0:0:
461,249,35522,2,0,L|464:293,1,45,8|0,0:0|0:0,0:0:0:0:
480,14,35689,1,8,0:0:0:0:
392,150,35856,6,0,L|328:158,1,45,8|0,0:0|0:0,0:0:0:0:
512,78,36022,1,2,0:0:0:0:
336,230,36189,2,0,L|272:238,1,45,8|0,0:0|0:0,0:0:0:0:
448,286,36356,5,10,0:0:0:0:
414,193,36522,5,2,0:0:0:0:
366,149,36606,1,0,0:0:0:0:
303,152,36689,1,0,0:0:0:0:
263,104,36772,1,0,0:0:0:0:
280,44,36856,1,0,0:0:0:0:
339,24,36939,1,0,0:0:0:0:
303,93,37022,5,8,0:0:0:0:
229,124,37106,1,8,0:0:0:0:
153,102,37189,1,8,0:0:0:0:
114,33,37272,1,8,0:0:0:0:
191,45,37356,6,0,P|210:122|200:199,1,157.500001502037
294,65,37689,2,0,L|364:56,14,45,2|0|0|0|0|0|0|0|0|0|0|0|0|0|0,0:0|0:0|0:0|0:0|0:0|0:0|0:0|0:0|0:0|0:0|0:0|0:0|0:0|0:0|0:0,0:0:0:0:
332,178,38355,5,8,0:0:0:0:
270,215,38438,1,0,0:0:0:0:
198,205,38521,1,0,0:0:0:0:
151,148,38605,1,0,0:0:0:0:
79,138,38688,1,2,0:0:0:0:
17,175,38771,1,0,0:0:0:0:
60,235,38854,5,8,0:0:0:0:
134,247,38937,1,0,0:0:0:0:
195,204,39021,1,0,0:0:0:0:
208,130,39104,1,0,0:0:0:0:
165,69,39187,1,2,0:0:0:0:
242,61,39271,1,0,0:0:0:0:
314,106,39355,6,0,L|384:97,14,45,8|0|0|0|0|0|0|0|0|0|0|0|0|0|0,0:0|0:0|0:0|0:0|0:0|0:0|0:0|0:0|0:0|0:0|0:0|0:0|0:0|0:0|0:0,0:0:0:0:
191,278,40021,5,8,0:0:0:0:
261,300,40105,1,0,0:0:0:0:
319,255,40188,1,0,0:0:0:0:
315,182,40271,1,0,0:0:0:0:
247,222,40354,5,8,0:0:0:0:
177,244,40438,1,0,0:0:0:0:
119,199,40521,1,0,0:0:0:0:
123,126,40604,1,0,0:0:0:0:
191,166,40687,5,8,0:0:0:0:
261,188,40771,1,0,0:0:0:0:
319,143,40854,1,0,0:0:0:0:
315,70,40937,1,0,0:0:0:0:
247,110,41021,5,8,0:0:0:0:
177,132,41105,1,0,0:0:0:0:
119,87,41188,1,0,0:0:0:0:
123,14,41271,1,0,0:0:0:0:
193,44,41354,6,0,L|237:39,2,45,8|0|2,0:0|0:0|0:0,0:0:0:0:
112,214,41604,6,0,L|100:170,2,45,8|0|2,0:0|0:0|0:0,0:0:0:0:
288,142,41854,6,0,L|332:147,10,45,8|0|0|0|0|0|0|0|0|0|0,0:0|0:0|0:0|0:0|0:0|0:0|0:0|0:0|0:0|0:0|0:0,0:0:0:0:
400,14,42354,5,8,0:0:0:0:
443,71,42437,1,0,0:0:0:0:
440,144,42520,1,0,0:0:0:0:
389,197,42604,1,0,0:0:0:0:
362,125,42686,5,8,0:0:0:0:
308,75,42770,1,0,0:0:0:0:
235,74,42853,1,0,0:0:0:0:
179,118,42936,1,0,0:0:0:0:
245,145,43020,5,2,0:0:0:0:
205,85,43104,1,0,0:0:0:0:
135,64,43187,1,0,0:0:0:0:
68,95,43270,1,0,0:0:0:0:
46,176,43354,6,0,L|1:181,14,45,8|0|0|0|0|0|0|0|0|0|0|0|0|0|0,0:0|0:0|0:0|0:0|0:0|0:0|0:0|0:0|0:0|0:0|0:0|0:0|0:0|0:0|0:0,0:0:0:0:
122,303,44020,5,0,0:0:0:0:
177,255,44104,1,0,0:0:0:0:
172,182,44187,1,0,0:0:0:0:
110,143,44270,1,0,0:0:0:0:
160,190,44353,5,0,0:0:0:0:
220,149,44436,1,0,0:0:0:0:
225,77,44519,1,0,0:0:0:0:
170,29,44603,1,0,0:0:0:0:
242,37,44687,5,0,0:0:0:0:
314,43,44770,1,0,0:0:0:0:
386,48,44853,1,0,0:0:0:0:
456,52,44937,1,0,0:0:0:0:
416,112,45020,5,0,0:0:0:0:
343,118,45103,1,0,0:0:0:0:
276,163,45186,5,0,0:0:0:0:
207,169,45270,1,0,0:0:0:0:
205,99,45353,2,0,L|289:91,1,67.5000025749208
284,234,45519,2,0,L|216:240,1,67.5000025749208
272,92,45686,2,0,L|356:100,1,67.5000025749208
216,240,45852,2,0,L|148:233,1,67.5000025749208
92,120,46019,5,0,0:0:0:0:
146,164,46103,1,0,0:0:0:0:
148,233,46186,1,0,0:0:0:0:
104,286,46269,1,0,0:0:0:0:
63,228,46353,6,0,B|96:221|96:221|135:228,1,67.5000025749208
381,129,46603,6,0,B|414:134|414:134|447:127,1,67.5000025749208
137,237,46853,6,0,B|104:244|104:244|70:238,1,67.5000025749208
373,119,47103,6,0,B|406:112|406:112|440:118,1,67.5000025749208
374,211,47269,1,0,0:0:0:0:
307,181,47353,6,0,L|299:97,1,67.5000025749208
424,150,47519,2,0,L|430:218,1,67.5000025749208
300,113,47686,2,0,L|308:29,1,67.5000025749208
328,270,47852,2,0,L|321:338,1,67.5000025749208
272,198,48019,5,0,0:0:0:0:
211,159,48103,1,0,0:0:0:0:
141,170,48186,1,0,0:0:0:0:
95,223,48269,1,0,0:0:0:0:
183,230,48353,5,0,0:0:0:0:
212,147,48436,1,0,0:0:0:0:
242,64,48519,1,0,0:0:0:0:
144,128,48603,2,0,L|181:132,1,33.7500012874604
244,173,48686,6,0,L|281:177,2,33.7500012874604
88,224,48853,2,0,L|51:220,2,33.7500012874604
206,48,49019,6,0,L|200:14,2,33.7500012874604
319,240,49186,2,0,L|332:292,2,33.7500012874604
424,94,49353,6,0,L|408:14,2,67.5000025749208
327,151,49603,1,0,0:0:0:0:
264,46,49686,2,0,L|344:38,1,67.5000025749208
240,190,49853,2,0,L|160:182,1,67.5000025749208
168,78,50019,5,0,0:0:0:0:
206,142,50102,1,0,0:0:0:0:
191,215,50185,1,0,0:0:0:0:
129,258,50269,1,0,0:0:0:0:
55,247,50353,6,0,L|72:150,2,67.5000025749208
160,342,50603,1,0,0:0:0:0:
224,238,50686,2,0,L|291:232,1,67.5000025749208
366,86,50853,2,0,L|299:92,1,67.5000025749208
187,171,51019,5,0,0:0:0:0:
260,164,51102,1,0,0:0:0:0:
334,157,51185,1,0,0:0:0:0:
408,150,51269,1,0,0:0:0:0:
476,179,51353,6,0,P|493:210|486:270,2,90.0000034332277
328,166,51686,6,0,P|308:125|314:81,2,90.0000034332277
480,166,52019,5,0,0:0:0:0:
345,64,52130,1,0,0:0:0:0:
400,222,52241,1,0,0:0:0:0:
456,62,52353,5,0,0:0:0:0:
322,168,52464,1,0,0:0:0:0:
481,254,52575,1,0,0:0:0:0:
336,174,52686,6,0,P|293:174|257:213,1,67.5000025749208
208,278,52853,6,0,L|223:247,3,33.7500012874604
156,203,53019,2,0,L|180:179,3,33.7500012874604,0|0|0|0,3:0|3:0|3:0|3:0,3:0:0:0:
133,116,53186,2,0,L|163:102,3,33.7500012874604,0|0|0|0,3:0|3:0|3:0|3:0,3:0:0:0:
265,179,53353,6,0,B|353:163|353:163|299:131,1,135
128,22,53686,5,0,0:0:0:0:
104,230,54019,6,0,P|121:152|40:110,1,161.999995056153
16,246,54352,1,0,0:0:0:0:
200,53,54519,1,0,0:0:0:0:
160,326,54685,1,0,0:0:0:0:
72,94,54852,1,0,0:0:0:0:
224,238,55019,6,0,B|256:246|256:246|312:222,1,67.5000025749208
375,56,55185,2,0,B|343:48|343:48|312:62,1,67.5000025749208
432,182,55352,6,0,B|440:214|440:214|416:270,1,67.5000025749208
224,126,55519,2,0,B|210:94|210:94|218:62,1,67.5000025749208
440,102,55685,5,0,0:0:0:0:
192,230,55852,1,0,0:0:0:0:
310,64,56019,6,0,B|334:128|334:128|286:224,1,161.999995056153
232,317,56352,1,0,0:0:0:0:
384,38,56519,1,0,0:0:0:0:
200,134,56685,1,0,0:0:0:0:
480,182,56852,1,0,0:0:0:0:
125,254,57019,6,0,P|117:198|139:168,1,67.5000025749208
259,238,57185,1,0,0:0:0:0:
301,40,57352,6,0,L|314:-4,2,45.0000017166138
168,80,57519,1,0,0:0:0:0:
288,312,57685,1,0,0:0:0:0:
135,183,57852,1,0,0:0:0:0:
328,112,58019,6,0,P|272:72|184:96,1,161.999995056153
88,288,58352,1,0,0:0:0:0:
133,21,58519,1,0,0:0:0:0:
272,299,58685,1,0,0:0:0:0:
336,87,58852,1,0,0:0:0:0:
176,302,59019,6,0,P|151:270|147:238,1,67.5000025749208
342,160,59185,2,0,P|334:192|312:217,1,67.5000025749208
192,70,59352,6,0,L|272:54,1,67.5000025749208
424,182,59519,2,0,L|344:166,1,67.5000025749208
371,30,59685,5,0,0:0:0:0:
247,259,59852,1,0,0:0:0:0:
431,110,60019,6,0,P|491:157|473:231,1,161.999995056153
279,182,60352,1,0,0:0:0:0:
481,36,60519,1,0,0:0:0:0:
448,328,60685,1,0,0:0:0:0:
352,128,60852,1,0,0:0:0:0:
304,296,61019,5,0,0:0:0:0:
184,32,61185,2,0,L|144:22,3,33.7500012874604
285,60,61352,1,0,0:0:0:0:
240,211,61519,5,0,0:0:0:0:
175,133,61602,1,0,0:0:0:0:
184,32,61685,1,0,0:0:0:0:
159,270,61852,1,0,0:0:0:0:
394,119,62019,6,0,B|332:100|332:100|241:133,1,161.999995056153
159,270,62352,1,0,0:0:0:0:
352,320,62519,1,0,0:0:0:0:
144,80,62685,1,0,0:0:0:0:
344,160,62852,1,0,0:0:0:0:
208,272,63019,6,0,P|195:240|195:206,1,67.5000025749208
392,40,63185,2,0,P|404:71|405:106,1,67.5000025749208
240,24,63352,6,0,L|144:16,1,67.5000025749208
313,183,63519,2,0,L|409:175,1,67.5000025749208
317,35,63685,5,0,0:0:0:0:
288,320,63852,1,0,0:0:0:0:
112,95,64019,6,0,P|192:71|247:127,1,161.999995056153
109,294,64350,1,0,0:0:0:0:
42,22,64519,1,0,0:0:0:0:
244,119,64685,1,0,0:0:0:0:
0,192,64852,1,0,0:0:0:0:
282,57,65019,6,0,P|250:45|217:52,1,67.5000025749208
119,162,65185,1,0,0:0:0:0:
272,144,65352,6,0,L|325:136,2,45.0000017166138
180,254,65519,1,0,0:0:0:0:
88,32,65685,1,0,0:0:0:0:
8,288,65852,1,0,0:0:0:0:
119,198,66019,6,0,B|183:174|183:174|266:215,1,161.999995056153
224,352,66352,1,0,0:0:0:0:
192,88,66519,1,0,0:0:0:0:
432,128,66685,1,0,0:0:0:0:
180,258,66852,1,0,0:0:0:0:
344,336,67019,6,0,B|352:304|352:304|328:248,1,67.5000025749208
216,112,67185,2,0,B|208:144|208:144|222:175,1,67.5000025749208
376,80,67352,6,0,L|464:64,1,67.5000025749208
268,240,67519,2,0,L|180:256,1,67.5000025749208
421,287,67685,5,0,0:0:0:0:
308,37,67852,1,0,0:0:0:0:
198,63,68019,6,0,P|111:38|30:77,1,161.999995056153
32,224,68352,1,0,0:0:0:0:
280,64,68519,1,0,0:0:0:0:
320,352,68685,1,0,0:0:0:0:
156,165,68852,1,0,0:0:0:0:
251,296,69019,6,0,P|317:306|341:298,1,67.5000025749208
364,67,69185,2,0,P|298:57|274:65,1,67.5000025749208
168,180,69352,6,0,P|234:190|258:182,1,67.5000025749208
464,136,69518,2,0,P|398:126|374:134,1,67.5000025749208
144,280,69685,1,0,0:0:0:0:
233,190,69852,5,0,0:0:0:0:
228,142,69935,1,0,0:0:0:0:
224,94,70019,2,0,P|171:45|88:40,2,135.000005149842
176,304,70519,5,0,0:0:0:0:
360,120,70685,2,0,L|520:136,1,135.000005149842
400,40,71019,5,0,0:0:0:0:
112,326,71352,1,0,0:0:0:0:
253,273,71685,5,0,0:0:0:0:
96,76,71852,1,0,0:0:0:0:
361,263,72019,2,0,L|511:250,2,135.000005149842
135,282,72519,1,0,0:0:0:0:
328,136,72685,6,0,P|344:48|312:0,1,135.000005149842
104,120,73019,5,0,0:0:0:0:
456,144,73352,1,0,0:0:0:0:
216,32,73685,5,0,0:0:0:0:
392,177,73852,1,0,0:0:0:0:
414,170,73935,1,0,0:0:0:0:
436,165,74019,5,0,0:0:0:0:
247,354,74185,1,0,0:0:0:0:
197,113,74352,5,0,0:0:0:0:
386,302,74518,1,0,0:0:0:0:
260,53,74685,5,0,0:0:0:0:
71,242,74851,1,0,0:0:0:0:
341,220,75019,6,0,L|329:85,1,135.000005149842
80,32,75352,2,0,P|141:11|211:37,1,135.000005149842
347,296,75685,1,0,0:0:0:0:
448,168,75852,5,0,0:0:0:0:
448,168,75935,1,0,0:0:0:0:
448,168,76019,2,0,L|368:184,1,67.5000025749208
288,72,76185,2,0,L|368:88,1,67.5000025749208
314,194,76352,2,0,L|234:210,1,67.5000025749208
154,98,76518,2,0,L|234:114,1,67.5000025749208
380,207,76685,6,0,L|300:191,1,67.5000025749208
154,98,76852,2,0,L|74:82,1,67.5000025749208
22,166,77019,5,0,0:0:0:0:
256,48,77185,1,0,0:0:0:0:
256,48,77269,1,0,0:0:0:0:
490,166,77519,1,0,0:0:0:0:
376,112,77685,6,0,L|391:69,2,45.0000017166138
345,79,77852,2,0,L|256:88,1,90.0000034332277
256,88,78019,5,0,0:0:0:0:
217,166,78269,5,0,0:0:0:0:
249,248,78519,5,0,0:0:0:0:
445,241,78685,5,0,0:0:0:0:
418,227,78768,1,0,0:0:0:0:
388,225,78851,1,0,0:0:0:0:
360,235,78934,1,0,0:0:0:0:
333,253,79019,6,0,P|254:251|230:227,1,90
221,122,79352,2,0,P|179:106|136:116,1,90
294,188,79685,1,0,0:0:0:0:
299,99,79851,1,0,0:0:0:0:
369,237,80019,6,0,B|412:246|412:246|454:229,1,90
384,91,80352,2,0,B|340:81|340:81|298:98,1,90
454,148,80685,1,0,0:0:0:0:
459,59,80852,1,0,0:0:0:0:
298,98,81019,6,0,L|178:106,1,90
124,198,81352,2,0,L|116:78,1,90
202,13,81685,1,0,0:0:0:0:
124,198,81852,1,0,0:0:0:0:
298,98,82019,6,0,L|387:92,1,90
424,208,82352,1,0,0:0:0:0:
504,84,82519,1,0,0:0:0:0:
416,223,82685,2,0,P|372:232|331:216,1,90
176,96,83019,6,0,L|64:80,1,90
149,192,83352,2,0,L|239:205,1,90
122,288,83685,1,0,0:0:0:0:
266,109,83852,1,0,0:0:0:0:
420,184,84019,6,0,L|532:168,1,90
446,280,84352,2,0,L|356:292,1,90
474,376,84685,1,0,0:0:0:0:
330,197,84852,1,0,0:0:0:0:
189,295,85019,6,0,B|144:300|144:300|140:255,1,90
387,228,85352,2,0,B|392:274|392:274|348:278,1,90
321,29,85685,2,0,B|366:24|366:24|370:69,1,90
124,95,86019,2,0,B|119:50|119:50|164:45,1,90
378,149,86352,5,0,0:0:0:0:
131,175,86519,1,0,0:0:0:0:
269,286,86685,5,0,0:0:0:0:
243,39,86852,1,0,0:0:0:0:
146,301,87019,5,0,0:0:0:0:
367,25,87352,5,0,0:0:0:0:
146,301,87685,5,0,0:0:0:0:
393,275,88019,5,0,0:0:0:0:
120,51,88352,5,0,0:0:0:0:
393,275,88685,5,0,0:0:0:0:
178,153,89019,6,0,L|66:141,1,90
368,173,89352,2,0,L|479:184,1,90
285,51,89685,1,0,0:0:0:0:
285,51,89852,1,0,0:0:0:0:
285,51,90019,6,0,L|259:289,1,233.999989288331
385,94,90519,5,0,0:0:0:0:
178,72,90685,1,0,0:0:0:0:
256,284,90852,1,0,0:0:0:0:
385,94,91019,6,0,L|521:78,1,120
435,220,91352,2,0,L|300:204,1,120
300,32,91685,2,0,L|434:16,1,120
435,220,92019,6,0,L|451:356,1,120
315,205,92352,2,0,L|180:189,1,120
210,273,92685,6,0,P|218:244|214:215,1,60
136,128,92907,2,0,L|144:99,1,30
160,80,93019,6,0,P|213:85|256:112,2,90.0000034332277
352,40,93352,2,0,P|405:34|448:8,2,90.0000034332277
235,199,93685,2,0,P|212:247|214:298,2,90.0000034332277
312,248,94019,5,0,0:0:0:0:
400,239,94129,1,0,0:0:0:0:
489,231,94240,1,0,0:0:0:0:
384,232,94352,1,0,0:0:0:0:
324,168,94463,1,0,0:0:0:0:
342,84,94574,1,0,0:0:0:0:
422,50,94685,1,0,0:0:0:0:
399,271,95019,6,0,L|271:255,1,90.0000034332277
174,310,95241,2,0,P|101:325|160:208,1,255.000004863739
399,271,95685,6,0,B|420:119|420:119|402:63,1,204.000003890991
297,179,96019,5,0,0:0:0:0:
380,79,96130,1,0,0:0:0:0:
253,56,96241,1,0,0:0:0:0:
293,205,96352,5,0,0:0:0:0:
404,71,96463,1,0,0:0:0:0:
234,40,96574,1,0,0:0:0:0:
176,94,96685,6,0,B|141:109|102:98|102:98|61:84|26:100,1,153.000002918243
193,205,97019,6,0,B|210:137|178:69|88:43|27:100|27:100|27:36|84:-17|166:3,1,450.000017166138
249,89,97685,2,0,P|270:170|225:294,1,204.000003890991
97,173,98019,5,0,0:0:0:0:
142,49,98130,1,0,0:0:0:0:
226,149,98241,1,0,0:0:0:0:
77,188,98352,5,0,0:0:0:0:
137,25,98463,1,0,0:0:0:0:
249,157,98574,1,0,0:0:0:0:
336,128,98685,6,0,B|352:64|326:18,2,102.000001945496
256,350,99019,5,0,0:0:0:0:
437,279,99574,1,0,0:0:0:0:
256,208,99685,5,0,0:0:0:0:
75,279,99908,1,0,0:0:0:0:
256,208,100019,5,0,0:0:0:0:
437,137,100574,1,0,0:0:0:0:
256,208,100685,5,0,0:0:0:0:
75,137,100908,1,0,0:0:0:0:
256,208,101019,5,0,0:0:0:0:
368,280,101352,5,0,0:0:0:0:
144,280,101685,5,0,0:0:0:0:
256,8,102019,6,0,L|40:40,1,204.000003890991
256,96,102352,6,0,L|457:66,1,204.000003890991
256,184,102685,6,0,L|40:216,1,204.000003890991
54,37,103019,6,0,L|255:7,1,204.000003890991
457,66,103352,6,0,L|256:96,1,204.000003890991
54,213,103685,6,0,L|255:183,1,204.000003890991
457,152,104019,6,0,L|256:182,1,204.000003890991
54,299,104352,6,0,L|255:269,1,204.000003890991
376,164,104685,6,0,L|389:114,5,51.0000009727478
416,88,105019,5,0,0:0:0:0:
184,160,105241,1,0,0:0:0:0:
472,384,105463,5,0,0:0:0:0:
440,178,105685,1,0,0:0:0:0:
190,307,105907,5,0,0:0:0:0:
280,48,106130,1,0,0:0:0:0:
431,150,106352,6,0,B|359:100|359:100|292:125|292:125|119:110,1,306.000005836487
77,23,106852,5,0,0:0:0:0:
90,286,107019,1,0,0:0:0:0:
221,118,107185,1,0,0:0:0:0:
416,199,107352,6,0,P|444:224|462:258,2,76.5000014591217
248,264,107602,2,0,P|210:258|177:239,2,76.5000014591217
344,144,107852,2,0,P|338:106|319:73,1,76.5000014591217
176,96,108019,2,0,L|160:248,1,153.000002918243
80,64,108352,1,0,0:0:0:0:
440,312,108685,1,0,0:0:0:0:
216,320,109019,6,0,B|200:240|200:240|217:170,1,153.000002918243
488,192,109352,1,0,0:0:0:0:
216,320,109519,1,0,0:0:0:0:
368,64,109685,1,0,0:0:0:0:
464,352,109852,1,0,0:0:0:0:
148,63,110019,1,0,0:0:0:0:
168,214,110352,6,0,L|147:62,1,153.000002918243
120,312,110685,5,0,0:0:0:0:
224,88,110852,1,0,0:0:0:0:
320,336,111019,1,0,0:0:0:0:
472,200,111185,1,0,0:0:0:0:
112,224,111352,1,0,0:0:0:0:
393,40,111685,5,0,0:0:0:0:
289,264,111852,1,0,0:0:0:0:
193,16,112019,1,0,0:0:0:0:
41,152,112185,1,0,0:0:0:0:
401,128,112352,1,0,0:0:0:0:
240,96,112685,5,0,0:0:0:0:
288,336,112852,1,0,0:0:0:0:
200,200,113019,1,0,0:0:0:0:
422,51,113185,5,0,0:0:0:0:
96,132,113352,2,0,P|44:80|150:87,1,229.500004377365
210,343,113852,5,0,0:0:0:0:
96,132,114019,1,0,0:0:0:0:
336,139,114185,1,0,0:0:0:0:
210,343,114352,6,0,P|196:259|251:194,1,153.000002918243
336,139,114685,2,0,P|374:74|357:1,1,153.000002918243
187,83,115019,5,0,0:0:0:0:
294,287,115186,1,0,0:0:0:0:
97,75,115352,2,0,L|8:67,1,76.5000014591217
167,158,115602,2,0,L|78:150,1,76.5000014591217
74,305,115852,2,0,L|82:216,1,76.5000014591217
167,158,116019,6,0,L|243:164,1,76.5000014591217
302,117,116185,2,0,L|378:123,1,76.5000014591217
435,71,116352,2,0,L|511:77,2,76.5000014591217
243,164,116685,6,0,L|167:158,1,76.5000014591217
64,40,117019,5,0,0:0:0:0:
243,164,117185,1,0,0:0:0:0:
64,288,117352,1,0,0:0:0:0:
243,164,117519,5,0,0:0:0:0:
317,169,117602,1,0,0:0:0:0:
369,223,117685,1,0,0:0:0:0:
368,297,117768,1,0,0:0:0:0:
301,260,117852,1,0,0:0:0:0:
301,183,117935,1,0,0:0:0:0:
353,126,118019,6,0,B|392:88|392:88|248:96,1,153.000002918243
56,112,118352,1,0,0:0:0:0:
287,248,118685,6,0,L|295:152,1,76.5000014591217
176,32,118852,2,0,L|183:109,1,76.5000014591217
112,288,119019,2,0,L|118:211,1,76.5000014591217
288,96,119185,2,0,L|294:172,1,76.5000014591217
312,374,119352,1,0,0:0:0:0:
474,112,119685,6,0,L|397:105,1,76.5000014591217
216,184,119852,2,0,L|292:177,1,76.5000014591217
414,232,120019,2,0,L|420:308,1,76.5000014591217
208,106,120185,2,0,L|202:30,1,76.5000014591217
349,70,120352,6,0,L|254:98,1,76.5000014591217
348,205,120519,5,0,0:0:0:0:
382,138,120602,1,0,0:0:0:0:
349,70,120685,2,0,L|197:28,2,153.000002918243
424,32,121185,6,0,L|431:-8,4,25.5000004863739
480,112,121352,5,0,0:0:0:0:
256,320,121519,1,0,0:0:0:0:
480,224,121685,1,0,0:0:0:0:
349,70,121852,5,0,0:0:0:0:
384,376,122019,1,0,0:0:0:0:
184,232,122185,6,0,P|183:172|197:147,1,76.5000014591217
280,96,122352,6,0,L|232:88,1,38.2500007295609
280,96,122435,2,0,L|232:88,1,38.2500007295609
280,96,122519,2,0,L|232:88,1,38.2500007295609
280,96,122602,2,0,L|232:88,1,38.2500007295609
176,48,122685,2,0,L|128:40,1,38.2500007295609
242,20,122769,2,0,L|194:12,1,38.2500007295609
313,17,122852,2,0,L|265:9,1,38.2500007295609
379,44,122935,2,0,L|331:36,1,38.2500007295609
415,104,123019,6,0,L|367:96,1,38.2500007295609
347,126,123102,2,0,L|299:118,1,38.2500007295609
279,148,123185,2,0,L|231:140,1,38.2500007295609
211,170,123269,2,0,L|163:162,1,38.2500007295609
143,192,123352,1,0,0:0:0:0:
302,219,123519,5,0,0:0:0:0:
333,152,123602,1,0,0:0:0:0:
312,82,123685,1,0,0:0:0:0:
249,45,123769,1,0,0:0:0:0:
177,60,123852,1,0,0:0:0:0:
135,120,123935,1,0,0:0:0:0:
198,158,124018,6,0,P|203:91|169:34,1,135.000005149842
352,168,124352,6,0,P|418:173|475:139,2,135.000005149842
394,68,124852,6,0,L|387:0,1,67.5000025749208
285,84,125018,2,0,L|217:78,1,67.5000025749208
277,193,125185,2,0,L|257:257,1,67.5000025749208
475,139,125352,6,0,P|415:78|384:176,1,202.500007724762
464,272,125852,5,0,0:0:0:0:
224,64,126018,1,0,0:0:0:0:
280,320,126185,1,0,0:0:0:0:
358,71,126352,6,0,L|214:63,1,135.000005149842
0,256,126685,2,0,L|144:248,1,135.000005149842
240,312,127018,5,0,0:0:0:0:
262,235,127102,1,0,0:0:0:0:
289,161,127185,2,0,L|307:90,1,72
96,120,127352,5,0,0:0:0:0:
448,136,127518,1,0,0:0:0:0:
136,272,127685,5,0,0:0:0:0:
384,16,127852,1,0,0:0:0:0:
168,344,128018,5,0,0:0:0:0:
104,40,128185,1,0,0:0:0:0:
232,176,128352,6,0,P|318:135|265:55,1,216
104,40,128685,1,0,0:0:0:0:
232,176,128852,6,0,L|392:160,1,144
312,296,129185,2,0,L|320:368,1,72
402,271,129352,6,0,L|394:199,1,72
300,100,129518,2,0,L|292:28,1,72
152,55,129685,2,0,L|73:48,1,78.7500007510185
176,192,129852,6,0,L|254:185,1,78.7500007510185
378,93,130018,2,0,L|299:99,1,78.7500007510185
176,192,130185,6,0,L|97:185,1,78.7500007510185
32,288,130352,2,0,L|40:376,1,78.7500007510185
183,270,130518,2,0,L|175:182,1,78.7500007510185
73,103,130685,2,0,L|80:24,1,78.7500007510185
175,191,130852,5,0,0:0:0:0:
235,237,130935,1,0,0:0:0:0:
311,223,131018,1,0,0:0:0:0:
351,158,131102,1,0,0:0:0:0:
329,84,131185,1,0,0:0:0:0:
260,51,131268,1,0,0:0:0:0:
189,79,131352,6,0,P|120:72|80:24,2,135.000005149842
325,5,131852,1,0,0:0:0:0:
248,192,132018,6,0,L|237:336,1,135.000005149842
359,268,132268,1,0,0:0:0:0:
248,192,132352,6,0,L|113:202,1,135.000005149842
258,57,132685,2,0,L|392:67,1,135.000005149842
359,268,133018,5,0,0:0:0:0:
392,67,133185,1,0,0:0:0:0:
248,200,133352,6,0,P|168:216|104:200,1,135.000005149842
176,0,133685,2,0,P|192:65|181:131,1,135.000005149842
24,72,134018,5,0,0:0:0:0:
280,0,134185,1,0,0:0:0:0:
181,131,134352,2,0,P|164:196|175:262,2,135.000005149842
