osu file format v14

[General]
AudioFilename: audio.mp3
AudioLeadIn: 0
PreviewTime: 128061
Countdown: 0
SampleSet: Soft
StackLeniency: 0.7
Mode: 3
LetterboxInBreaks: 0
SpecialStyle: 0
WidescreenStoryboard: 1

[Editor]
Bookmarks: 72172,128172,156617,170839,213506
DistanceSpacing: 0.8
BeatDivisor: 16
GridSize: 32
TimelineZoom: 2.399997

[Metadata]
Title:searching you
TitleUnicode:searching you
Artist:glxy
ArtistUnicode:glxy
Creator:Nick Wilde
Version:f|ndng
Source:
Tags:sv gay
BeatmapID:1733691
BeatmapSetID:827359

[Difficulty]
HPDrainRate:8
CircleSize:4
OverallDifficulty:8
ApproachRate:5
SliderMultiplier:1.4
SliderTickRate:1

[Events]
//Background and Video events
0,0,"inf.png",0,0
//Break Periods
//Storyboard Layer 0 (Background)
//Storyboard Layer 1 (Fail)
//Storyboard Layer 2 (Pass)
//Storyboard Layer 3 (Foreground)
//Storyboard Sound Samples

[TimingPoints]
69506,444.444444444444,4,2,0,5,1,0
69506,-333.333333333333,4,2,0,5,0,0
71283,-125,4,2,0,5,0,0
71617,-62.5,4,2,0,5,0,0
71644,-145.833333333333,4,2,0,5,0,0
71839,-62.5,4,2,0,5,0,0
71867,-187.5,4,2,0,5,0,0
71950,-250,4,2,0,5,0,0
72144,-27.7777777777778,4,2,0,5,0,0
72172,-125,4,2,0,5,0,0
72505,-62.5,4,2,0,5,0,0
72533,-187.500011718751,4,2,0,5,0,0
72617,-62.5,4,2,0,5,0,0
72644,-145.833333333333,4,2,0,5,0,0
72839,-62.5,4,2,0,5,0,0
72867,-137.4999999994,4,2,0,5,0,0
73172,-125,4,2,0,5,0,0
73283,-62.5,4,2,0,5,0,0
73311,-187.5,4,2,0,5,0,0
73394,-62.5,4,2,0,5,0,0
73422,-145.833333333333,4,2,0,5,0,0
73617,-62.5,4,2,0,5,0,0
73644,-187.5,4,2,0,5,0,0
73728,-250,4,2,0,5,0,0
73922,-27.7777777777778,4,2,0,5,0,0
73950,-125,4,2,0,5,0,0
74283,-62.5,4,2,0,5,0,0
74311,-188.679245283019,4,2,0,5,0,0
74394,-62.5,4,2,0,5,0,0
74422,-145.833333333333,4,2,0,5,0,0
74617,-62.5,4,2,0,5,0,0
74644,-145.833333333333,4,2,0,5,0,0
74839,-62.5,4,2,0,5,0,0
74867,-187.5,4,2,0,5,0,0
74950,-62.5,4,2,0,5,0,0
74978,-145.833333333333,4,2,0,5,0,0
75172,-62.5,4,2,0,5,0,0
75200,-145.833333333333,4,2,0,5,0,0
75394,-62.5,4,2,0,5,0,0
75422,-187.5,4,2,0,5,0,0
75505,-250,4,2,0,5,0,0
75700,-27.7777777777778,4,2,0,5,0,0
75728,-125,4,2,0,5,0,0
76061,-62.5,4,2,0,5,0,0
76089,-187.500011718751,4,2,0,5,0,0
76173,-62.5,4,2,0,5,0,0
76200,-145.833333333333,4,2,0,5,0,0
76395,-62.5,4,2,0,5,0,0
76423,-137.4999999994,4,2,0,5,0,0
76728,-125,4,2,0,5,0,0
76839,-62.5,4,2,0,5,0,0
76867,-187.5,4,2,0,5,0,0
76950,-62.5,4,2,0,5,0,0
76978,-145.833333333333,4,2,0,5,0,0
77173,-62.5,4,2,0,5,0,0
77200,-187.5,4,2,0,5,0,0
77284,-250,4,2,0,5,0,0
77478,-27.7777777777778,4,2,0,5,0,0
77506,-125,4,2,0,5,0,0
77839,-62.5,4,2,0,5,0,0
77867,-188.679245283019,4,2,0,5,0,0
77950,-62.5,4,2,0,5,0,0
77978,-145.833333333333,4,2,0,5,0,0
78173,-62.5,4,2,0,5,0,0
78200,-145.833333333333,4,2,0,5,0,0
78395,-62.5,4,2,0,5,0,0
78423,-137.4999999994,4,2,0,5,0,0
78728,-62.5,4,2,0,5,0,0
78755,-145.833333333333,4,2,0,5,0,0
78950,-62.5,4,2,0,5,0,0
78978,-187.5,4,2,0,5,0,0
79061,-250,4,2,0,5,0,0
79255,-27.7777777777778,4,2,0,5,0,0
79283,-125,4,2,0,5,0,0
79616,-62.5,4,2,0,5,0,0
79644,-187.500011718751,4,2,0,5,0,0
79728,-62.5,4,2,0,5,0,0
79755,-145.833333333333,4,2,0,5,0,0
79950,-62.5,4,2,0,5,0,0
79978,-137.4999999994,4,2,0,5,0,0
80283,-125,4,2,0,5,0,0
80394,-62.5,4,2,0,5,0,0
80422,-187.5,4,2,0,5,0,0
80505,-62.5,4,2,0,5,0,0
80533,-145.833333333333,4,2,0,5,0,0
80728,-62.5,4,2,0,5,0,0
80755,-187.5,4,2,0,5,0,0
80839,-250,4,2,0,5,0,0
81033,-27.7777777777778,4,2,0,5,0,0
81061,-125,4,2,0,5,0,0
81394,-62.5,4,2,0,5,0,0
81422,-188.679245283019,4,2,0,5,0,0
81505,-62.5,4,2,0,5,0,0
81533,-145.833333333333,4,2,0,5,0,0
81728,-62.5,4,2,0,5,0,0
81755,-145.833333333333,4,2,0,5,0,0
81950,-62.5,4,2,0,5,0,0
81978,-187.5,4,2,0,5,0,0
82061,-62.5,4,2,0,5,0,0
82089,-137.4999999994,4,2,0,5,0,0
82283,-62.5,4,2,0,5,0,0
82311,-145.833333333333,4,2,0,5,0,0
82505,-62.5,4,2,0,5,0,0
82533,-187.5,4,2,0,5,0,0
82616,-250,4,2,0,5,0,0
82811,-27.7777777777778,4,2,0,5,0,0
82839,-125,4,2,0,5,0,0
83172,-62.5,4,2,0,5,0,0
83200,-187.500011718751,4,2,0,5,0,0
83284,-62.5,4,2,0,5,0,0
83311,-145.833333333333,4,2,0,5,0,0
83506,-62.5,4,2,0,5,0,0
83534,-137.4999999994,4,2,0,5,0,0
83839,-125,4,2,0,5,0,0
83950,-62.5,4,2,0,5,0,0
83978,-187.5,4,2,0,5,0,0
84061,-62.5,4,2,0,5,0,0
84089,-145.833333333333,4,2,0,5,0,0
84284,-62.5,4,2,0,5,0,0
84311,-187.5,4,2,0,5,0,0
84395,-250,4,2,0,5,0,0
84589,-27.7777777777778,4,2,0,5,0,0
84617,-125,4,2,0,5,0,0
84950,-62.5,4,2,0,5,0,0
84978,-188.679245283019,4,2,0,5,0,0
85061,-62.5,4,2,0,5,0,0
85089,-145.833333333333,4,2,0,5,0,0
85284,-62.5,4,2,0,5,0,0
85311,-145.833333333333,4,2,0,5,0,0
85506,-62.5,4,2,0,5,0,0
85534,-137.4999999994,4,2,0,5,0,0
85839,-62.5,4,2,0,5,0,0
85866,-145.833333333333,4,2,0,5,0,0
86061,-62.5,4,2,0,5,0,0
86089,-187.5,4,2,0,5,0,0
86172,-250,4,2,0,5,0,0
86366,-27.7777777777778,4,2,0,5,0,0
86394,-125,4,2,0,5,0,0
86727,-62.5,4,2,0,5,0,0
86755,-187.500011718751,4,2,0,5,0,0
86839,-62.5,4,2,0,5,0,0
86866,-145.833333333333,4,2,0,5,0,0
87061,-62.5,4,2,0,5,0,0
87089,-137.4999999994,4,2,0,5,0,0
87394,-125,4,2,0,5,0,0
87505,-62.5,4,2,0,5,0,0
87533,-187.5,4,2,0,5,0,0
87616,-62.5,4,2,0,5,0,0
87644,-145.833333333333,4,2,0,5,0,0
87839,-62.5,4,2,0,5,0,0
87866,-187.5,4,2,0,5,0,0
87950,-250,4,2,0,5,0,0
88144,-27.7777777777778,4,2,0,5,0,0
88172,-125,4,2,0,5,0,0
88505,-62.5,4,2,0,5,0,0
88533,-188.679245283019,4,2,0,5,0,0
88616,-62.5,4,2,0,5,0,0
88644,-145.833333333333,4,2,0,5,0,0
88839,-62.5,4,2,0,5,0,0
88866,-145.833333333333,4,2,0,5,0,0
89061,-62.5,4,2,0,5,0,0
89089,-187.5,4,2,0,5,0,0
89172,-62.5,4,2,0,5,0,0
89200,-145.833333333333,4,2,0,5,0,0
89394,-62.5,4,2,0,5,0,0
89422,-145.833333333333,4,2,0,5,0,0
89616,-62.5,4,2,0,5,0,0
89644,-187.5,4,2,0,5,0,0
89727,-250,4,2,0,5,0,0
89922,-27.7777777777778,4,2,0,5,0,0
89950,-125,4,2,0,5,0,0
90283,-62.5,4,2,0,5,0,0
90311,-187.500011718751,4,2,0,5,0,0
90395,-62.5,4,2,0,5,0,0
90422,-145.833333333333,4,2,0,5,0,0
90617,-62.5,4,2,0,5,0,0
90645,-137.4999999994,4,2,0,5,0,0
90950,-125,4,2,0,5,0,0
91061,-62.5,4,2,0,5,0,0
91089,-187.5,4,2,0,5,0,0
91172,-62.5,4,2,0,5,0,0
91200,-145.833333333333,4,2,0,5,0,0
91395,-62.5,4,2,0,5,0,0
91422,-187.5,4,2,0,5,0,0
91506,-250,4,2,0,5,0,0
91700,-27.7777777777778,4,2,0,5,0,0
91728,-125,4,2,0,5,0,0
92061,-62.5,4,2,0,5,0,0
92089,-188.679245283019,4,2,0,5,0,0
92172,-62.5,4,2,0,5,0,0
92200,-145.833333333333,4,2,0,5,0,0
92395,-62.5,4,2,0,5,0,0
92422,-145.833333333333,4,2,0,5,0,0
92617,-62.5,4,2,0,5,0,0
92645,-137.4999999994,4,2,0,5,0,0
92950,-62.5,4,2,0,5,0,0
92977,-145.833333333333,4,2,0,5,0,0
93172,-62.5,4,2,0,5,0,0
93200,-187.5,4,2,0,5,0,0
93283,-250,4,2,0,5,0,0
93477,-27.7777777777778,4,2,0,5,0,0
93505,-125,4,2,0,5,0,0
93838,-62.5,4,2,0,5,0,0
93866,-187.500011718751,4,2,0,5,0,0
93950,-62.5,4,2,0,5,0,0
93977,-145.833333333333,4,2,0,5,0,0
94172,-62.5,4,2,0,5,0,0
94200,-137.4999999994,4,2,0,5,0,0
94505,-125,4,2,0,5,0,0
94616,-62.5,4,2,0,5,0,0
94644,-187.5,4,2,0,5,0,0
94727,-62.5,4,2,0,5,0,0
94755,-145.833333333333,4,2,0,5,0,0
94950,-62.5,4,2,0,5,0,0
94977,-187.5,4,2,0,5,0,0
95061,-250,4,2,0,5,0,0
95255,-27.7777777777778,4,2,0,5,0,0
95283,-125,4,2,0,5,0,0
95616,-62.5,4,2,0,5,0,0
95644,-188.679245283019,4,2,0,5,0,0
95727,-62.5,4,2,0,5,0,0
95755,-145.833333333333,4,2,0,5,0,0
95950,-62.5,4,2,0,5,0,0
95977,-145.833333333333,4,2,0,5,0,0
96172,-62.5,4,2,0,5,0,0
96200,-187.5,4,2,0,5,0,0
96283,-62.5,4,2,0,5,0,0
96311,-137.4999999994,4,2,0,5,0,0
96505,-62.5,4,2,0,5,0,0
96533,-145.833333333333,4,2,0,5,0,0
96727,-62.5,4,2,0,5,0,0
96755,-187.5,4,2,0,5,0,0
96838,-250,4,2,0,5,0,0
97033,-27.7777777777778,4,2,0,5,0,0
97061,-125,4,2,0,5,0,0
97394,-62.5,4,2,0,5,0,0
97422,-187.500011718751,4,2,0,5,0,0
97506,-62.5,4,2,0,5,0,0
97533,-145.833333333333,4,2,0,5,0,0
97728,-62.5,4,2,0,5,0,0
97756,-137.4999999994,4,2,0,5,0,0
98061,-125,4,2,0,5,0,0
98172,-62.5,4,2,0,5,0,0
98200,-187.5,4,2,0,5,0,0
98283,-62.5,4,2,0,5,0,0
98311,-145.833333333333,4,2,0,5,0,0
98506,-62.5,4,2,0,5,0,0
98533,-187.5,4,2,0,5,0,0
98617,-250,4,2,0,5,0,0
98811,-27.7777777777778,4,2,0,5,0,0
98839,-125,4,2,0,5,0,0
99172,-62.5,4,2,0,5,0,0
99200,-188.679245283019,4,2,0,5,0,0
99283,-62.5,4,2,0,5,0,0
99311,-145.833333333333,4,2,0,5,0,0
99506,-62.5,4,2,0,5,0,0
99533,-145.833333333333,4,2,0,5,0,0
99728,-62.5,4,2,0,5,0,0
99755,-137.4999999994,4,2,0,5,0,0
100061,-62.5,4,2,0,5,0,0
100089,-145.833333333333,4,2,0,5,0,0
100283,-62.5,4,2,0,5,0,0
100311,-188.679245283019,4,2,0,5,0,0
100394,-250,4,2,0,5,0,0
100589,-27.7777777777778,4,2,0,5,0,0
100617,-62.5,4,2,0,5,0,0
100644,-145.833333333333,4,2,0,5,0,0
100728,-62.5,4,2,0,5,0,0
100755,-145.833333333333,4,2,0,5,0,0
100950,-62.5,4,2,0,5,0,0
100978,-188.679245283019,4,2,0,5,0,0
101061,-62.5,4,2,0,5,0,0
101089,-145.833333333333,4,2,0,5,0,0
101283,-62.5,4,2,0,5,0,0
101311,-145.833333333333,4,2,0,5,0,0
101505,-62.5,4,2,0,5,0,0
101533,-187.500117187573,4,2,0,5,0,0
101617,-125,4,2,0,5,0,0
101728,-62.5,4,2,0,5,0,0
101755,-187.500001171875,4,2,0,5,0,0
101839,-62.5,4,2,0,5,0,0
101867,-145.833333333333,4,2,0,5,0,0
102061,-62.5,4,2,0,5,0,0
102089,-187.500117187573,4,2,0,5,0,0
102172,-250,4,2,0,5,0,0
102367,-27.7777777777778,4,2,0,5,0,0
102394,-62.5,4,2,0,5,0,0
102422,-187.501171882324,4,2,0,5,0,0
102505,-62.5,4,2,0,5,0,0
102533,-145.833333333333,4,2,0,5,0,0
102728,-62.5,4,2,0,5,0,0
102755,-187.501171882324,4,2,0,5,0,0
102839,-62.5,4,2,0,5,0,0
102867,-145.833333333333,4,2,0,5,0,0
103061,-62.5,4,2,0,5,0,0
103089,-145.833333333333,4,2,0,5,0,0
103283,-62.5,4,2,0,5,0,0
103311,-187.501171882324,4,2,0,5,0,0
103394,-62.5,4,2,0,5,0,0
103422,-145.833333333333,4,2,0,5,0,0
103617,-62.5,4,2,0,5,0,0
103644,-145.833333333333,4,2,0,5,0,0
103839,-62.5,4,2,0,5,0,0
103867,-187.501171882324,4,2,0,5,0,0
103950,-250,4,2,0,5,0,0
104144,-27.7777777777778,4,2,0,5,0,0
104172,-62.5,4,2,0,5,0,0
104200,-187.500117187573,4,2,0,5,0,0
104283,-62.5,4,2,0,5,0,0
104311,-145.833333333333,4,2,0,5,0,0
104505,-62.5,4,2,0,5,0,0
104533,-187.500011718751,4,2,0,5,0,0
104617,-62.5,4,2,0,5,0,0
104644,-145.833333333333,4,2,0,5,0,0
104839,-62.5,4,2,0,5,0,0
104867,-145.833333333333,4,2,0,5,0,0
105061,-62.5,4,2,0,5,0,0
105089,-187.511719482468,4,2,0,5,0,0
105172,-125,4,2,0,5,0,0
105283,-62.5,4,2,0,5,0,0
105311,-187.500117187573,4,2,0,5,0,0
105394,-62.5,4,2,0,5,0,0
105422,-145.833333333333,4,2,0,5,0,0
105617,-62.5,4,2,0,5,0,0
105644,-187.500117187573,4,2,0,5,0,0
105728,-250,4,2,0,5,0,0
105922,-27.7777777777778,4,2,0,5,0,0
105950,-62.5,4,2,0,5,0,0
105978,-187.501171882324,4,2,0,5,0,0
106061,-62.5,4,2,0,5,0,0
106089,-187.501171882324,4,2,0,5,0,0
106172,-62.5,4,2,0,5,0,0
106200,-187.501171882324,4,2,0,5,0,0
106283,-62.5,4,2,0,5,0,0
106311,-187.501171882324,4,2,0,5,0,0
106394,-62.5,4,2,0,5,0,0
106422,-145.833333333333,4,2,0,5,0,0
106617,-62.5,4,2,0,5,0,0
106644,-145.833333333333,4,2,0,5,0,0
106839,-62.5,4,2,0,5,0,0
106867,-137.4999999994,4,2,0,5,0,0
107172,-62.5,4,2,0,5,0,0
107200,-145.833333333333,4,2,0,5,0,0
107394,-62.5,4,2,0,5,0,0
107422,-187.501171882324,4,2,0,5,0,0
107505,-250,4,2,0,5,0,0
107700,-27.7777777777778,4,2,0,5,0,0
107728,-62.5,4,2,0,5,0,0
107755,-187.501171882324,4,2,0,5,0,0
107839,-62.5,4,2,0,5,0,0
107867,-145.833333333333,4,2,0,5,0,0
108061,-62.5,4,2,0,5,0,0
108089,-187.500117187573,4,2,0,5,0,0
108172,-62.5,4,2,0,5,0,0
108200,-145.833333333333,4,2,0,5,0,0
108394,-62.5,4,2,0,5,0,0
108422,-145.833333333333,4,2,0,5,0,0
108617,-62.5,4,2,0,5,0,0
108644,-187.500117187573,4,2,0,5,0,0
108728,-125,4,2,0,5,0,0
108839,-62.5,4,2,0,5,0,0
108867,-187.500117187573,4,2,0,5,0,0
108950,-62.5,4,2,0,5,0,0
108978,-145.833333333333,4,2,0,5,0,0
109117,-62.5,4,2,0,5,0,0
109144,-145.833333333333,4,2,0,5,0,0
109283,-250,4,2,0,5,0,0
109478,-27.7777777777778,4,2,0,5,0,0
109505,-62.5,4,2,0,5,0,0
109533,-187.500117187573,4,2,0,5,0,0
109617,-62.5,4,2,0,5,0,0
109644,-145.833333333333,4,2,0,5,0,0
109839,-62.5,4,2,0,5,0,0
109867,-187.500117187573,4,2,0,5,0,0
109950,-62.5,4,2,0,5,0,0
109978,-145.833333333333,4,2,0,5,0,0
110172,-62.5,4,2,0,5,0,0
110200,-145.833333333333,4,2,0,5,0,0
110394,-62.5,4,2,0,5,0,0
110422,-137.4999999994,4,2,0,5,0,0
110728,-62.5,4,2,0,5,0,0
110755,-144.927536231884,4,2,0,5,0,0
110950,-62.5,4,2,0,5,0,0
110978,-187.5,4,2,0,5,0,0
111061,-250,4,2,0,5,0,0
111255,-27.7777777777778,4,2,0,5,0,0
111283,-62.5,4,2,0,5,0,0
111311,-187.5,4,2,0,5,0,0
111394,-62.5,4,2,0,5,0,0
111422,-145.833333333333,4,2,0,5,0,0
111617,-62.5,4,2,0,5,0,0
111644,-187.5,4,2,0,5,0,0
111728,-62.5,4,2,0,5,0,0
111755,-145.833333333333,4,2,0,5,0,0
111950,-62.5,4,2,0,5,0,0
111978,-145.833333333333,4,2,0,5,0,0
112172,-62.5,4,2,0,5,0,0
112200,-187.5,4,2,0,5,0,0
112283,-125,4,2,0,5,0,0
112394,-62.5,4,2,0,5,0,0
112422,-187.5,4,2,0,5,0,0
112505,-62.5,4,2,0,5,0,0
112533,-145.833333333333,4,2,0,5,0,0
112728,-62.5,4,2,0,5,0,0
112755,-187.5,4,2,0,5,0,0
112839,-250,4,2,0,5,0,0
113033,-27.7777777777778,4,2,0,5,0,0
113061,-62.5,4,2,0,5,0,0
113089,-187.5,4,2,0,5,0,0
113172,-62.5,4,2,0,5,0,0
113200,-145.833333333333,4,2,0,5,0,0
113394,-62.5,4,2,0,5,0,0
113422,-187.5,4,2,0,5,0,0
113505,-62.5,4,2,0,5,0,0
113533,-145.833333333333,4,2,0,5,0,0
113728,-62.5,4,2,0,5,0,0
113755,-145.833333333333,4,2,0,5,0,0
113950,-62.5,4,2,0,5,0,0
113978,-137.4999999994,4,2,0,5,0,0
114283,-62.5,4,2,0,5,0,0
114311,-145.833333333333,4,2,0,5,0,0
114505,-62.5,4,2,0,5,0,0
114533,-187.5,4,2,0,5,0,0
114617,-250,4,2,0,5,0,0
114811,-27.7777777777778,4,2,0,5,0,0
114839,-62.5,4,2,0,5,0,0
114867,-187.5,4,2,0,5,0,0
114950,-62.5,4,2,0,5,0,0
114978,-145.833333333333,4,2,0,5,0,0
115172,-62.5,4,2,0,5,0,0
115200,-187.5,4,2,0,5,0,0
115283,-62.5,4,2,0,5,0,0
115311,-145.833333333333,4,2,0,5,0,0
115505,-62.5,4,2,0,5,0,0
115533,-145.833333333333,4,2,0,5,0,0
115728,-62.5,4,2,0,5,0,0
115755,-187.5,4,2,0,5,0,0
115839,-125,4,2,0,5,0,0
115950,-62.5,4,2,0,5,0,0
115978,-187.5,4,2,0,5,0,0
116061,-62.5,4,2,0,5,0,0
116089,-145.833333333333,4,2,0,5,0,0
116283,-62.5,4,2,0,5,0,0
116311,-187.5,4,2,0,5,0,0
116394,-250,4,2,0,5,0,0
116589,-27.7777777777778,4,2,0,5,0,0
116617,-62.5,4,2,0,5,0,0
116644,-187.5,4,2,0,5,0,0
116728,-62.5,4,2,0,5,0,0
116755,-145.833333333333,4,2,0,5,0,0
116950,-62.5,4,2,0,5,0,0
116978,-187.5,4,2,0,5,0,0
117061,-62.5,4,2,0,5,0,0
117089,-187.5,4,2,0,5,0,0
117283,-62.5,4,2,0,5,0,0
117311,-144.927536231884,4,2,0,5,0,0
117505,-62.5,4,2,0,5,0,0
117533,-187.5,4,2,0,5,0,0
117617,-62.5,4,2,0,5,0,0
117644,-145.833333333333,4,2,0,5,0,0
117839,-62.5,4,2,0,5,0,0
117867,-145.833333333333,4,2,0,5,0,0
118061,-62.5,4,2,0,5,0,0
118089,-187.5,4,2,0,5,0,0
118172,-250,4,2,0,5,0,0
118367,-27.7777777777778,4,2,0,5,0,0
118394,-62.5,4,2,0,5,0,0
118422,-187.5,4,2,0,5,0,0
118505,-62.5,4,2,0,5,0,0
118533,-145.833333333333,4,2,0,5,0,0
118728,-62.5,4,2,0,5,0,0
118755,-187.5,4,2,0,5,0,0
118839,-62.5,4,2,0,5,0,0
118867,-144.927536231884,4,2,0,5,0,0
119061,-62.5,4,2,0,5,0,0
119089,-144.927536231884,4,2,0,5,0,0
119283,-62.5,4,2,0,5,0,0
119311,-187.5,4,2,0,5,0,0
119394,-125,4,2,0,5,0,0
119505,-62.5,4,2,0,5,0,0
119533,-187.5,4,2,0,5,0,0
119617,-62.5,4,2,0,5,0,0
119644,-145.833333333333,4,2,0,5,0,0
119839,-62.5,4,2,0,5,0,0
119867,-187.5,4,2,0,5,0,0
119950,-250,4,2,0,5,0,0
120144,-27.7777777777778,4,2,0,5,0,0
120172,-62.5,4,2,0,5,0,0
120200,-187.5,4,2,0,5,0,0
120283,-62.5,4,2,0,5,0,0
120311,-145.833333333333,4,2,0,5,0,0
120505,-62.5,4,2,0,5,0,0
120533,-187.5,4,2,0,5,0,0
120617,-62.5,4,2,0,5,0,0
120644,-145.833333333333,4,2,0,5,0,0
120839,-62.5,4,2,0,5,0,0
120867,-145.833333333333,4,2,0,5,0,0
121061,-62.5,4,2,0,5,0,0
121088,-137.4999999994,4,2,0,5,0,0
121394,-62.5,4,2,0,5,0,0
121422,-145.833333333333,4,2,0,5,0,0
121616,-62.5,4,2,0,5,0,0
121644,-188.679245283019,4,2,0,5,0,0
121727,-250,4,2,0,5,0,0
121922,-27.7777777777778,4,2,0,5,0,0
121950,-62.5,4,2,0,5,0,0
121977,-145.833333333333,4,2,0,5,0,0
122061,-62.5,4,2,0,5,0,0
122088,-145.833333333333,4,2,0,5,0,0
122283,-62.5,4,2,0,5,0,0
122311,-188.679245283019,4,2,0,5,0,0
122394,-62.5,4,2,0,5,0,0
122422,-145.833333333333,4,2,0,5,0,0
122616,-62.5,4,2,0,5,0,0
122644,-145.833333333333,4,2,0,5,0,0
122838,-62.5,4,2,0,5,0,0
122866,-187.500117187573,4,2,0,5,0,0
122950,-125,4,2,0,5,0,0
123061,-62.5,4,2,0,5,0,0
123088,-187.500001171875,4,2,0,5,0,0
123172,-62.5,4,2,0,5,0,0
123200,-145.833333333333,4,2,0,5,0,0
123394,-62.5,4,2,0,5,0,0
123422,-187.500117187573,4,2,0,5,0,0
123505,-250,4,2,0,5,0,0
123700,-27.7777777777778,4,2,0,5,0,0
123727,-62.5,4,2,0,5,0,0
123755,-187.501171882324,4,2,0,5,0,0
123838,-62.5,4,2,0,5,0,0
123866,-145.833333333333,4,2,0,5,0,0
124061,-62.5,4,2,0,5,0,0
124088,-187.501171882324,4,2,0,5,0,0
124172,-62.5,4,2,0,5,0,0
124200,-145.833333333333,4,2,0,5,0,0
124394,-62.5,4,2,0,5,0,0
124422,-145.833333333333,4,2,0,5,0,0
124616,-62.5,4,2,0,5,0,0
124644,-187.501171882324,4,2,0,5,0,0
124727,-62.5,4,2,0,5,0,0
124755,-145.833333333333,4,2,0,5,0,0
124950,-62.5,4,2,0,5,0,0
124977,-145.833333333333,4,2,0,5,0,0
125172,-62.5,4,2,0,5,0,0
125200,-187.501171882324,4,2,0,5,0,0
125283,-250,4,2,0,5,0,0
125477,-27.7777777777778,4,2,0,5,0,0
125505,-62.5,4,2,0,5,0,0
125533,-187.500117187573,4,2,0,5,0,0
125616,-62.5,4,2,0,5,0,0
125644,-145.833333333333,4,2,0,5,0,0
125838,-62.5,4,2,0,5,0,0
125866,-187.500011718751,4,2,0,5,0,0
125950,-62.5,4,2,0,5,0,0
125977,-145.833333333333,4,2,0,5,0,0
126172,-62.5,4,2,0,5,0,0
126200,-145.833333333333,4,2,0,5,0,0
126394,-62.5,4,2,0,5,0,0
126422,-187.511719482468,4,2,0,5,0,0
126505,-125,4,2,0,5,0,0
126616,-62.5,4,2,0,5,0,0
126644,-187.500117187573,4,2,0,5,0,0
126727,-62.5,4,2,0,5,0,0
126755,-145.833333333333,4,2,0,5,0,0
126950,-62.5,4,2,0,5,0,0
126977,-187.500117187573,4,2,0,5,0,0
127061,-250,4,2,0,5,0,0
127255,-27.7777777777778,4,2,0,5,0,0
127283,-62.5,4,2,0,5,0,0
127311,-187.501171882324,4,2,0,5,0,0
127394,-62.5,4,2,0,5,0,0
127422,-187.501171882324,4,2,0,5,0,0
127505,-62.5,4,2,0,5,0,0
127533,-187.501171882324,4,2,0,5,0,0
127616,-62.5,4,2,0,5,0,0
127644,-187.501171882324,4,2,0,5,0,0
127727,-62.5,4,2,0,5,0,0
127755,-145.833333333333,4,2,0,5,0,0
127950,-62.5,4,2,0,5,0,0
127977,-145.833333333333,4,2,0,5,0,0
128172,-333.333333333333,4,2,0,5,0,0
154839,-333.333333333333,4,1,0,15,0,0
154946.625,-294.117647058824,4,1,0,15,0,0
155054.25,-256.410256410256,4,1,0,15,0,0
155161.875,-232.558139534884,4,1,0,15,0,0
155269.5,-208.333333333333,4,1,0,15,0,0
155377.125,-192.307692307692,4,1,0,15,0,0
155484.75,-178.571428571429,4,1,0,15,0,0
155592.375,-163.934426229508,4,1,0,15,0,0
155700,-153.846153846154,4,1,0,15,0,0
155807.625,-144.927536231884,4,1,0,15,0,0
155915.25,-135.135135135135,4,1,0,15,0,0
156022.875,-128.205128205128,4,1,0,15,0,0
156130.5,-120.481927710843,4,1,0,15,0,0
156238.125,-114.942528735632,4,1,0,15,0,0
156345.75,-109.89010989011,4,1,0,15,0,0
156453.375,-104.166666666667,4,1,0,15,0,0
156561,-100,4,1,0,15,0,0
156617,-14.705882354083,4,1,0,15,0,0
156644,-500,4,1,0,15,0,0
157047,-15.1515151515152,4,1,0,15,0,0
157061,-14.705882354083,4,1,0,15,0,0
157089,-500,4,1,0,15,0,0
157394,-14.705882354083,4,1,0,15,0,0
157422,-500,4,1,0,15,0,0
157728,-41.6666666666667,4,1,0,15,0,0
157756,-500,4,1,0,15,0,0
157936,-15.1515151515152,4,1,0,15,0,0
157950,-21.7391304347826,4,1,0,15,0,0
157978,-500,4,1,0,15,0,0
158172,-100,4,1,0,15,0,0
158394,-14.7058823529412,4,1,0,15,0,0
158422,-500,4,1,0,15,0,0
158811,-11.1111111111111,4,1,0,15,0,0
158867,-500,4,1,0,15,0,0
159283,-21.7391304347826,4,1,0,15,0,0
159297,-500,4,1,0,15,0,0
159589,-21.7391304347826,4,1,0,15,0,0
159617,-14.705882354083,4,1,0,15,0,0
159644,-500,4,1,0,15,0,0
159950,-21.7391304347826,4,1,0,15,0,0
159978,-500,4,1,0,15,0,0
160172,-14.705882354083,4,1,0,15,0,0
160200,-500,4,1,0,15,0,0
160603,-15.1515151515152,4,1,0,15,0,0
160617,-14.7058823529412,4,1,0,15,0,0
160644,-500,4,1,0,15,0,0
160950,-14.705882354083,4,1,0,15,0,0
160978,-500,4,1,0,15,0,0
161284,-41.6666666666667,4,1,0,15,0,0
161312,-500,4,1,0,15,0,0
161492,-15.1515151515152,4,1,0,15,0,0
161506,-21.7391304347826,4,1,0,15,0,0
161534,-500,4,1,0,15,0,0
161728,-100,4,1,0,15,0,0
161950,-14.7058823529412,4,1,0,15,0,0
161978,-500,4,1,0,15,0,0
162367,-11.1111111111111,4,1,0,15,0,0
162423,-500,4,1,0,15,0,0
162839,-21.7391304347826,4,1,0,15,0,0
162853,-500,4,1,0,15,0,0
163145,-21.7391304347826,4,1,0,15,0,0
163173,-14.705882354083,4,1,0,15,0,0
163200,-500,4,1,0,15,0,0
163506,-21.7391304347826,4,1,0,15,0,0
163534,-500,4,1,0,15,0,0
163728,-14.705882354083,4,1,0,15,0,0
163756,-500,4,1,0,15,0,0
164159,-15.1515151515152,4,1,0,15,0,0
164173,-14.7058823529412,4,1,0,15,0,0
164200,-500,4,1,0,15,0,0
164506,-14.705882354083,4,1,0,15,0,0
164534,-500,4,1,0,15,0,0
164840,-41.6666666666667,4,1,0,15,0,0
164868,-500,4,1,0,15,0,0
165048,-15.1515151515152,4,1,0,15,0,0
165062,-21.7391304347826,4,1,0,15,0,0
165090,-500,4,1,0,15,0,0
165283,-100,4,1,0,15,0,0
165505,-14.7058823529412,4,1,0,15,0,0
165533,-500,4,1,0,15,0,0
165922,-11.1111111111111,4,1,0,15,0,0
165978,-500,4,1,0,15,0,0
166394,-21.7391304347826,4,1,0,15,0,0
166408,-500,4,1,0,15,0,0
166700,-21.7391304347826,4,1,0,15,0,0
166728,-14.705882354083,4,1,0,15,0,0
166755,-500,4,1,0,15,0,0
167061,-21.7391304347826,4,1,0,15,0,0
167089,-500,4,1,0,15,0,0
167283,-14.705882354083,4,1,0,15,0,0
167311,-500,4,1,0,15,0,0
167714,-15.1515151515152,4,1,0,15,0,0
167728,-14.7058823529412,4,1,0,15,0,0
167755,-500,4,1,0,15,0,0
168061,-14.705882354083,4,1,0,15,0,0
168089,-500,4,1,0,15,0,0
168395,-41.6666666666667,4,1,0,15,0,0
168423,-500,4,1,0,15,0,0
168603,-15.1515151515152,4,1,0,15,0,0
168617,-21.7391304347826,4,1,0,15,0,0
168645,-500,4,1,0,15,0,0
168839,-100,4,1,0,15,0,0
169061,-14.7058823529412,4,1,0,15,0,0
169089,-500,4,1,0,15,0,0
169478,-11.1111111111111,4,1,0,15,0,0
169534,-500,4,1,0,15,0,0
169950,-21.7391304347826,4,1,0,15,0,0
169964,-500,4,1,0,15,0,0
170256,-21.7391304347826,4,1,0,15,0,0
170283,-21.7391304347826,4,1,0,15,0,0
170297,-500,4,1,0,15,0,0
170394,-21.7391304347826,4,1,0,15,0,0
170422,-500,4,1,0,15,0,0
170617,-21.7391304347826,4,1,0,15,0,0
170645,-500,4,1,0,15,0,0
170839,-14.705882354083,4,1,0,15,0,0
170866,-500,4,1,0,15,0,0
171269,-15.1515151515152,4,1,0,15,0,0
171283,-14.705882354083,4,1,0,15,0,0
171311,-500,4,1,0,15,0,0
171616,-14.705882354083,4,1,0,15,0,0
171644,-500,4,1,0,15,0,0
171950,-41.6666666666667,4,1,0,15,0,0
171978,-500,4,1,0,15,0,0
172158,-15.1515151515152,4,1,0,15,0,0
172172,-21.7391304347826,4,1,0,15,0,0
172200,-500,4,1,0,15,0,0
172394,-100,4,1,0,15,0,0
172616,-14.7058823529412,4,1,0,15,0,0
172644,-500,4,1,0,15,0,0
173033,-11.1111111111111,4,1,0,15,0,0
173089,-500,4,1,0,15,0,0
173505,-21.7391304347826,4,1,0,15,0,0
173519,-500,4,1,0,15,0,0
173811,-21.7391304347826,4,1,0,15,0,0
173839,-14.705882354083,4,1,0,15,0,0
173866,-500,4,1,0,15,0,0
174172,-21.7391304347826,4,1,0,15,0,0
174200,-500,4,1,0,15,0,0
174394,-14.705882354083,4,1,0,15,0,0
174422,-500,4,1,0,15,0,0
174825,-15.1515151515152,4,1,0,15,0,0
174839,-14.7058823529412,4,1,0,15,0,0
174866,-500,4,1,0,15,0,0
175172,-14.705882354083,4,1,0,15,0,0
175200,-500,4,1,0,15,0,0
175506,-41.6666666666667,4,1,0,15,0,0
175534,-500,4,1,0,15,0,0
175714,-15.1515151515152,4,1,0,15,0,0
175728,-21.7391304347826,4,1,0,15,0,0
175756,-500,4,1,0,15,0,0
175950,-100,4,1,0,15,0,0
176172,-14.7058823529412,4,1,0,15,0,0
176200,-500,4,1,0,15,0,0
176589,-11.1111111111111,4,1,0,15,0,0
176645,-500,4,1,0,15,0,0
177061,-21.7391304347826,4,1,0,15,0,0
177075,-500,4,1,0,15,0,0
177367,-21.7391304347826,4,1,0,15,0,0
177408,-500,4,1,0,15,0,0
177505,-21.7391304347826,4,1,0,15,0,0
177533,-500,4,1,0,15,0,0
177728,-21.7391304347826,4,1,0,15,0,0
177756,-500,4,1,0,15,0,0
177950,-14.705882354083,4,1,0,15,0,0
177978,-500,4,1,0,15,0,0
178381,-15.1515151515152,4,1,0,15,0,0
178395,-14.7058823529412,4,1,0,15,0,0
178422,-500,4,1,0,15,0,0
178728,-14.705882354083,4,1,0,15,0,0
178756,-500,4,1,0,15,0,0
179062,-41.6666666666667,4,1,0,15,0,0
179090,-500,4,1,0,15,0,0
179270,-15.1515151515152,4,1,0,15,0,0
179284,-21.7391304347826,4,1,0,15,0,0
179312,-500,4,1,0,15,0,0
179505,-100,4,1,0,15,0,0
179727,-14.7058823529412,4,1,0,15,0,0
179755,-500,4,1,0,15,0,0
180144,-11.1111111111111,4,1,0,15,0,0
180200,-500,4,1,0,15,0,0
180616,-21.7391304347826,4,1,0,15,0,0
180630,-500,4,1,0,15,0,0
180922,-21.7391304347826,4,1,0,15,0,0
180950,-14.705882354083,4,1,0,15,0,0
180977,-500,4,1,0,15,0,0
181283,-21.7391304347826,4,1,0,15,0,0
181311,-500,4,1,0,15,0,0
181505,-14.705882354083,4,1,0,15,0,0
181533,-500,4,1,0,15,0,0
181936,-15.1515151515152,4,1,0,15,0,0
181950,-14.7058823529412,4,1,0,15,0,0
181977,-500,4,1,0,15,0,0
182283,-14.705882354083,4,1,0,15,0,0
182311,-500,4,1,0,15,0,0
182617,-41.6666666666667,4,1,0,15,0,0
182645,-500,4,1,0,15,0,0
182825,-15.1515151515152,4,1,0,15,0,0
182839,-21.7391304347826,4,1,0,15,0,0
182867,-500,4,1,0,15,0,0
183061,-21.7391304347826,4,1,0,15,0,0
183089,-500,4,1,0,15,0,0
183283,-14.7058823529412,4,1,0,15,0,0
183311,-500,4,1,0,15,0,0
183700,-11.1111111111111,4,1,0,15,0,0
183756,-500,4,1,0,15,0,0
184172,-21.7391304347826,4,1,0,15,0,0
184200,-500,4,1,0,15,0,0
184492,-21.7391304347826,4,1,0,15,0,0
184505,-10.2040816326531,4,1,0,15,0,0
184533,-500,4,1,0,15,0,0
185061,-14.705882354083,4,1,0,15,0,0
185089,-500,4,1,0,15,0,0
185492,-15.1515151515152,4,1,0,15,0,0
185506,-21.7391304347826,4,1,0,15,0,0
185533,-500,4,1,0,15,0,0
185728,-21.7391304347826,4,1,0,15,0,0
185742,-500,4,1,0,15,0,0
185839,-21.7391304347826,4,1,0,15,0,0
185867,-500,4,1,0,15,0,0
186061,-21.7391304347826,4,1,0,15,0,0
186075,-500,4,1,0,15,0,0
186173,-41.6666666666667,4,1,0,15,0,0
186201,-500,4,1,0,15,0,0
186381,-15.1515151515152,4,1,0,15,0,0
186395,-21.7391304347826,4,1,0,15,0,0
186423,-500,4,1,0,15,0,0
186617,-100,4,1,0,15,0,0
186839,-14.705882354083,4,1,0,15,0,0
186867,-500,4,1,0,15,0,0
187269,-15.1515151515152,4,1,0,15,0,0
187283,-21.7391304347826,4,1,0,15,0,0
187311,-500,4,1,0,15,0,0
187506,-21.7391304347826,4,1,0,15,0,0
187533,-500,4,1,0,15,0,0
187728,-21.7391304347826,4,1,0,15,0,0
187742,-500,4,1,0,15,0,0
188034,-21.7391304347826,4,1,0,15,0,0
188075,-500,4,1,0,15,0,0
188172,-21.7391304347826,4,1,0,15,0,0
188200,-500,4,1,0,15,0,0
188395,-21.7391304347826,4,1,0,15,0,0
188423,-500,4,1,0,15,0,0
188617,-14.705882354083,4,1,0,15,0,0
188645,-500,4,1,0,15,0,0
189048,-15.1515151515152,4,1,0,15,0,0
189062,-14.7058823529412,4,1,0,15,0,0
189089,-500,4,1,0,15,0,0
189283,-21.7391304347826,4,1,0,15,0,0
189297,-500,4,1,0,15,0,0
189394,-21.7391304347826,4,1,0,15,0,0
189422,-500,4,1,0,15,0,0
189616,-21.7391304347826,4,1,0,15,0,0
189630,-500,4,1,0,15,0,0
189728,-21.7391304347826,4,1,0,15,0,0
189742,-500,4,1,0,15,0,0
189936,-15.1515151515152,4,1,0,15,0,0
189950,-21.7391304347826,4,1,0,15,0,0
189978,-500,4,1,0,15,0,0
190172,-100,4,1,0,15,0,0
190394,-14.705882354083,4,1,0,15,0,0
190422,-500,4,1,0,15,0,0
190825,-15.1515151515152,4,1,0,15,0,0
190839,-14.7058823529412,4,1,0,15,0,0
190867,-500,4,1,0,15,0,0
191061,-21.7391304347826,4,1,0,15,0,0
191089,-500,4,1,0,15,0,0
191283,-21.7391304347826,4,1,0,15,0,0
191297,-500,4,1,0,15,0,0
191589,-21.7391304347826,4,1,0,15,0,0
191631,-500,4,1,0,15,0,0
191728,-21.7391304347826,4,1,0,15,0,0
191756,-500,4,1,0,15,0,0
191950,-21.7391304347826,4,1,0,15,0,0
191978,-500,4,1,0,15,0,0
192172,-14.705882354083,4,1,0,15,0,0
192200,-500,4,1,0,15,0,0
192603,-15.1515151515152,4,1,0,15,0,0
192617,-21.7391304347826,4,1,0,15,0,0
192645,-500,4,1,0,15,0,0
192839,-21.7391304347826,4,1,0,15,0,0
192853,-500,4,1,0,15,0,0
192950,-21.7391304347826,4,1,0,15,0,0
192978,-500,4,1,0,15,0,0
193172,-21.7391304347826,4,1,0,15,0,0
193186,-500,4,1,0,15,0,0
193283,-21.7391304347826,4,1,0,15,0,0
193297,-500,4,1,0,15,0,0
193492,-15.1515151515152,4,1,0,15,0,0
193506,-21.7391304347826,4,1,0,15,0,0
193534,-500,4,1,0,15,0,0
193728,-100,4,1,0,15,0,0
193950,-14.705882354083,4,1,0,15,0,0
193978,-500,4,1,0,15,0,0
194380,-15.1515151515152,4,1,0,15,0,0
194394,-21.7391304347826,4,1,0,15,0,0
194422,-500,4,1,0,15,0,0
194617,-21.7391304347826,4,1,0,15,0,0
194644,-500,4,1,0,15,0,0
194839,-21.7391304347826,4,1,0,15,0,0
194853,-500,4,1,0,15,0,0
195145,-21.7391304347826,4,1,0,15,0,0
195186,-500,4,1,0,15,0,0
195283,-21.7391304347826,4,1,0,15,0,0
195311,-500,4,1,0,15,0,0
195506,-21.7391304347826,4,1,0,15,0,0
195534,-500,4,1,0,15,0,0
195728,-14.705882354083,4,1,0,15,0,0
195756,-500,4,1,0,15,0,0
196159,-15.1515151515152,4,1,0,15,0,0
196173,-14.7058823529412,4,1,0,15,0,0
196200,-500,4,1,0,15,0,0
196394,-21.7391304347826,4,1,0,15,0,0
196408,-500,4,1,0,15,0,0
196505,-21.7391304347826,4,1,0,15,0,0
196533,-500,4,1,0,15,0,0
196727,-21.7391304347826,4,1,0,15,0,0
196741,-500,4,1,0,15,0,0
196839,-21.7391304347826,4,1,0,15,0,0
196853,-500,4,1,0,15,0,0
197047,-15.1515151515152,4,1,0,15,0,0
197061,-21.7391304347826,4,1,0,15,0,0
197089,-500,4,1,0,15,0,0
197283,-21.7391304347826,4,1,0,15,0,0
197311,-500,4,1,0,15,0,0
197505,-14.705882354083,4,1,0,15,0,0
197533,-500,4,1,0,15,0,0
197936,-15.1515151515152,4,1,0,15,0,0
197950,-14.7058823529412,4,1,0,15,0,0
197978,-500,4,1,0,15,0,0
198172,-21.7391304347826,4,1,0,15,0,0
198200,-500,4,1,0,15,0,0
198394,-21.7391304347826,4,1,0,15,0,0
198408,-500,4,1,0,15,0,0
198506,-21.7391304347826,4,1,0,15,0,0
198519,-500,4,1,0,15,0,0
198714,-21.7391304347826,4,1,0,15,0,0
198742,-500,4,1,0,15,0,0
198839,-21.7391304347826,4,1,0,15,0,0
198867,-500,4,1,0,15,0,0
199283,-14.705882354083,4,1,0,15,0,0
199311,-500,4,1,0,15,0,0
199714,-15.1515151515152,4,1,0,15,0,0
199728,-21.7391304347826,4,1,0,15,0,0
199756,-500,4,1,0,15,0,0
199950,-21.7391304347826,4,1,0,15,0,0
199964,-500,4,1,0,15,0,0
200061,-21.7391304347826,4,1,0,15,0,0
200089,-500,4,1,0,15,0,0
200283,-21.7391304347826,4,1,0,15,0,0
200297,-500,4,1,0,15,0,0
200394,-21.7391304347826,4,1,0,15,0,0
200408,-500,4,1,0,15,0,0
200603,-15.1515151515152,4,1,0,15,0,0
200617,-21.7391304347826,4,1,0,15,0,0
200645,-500,4,1,0,15,0,0
200839,-100,4,1,0,15,0,0
201061,-14.705882354083,4,1,0,15,0,0
201089,-500,4,1,0,15,0,0
201491,-15.1515151515152,4,1,0,15,0,0
201505,-21.7391304347826,4,1,0,15,0,0
201533,-500,4,1,0,15,0,0
201728,-21.7391304347826,4,1,0,15,0,0
201755,-500,4,1,0,15,0,0
201950,-21.7391304347826,4,1,0,15,0,0
201964,-500,4,1,0,15,0,0
202256,-21.7391304347826,4,1,0,15,0,0
202297,-500,4,1,0,15,0,0
202394,-21.7391304347826,4,1,0,15,0,0
202422,-500,4,1,0,15,0,0
202617,-21.7391304347826,4,1,0,15,0,0
202645,-500,4,1,0,15,0,0
202839,-14.705882354083,4,1,0,15,0,0
202867,-500,4,1,0,15,0,0
203270,-15.1515151515152,4,1,0,15,0,0
203284,-14.7058823529412,4,1,0,15,0,0
203311,-500,4,1,0,15,0,0
203505,-21.7391304347826,4,1,0,15,0,0
203519,-500,4,1,0,15,0,0
203616,-21.7391304347826,4,1,0,15,0,0
203644,-500,4,1,0,15,0,0
203838,-21.7391304347826,4,1,0,15,0,0
203852,-500,4,1,0,15,0,0
203950,-21.7391304347826,4,1,0,15,0,0
203964,-500,4,1,0,15,0,0
204158,-15.1515151515152,4,1,0,15,0,0
204172,-21.7391304347826,4,1,0,15,0,0
204200,-500,4,1,0,15,0,0
204394,-21.7391304347826,4,1,0,15,0,0
204422,-500,4,1,0,15,0,0
204616,-14.705882354083,4,1,0,15,0,0
204644,-500,4,1,0,15,0,0
205047,-15.1515151515152,4,1,0,15,0,0
205061,-14.7058823529412,4,1,0,15,0,0
205089,-500,4,1,0,15,0,0
205283,-21.7391304347826,4,1,0,15,0,0
205311,-500,4,1,0,15,0,0
205505,-21.7391304347826,4,1,0,15,0,0
205519,-500,4,1,0,15,0,0
205617,-21.7391304347826,4,1,0,15,0,0
205644,-500,4,1,0,15,0,0
205811,-21.7391304347826,4,1,0,15,0,0
205853,-500,4,1,0,15,0,0
205950,-21.7391304347826,4,1,0,15,0,0
205978,-500,4,1,0,15,0,0
206172,-21.7391304347826,4,1,0,15,0,0
206200,-500,4,1,0,15,0,0
206394,-14.705882354083,4,1,0,15,0,0
206422,-500,4,1,0,15,0,0
206825,-15.1515151515152,4,1,0,15,0,0
206839,-21.7391304347826,4,1,0,15,0,0
206867,-500,4,1,0,15,0,0
207061,-21.7391304347826,4,1,0,15,0,0
207075,-500,4,1,0,15,0,0
207172,-21.7391304347826,4,1,0,15,0,0
207200,-500,4,1,0,15,0,0
207394,-21.7391304347826,4,1,0,15,0,0
207408,-500,4,1,0,15,0,0
207505,-21.7391304347826,4,1,0,15,0,0
207519,-500,4,1,0,15,0,0
207714,-15.1515151515152,4,1,0,15,0,0
207728,-21.7391304347826,4,1,0,15,0,0
207756,-500,4,1,0,15,0,0
207950,-100,4,1,0,15,0,0
208172,-14.705882354083,4,1,0,15,0,0
208200,-500,4,1,0,15,0,0
208602,-15.1515151515152,4,1,0,15,0,0
208616,-21.7391304347826,4,1,0,15,0,0
208644,-500,4,1,0,15,0,0
208839,-21.7391304347826,4,1,0,15,0,0
208866,-500,4,1,0,15,0,0
209061,-21.7391304347826,4,1,0,15,0,0
209075,-500,4,1,0,15,0,0
209367,-21.7391304347826,4,1,0,15,0,0
209408,-500,4,1,0,15,0,0
209505,-21.7391304347826,4,1,0,15,0,0
209533,-500,4,1,0,15,0,0
209728,-21.7391304347826,4,1,0,15,0,0
209756,-500,4,1,0,15,0,0
209950,-14.705882354083,4,1,0,15,0,0
209978,-500,4,1,0,15,0,0
210381,-15.1515151515152,4,1,0,15,0,0
210395,-14.7058823529412,4,1,0,15,0,0
210422,-500,4,1,0,15,0,0
210616,-21.7391304347826,4,1,0,15,0,0
210630,-500,4,1,0,15,0,0
210727,-21.7391304347826,4,1,0,15,0,0
210755,-500,4,1,0,15,0,0
210949,-21.7391304347826,4,1,0,15,0,0
210963,-500,4,1,0,15,0,0
211061,-21.7391304347826,4,1,0,15,0,0
211075,-500,4,1,0,15,0,0
211269,-15.1515151515152,4,1,0,15,0,0
211283,-21.7391304347826,4,1,0,15,0,0
211311,-500,4,1,0,15,0,0
211505,-21.7391304347826,4,1,0,15,0,0
211533,-500,4,1,0,15,0,0
211727,-14.705882354083,4,1,0,15,0,0
211755,-500,4,1,0,15,0,0
212158,-15.1515151515152,4,1,0,15,0,0
212172,-14.7058823529412,4,1,0,15,0,0
212200,-500,4,1,0,15,0,0
212394,-21.7391304347826,4,1,0,15,0,0
212422,-500,4,1,0,15,0,0
212616,-21.7391304347826,4,1,0,15,0,0
212630,-500,4,1,0,15,0,0
212728,-21.7391304347826,4,1,0,15,0,0
212742,-500,4,1,0,15,0,0
212936,-21.7391304347826,4,1,0,15,0,0
212964,-500,4,1,0,15,0,0
213061,-21.7391304347826,4,1,0,15,0,0
213089,-500,4,1,0,15,0,0

[HitObjects]
448,192,71283,5,0,0:0:0:0:
64,192,71283,1,0,0:0:0:0:
192,192,71617,1,0,0:0:0:0:
320,192,71839,1,0,0:0:0:0:
192,192,71950,1,0,0:0:0:0:
64,192,71950,1,0,0:0:0:0:
448,192,72172,1,0,0:0:0:0:
320,192,72172,1,0,0:0:0:0:
64,192,72172,1,0,0:0:0:0:
192,192,72506,1,0,0:0:0:0:
320,192,72617,1,0,0:0:0:0:
448,192,72617,1,0,0:0:0:0:
192,192,72783,1,0,0:0:0:0:
64,192,72839,1,0,0:0:0:0:
320,192,73172,128,0,73283:0:0:0:0:
448,192,73283,1,0,0:0:0:0:
64,192,73283,1,0,0:0:0:0:
192,192,73395,1,0,0:0:0:0:
320,192,73617,1,0,0:0:0:0:
448,192,73728,1,0,0:0:0:0:
192,192,73950,1,0,0:0:0:0:
64,192,73950,1,0,0:0:0:0:
320,192,73950,1,0,0:0:0:0:
64,192,74283,1,0,0:0:0:0:
320,192,74394,1,0,0:0:0:0:
448,192,74394,1,0,0:0:0:0:
192,192,74561,1,0,0:0:0:0:
64,192,74617,1,0,0:0:0:0:
64,192,74839,1,0,0:0:0:0:
192,192,74839,1,0,0:0:0:0:
448,192,74950,1,0,0:0:0:0:
320,192,75172,1,0,0:0:0:0:
192,192,75394,1,0,0:0:0:0:
64,192,75505,1,0,0:0:0:0:
448,192,75505,1,0,0:0:0:0:
320,192,75728,1,0,0:0:0:0:
192,192,75728,1,0,0:0:0:0:
64,192,75728,1,0,0:0:0:0:
448,192,76061,1,0,0:0:0:0:
64,192,76172,1,0,0:0:0:0:
192,192,76172,1,0,0:0:0:0:
320,192,76339,1,0,0:0:0:0:
448,192,76394,1,0,0:0:0:0:
192,192,76728,128,0,76839:0:0:0:0:
64,192,76839,1,0,0:0:0:0:
448,192,76839,1,0,0:0:0:0:
320,192,76950,1,0,0:0:0:0:
192,192,77172,1,0,0:0:0:0:
64,192,77283,1,0,0:0:0:0:
192,192,77505,1,0,0:0:0:0:
320,192,77505,1,0,0:0:0:0:
448,192,77505,1,0,0:0:0:0:
320,192,77839,1,0,0:0:0:0:
192,192,77950,1,0,0:0:0:0:
64,192,77950,1,0,0:0:0:0:
320,192,78117,1,0,0:0:0:0:
448,192,78172,1,0,0:0:0:0:
448,192,78394,1,0,0:0:0:0:
320,192,78394,1,0,0:0:0:0:
64,192,78728,1,0,0:0:0:0:
320,192,78950,1,0,0:0:0:0:
192,192,79061,1,0,0:0:0:0:
64,192,79061,1,0,0:0:0:0:
448,192,79283,1,0,0:0:0:0:
320,192,79283,1,0,0:0:0:0:
192,192,79283,1,0,0:0:0:0:
64,192,79617,1,0,0:0:0:0:
320,192,79728,1,0,0:0:0:0:
448,192,79728,1,0,0:0:0:0:
64,192,79894,1,0,0:0:0:0:
192,192,79950,1,0,0:0:0:0:
320,192,80283,128,0,80394:0:0:0:0:
192,192,80394,1,0,0:0:0:0:
64,192,80394,1,0,0:0:0:0:
448,192,80505,1,0,0:0:0:0:
320,192,80728,1,0,0:0:0:0:
192,192,80839,1,0,0:0:0:0:
448,192,81061,1,0,0:0:0:0:
320,192,81061,1,0,0:0:0:0:
64,192,81061,1,0,0:0:0:0:
448,192,81394,1,0,0:0:0:0:
64,192,81505,1,0,0:0:0:0:
192,192,81505,1,0,0:0:0:0:
448,192,81672,1,0,0:0:0:0:
320,192,81728,1,0,0:0:0:0:
320,192,81950,1,0,0:0:0:0:
448,192,81950,1,0,0:0:0:0:
64,192,82283,1,0,0:0:0:0:
192,192,82505,1,0,0:0:0:0:
448,192,82617,1,0,0:0:0:0:
320,192,82617,1,0,0:0:0:0:
64,192,82839,1,0,0:0:0:0:
320,192,82839,1,0,0:0:0:0:
192,192,82839,1,0,0:0:0:0:
448,192,83172,1,0,0:0:0:0:
192,192,83283,1,0,0:0:0:0:
64,192,83283,1,0,0:0:0:0:
320,192,83450,1,0,0:0:0:0:
448,192,83505,1,0,0:0:0:0:
192,192,83839,128,0,83950:0:0:0:0:
448,192,83950,1,0,0:0:0:0:
320,192,83950,1,0,0:0:0:0:
64,192,84061,1,0,0:0:0:0:
192,192,84283,1,0,0:0:0:0:
320,192,84394,1,0,0:0:0:0:
448,192,84617,1,0,0:0:0:0:
64,192,84617,1,0,0:0:0:0:
192,192,84617,1,0,0:0:0:0:
192,192,84950,1,0,0:0:0:0:
320,192,85061,1,0,0:0:0:0:
448,192,85061,1,0,0:0:0:0:
64,192,85283,1,0,0:0:0:0:
192,192,85339,1,0,0:0:0:0:
192,192,85505,1,0,0:0:0:0:
64,192,85505,1,0,0:0:0:0:
320,192,85505,1,0,0:0:0:0:
448,192,85505,1,0,0:0:0:0:
448,192,85839,1,0,0:0:0:0:
64,192,86061,1,0,0:0:0:0:
320,192,86172,1,0,0:0:0:0:
192,192,86172,1,0,0:0:0:0:
320,192,86394,1,0,0:0:0:0:
448,192,86394,1,0,0:0:0:0:
64,192,86394,1,0,0:0:0:0:
192,192,86728,1,0,0:0:0:0:
448,192,86839,1,0,0:0:0:0:
320,192,86839,1,0,0:0:0:0:
64,192,87061,1,0,0:0:0:0:
192,192,87117,1,0,0:0:0:0:
448,192,87394,128,0,87505:0:0:0:0:
320,192,87505,1,0,0:0:0:0:
64,192,87505,1,0,0:0:0:0:
192,192,87617,1,0,0:0:0:0:
320,192,87839,1,0,0:0:0:0:
448,192,87950,1,0,0:0:0:0:
192,192,88172,1,0,0:0:0:0:
64,192,88172,1,0,0:0:0:0:
320,192,88172,1,0,0:0:0:0:
64,192,88505,1,0,0:0:0:0:
448,192,88617,1,0,0:0:0:0:
320,192,88617,1,0,0:0:0:0:
192,192,88783,1,0,0:0:0:0:
64,192,88839,1,0,0:0:0:0:
192,192,89061,1,0,0:0:0:0:
64,192,89061,1,0,0:0:0:0:
448,192,89172,1,0,0:0:0:0:
192,192,89394,1,0,0:0:0:0:
320,192,89617,1,0,0:0:0:0:
448,192,89728,1,0,0:0:0:0:
64,192,89728,1,0,0:0:0:0:
192,192,89950,1,0,0:0:0:0:
64,192,89950,1,0,0:0:0:0:
320,192,89950,1,0,0:0:0:0:
192,192,90283,1,0,0:0:0:0:
448,192,90394,1,0,0:0:0:0:
320,192,90394,1,0,0:0:0:0:
192,192,90561,1,0,0:0:0:0:
64,192,90617,1,0,0:0:0:0:
448,192,90950,128,0,91061:0:0:0:0:
320,192,91061,1,0,0:0:0:0:
192,192,91061,1,0,0:0:0:0:
64,192,91172,1,0,0:0:0:0:
320,192,91394,1,0,0:0:0:0:
192,192,91505,1,0,0:0:0:0:
448,192,91728,1,0,0:0:0:0:
64,192,91728,1,0,0:0:0:0:
320,192,91728,1,0,0:0:0:0:
448,192,92061,1,0,0:0:0:0:
192,192,92172,1,0,0:0:0:0:
64,192,92172,1,0,0:0:0:0:
448,192,92339,1,0,0:0:0:0:
320,192,92394,1,0,0:0:0:0:
448,192,92617,1,0,0:0:0:0:
320,192,92617,1,0,0:0:0:0:
64,192,92950,1,0,0:0:0:0:
192,192,93172,1,0,0:0:0:0:
320,192,93283,1,0,0:0:0:0:
448,192,93283,1,0,0:0:0:0:
192,192,93505,1,0,0:0:0:0:
64,192,93505,1,0,0:0:0:0:
320,192,93505,1,0,0:0:0:0:
64,192,93839,1,0,0:0:0:0:
320,192,93950,1,0,0:0:0:0:
448,192,93950,1,0,0:0:0:0:
192,192,94117,1,0,0:0:0:0:
64,192,94172,1,0,0:0:0:0:
448,192,94505,128,0,94617:0:0:0:0:
192,192,94617,1,0,0:0:0:0:
64,192,94617,1,0,0:0:0:0:
320,192,94728,1,0,0:0:0:0:
64,192,94950,1,0,0:0:0:0:
192,192,95061,1,0,0:0:0:0:
320,192,95283,1,0,0:0:0:0:
64,192,95283,1,0,0:0:0:0:
448,192,95283,1,0,0:0:0:0:
448,192,95617,1,0,0:0:0:0:
192,192,95728,1,0,0:0:0:0:
64,192,95728,1,0,0:0:0:0:
320,192,95894,1,0,0:0:0:0:
448,192,95950,1,0,0:0:0:0:
448,192,96172,1,0,0:0:0:0:
320,192,96172,1,0,0:0:0:0:
64,192,96505,1,0,0:0:0:0:
192,192,96728,1,0,0:0:0:0:
320,192,96839,1,0,0:0:0:0:
448,192,96839,1,0,0:0:0:0:
320,192,97061,1,0,0:0:0:0:
192,192,97061,1,0,0:0:0:0:
64,192,97061,1,0,0:0:0:0:
192,192,97394,1,0,0:0:0:0:
320,192,97505,1,0,0:0:0:0:
448,192,97505,1,0,0:0:0:0:
64,192,97672,1,0,0:0:0:0:
192,192,97728,1,0,0:0:0:0:
320,192,98061,128,0,98172:0:0:0:0:
448,192,98172,1,0,0:0:0:0:
192,192,98172,1,0,0:0:0:0:
64,192,98283,1,0,0:0:0:0:
448,192,98505,1,0,0:0:0:0:
320,192,98617,1,0,0:0:0:0:
448,192,98839,1,0,0:0:0:0:
192,192,98839,1,0,0:0:0:0:
64,192,98839,1,0,0:0:0:0:
64,192,99172,1,0,0:0:0:0:
448,192,99283,1,0,0:0:0:0:
320,192,99283,1,0,0:0:0:0:
192,192,99450,1,0,0:0:0:0:
64,192,99505,1,0,0:0:0:0:
64,192,99728,1,0,0:0:0:0:
192,192,99728,1,0,0:0:0:0:
320,192,99728,1,0,0:0:0:0:
448,192,99728,1,0,0:0:0:0:
320,192,100061,1,0,0:0:0:0:
192,192,100283,1,0,0:0:0:0:
448,192,100394,1,0,0:0:0:0:
320,192,100394,1,0,0:0:0:0:
192,192,100617,1,0,0:0:0:0:
64,192,100617,1,0,0:0:0:0:
448,192,100617,1,0,0:0:0:0:
320,192,100728,1,0,0:0:0:0:
192,192,100950,1,0,0:0:0:0:
64,192,101061,1,0,0:0:0:0:
448,192,101061,1,0,0:0:0:0:
320,192,101228,1,0,0:0:0:0:
192,192,101283,1,0,0:0:0:0:
448,192,101505,1,0,0:0:0:0:
64,192,101617,128,0,101728:0:0:0:0:
448,192,101728,1,0,0:0:0:0:
320,192,101728,1,0,0:0:0:0:
192,192,101839,1,0,0:0:0:0:
320,192,102061,1,0,0:0:0:0:
64,192,102172,1,0,0:0:0:0:
192,192,102394,1,0,0:0:0:0:
320,192,102394,1,0,0:0:0:0:
448,192,102394,1,0,0:0:0:0:
64,192,102505,1,0,0:0:0:0:
320,192,102728,1,0,0:0:0:0:
192,192,102839,1,0,0:0:0:0:
64,192,102839,1,0,0:0:0:0:
448,192,103005,1,0,0:0:0:0:
320,192,103061,1,0,0:0:0:0:
448,192,103283,1,0,0:0:0:0:
320,192,103283,1,0,0:0:0:0:
64,192,103394,1,0,0:0:0:0:
192,192,103617,1,0,0:0:0:0:
448,192,103839,1,0,0:0:0:0:
64,192,103950,1,0,0:0:0:0:
192,192,103950,1,0,0:0:0:0:
448,192,104172,1,0,0:0:0:0:
320,192,104172,1,0,0:0:0:0:
64,192,104172,1,0,0:0:0:0:
192,192,104283,1,0,0:0:0:0:
320,192,104505,1,0,0:0:0:0:
64,192,104617,1,0,0:0:0:0:
192,192,104617,1,0,0:0:0:0:
448,192,104783,1,0,0:0:0:0:
320,192,104839,1,0,0:0:0:0:
64,192,105061,1,0,0:0:0:0:
192,192,105172,128,0,105283:0:0:0:0:
448,192,105283,1,0,0:0:0:0:
320,192,105283,1,0,0:0:0:0:
64,192,105394,1,0,0:0:0:0:
192,192,105617,1,0,0:0:0:0:
320,192,105728,1,0,0:0:0:0:
64,192,105950,1,0,0:0:0:0:
192,192,105950,1,0,0:0:0:0:
448,192,105950,1,0,0:0:0:0:
320,192,106061,1,0,0:0:0:0:
320,192,106172,1,0,0:0:0:0:
448,192,106283,1,0,0:0:0:0:
192,192,106394,1,0,0:0:0:0:
64,192,106394,1,0,0:0:0:0:
320,192,106561,1,0,0:0:0:0:
448,192,106617,1,0,0:0:0:0:
448,192,106839,1,0,0:0:0:0:
320,192,106839,1,0,0:0:0:0:
64,192,107172,1,0,0:0:0:0:
320,192,107394,1,0,0:0:0:0:
192,192,107505,1,0,0:0:0:0:
64,192,107505,1,0,0:0:0:0:
448,192,107728,1,0,0:0:0:0:
192,192,107728,1,0,0:0:0:0:
320,192,107728,1,0,0:0:0:0:
64,192,107839,1,0,0:0:0:0:
320,192,108061,1,0,0:0:0:0:
448,192,108172,1,0,0:0:0:0:
64,192,108172,1,0,0:0:0:0:
192,192,108339,1,0,0:0:0:0:
320,192,108394,1,0,0:0:0:0:
448,192,108617,1,0,0:0:0:0:
64,192,108728,128,0,108839:0:0:0:0:
448,192,108839,1,0,0:0:0:0:
320,192,108839,1,0,0:0:0:0:
192,192,108950,1,0,0:0:0:0:
64,192,109117,1,0,0:0:0:0:
320,192,109283,1,0,0:0:0:0:
64,192,109505,1,0,0:0:0:0:
448,192,109505,1,0,0:0:0:0:
192,192,109505,1,0,0:0:0:0:
320,192,109617,1,0,0:0:0:0:
192,192,109839,1,0,0:0:0:0:
64,192,109950,1,0,0:0:0:0:
448,192,109950,1,0,0:0:0:0:
320,192,110117,1,0,0:0:0:0:
192,192,110172,1,0,0:0:0:0:
320,192,110394,1,0,0:0:0:0:
192,192,110394,1,0,0:0:0:0:
448,192,110728,1,0,0:0:0:0:
64,192,110950,1,0,0:0:0:0:
320,192,111061,1,0,0:0:0:0:
192,192,111061,1,0,0:0:0:0:
320,192,111283,1,0,0:0:0:0:
448,192,111283,1,0,0:0:0:0:
64,192,111283,1,0,0:0:0:0:
192,192,111394,1,0,0:0:0:0:
448,192,111617,1,0,0:0:0:0:
64,192,111728,1,0,0:0:0:0:
192,192,111728,1,0,0:0:0:0:
320,192,111894,1,0,0:0:0:0:
448,192,111950,1,0,0:0:0:0:
64,192,112172,1,0,0:0:0:0:
320,192,112283,128,0,112394:0:0:0:0:
192,192,112394,1,0,0:0:0:0:
448,192,112394,1,0,0:0:0:0:
64,192,112505,1,0,0:0:0:0:
320,192,112728,1,0,0:0:0:0:
448,192,112839,1,0,0:0:0:0:
320,192,113061,1,0,0:0:0:0:
64,192,113061,1,0,0:0:0:0:
192,192,113061,1,0,0:0:0:0:
448,192,113172,1,0,0:0:0:0:
64,192,113394,1,0,0:0:0:0:
320,192,113505,1,0,0:0:0:0:
448,192,113505,1,0,0:0:0:0:
192,192,113672,1,0,0:0:0:0:
64,192,113728,1,0,0:0:0:0:
192,192,113950,1,0,0:0:0:0:
64,192,113950,1,0,0:0:0:0:
320,192,114283,1,0,0:0:0:0:
192,192,114505,1,0,0:0:0:0:
320,192,114617,1,0,0:0:0:0:
448,192,114617,1,0,0:0:0:0:
192,192,114839,1,0,0:0:0:0:
448,192,114839,1,0,0:0:0:0:
64,192,114839,1,0,0:0:0:0:
320,192,114950,1,0,0:0:0:0:
64,192,115172,1,0,0:0:0:0:
448,192,115283,1,0,0:0:0:0:
320,192,115283,1,0,0:0:0:0:
192,192,115450,1,0,0:0:0:0:
64,192,115505,1,0,0:0:0:0:
448,192,115728,1,0,0:0:0:0:
320,192,115839,128,0,115950:0:0:0:0:
192,192,115950,1,0,0:0:0:0:
64,192,115950,1,0,0:0:0:0:
448,192,116061,1,0,0:0:0:0:
64,192,116283,1,0,0:0:0:0:
192,192,116394,1,0,0:0:0:0:
320,192,116617,1,0,0:0:0:0:
64,192,116617,1,0,0:0:0:0:
448,192,116617,1,0,0:0:0:0:
192,192,116728,1,0,0:0:0:0:
320,192,116950,1,0,0:0:0:0:
64,192,117061,1,0,0:0:0:0:
192,192,117061,1,0,0:0:0:0:
448,192,117228,1,0,0:0:0:0:
320,192,117283,1,0,0:0:0:0:
448,192,117505,1,0,0:0:0:0:
320,192,117505,1,0,0:0:0:0:
64,192,117617,1,0,0:0:0:0:
192,192,117839,1,0,0:0:0:0:
320,192,118061,1,0,0:0:0:0:
64,192,118172,1,0,0:0:0:0:
448,192,118172,1,0,0:0:0:0:
320,192,118394,1,0,0:0:0:0:
192,192,118394,1,0,0:0:0:0:
64,192,118394,1,0,0:0:0:0:
448,192,118505,1,0,0:0:0:0:
192,192,118728,1,0,0:0:0:0:
320,192,118839,1,0,0:0:0:0:
448,192,118839,1,0,0:0:0:0:
64,192,119005,1,0,0:0:0:0:
192,192,119061,1,0,0:0:0:0:
320,192,119283,1,0,0:0:0:0:
64,192,119394,128,0,119505:0:0:0:0:
448,192,119505,1,0,0:0:0:0:
192,192,119505,1,0,0:0:0:0:
320,192,119617,1,0,0:0:0:0:
192,192,119839,1,0,0:0:0:0:
64,192,119950,1,0,0:0:0:0:
320,192,120172,1,0,0:0:0:0:
448,192,120172,1,0,0:0:0:0:
192,192,120172,1,0,0:0:0:0:
64,192,120283,1,0,0:0:0:0:
448,192,120505,1,0,0:0:0:0:
192,192,120617,1,0,0:0:0:0:
64,192,120617,1,0,0:0:0:0:
320,192,120783,1,0,0:0:0:0:
448,192,120839,1,0,0:0:0:0:
320,192,121061,1,0,0:0:0:0:
448,192,121061,1,0,0:0:0:0:
64,192,121394,1,0,0:0:0:0:
320,192,121617,1,0,0:0:0:0:
192,192,121728,1,0,0:0:0:0:
64,192,121728,1,0,0:0:0:0:
448,192,121950,1,0,0:0:0:0:
320,192,121950,1,0,0:0:0:0:
192,192,121950,1,0,0:0:0:0:
64,192,122061,1,0,0:0:0:0:
320,192,122283,1,0,0:0:0:0:
448,192,122394,1,0,0:0:0:0:
64,192,122394,1,0,0:0:0:0:
192,192,122561,1,0,0:0:0:0:
320,192,122617,1,0,0:0:0:0:
448,192,122839,1,0,0:0:0:0:
64,192,122950,128,0,123061:0:0:0:0:
448,192,123061,1,0,0:0:0:0:
320,192,123061,1,0,0:0:0:0:
192,192,123172,1,0,0:0:0:0:
64,192,123394,1,0,0:0:0:0:
448,192,123505,1,0,0:0:0:0:
64,192,123728,1,0,0:0:0:0:
320,192,123728,1,0,0:0:0:0:
192,192,123728,1,0,0:0:0:0:
448,192,123839,1,0,0:0:0:0:
192,192,124061,1,0,0:0:0:0:
64,192,124172,1,0,0:0:0:0:
448,192,124172,1,0,0:0:0:0:
320,192,124339,1,0,0:0:0:0:
192,192,124394,1,0,0:0:0:0:
320,192,124617,1,0,0:0:0:0:
192,192,124617,1,0,0:0:0:0:
64,192,124950,1,0,0:0:0:0:
320,192,125172,1,0,0:0:0:0:
192,192,125283,1,0,0:0:0:0:
448,192,125505,1,0,0:0:0:0:
320,192,125505,1,0,0:0:0:0:
64,192,125505,1,0,0:0:0:0:
192,192,125617,1,0,0:0:0:0:
448,192,125839,1,0,0:0:0:0:
64,192,125950,1,0,0:0:0:0:
192,192,125950,1,0,0:0:0:0:
320,192,126117,1,0,0:0:0:0:
448,192,126172,1,0,0:0:0:0:
64,192,126394,1,0,0:0:0:0:
192,192,126505,128,0,126617:0:0:0:0:
320,192,126617,1,0,0:0:0:0:
448,192,126617,1,0,0:0:0:0:
64,192,126728,1,0,0:0:0:0:
320,192,126950,1,0,0:0:0:0:
192,192,127061,1,0,0:0:0:0:
448,192,127283,1,0,0:0:0:0:
320,192,127283,1,0,0:0:0:0:
64,192,127283,1,0,0:0:0:0:
192,192,127394,1,0,0:0:0:0:
192,192,127505,1,0,0:0:0:0:
320,192,127617,1,0,0:0:0:0:
64,192,127728,1,0,0:0:0:0:
448,192,127728,1,0,0:0:0:0:
192,192,127894,1,0,0:0:0:0:
320,192,127950,1,0,0:0:0:0:
64,192,128172,128,0,128228:0:0:0:0:
448,192,128172,128,0,128228:0:0:0:0:
64,192,129950,128,0,130005:0:0:0:0:
320,192,129950,128,0,130005:0:0:0:0:
192,192,130839,128,0,130894:0:0:0:0:
448,192,130839,128,0,130894:0:0:0:0:
192,192,131728,128,0,131783:0:0:0:0:
320,192,131728,128,0,131783:0:0:0:0:
192,192,133505,128,0,133561:0:0:0:0:
448,192,133505,128,0,133561:0:0:0:0:
64,192,135283,128,0,135339:0:0:0:0:
448,192,135283,128,0,135339:0:0:0:0:
64,192,137061,128,0,137117:0:0:0:0:
192,192,137061,128,0,137117:0:0:0:0:
448,192,137950,128,0,138005:0:0:0:0:
320,192,137950,128,0,138005:0:0:0:0:
64,192,138839,128,0,138894:0:0:0:0:
320,192,138839,128,0,138894:0:0:0:0:
192,192,140617,128,0,140672:0:0:0:0:
448,192,140617,128,0,140672:0:0:0:0:
192,192,142394,128,0,142450:0:0:0:0:
320,192,142394,128,0,142450:0:0:0:0:
64,192,142394,128,0,142505:0:0:0:0:
448,192,142394,128,0,142505:0:0:0:0:
320,192,143283,128,0,143339:0:0:0:0:
64,192,144172,128,0,144228:0:0:0:0:
192,192,144172,128,0,144228:0:0:0:0:
448,192,145061,128,0,145117:0:0:0:0:
192,192,145061,128,0,145117:0:0:0:0:
320,192,145950,128,0,146005:0:0:0:0:
192,192,145950,128,0,146005:0:0:0:0:
64,192,147728,128,0,147783:0:0:0:0:
192,192,147728,128,0,147783:0:0:0:0:
320,192,149505,128,0,149561:0:0:0:0:
448,192,149505,128,0,149561:0:0:0:0:
192,192,151283,128,0,151339:0:0:0:0:
448,192,151283,128,0,151339:0:0:0:0:
64,192,152172,128,0,152228:0:0:0:0:
320,192,152172,128,0,152228:0:0:0:0:
64,192,153061,128,0,153117:0:0:0:0:
448,192,153061,128,0,153117:0:0:0:0:
192,192,154839,128,0,154894:0:0:0:0:
64,192,154839,128,0,154894:0:0:0:0:
448,192,156617,1,0,0:0:0:0:
320,192,156617,1,0,0:0:0:0:
320,192,156950,1,0,0:0:0:0:
192,192,157061,1,0,0:0:0:0:
448,192,157061,1,0,0:0:0:0:
64,192,157061,1,0,0:0:0:0:
320,192,157394,1,0,0:0:0:0:
448,192,157394,1,0,0:0:0:0:
192,192,157728,1,0,0:0:0:0:
64,192,157728,1,0,0:0:0:0:
448,192,157839,1,0,0:0:0:0:
192,192,157950,1,0,0:0:0:0:
64,192,157950,1,0,0:0:0:0:
320,192,157950,1,0,0:0:0:0:
192,192,158172,128,0,158283:0:0:0:0:
320,192,158394,1,0,0:0:0:0:
448,192,158394,1,0,0:0:0:0:
448,192,158839,1,0,0:0:0:0:
64,192,158839,1,0,0:0:0:0:
192,192,158839,1,0,0:0:0:0:
192,192,159283,1,0,0:0:0:0:
64,192,159283,1,0,0:0:0:0:
320,192,159394,1,0,0:0:0:0:
192,192,159617,1,0,0:0:0:0:
64,192,159617,1,0,0:0:0:0:
448,192,159617,1,0,0:0:0:0:
192,192,159950,1,0,0:0:0:0:
320,192,159950,1,0,0:0:0:0:
320,192,160172,1,0,0:0:0:0:
448,192,160172,1,0,0:0:0:0:
64,192,160505,1,0,0:0:0:0:
192,192,160617,1,0,0:0:0:0:
320,192,160617,1,0,0:0:0:0:
448,192,160617,1,0,0:0:0:0:
64,192,160950,1,0,0:0:0:0:
192,192,160950,1,0,0:0:0:0:
320,192,161283,1,0,0:0:0:0:
448,192,161283,1,0,0:0:0:0:
192,192,161394,1,0,0:0:0:0:
64,192,161505,1,0,0:0:0:0:
320,192,161505,1,0,0:0:0:0:
448,192,161505,1,0,0:0:0:0:
320,192,161728,128,0,161839:0:0:0:0:
192,192,161950,1,0,0:0:0:0:
64,192,161950,1,0,0:0:0:0:
448,192,162394,1,0,0:0:0:0:
320,192,162394,1,0,0:0:0:0:
192,192,162394,1,0,0:0:0:0:
448,192,162839,1,0,0:0:0:0:
320,192,162839,1,0,0:0:0:0:
64,192,162950,1,0,0:0:0:0:
448,192,163172,1,0,0:0:0:0:
320,192,163172,1,0,0:0:0:0:
192,192,163172,1,0,0:0:0:0:
448,192,163505,1,0,0:0:0:0:
320,192,163505,1,0,0:0:0:0:
192,192,163728,1,0,0:0:0:0:
64,192,163728,1,0,0:0:0:0:
320,192,164061,1,0,0:0:0:0:
448,192,164172,1,0,0:0:0:0:
64,192,164172,1,0,0:0:0:0:
192,192,164172,1,0,0:0:0:0:
448,192,164506,1,0,0:0:0:0:
320,192,164506,1,0,0:0:0:0:
192,192,164839,1,0,0:0:0:0:
64,192,164839,1,0,0:0:0:0:
448,192,164950,1,0,0:0:0:0:
320,192,165061,1,0,0:0:0:0:
192,192,165061,1,0,0:0:0:0:
64,192,165061,1,0,0:0:0:0:
64,192,165283,128,0,165394:0:0:0:0:
448,192,165506,1,0,0:0:0:0:
320,192,165506,1,0,0:0:0:0:
192,192,165950,1,0,0:0:0:0:
64,192,165950,1,0,0:0:0:0:
448,192,165950,1,0,0:0:0:0:
192,192,166394,1,0,0:0:0:0:
64,192,166394,1,0,0:0:0:0:
448,192,166506,1,0,0:0:0:0:
320,192,166728,1,0,0:0:0:0:
192,192,166728,1,0,0:0:0:0:
64,192,166728,1,0,0:0:0:0:
448,192,167061,1,0,0:0:0:0:
320,192,167061,1,0,0:0:0:0:
64,192,167283,1,0,0:0:0:0:
192,192,167283,1,0,0:0:0:0:
192,192,167617,1,0,0:0:0:0:
320,192,167728,1,0,0:0:0:0:
448,192,167728,1,0,0:0:0:0:
64,192,167728,1,0,0:0:0:0:
192,192,168061,1,0,0:0:0:0:
64,192,168061,1,0,0:0:0:0:
448,192,168394,1,0,0:0:0:0:
320,192,168394,1,0,0:0:0:0:
192,192,168506,1,0,0:0:0:0:
64,192,168617,1,0,0:0:0:0:
448,192,168617,1,0,0:0:0:0:
320,192,168617,1,0,0:0:0:0:
320,192,168839,128,0,168950:0:0:0:0:
192,192,169061,1,0,0:0:0:0:
64,192,169061,1,0,0:0:0:0:
320,192,169506,1,0,0:0:0:0:
64,192,169506,1,0,0:0:0:0:
192,192,169506,1,0,0:0:0:0:
448,192,169950,1,0,0:0:0:0:
320,192,169950,1,0,0:0:0:0:
64,192,170061,1,0,0:0:0:0:
448,192,170283,1,0,0:0:0:0:
320,192,170283,1,0,0:0:0:0:
192,192,170283,1,0,0:0:0:0:
64,192,170394,1,0,0:0:0:0:
448,192,170617,1,0,0:0:0:0:
320,192,170617,1,0,0:0:0:0:
192,192,170839,1,0,0:0:0:0:
64,192,170839,1,0,0:0:0:0:
448,192,171172,1,0,0:0:0:0:
320,192,171283,1,0,0:0:0:0:
192,192,171283,1,0,0:0:0:0:
64,192,171283,1,0,0:0:0:0:
192,192,171617,1,0,0:0:0:0:
64,192,171617,1,0,0:0:0:0:
448,192,171950,1,0,0:0:0:0:
320,192,171950,1,0,0:0:0:0:
64,192,172061,1,0,0:0:0:0:
192,192,172172,1,0,0:0:0:0:
320,192,172172,1,0,0:0:0:0:
448,192,172172,1,0,0:0:0:0:
320,192,172394,128,0,172506:0:0:0:0:
192,192,172617,1,0,0:0:0:0:
64,192,172617,1,0,0:0:0:0:
448,192,173061,1,0,0:0:0:0:
320,192,173061,1,0,0:0:0:0:
192,192,173061,1,0,0:0:0:0:
448,192,173506,1,0,0:0:0:0:
320,192,173506,1,0,0:0:0:0:
192,192,173617,1,0,0:0:0:0:
448,192,173839,1,0,0:0:0:0:
320,192,173839,1,0,0:0:0:0:
64,192,173839,1,0,0:0:0:0:
320,192,174172,1,0,0:0:0:0:
192,192,174172,1,0,0:0:0:0:
64,192,174394,1,0,0:0:0:0:
192,192,174394,1,0,0:0:0:0:
448,192,174728,1,0,0:0:0:0:
320,192,174839,1,0,0:0:0:0:
192,192,174839,1,0,0:0:0:0:
64,192,174839,1,0,0:0:0:0:
448,192,175172,1,0,0:0:0:0:
320,192,175172,1,0,0:0:0:0:
64,192,175506,1,0,0:0:0:0:
192,192,175506,1,0,0:0:0:0:
320,192,175617,1,0,0:0:0:0:
448,192,175728,1,0,0:0:0:0:
192,192,175728,1,0,0:0:0:0:
64,192,175728,1,0,0:0:0:0:
64,192,175950,128,0,176061:0:0:0:0:
448,192,176172,1,0,0:0:0:0:
320,192,176172,1,0,0:0:0:0:
448,192,176617,1,0,0:0:0:0:
320,192,176617,1,0,0:0:0:0:
192,192,176617,1,0,0:0:0:0:
192,192,177061,1,0,0:0:0:0:
64,192,177061,1,0,0:0:0:0:
320,192,177172,1,0,0:0:0:0:
64,192,177394,1,0,0:0:0:0:
192,192,177394,1,0,0:0:0:0:
448,192,177394,1,0,0:0:0:0:
320,192,177506,1,0,0:0:0:0:
448,192,177728,1,0,0:0:0:0:
320,192,177728,1,0,0:0:0:0:
192,192,177950,1,0,0:0:0:0:
64,192,177950,1,0,0:0:0:0:
448,192,178283,1,0,0:0:0:0:
320,192,178394,1,0,0:0:0:0:
192,192,178394,1,0,0:0:0:0:
64,192,178394,1,0,0:0:0:0:
64,192,178728,1,0,0:0:0:0:
192,192,178728,1,0,0:0:0:0:
320,192,179061,1,0,0:0:0:0:
448,192,179061,1,0,0:0:0:0:
192,192,179172,1,0,0:0:0:0:
320,192,179283,1,0,0:0:0:0:
64,192,179283,1,0,0:0:0:0:
448,192,179283,1,0,0:0:0:0:
448,192,179506,128,0,179617:0:0:0:0:
64,192,179728,1,0,0:0:0:0:
192,192,179728,1,0,0:0:0:0:
448,192,180172,1,0,0:0:0:0:
192,192,180172,1,0,0:0:0:0:
320,192,180172,1,0,0:0:0:0:
448,192,180617,1,0,0:0:0:0:
320,192,180617,1,0,0:0:0:0:
64,192,180728,1,0,0:0:0:0:
448,192,180950,1,0,0:0:0:0:
320,192,180950,1,0,0:0:0:0:
192,192,180950,1,0,0:0:0:0:
192,192,181283,1,0,0:0:0:0:
64,192,181283,1,0,0:0:0:0:
448,192,181506,1,0,0:0:0:0:
320,192,181506,1,0,0:0:0:0:
192,192,181839,1,0,0:0:0:0:
64,192,181950,1,0,0:0:0:0:
320,192,181950,1,0,0:0:0:0:
448,192,181950,1,0,0:0:0:0:
64,192,182283,1,0,0:0:0:0:
192,192,182283,1,0,0:0:0:0:
320,192,182617,1,0,0:0:0:0:
448,192,182617,1,0,0:0:0:0:
64,192,182728,1,0,0:0:0:0:
192,192,182839,1,0,0:0:0:0:
320,192,182839,1,0,0:0:0:0:
448,192,182839,1,0,0:0:0:0:
64,192,183061,1,0,0:0:0:0:
448,192,183283,1,0,0:0:0:0:
320,192,183283,1,0,0:0:0:0:
192,192,183728,1,0,0:0:0:0:
64,192,183728,1,0,0:0:0:0:
448,192,183728,1,0,0:0:0:0:
64,192,184172,1,0,0:0:0:0:
192,192,184172,1,0,0:0:0:0:
448,192,184394,1,0,0:0:0:0:
320,192,184506,1,0,0:0:0:0:
64,192,184506,1,0,0:0:0:0:
192,192,184506,1,0,0:0:0:0:
448,192,185061,1,0,0:0:0:0:
320,192,185061,1,0,0:0:0:0:
192,192,185394,1,0,0:0:0:0:
64,192,185506,1,0,0:0:0:0:
320,192,185506,1,0,0:0:0:0:
448,192,185506,1,0,0:0:0:0:
320,192,185728,1,0,0:0:0:0:
192,192,185839,1,0,0:0:0:0:
64,192,185839,1,0,0:0:0:0:
448,192,186061,1,0,0:0:0:0:
64,192,186172,1,0,0:0:0:0:
192,192,186172,1,0,0:0:0:0:
320,192,186283,1,0,0:0:0:0:
448,192,186394,1,0,0:0:0:0:
192,192,186394,1,0,0:0:0:0:
64,192,186394,1,0,0:0:0:0:
192,192,186617,128,0,186728:0:0:0:0:
448,192,186839,1,0,0:0:0:0:
320,192,186839,1,0,0:0:0:0:
64,192,187172,1,0,0:0:0:0:
320,192,187283,1,0,0:0:0:0:
192,192,187283,1,0,0:0:0:0:
448,192,187283,1,0,0:0:0:0:
64,192,187506,1,0,0:0:0:0:
448,192,187728,1,0,0:0:0:0:
320,192,187728,1,0,0:0:0:0:
192,192,187839,1,0,0:0:0:0:
448,192,188061,1,0,0:0:0:0:
320,192,188061,1,0,0:0:0:0:
64,192,188061,1,0,0:0:0:0:
192,192,188172,1,0,0:0:0:0:
320,192,188394,1,0,0:0:0:0:
448,192,188394,1,0,0:0:0:0:
64,192,188617,1,0,0:0:0:0:
192,192,188617,1,0,0:0:0:0:
448,192,188950,1,0,0:0:0:0:
192,192,189061,1,0,0:0:0:0:
320,192,189061,1,0,0:0:0:0:
64,192,189061,1,0,0:0:0:0:
448,192,189283,1,0,0:0:0:0:
192,192,189394,1,0,0:0:0:0:
64,192,189394,1,0,0:0:0:0:
320,192,189617,1,0,0:0:0:0:
64,192,189728,1,0,0:0:0:0:
192,192,189728,1,0,0:0:0:0:
320,192,189839,1,0,0:0:0:0:
448,192,189950,1,0,0:0:0:0:
64,192,189950,1,0,0:0:0:0:
192,192,189950,1,0,0:0:0:0:
64,192,190172,128,0,190283:0:0:0:0:
448,192,190394,1,0,0:0:0:0:
320,192,190394,1,0,0:0:0:0:
64,192,190728,1,0,0:0:0:0:
320,192,190839,1,0,0:0:0:0:
448,192,190839,1,0,0:0:0:0:
192,192,190839,1,0,0:0:0:0:
64,192,191061,1,0,0:0:0:0:
448,192,191283,1,0,0:0:0:0:
320,192,191283,1,0,0:0:0:0:
192,192,191394,1,0,0:0:0:0:
448,192,191617,1,0,0:0:0:0:
320,192,191617,1,0,0:0:0:0:
64,192,191617,1,0,0:0:0:0:
192,192,191728,1,0,0:0:0:0:
192,192,191950,1,0,0:0:0:0:
64,192,191950,1,0,0:0:0:0:
448,192,192172,1,0,0:0:0:0:
320,192,192172,1,0,0:0:0:0:
64,192,192506,1,0,0:0:0:0:
192,192,192617,1,0,0:0:0:0:
448,192,192617,1,0,0:0:0:0:
320,192,192617,1,0,0:0:0:0:
64,192,192839,1,0,0:0:0:0:
320,192,192950,1,0,0:0:0:0:
448,192,192950,1,0,0:0:0:0:
448,192,193172,1,0,0:0:0:0:
192,192,193283,1,0,0:0:0:0:
64,192,193283,1,0,0:0:0:0:
448,192,193394,1,0,0:0:0:0:
320,192,193506,1,0,0:0:0:0:
64,192,193506,1,0,0:0:0:0:
192,192,193506,1,0,0:0:0:0:
64,192,193728,128,0,193839:0:0:0:0:
320,192,193950,1,0,0:0:0:0:
448,192,193950,1,0,0:0:0:0:
192,192,194283,1,0,0:0:0:0:
320,192,194394,1,0,0:0:0:0:
448,192,194394,1,0,0:0:0:0:
64,192,194394,1,0,0:0:0:0:
192,192,194617,1,0,0:0:0:0:
448,192,194839,1,0,0:0:0:0:
320,192,194839,1,0,0:0:0:0:
64,192,194950,1,0,0:0:0:0:
448,192,195172,1,0,0:0:0:0:
320,192,195172,1,0,0:0:0:0:
192,192,195172,1,0,0:0:0:0:
64,192,195283,1,0,0:0:0:0:
448,192,195506,1,0,0:0:0:0:
320,192,195506,1,0,0:0:0:0:
192,192,195728,1,0,0:0:0:0:
64,192,195728,1,0,0:0:0:0:
448,192,196061,1,0,0:0:0:0:
320,192,196172,1,0,0:0:0:0:
192,192,196172,1,0,0:0:0:0:
64,192,196172,1,0,0:0:0:0:
320,192,196394,1,0,0:0:0:0:
192,192,196506,1,0,0:0:0:0:
64,192,196506,1,0,0:0:0:0:
192,192,196728,1,0,0:0:0:0:
320,192,196839,1,0,0:0:0:0:
448,192,196839,1,0,0:0:0:0:
64,192,196950,1,0,0:0:0:0:
192,192,197061,1,0,0:0:0:0:
448,192,197061,1,0,0:0:0:0:
320,192,197061,1,0,0:0:0:0:
64,192,197283,1,0,0:0:0:0:
192,192,197506,1,0,0:0:0:0:
64,192,197506,1,0,0:0:0:0:
320,192,197839,1,0,0:0:0:0:
448,192,197950,1,0,0:0:0:0:
64,192,197950,1,0,0:0:0:0:
192,192,197950,1,0,0:0:0:0:
448,192,198172,1,0,0:0:0:0:
192,192,198394,1,0,0:0:0:0:
64,192,198394,1,0,0:0:0:0:
448,192,198506,1,0,0:0:0:0:
320,192,198617,1,0,0:0:0:0:
192,192,198728,1,0,0:0:0:0:
64,192,198728,1,0,0:0:0:0:
448,192,198728,1,0,0:0:0:0:
320,192,198839,1,0,0:0:0:0:
448,192,199283,1,0,0:0:0:0:
64,192,199283,1,0,0:0:0:0:
192,192,199617,1,0,0:0:0:0:
320,192,199728,1,0,0:0:0:0:
448,192,199728,1,0,0:0:0:0:
64,192,199728,1,0,0:0:0:0:
64,192,199950,1,0,0:0:0:0:
320,192,200061,1,0,0:0:0:0:
448,192,200061,1,0,0:0:0:0:
192,192,200283,1,0,0:0:0:0:
320,192,200394,1,0,0:0:0:0:
448,192,200394,1,0,0:0:0:0:
64,192,200506,1,0,0:0:0:0:
192,192,200617,1,0,0:0:0:0:
320,192,200617,1,0,0:0:0:0:
448,192,200617,1,0,0:0:0:0:
448,192,200839,128,0,200950:0:0:0:0:
192,192,201061,1,0,0:0:0:0:
64,192,201061,1,0,0:0:0:0:
320,192,201394,1,0,0:0:0:0:
448,192,201506,1,0,0:0:0:0:
192,192,201506,1,0,0:0:0:0:
64,192,201506,1,0,0:0:0:0:
448,192,201728,1,0,0:0:0:0:
192,192,201950,1,0,0:0:0:0:
64,192,201950,1,0,0:0:0:0:
320,192,202061,1,0,0:0:0:0:
192,192,202283,1,0,0:0:0:0:
64,192,202283,1,0,0:0:0:0:
320,192,202283,1,0,0:0:0:0:
448,192,202394,1,0,0:0:0:0:
192,192,202617,1,0,0:0:0:0:
64,192,202617,1,0,0:0:0:0:
448,192,202839,1,0,0:0:0:0:
320,192,202839,1,0,0:0:0:0:
64,192,203172,1,0,0:0:0:0:
448,192,203283,1,0,0:0:0:0:
192,192,203283,1,0,0:0:0:0:
320,192,203283,1,0,0:0:0:0:
192,192,203506,1,0,0:0:0:0:
448,192,203617,1,0,0:0:0:0:
320,192,203617,1,0,0:0:0:0:
448,192,203839,1,0,0:0:0:0:
192,192,203950,1,0,0:0:0:0:
64,192,203950,1,0,0:0:0:0:
320,192,204061,1,0,0:0:0:0:
448,192,204172,1,0,0:0:0:0:
192,192,204172,1,0,0:0:0:0:
64,192,204172,1,0,0:0:0:0:
64,192,204394,128,0,204506:0:0:0:0:
320,192,204617,1,0,0:0:0:0:
448,192,204617,1,0,0:0:0:0:
192,192,204950,1,0,0:0:0:0:
64,192,205061,1,0,0:0:0:0:
320,192,205061,1,0,0:0:0:0:
448,192,205061,1,0,0:0:0:0:
192,192,205283,1,0,0:0:0:0:
448,192,205506,1,0,0:0:0:0:
320,192,205506,1,0,0:0:0:0:
64,192,205617,1,0,0:0:0:0:
448,192,205839,1,0,0:0:0:0:
320,192,205839,1,0,0:0:0:0:
192,192,205839,1,0,0:0:0:0:
64,192,205950,1,0,0:0:0:0:
448,192,206172,1,0,0:0:0:0:
320,192,206172,1,0,0:0:0:0:
64,192,206394,1,0,0:0:0:0:
192,192,206394,1,0,0:0:0:0:
448,192,206728,1,0,0:0:0:0:
320,192,206839,1,0,0:0:0:0:
192,192,206839,1,0,0:0:0:0:
64,192,206839,1,0,0:0:0:0:
448,192,207061,1,0,0:0:0:0:
192,192,207172,1,0,0:0:0:0:
64,192,207172,1,0,0:0:0:0:
192,192,207394,1,0,0:0:0:0:
320,192,207506,1,0,0:0:0:0:
448,192,207506,1,0,0:0:0:0:
64,192,207617,1,0,0:0:0:0:
192,192,207728,1,0,0:0:0:0:
320,192,207728,1,0,0:0:0:0:
448,192,207728,1,0,0:0:0:0:
320,192,207950,128,0,208061:0:0:0:0:
192,192,208172,1,0,0:0:0:0:
64,192,208172,1,0,0:0:0:0:
320,192,208506,1,0,0:0:0:0:
448,192,208617,1,0,0:0:0:0:
192,192,208617,1,0,0:0:0:0:
64,192,208617,1,0,0:0:0:0:
64,192,208839,1,0,0:0:0:0:
448,192,209061,1,0,0:0:0:0:
320,192,209061,1,0,0:0:0:0:
192,192,209172,1,0,0:0:0:0:
448,192,209394,1,0,0:0:0:0:
320,192,209394,1,0,0:0:0:0:
192,192,209394,1,0,0:0:0:0:
64,192,209506,1,0,0:0:0:0:
448,192,209728,1,0,0:0:0:0:
320,192,209728,1,0,0:0:0:0:
192,192,209950,1,0,0:0:0:0:
64,192,209950,1,0,0:0:0:0:
448,192,210283,1,0,0:0:0:0:
320,192,210394,1,0,0:0:0:0:
192,192,210394,1,0,0:0:0:0:
64,192,210394,1,0,0:0:0:0:
320,192,210617,1,0,0:0:0:0:
192,192,210728,1,0,0:0:0:0:
64,192,210728,1,0,0:0:0:0:
64,192,210950,1,0,0:0:0:0:
320,192,211061,1,0,0:0:0:0:
448,192,211061,1,0,0:0:0:0:
192,192,211172,1,0,0:0:0:0:
64,192,211283,1,0,0:0:0:0:
320,192,211283,1,0,0:0:0:0:
448,192,211283,1,0,0:0:0:0:
448,192,211506,1,0,0:0:0:0:
64,192,211728,1,0,0:0:0:0:
192,192,211728,1,0,0:0:0:0:
320,192,212061,1,0,0:0:0:0:
448,192,212172,1,0,0:0:0:0:
64,192,212172,1,0,0:0:0:0:
192,192,212172,1,0,0:0:0:0:
192,192,212394,1,0,0:0:0:0:
320,192,212617,1,0,0:0:0:0:
448,192,212617,1,0,0:0:0:0:
64,192,212728,1,0,0:0:0:0:
192,192,212839,1,0,0:0:0:0:
448,192,212950,1,0,0:0:0:0:
320,192,212950,1,0,0:0:0:0:
64,192,212950,1,0,0:0:0:0:
192,192,213061,1,0,0:0:0:0:
448,192,213506,128,0,213561:0:0:0:0:
64,192,213506,128,0,213561:0:0:0:0:
