osu file format v14

[General]
AudioFilename: audio.mp3
AudioLeadIn: 0
PreviewTime: 4506
Countdown: 1
SampleSet: Soft
StackLeniency: 0.7
Mode: 0
LetterboxInBreaks: 0
WidescreenStoryboard: 0

[Editor]
DistanceSpacing: 1.1
BeatDivisor: 4
GridSize: 4
TimelineZoom: 1

[Metadata]
Title:Casin
TitleUnicode:Casin
Artist:glue70
ArtistUnicode:glue70
Creator:Fookiezi
Version:meme
Source:
Tags:
BeatmapID:1101807
BeatmapSetID:518542

[Difficulty]
HPDrainRate:5
CircleSize:3.5
OverallDifficulty:8
ApproachRate:9.3
SliderMultiplier:2.6
SliderTickRate:1

[Events]
//Background and Video events
0,0,"e6847882f00116ac0514d4a580d90941.jpg",0,0
//Break Periods
//Storyboard Layer 0 (Background)
//Storyboard Layer 1 (Fail)
//Storyboard Layer 2 (Pass)
//Storyboard Layer 3 (Foreground)
//Storyboard Sound Samples

[TimingPoints]
180,576.923076923077,4,2,0,60,1,0
180,-200,4,2,0,10,0,0
756,-166.666666666667,4,2,0,20,0,0
1333,-142.857142857143,4,2,0,30,0,0
1910,-125,4,2,0,40,0,0
2487,-111.111111111111,4,2,0,50,0,0
3064,-100,4,2,0,60,0,0
3641,-90.9090909090909,4,2,0,70,0,0
4218,-90.9090909090909,4,2,0,5,0,0
4795,-83.3333333333333,4,1,0,50,0,0
6814,-66.6666666666667,4,1,0,50,0,0
7103,-83.3333333333333,4,1,0,50,0,0
8833,-66.6666666666667,4,1,0,50,0,0
9410,-83.3333333333333,4,1,0,50,0,0
11430,-133.333333333333,4,1,0,50,0,0
11718,-83.3333333333333,4,1,0,50,0,0
13737,-50,4,1,0,50,0,0
14026,-83.3333333333333,4,1,0,50,0,0
16766,-66.6666666666667,4,1,0,50,0,0
17487,-66.6666666666667,4,1,0,50,0,0
18641,-83.3333333333333,4,1,0,50,0,0
20372,-66.6666666666667,4,1,0,50,0,0
20949,-83.3333333333333,4,1,0,50,0,0
21526,-71.4285714285714,4,1,0,50,0,0
22103,-62.5,4,1,0,50,0,0
23256,-83.3333333333333,4,1,0,50,0,0
23545,-71.4285714285714,4,1,0,50,0,0
23833,-62.5,4,1,0,50,0,0
24122,-55.5555555555556,4,1,0,50,0,0
25276,-50,4,1,0,50,0,0
25564,-83.3333333333333,4,1,0,50,0,0
27295,-66.6666666666667,4,1,0,50,0,0
27872,-83.3333333333333,4,1,0,50,0,0
29891,-133.333333333333,4,1,0,50,0,0
30180,-83.3333333333333,4,1,0,50,0,0
32199,-50,4,1,0,50,0,0
32487,-83.3333333333333,4,1,0,50,0,0
35228,-66.6666666666667,4,1,0,50,0,0
37103,-83.3333333333333,4,1,0,50,0,0
38833,-66.6666666666667,4,1,0,50,0,0
39410,-83.3333333333333,4,1,0,50,0,0
39987,-71.4285714285714,4,1,0,50,0,0
40564,-62.5,4,1,0,50,0,0
41141,-200,4,1,0,50,0,0
41430,-200,4,2,0,5,0,0
42295,-200,4,1,0,50,0,0

[HitObjects]
204,132,180,6,0,P|240:136|260:176,1,65
176,288,756,6,0,P|176:244|216:200,1,77.999997619629
344,280,1333,6,0,L|236:264,1,90.9999972229005
124,172,1910,6,0,L|-12:184,1,104
172,36,2487,6,0,B|176:100|176:100|224:156,1,116.999996429443
380,88,3064,6,0,B|302:51|302:51|239:65,1,130
274,277,3641,6,0,L|292:136,1,143.000004364014
260,360,4218,5,0,0:0:0:0:
48,200,4795,5,4,0:0:0:0:
128,172,4939,1,0,0:0:0:0:
212,184,5083,1,0,0:0:0:0:
288,224,5228,1,0,0:0:0:0:
332,296,5372,5,8,0:0:0:0:
284,140,5516,1,0,0:0:0:0:
260,344,5660,5,0,0:0:0:0:
352,92,5804,1,0,0:0:0:0:
216,268,5949,6,0,P|148:308|52:288,1,155.999995239258,4|0,0:0|0:0,0:0:0:0:
180,100,6381,1,0,0:0:0:0:
64,115,6526,2,0,L|180:99,1,116.999996429444,8|0,0:0|0:0,0:0:0:0:
236,32,6814,6,0,B|276:80|256:140|256:140|272:208,1,146.250005578995
284,248,7103,6,0,P|288:184|384:112,1,155.999995239258,4|0,0:0|0:0,0:0:0:0:
432,104,7535,1,0,0:0:0:0:
380,320,7680,2,0,B|272:336|272:336|220:308,1,155.999995239258,8|0,0:0|0:0,0:0:0:0:
156,276,8112,1,0,0:0:0:0:
88,160,8256,6,0,B|76:116|108:88|108:88|88:120|104:162,1,155.999995239258,4|4,0:0|0:0,0:0:0:0:
4,92,8833,6,0,B|64:96|107:62|107:62|183:79|183:79|231:67|231:91|287:67,1,292.50001115799,2|0,0:0|0:0,0:0:0:0:
464,56,9410,5,4,0:0:0:0:
376,92,9555,1,0,0:0:0:0:
264,244,9699,1,0,0:0:0:0:
176,280,9843,1,0,0:0:0:0:
320,168,9987,2,0,P|352:244|320:296,1,77.999997619629,8|0,0:0|0:0,0:0:0:0:
88,260,10276,5,0,0:0:0:0:
164,120,10420,2,0,L|148:216,1,77.999997619629,0|4,0:0|0:0,0:0:0:0:
116,348,10708,1,0,0:0:0:0:
92,68,10853,2,0,P|116:44|188:40,1,77.999997619629
356,56,11141,2,0,L|204:40,1,116.999996429443,8|0,0:0|0:0,0:0:0:0:
256,68,11430,6,0,L|252:104,1,24.3750009298325,2|0,0:0|0:0,0:0:0:0:
440,76,11574,2,0,L|444:40,1,24.3750009298325,2|2,0:0|0:0,0:0:0:0:
264,180,11718,6,0,P|216:176|176:132,1,77.999997619629,4|0,0:0|0:0,0:0:0:0:
304,264,12006,1,0,0:0:0:0:
253,92,12151,1,0,0:0:0:0:
308,360,12295,1,8,0:0:0:0:
359,188,12440,1,0,0:0:0:0:
400,336,12583,1,0,0:0:0:0:
424,252,12728,1,0,0:0:0:0:
221,315,12872,6,0,L|144:324,1,77.999997619629,4|0,0:0|0:0,0:0:0:0:
376,168,13160,2,0,L|453:159,1,77.999997619629
153,79,13449,2,0,L|76:88,1,77.999997619629,8|0,0:0|0:0,0:0:0:0:
276,132,13737,6,0,B|296:48|216:17|216:17|240:36|240:69,1,195,2|0,0:0|0:0,0:0:0:0:
192,156,14026,5,4,0:0:0:0:
252,216,14170,1,0,0:0:0:0:
336,200,14314,1,0,0:0:0:0:
420,216,14458,1,0,0:0:0:0:
472,284,14603,5,8,0:0:0:0:
396,132,14747,1,0,0:0:0:0:
360,280,14891,5,0,0:0:0:0:
416,44,15035,1,0,0:0:0:0:
256,232,15180,6,0,P|188:276|96:260,1,155.999995239258,4|0,0:0|0:0,0:0:0:0:
40,228,15612,1,0,0:0:0:0:
220,88,15756,2,0,P|252:120|252:200,1,77.999997619629,8|0,0:0|0:0,0:0:0:0:
408,192,16045,2,0,P|364:203|295:163,1,77.999997619629
244,352,16333,6,0,P|196:300|232:212,1,155.999995239258,4|0,0:0|0:0,0:0:0:0:
380,284,16766,6,0,B|304:292|252:232|252:232|264:288|340:328,1,195.00000743866
274,277,17199,1,0,0:0:0:0:
172,72,17487,6,0,B|164:168|164:168|224:80,1,195.00000743866,4|0,0:0|0:0,0:0:0:0:
256,4,17920,2,0,L|48:36,1,195.00000743866
63,33,18353,1,0,0:0:0:0:
336,40,18641,5,4,0:0:0:0:
404,92,18785,1,0,0:0:0:0:
420,176,18930,1,0,0:0:0:0:
388,256,19074,1,0,0:0:0:0:
320,308,19218,2,0,L|224:296,1,77.999997619629,8|0,0:0|0:0,0:0:0:0:
472,244,19506,5,0,0:0:0:0:
384,80,19651,2,0,P|340:84|304:120,1,77.999997619629,0|4,0:0|0:0,0:0:0:0:
400,284,19939,1,0,0:0:0:0:
224,180,20083,2,0,P|266:191|295:233,1,77.999997619629
472,328,20372,6,0,B|412:324|372:352|372:352|396:300,1,146.250005578995,8|0,0:0|0:0,0:0:0:0:
296,332,20660,2,0,B|313:294|313:294|273:322|213:318,1,146.250005578995
132,312,20949,5,4,0:0:0:0:
220,68,21237,2,0,L|228:192,1,116.999996429443
227,184,21526,5,8,0:0:0:0:
412,268,21814,2,0,L|424:128,1,136.499995834351
423,131,22103,5,4,0:0:0:0:
40,16,22391,2,0,L|56:204,1,156
53,171,22680,5,8,0:0:0:0:
72,164,22824,1,0,0:0:0:0:
92,164,22968,1,0,0:0:0:0:
112,172,23112,1,0,0:0:0:0:
152,96,23256,6,0,P|184:124|188:208,1,77.999997619629,4|0,0:0|0:0,0:0:0:0:
188,352,23545,6,0,P|167:314|192:234,1,77.999997619629
280,120,23833,6,0,P|286:162|233:235,1,104,8|0,0:0|0:0,0:0:0:0:
80,296,24122,5,0,0:0:0:0:
196,156,24266,1,0,0:0:0:0:
368,336,24410,1,4,0:0:0:0:
396,348,24699,5,0,0:0:0:0:
380,232,24843,1,0,0:0:0:0:
252,288,24987,1,8,0:0:0:0:
188,136,25131,1,0,0:0:0:0:
0,236,25276,6,0,B|68:216|68:216|84:236|120:244|120:244|144:224|188:228|188:228,1,195,2|0,0:0|0:0,0:0:0:0:
260,196,25564,6,0,P|280:128|228:52,1,155.999995239258,4|0,0:0|0:0,0:0:0:0:
148,32,25997,1,0,0:0:0:0:
16,136,26141,2,0,L|184:120,1,155.999995239258,8|0,0:0|0:0,0:0:0:0:
328,24,26574,1,0,0:0:0:0:
252,144,26718,6,0,B|140:140|196:172|72:160,1,155.999995239258,4|0,0:0|0:0,0:0:0:0:
328,108,27295,6,0,B|280:176|308:244|308:244|320:284|296:328|296:328|324:304|392:320,1,292.50001115799,2|0,0:0|0:0,0:0:0:0:
216,272,27872,5,4,0:0:0:0:
388,188,28016,1,0,0:0:0:0:
228,112,28160,1,0,0:0:0:0:
440,280,28305,1,0,0:0:0:0:
160,188,28449,2,0,L|72:196,1,77.999997619629,8|0,0:0|0:0,0:0:0:0:
220,24,28737,5,0,0:0:0:0:
300,56,28881,2,0,P|320:112|308:160,1,77.999997619629,0|4,0:0|0:0,0:0:0:0:
68,276,29170,1,0,0:0:0:0:
0,224,29314,2,0,P|0:164|28:123,1,77.999997619629
224,116,29603,2,0,L|76:100,1,116.999996429443,8|0,0:0|0:0,0:0:0:0:
88,116,29891,6,0,L|92:76,1,24.3750009298325,2|0,0:0|0:0,0:0:0:0:
176,4,30035,2,0,L|173:28,1,24.3750009298325,2|2,0:0|0:0,0:0:0:0:
152,188,30180,6,0,P|148:232|196:292,1,77.999997619629,4|0,0:0|0:0,0:0:0:0:
328,224,30468,1,0,0:0:0:0:
132,344,30612,1,0,0:0:0:0:
240,216,30756,1,8,0:0:0:0:
72,280,30901,1,0,0:0:0:0:
276,296,31045,1,0,0:0:0:0:
216,356,31189,1,0,0:0:0:0:
292,148,31333,6,0,L|284:28,1,77.999997619629,4|0,0:0|0:0,0:0:0:0:
364,308,31622,2,0,L|433:342,1,77.999997619629
208,120,31910,2,0,L|108:186,1,77.999997619629,8|0,0:0|0:0,0:0:0:0:
64,344,32199,6,0,B|48:296|88:268|88:268|52:240|68:212|68:212|52:188|68:144,1,195,2|0,0:0|0:0,0:0:0:0:
96,92,32487,5,4,0:0:0:0:
188,68,32631,1,0,0:0:0:0:
280,92,32776,1,0,0:0:0:0:
320,176,32920,1,0,0:0:0:0:
300,268,33064,5,8,0:0:0:0:
372,100,33208,1,0,0:0:0:0:
360,332,33353,5,0,0:0:0:0:
332,20,33497,1,0,0:0:0:0:
340,184,33641,6,0,P|275:239|196:239,1,155.999995239258
116,224,34074,1,0,0:0:0:0:
100,367,34218,2,0,P|84:283|124:215,1,155.999995239258,8|0,0:0|0:0,0:0:0:0:
184,156,34651,1,0,0:0:0:0:
67,70,34795,6,0,P|147:98|186:166,1,155.999995239258,4|0,0:0|0:0,0:0:0:0:
358,81,35228,6,0,L|150:69,1,195.00000743866
164,70,35660,1,0,0:0:0:0:
445,314,35949,6,0,P|364:285|328:180,1,195.00000743866
152,302,36382,2,0,L|368:314,1,195.00000743866
347,313,36814,1,0,0:0:0:0:
80,196,37103,5,4,0:0:0:0:
263,122,37247,1,0,0:0:0:0:
98,93,37391,1,0,0:0:0:0:
245,225,37535,1,0,0:0:0:0:
80,76,37680,2,0,L|96:-12,1,77.999997619629,8|0,0:0|0:0,0:0:0:0:
284,140,37968,5,0,0:0:0:0:
340,216,38112,2,0,P|340:272|300:332,1,77.999997619629
192,160,38401,1,0,0:0:0:0:
360,88,38545,2,0,P|340:35|282:-7,1,77.999997619629
104,176,38833,6,0,B|64:228|104:276|104:276|160:296,1,146.250005578995,8|0,0:0|0:0,0:0:0:0:
226,272,39122,2,0,B|266:220|226:172|226:172|191:159,1,146.250005578995
136,92,39410,5,4,0:0:0:0:
444,192,39699,2,0,B|396:176|396:176|296:192,1,116.999996429443
330,186,39987,5,8,0:0:0:0:
72,44,40276,2,0,B|129:59|129:59|240:40,1,136.499995834351
205,46,40564,5,4,0:0:0:0:
128,352,40853,2,0,B|112:304|112:304|144:164,1,156
135,201,41141,5,8,0:0:0:0:
424,276,41430,6,0,B|304:264|364:304|244:288,1,178.75
248,288,42295,5,4,0:0:0:0:
