osu file format v14

[General]
AudioFilename: audio.mp3
AudioLeadIn: 0
PreviewTime: 60196
Countdown: 0
SampleSet: Soft
StackLeniency: 0.3
Mode: 0
LetterboxInBreaks: 0
WidescreenStoryboard: 0

[Editor]
Bookmarks: 53850
DistanceSpacing: 0.9
BeatDivisor: 4
GridSize: 16
TimelineZoom: 2.2

[Metadata]
Title:smile, sweet, sister, sosister
TitleUnicode:smile, sweet, sister, sosister
Artist:gle6
ArtistUnicode:gle6
Creator:schoolboy
Version:testo's insane
Source:
Tags:komore testo neilperry djulus seikatu bon appetit счастливы вместе schastlivy vmeste ブレンド・S ぶれんど・えーす opening blend a gleb happy together
BeatmapID:1601386
BeatmapSetID:759957

[Difficulty]
HPDrainRate:5
CircleSize:4
OverallDifficulty:8
ApproachRate:9.2
SliderMultiplier:2.7
SliderTickRate:1

[Events]
//Background and Video events
0,0,"33.jpg",0,0
//Break Periods
//Storyboard Layer 0 (Background)
//Storyboard Layer 1 (Fail)
//Storyboard Layer 2 (Pass)
//Storyboard Layer 3 (Foreground)
//Storyboard Sound Samples

[TimingPoints]
887,394.736842105263,4,2,1,60,1,0
7202,-100,4,2,1,70,0,0
8781,-66.6666666666667,4,2,1,70,0,0
9965,-100,4,2,1,70,0,0
11939,-66.6666666666667,4,2,1,70,0,0
13518,-100,4,2,1,70,0,0
16676,-76.9230769230769,4,2,1,75,0,0
18452,-66.6666666666667,4,2,1,75,0,0
19834,-166.666666666667,4,2,2,50,0,0
26150,-133.333333333333,4,2,2,50,0,0
31281,-200,4,2,2,50,0,0
31972,-133.333333333333,4,2,2,50,0,0
32465,-125,4,2,2,50,0,0
34044,-125,4,2,2,50,0,0
35229,-125,4,2,2,50,0,0
35623,-125,4,2,2,50,0,0
36808,-125,4,2,2,50,0,0
38781,-100,4,2,1,60,0,0
41939,-83.3333333333333,4,2,1,65,0,0
42334,-83.3333333333333,4,2,1,65,0,0
43321,-83.3333333333333,4,2,1,65,0,0
45886,-66.6666666666667,4,2,1,65,0,0
46479,-50,4,2,1,65,0,0
47465,-83.3333333333333,4,2,1,45,0,0
47860,-83.3333333333333,4,2,1,55,0,0
48255,-83.3333333333333,4,2,1,70,0,0
52893,-66.6666666666667,4,2,1,70,0,0
53288,-83.3333333333333,4,2,1,70,0,0
57729,-200,4,2,1,70,0,0
58123,-66.6666666666667,4,2,1,70,0,0
58518,-200,4,2,1,70,0,0
58913,-66.6666666666667,4,2,1,70,0,0
59308,-83.3333333333333,4,2,1,70,0,0
59702,-83.3333333333333,4,2,1,70,0,0
60886,-83.3333333333333,4,2,1,75,0,0
65623,-83.3333333333333,4,2,1,75,0,0
65673,-83.3333333333333,4,2,1,5,0,0
65722,-83.3333333333333,4,2,1,75,0,0
66018,-71.4285714285714,4,2,1,75,0,0
66067,-71.4285714285714,4,2,1,5,0,0
66117,-71.4285714285714,4,2,1,75,0,0
66413,-62.5,4,2,1,75,0,0
66462,-62.5,4,2,1,5,0,0
66511,-62.5,4,2,1,75,0,0
66808,-55.5555555555556,4,2,1,75,0,0
67202,-100,4,2,1,65,0,0
70360,-66.6666666666667,4,2,1,75,0,0
70410,-66.6666666666667,4,2,1,5,0,0
70755,-66.6666666666667,4,2,1,75,0,0
70804,-66.6666666666667,4,2,1,5,0,0
71150,-66.6666666666667,4,2,1,75,0,0
71939,-83.3333333333333,4,2,1,75,0,0
76577,-66.6666666666667,4,2,1,75,0,0
77268,-58.8235294117647,4,2,1,75,0,0
77761,-83.3333333333333,4,2,1,75,0,0
78847,-50,4,2,1,75,0,0
79242,-83.3333333333333,4,2,1,75,0,0
79834,-83.3333333333333,4,2,1,75,0,0
83386,-66.6666666666667,4,2,1,75,0,0
83436,-66.6666666666667,4,2,1,5,0,0
83683,-66.6666666666667,4,2,1,75,0,0
83979,-66.6666666666667,4,2,1,75,0,0
84176,-83.3333333333333,4,2,1,75,0,0
84225,-83.3333333333333,4,2,1,5,0,0
84373,-83.3333333333333,4,2,1,75,0,0
84571,-90.9090909090909,4,2,1,75,0,0
86544,-66.6666666666667,4,2,1,75,0,0
86594,-66.6666666666667,4,2,1,5,0,0
86939,-66.6666666666667,4,2,1,75,0,0
87334,-66.6666666666667,4,2,1,75,0,0
87383,-66.6666666666667,4,2,1,5,0,0
87531,-90.9090909090909,4,2,1,75,0,0
87962,394.736842105263,4,2,1,75,1,0
87962,-76.9230769230769,4,2,1,75,0,0
89011,-133.333333333333,4,2,1,50,0,0

[Colours]
Combo1 : 255,94,55
Combo2 : 173,255,95
Combo3 : 17,254,176
Combo4 : 255,88,100

[HitObjects]
158,150,887,6,0,P|207:150|272:88,1,135,12|0,0:0|0:0,0:0:0:0:
167,26,1183,2,0,P|142:68|162:155,1,135,8|0,0:0|0:0,0:0:0:0:
343,125,1479,6,0,P|346:96|338:57,1,67.5,8|0,0:0|0:0,0:0:0:0:
291,200,1676,2,0,P|330:215|427:160,1,135,2|0,0:0|0:0,0:0:0:0:
366,297,1972,2,0,P|359:255|263:199,1,135,0|0,0:0|0:0,0:0:0:0:
143,265,2268,5,0,0:0:0:0:
143,265,2367,1,0,0:0:0:0:
143,265,2465,2,0,P|102:271|65:287,1,67.5,8|0,0:0|0:0,0:0:0:0:
208,325,2663,2,0,P|239:336|273:340,1,67.5,2|8,0:0|0:0,0:0:0:0:
191,193,2860,1,0,0:0:0:0:
104,91,3058,6,0,P|74:104|31:106,1,67.5,8|0,0:0|0:0,0:0:0:0:
191,193,3255,2,0,P|161:180|118:178,1,67.5,2|8,0:0|0:0,0:0:0:0:
278,91,3452,2,0,P|248:104|205:106,1,67.5,0|0,0:0|0:0,0:0:0:0:
305,197,3650,2,0,B|359:227|440:218|442:119|371:104,1,202.5,8|0,0:0|0:0,0:0:0:0:
261,267,4044,6,0,P|313:291|458:270,1,202.5,10|8,0:0|0:0,0:0:0:0:
505,133,4439,1,0,0:0:0:0:
505,133,4537,1,0,0:0:0:0:
505,133,4636,2,0,P|483:154|468:189,1,67.5,8|0,0:0|0:0,0:0:0:0:
355,41,4834,5,2,0:0:0:0:
398,90,4932,1,8,0:0:0:0:
392,155,5031,1,2,0:0:0:0:
258,258,5229,1,2,0:0:0:0:
141,131,5426,2,0,P|130:163|131:203,1,67.5,2|0,0:0|0:0,0:0:0:0:
227,33,5623,5,6,0:0:0:0:
340,137,6413,6,0,P|379:140|424:125,3,67.5,0|0|2|2,0:0|0:0|0:3|0:3,0:0:0:0:
303,62,6808,1,2,0:3:0:0:
252,67,6906,1,0,0:0:0:0:
202,73,7005,1,0,0:0:0:0:
152,79,7104,1,0,0:0:0:0:
101,85,7202,6,0,P|75:152|84:220,1,135,4|8,1:2|0:0,0:0:0:0:
150,313,7498,1,0,0:0:0:0:
150,313,7597,2,0,P|161:269|146:222,1,67.5,2|0,0:0|0:0,0:0:0:0:
5,255,7794,2,0,P|37:286|85:297,1,67.5,8|0,0:0|0:0,0:0:0:0:
280,238,7992,6,0,P|212:219|136:283,1,135,2|8,0:0|0:0,0:0:0:0:
330,295,8288,1,2,0:0:0:0:
389,244,8386,2,0,P|419:238|475:247,1,67.5,0|0,0:0|0:0,0:0:0:0:
272,346,8584,2,0,P|238:348|205:342,1,67.5,8|0,0:0|0:0,0:0:0:0:
136,111,8781,6,0,B|196:181|265:291|56:351|69:181|162:193,1,303.750011587143,2|0,0:0|0:0,0:0:0:0:
251,155,9176,2,0,B|277:218|263:305|186:335|186:335|241:317|271:345,1,303.750011587143,2|0,0:0|0:0,0:0:0:0:
71,200,9571,6,0,P|132:151|268:165,1,202.500007724762,2|8,0:0|0:0,0:0:0:0:
362,265,9867,1,0,0:0:0:0:
362,265,9965,2,0,P|346:216|349:164,1,67.5,2|0,0:0|0:0,0:0:0:0:
430,60,10163,2,0,P|429:110|416:151,1,67.5,8|0,0:0|0:0,0:0:0:0:
248,311,10360,6,0,B|405:337|359:235|530:276,1,270,6|0,0:0|0:0,0:0:0:0:
451,187,10854,1,0,0:0:0:0:
451,187,10952,2,0,P|445:152|455:113,1,67.5,8|0,0:0|0:0,0:0:0:0:
297,27,11150,2,0,P|326:74|308:180,1,135,2|8,0:0|0:0,0:0:0:0:
202,112,11446,2,0,P|228:63|329:25,1,135,2|0,0:0|0:0,0:0:0:0:
243,193,11742,2,0,P|205:202|173:199,1,67.5,8|0,0:0|0:0,0:0:0:0:
336,234,11939,6,0,B|165:267|242:159|-2:216,1,303.750011587143,6|0,0:0|0:0,0:0:0:0:
39,353,12334,2,0,B|210:386|133:278|377:335,1,303.750011587143,2|0,0:0|0:0,0:0:0:0:
458,211,12729,2,0,P|428:240|408:311,1,101.250003862381,2|8,0:0|0:0,0:0:0:0:
449,108,12926,1,0,0:0:0:0:
400,99,13025,1,0,0:0:0:0:
351,90,13123,1,8,0:0:0:0:
302,81,13223,1,8,0:0:0:0:
253,72,13321,1,8,0:0:0:0:
204,63,13419,1,8,0:0:0:0:
155,54,13518,6,0,P|156:90|169:120,1,67.5,6|0,0:0|0:0,0:0:0:0:
296,189,13715,2,0,P|264:171|231:168,1,67.5,0|0,0:0|0:0,0:0:0:0:
108,243,13913,2,0,P|138:224|158:197,1,67.5,2|0,0:0|0:0,0:0:0:0:
25,199,14110,5,8,0:0:0:0:
15,265,14208,1,0,0:0:0:0:
6,332,14308,2,0,P|72:336|128:379,1,135,2|8,0:0|0:0,0:0:0:0:
308,287,14604,2,0,L|155:310,1,135,0|0,3:0|0:0,0:0:0:0:
364,349,14900,2,0,L|430:359,1,67.5,8|0,0:0|0:0,0:0:0:0:
358,169,15097,6,0,P|317:218|316:315,1,135,2|8,0:0|0:0,0:0:0:0:
307,51,15393,2,0,P|348:100|349:197,1,135,2|0,0:0|0:0,0:0:0:0:
186,158,15689,6,0,L|253:147,1,67.5,8|0,0:0|0:0,0:0:0:0:
400,257,15886,2,0,L|467:268,1,67.5,2|0,0:0|0:0,0:0:0:0:
299,245,16084,1,8,0:0:0:0:
81,286,16281,1,2,0:0:0:0:
154,77,16479,1,8,0:0:0:0:
81,286,16676,5,2,0:0:0:0:
186,158,16873,1,2,0:0:0:0:
350,141,17071,2,0,P|396:172|323:181,1,175.499991966248,6|0,0:0|0:0,0:0:0:0:
455,303,17465,5,2,0:0:0:0:
291,286,17663,1,2,0:0:0:0:
186,158,17860,2,0,P|118:145|159:200,1,175.499991966248,6|0,0:0|0:0,0:0:0:0:
41,81,18255,5,0,0:0:0:0:
41,81,18354,1,0,0:0:0:0:
41,81,18452,2,0,P|132:42|251:57,1,202.500007724762,8|0,0:0|0:0,0:0:0:0:
425,81,18748,2,0,P|325:89|232:50,1,202.500007724762,8|0,0:0|0:0,0:0:0:0:
41,81,19044,6,0,B|90:44|160:27|234:51|234:51|294:93|350:104|440:77,1,405.000015449524,12|0,0:0|0:0,0:0:0:0:
425,80,19834,6,0,B|393:172|448:155|412:247,1,161.999995056153,6|8,1:2|0:0,0:0:0:0:
487,293,20426,1,0,0:0:0:0:
487,293,20623,2,0,P|432:270|320:310,1,161.999995056153,0|8,0:0|0:0,0:0:0:0:
277,343,21215,1,0,0:0:0:0:
17,123,21413,6,0,B|116:107|87:160|201:140,1,161.999995056153,6|8,1:2|0:0,0:0:0:0:
275,89,22005,1,0,0:0:0:0:
275,89,22202,2,0,B|374:105|345:52|459:72,1,161.999995056153,0|8,0:0|0:0,0:0:0:0:
508,77,22794,1,0,0:0:0:0:
321,358,22992,6,0,P|345:276|330:186,1,161.999995056153,6|8,1:2|0:0,0:0:0:0:
182,115,23584,1,0,0:0:0:0:
182,115,23781,2,0,P|158:197|173:287,1,161.999995056153,0|8,0:0|0:0,0:0:0:0:
215,334,24373,1,0,0:0:0:0:
499,68,24571,6,0,L|326:47,1,161.999995056153,6|8,1:2|0:0,0:0:0:0:
120,177,25163,1,0,0:0:0:0:
120,177,25261,1,0,0:0:0:0:
120,177,25360,2,0,L|222:162,1,80.9999975280763,0|4,0:0|3:0,0:0:0:0:
45,232,25656,1,4,3:0:0:0:
25,230,25755,1,4,3:0:0:0:
172,249,25952,5,4,3:0:0:0:
192,247,26051,1,4,3:0:0:0:
212,245,26150,1,6,3:0:0:0:
338,227,26347,1,4,3:0:0:0:
338,227,26446,1,4,3:0:0:0:
295,315,26643,1,4,3:0:0:0:
295,315,26742,1,4,3:0:0:0:
259,163,26939,1,4,3:0:0:0:
260,147,27037,1,4,3:0:0:0:
262,132,27136,1,4,3:0:0:0:
264,117,27235,1,4,3:0:0:0:
266,102,27333,1,4,3:0:0:0:
396,27,27531,5,4,3:0:0:0:
396,27,27630,1,4,3:0:0:0:
396,27,27729,1,6,3:0:0:0:
469,137,27926,1,0,3:0:0:0:
469,137,28025,1,4,3:0:0:0:
469,137,28123,1,4,3:0:0:0:
375,245,28320,1,4,3:0:0:0:
373,260,28419,1,4,3:0:0:0:
371,275,28518,1,4,0:3:0:0:
369,290,28616,1,4,0:3:0:0:
367,305,28715,1,4,0:3:0:0:
306,134,28913,5,4,0:3:0:0:
306,134,29011,1,4,0:3:0:0:
183,211,29209,1,4,0:3:0:0:
183,211,29308,1,6,3:0:0:0:
79,125,29505,1,4,0:3:0:0:
79,125,29604,1,4,3:0:0:0:
79,125,29702,1,4,3:0:0:0:
36,270,29900,1,4,3:0:0:0:
36,270,29999,1,0,0:0:0:0:
36,270,30097,2,0,L|28:338,2,50.6250019311906,4|4|4,3:0|3:0|3:0,0:0:0:0:
183,211,30492,5,4,3:0:0:0:
181,195,30590,1,4,3:0:0:0:
179,180,30689,1,4,3:0:0:0:
177,165,30788,1,4,3:0:0:0:
175,150,30886,1,4,3:0:0:0:
175,150,31478,5,0,0:0:0:0:
448,349,31676,1,6,1:2:0:0:
448,349,31972,1,2,0:0:0:0:
448,341,32071,1,8,0:0:0:0:
323,237,32268,1,0,0:0:0:0:
323,245,32367,1,0,0:0:0:0:
323,253,32465,6,0,P|234:264|155:199,1,162,6|0,1:2|0:0,0:0:0:0:
150,157,32860,1,10,0:0:0:0:
271,64,33058,1,0,0:0:0:0:
271,64,33156,1,0,0:0:0:0:
271,64,33255,2,0,L|396:51,1,108,2|0,1:2|0:0,0:0:0:0:
455,124,33551,1,0,0:0:0:0:
455,124,33650,2,0,B|445:178|445:178|403:238,1,108,8|0,0:0|0:0,0:0:0:0:
222,307,34044,6,0,L|355:287,1,108,2|0,1:2|0:0,0:0:0:0:
110,255,34439,2,0,L|-23:235,1,108,10|0,0:0|0:0,0:0:0:0:
3,238,34735,1,0,0:0:0:0:
3,238,34834,1,2,1:2:0:0:
206,206,35031,1,10,0:0:0:0:
206,206,35130,1,0,0:0:0:0:
206,206,35229,1,8,0:0:0:0:
28,351,35426,1,0,0:0:0:0:
75,137,35623,6,0,B|160:157|156:89|255:119,1,162,2|0,1:2|0:0,0:0:0:0:
305,132,36018,1,8,0:0:0:0:
396,264,36215,1,0,0:0:0:0:
396,264,36314,1,0,0:0:0:0:
396,264,36413,2,0,P|451:250|510:256,1,108,2|10,1:2|0:0,0:0:0:0:
273,236,36808,2,0,P|315:183|458:107,1,216,10|2,0:0|1:2,0:0:0:0:
162,57,37400,5,2,0:0:0:0:
162,57,37498,1,0,0:0:0:0:
162,57,37597,2,0,L|91:50,1,54,10|0,0:0|0:0,0:0:0:0:
182,135,37794,2,0,L|111:128,1,54,2|0,0:0|0:0,0:0:0:0:
199,215,37992,2,0,L|128:208,1,54,2|0,0:0|0:0,0:0:0:0:
277,72,38189,1,2,0:0:0:0:
268,323,38386,1,10,0:0:0:0:
55,189,38584,1,2,0:0:0:0:
277,72,38781,6,0,P|335:54|414:87,1,135,6|8,1:2|0:0,0:0:0:0:
452,157,39077,1,0,0:0:0:0:
452,157,39176,2,0,L|463:244,1,67.5,10|0,0:0|0:0,0:0:0:0:
375,272,39373,2,0,L|364:359,1,67.5,8|0,0:0|0:0,0:0:0:0:
233,199,39571,6,0,P|299:173|365:191,1,135,2|8,0:0|0:0,0:0:0:0:
171,268,39867,1,0,0:0:0:0:
171,268,39965,2,0,P|137:273|98:264,1,67.5,2|0,1:3|0:0,0:0:0:0:
112,121,40163,2,0,P|133:147|145:186,1,67.5,8|0,0:0|0:0,0:0:0:0:
17,205,40360,6,0,P|29:173|125:120,1,135,2|8,0:0|0:0,0:0:0:0:
252,135,40656,1,0,0:0:0:0:
252,135,40755,2,0,P|219:123|191:94,1,67.5,2|0,0:0|0:0,0:0:0:0:
326,176,40952,2,0,L|334:248,1,67.5,8|0,0:0|0:0,0:0:0:0:
211,346,41150,6,0,L|232:196,1,135,2|8,0:0|0:0,0:0:0:0:
252,135,41446,1,0,0:0:0:0:
303,94,41544,1,2,0:0:0:0:
368,103,41643,1,10,0:0:0:0:
407,155,41742,1,8,0:0:0:0:
397,220,41840,1,8,0:0:0:0:
343,258,41939,6,0,P|271:239|155:263,1,161.999995056153,6|0,1:2|0:0,0:0:0:0:
94,366,42235,1,0,0:0:0:0:
94,366,42334,2,0,B|134:270|69:291|117:182,1,161.999995056153,12|0,0:0|0:0,0:0:0:0:
410,49,42729,1,8,0:0:0:0:
424,155,42926,1,8,0:0:0:0:
438,261,43123,1,8,0:0:0:0:
221,264,43321,6,0,B|276:297|310:280|330:254|348:261|351:271|345:280|331:281|330:254|331:281|308:254|386:217|472:279,1,242.999992584229,6|0,0:0|0:0,0:0:0:0:
172,189,43715,2,0,P|138:186|89:202,1,80.9999975280763,8|0,0:0|0:0,0:0:0:0:
258,179,43913,1,8,0:0:0:0:
184,355,44110,1,2,0:0:0:0:
41,119,44308,5,2,0:0:0:0:
81,115,44406,1,2,0:0:0:0:
121,112,44505,1,8,0:0:0:0:
162,108,44604,1,0,0:0:0:0:
202,105,44703,5,8,0:0:0:0:
136,98,44802,1,4,3:0:0:0:
72,93,44900,1,2,0:0:0:0:
287,177,45097,6,0,P|328:164|374:163,1,80.9999975280763,2|0,0:0|0:0,0:0:0:0:
184,355,45294,1,2,0:0:0:0:
51,334,45492,5,8,0:0:0:0:
123,307,45590,1,4,3:0:0:0:
184,355,45689,1,4,3:0:0:0:
375,156,45886,6,0,P|347:168|198:77,1,202.500007724762,6|0,0:0|0:0,0:0:0:0:
385,171,46183,2,0,P|357:183|192:113,1,202.500007724762,2|0,0:0|0:0,0:0:0:0:
395,186,46479,2,0,P|336:210|242:189,1,135,2|0,0:0|0:0,0:0:0:0:
22,104,46676,6,0,B|125:9|281:57|377:252|120:353|94:167,1,540,6|0,0:0|0:0,0:0:0:0:
106,88,47465,5,2,0:3:0:0:
139,66,47563,1,2,0:3:0:0:
178,56,47662,1,2,0:3:0:0:
219,59,47761,1,2,0:3:0:0:
260,102,47860,1,2,0:3:0:0:
307,138,47958,1,2,0:3:0:0:
367,144,48057,1,2,0:3:0:0:
421,118,48156,1,2,0:3:0:0:
453,67,48255,6,0,P|415:56|355:56,1,80.9999975280763,2|0,1:2|0:0,0:0:0:0:
259,135,48452,2,0,P|329:127|351:-8,1,161.999995056153,8|2,0:0|0:0,0:0:0:0:
209,65,48748,1,0,0:0:0:0:
209,65,48847,2,0,L|129:74,1,80.9999975280763,8|0,0:0|0:0,0:0:0:0:
0,144,49044,2,0,L|80:153,1,80.9999975280763,2|0,0:0|0:0,0:0:0:0:
239,228,49242,5,8,0:0:0:0:
190,233,49340,1,0,0:0:0:0:
142,238,49439,2,0,P|127:267|130:329,1,80.9999975280763,2|0,0:0|0:0,0:0:0:0:
337,244,49636,2,0,P|337:203|319:167,1,80.9999975280763,8|0,0:0|0:0,0:0:0:0:
226,112,49834,6,0,P|292:129|370:40,1,161.999995056153,2|8,0:0|0:0,0:0:0:0:
476,22,50130,1,0,0:0:0:0:
476,22,50229,6,0,L|468:107,1,80.9999975280763,2|0,0:0|0:0,0:0:0:0:
425,251,50426,2,0,L|417:170,1,80.9999975280763,8|0,0:0|0:0,0:0:0:0:
486,24,50623,6,0,L|478:109,1,80.9999975280763,2|0,0:0|0:0,0:0:0:0:
417,259,50820,2,0,L|409:178,1,80.9999975280763,0|0,0:0|0:0,0:0:0:0:
496,26,51018,6,0,L|488:111,1,80.9999975280763,2|0,0:0|0:0,0:0:0:0:
409,267,51215,2,0,L|401:186,1,80.9999975280763,8|0,0:0|0:0,0:0:0:0:
301,337,51413,6,0,P|228:304|149:319,1,161.999995056153,6|8,0:0|0:0,0:0:0:0:
85,366,51709,1,0,0:0:0:0:
149,319,51808,2,0,P|213:272|240:197,1,161.999995056153,2|8,0:0|0:0,0:0:0:0:
245,122,52104,1,0,0:0:0:0:
240,197,52202,2,0,P|248:276|300:336,1,161.999995056153,2|8,0:0|0:0,0:0:0:0:
430,281,52498,1,0,0:0:0:0:
391,214,52597,2,0,P|318:181|239:196,1,161.999995056153,2|8,0:0|0:0,0:0:0:0:
179,245,52893,1,0,0:0:0:0:
137,356,52992,6,0,B|98:247|178:266|139:160,1,202.500007724762,6|8,0:0|0:0,0:0:0:0:
95,97,53288,1,0,0:0:0:0:
24,39,53386,2,0,P|14:86|13:147,1,80.9999975280763,2|0,0:0|0:0,0:0:0:0:
177,90,53584,2,0,P|173:49|164:10,1,80.9999975280763,8|0,0:0|0:0,0:0:0:0:
101,150,53781,5,2,0:0:0:0:
149,184,53879,1,2,0:0:0:0:
208,181,53978,1,8,0:0:0:0:
252,141,54077,1,2,0:0:0:0:
261,82,54176,5,8,0:0:0:0:
296,143,54274,1,8,0:0:0:0:
364,166,54373,1,8,0:0:0:0:
429,137,54472,1,8,0:0:0:0:
458,72,54571,6,0,P|444:109|445:170,1,80.9999975280763,6|0,0:0|0:0,0:0:0:0:
379,288,54768,2,0,P|354:257|301:227,1,80.9999975280763,8|0,0:0|0:0,0:0:0:0:
231,111,54965,2,0,P|269:104|322:73,1,80.9999975280763,2|0,0:0|0:0,0:0:0:0:
172,266,55163,2,0,P|157:302|158:363,1,80.9999975280763,8|0,0:0|0:0,0:0:0:0:
163,182,55360,5,2,0:0:0:0:
123,189,55458,1,0,0:0:0:0:
83,197,55558,2,0,L|-15:186,1,80.9999975280763,8|0,0:0|0:0,0:0:0:0:
240,219,55755,1,2,0:0:0:0:
279,226,55853,1,0,0:0:0:0:
319,234,55953,2,0,L|417:223,1,80.9999975280763,8|0,0:0|0:0,0:0:0:0:
501,68,56150,6,0,P|451:37|330:96,1,161.999995056153,2|8,0:0|0:0,0:0:0:0:
316,128,56446,1,0,0:0:0:0:
170,135,56544,6,0,P|220:104|341:163,1,161.999995056153,2|8,0:0|0:0,0:0:0:0:
355,195,56840,1,0,0:0:0:0:
500,202,56939,6,0,P|450:171|329:230,1,161.999995056153,2|8,0:0|0:0,0:0:0:0:
303,255,57235,1,0,0:0:0:0:
229,285,57334,2,0,P|190:291|132:279,1,80.9999975280763,2|0,0:0|0:0,0:0:0:0:
249,108,57531,2,0,L|269:193,1,80.9999975280763,8|0,0:0|0:0,0:0:0:0:
47,72,57729,5,2,0:0:0:0:
47,72,57926,1,2,0:0:0:0:
127,232,58123,6,0,B|186:275|289:265|283:169|356:165|449:216,1,303.750011587143,12|0,0:0|0:0,0:0:0:0:
492,359,58518,5,2,0:0:0:0:
492,359,58715,1,2,0:0:0:0:
410,198,58913,6,0,B|355:231|282:227|288:131|185:121|126:164,1,303.750011587143,12|0,0:0|0:0,0:0:0:0:
180,311,59308,6,0,P|192:266|197:197,1,80.9999975280763,6|0,0:0|0:0,0:0:0:0:
363,89,59505,1,8,0:0:0:0:
363,89,59604,2,0,L|357:147,2,40.4999987640381,0|0|2,0:0|0:0|0:0,0:0:0:0:
439,233,59900,1,8,0:0:0:0:
289,364,60097,5,2,0:3:0:0:
275,326,60195,1,2,0:3:0:0:
275,285,60294,1,2,0:3:0:0:
288,247,60393,1,2,0:3:0:0:
312,215,60491,5,2,0:3:0:0:
339,162,60590,1,2,0:3:0:0:
326,104,60689,1,2,0:3:0:0:
278,69,60788,1,2,0:3:0:0:
218,73,60886,6,0,P|281:104|380:34,1,161.999995056153,6|8,0:0|0:0,0:0:0:0:
144,30,61183,1,0,0:0:0:0:
144,30,61281,2,0,P|106:43|61:73,1,80.9999975280763,2|0,0:0|0:0,0:0:0:0:
142,199,61479,2,0,P|149:159|146:105,1,80.9999975280763,8|0,0:0|0:0,0:0:0:0:
31,285,61676,6,0,B|109:273|109:273|125:282|125:282|195:270,1,161.999995056153,2|8,0:0|0:0,0:0:0:0:
345,212,61972,1,0,0:0:0:0:
269,243,62071,2,0,P|260:205|267:153,1,80.9999975280763,2|0,0:0|0:0,0:0:0:0:
417,88,62268,2,0,P|420:128|411:167,1,80.9999975280763,8|0,0:0|0:0,0:0:0:0:
319,319,62465,6,0,B|251:353|243:301|130:344,1,161.999995056153,2|8,0:0|0:0,0:0:0:0:
387,287,62761,1,0,0:0:0:0:
319,346,62860,2,0,B|246:367|247:315|128:337,1,161.999995056153,2|8,0:0|0:0,0:0:0:0:
394,318,63156,1,0,0:0:0:0:
314,373,63255,2,0,B|238:381|248:330|127:331,1,161.999995056153,2|8,0:0|0:0,0:0:0:0:
13,178,63551,5,0,0:0:0:0:
87,199,63650,2,0,P|104:236|105:284,1,80.9999975280763,2|0,0:0|0:0,0:0:0:0:
227,181,63847,2,0,P|229:140|246:104,1,80.9999975280763,8|0,0:0|0:0,0:0:0:0:
336,46,64044,6,0,P|287:67|180:3,1,161.999995056153,2|8,0:0|0:0,0:0:0:0:
37,78,64340,1,0,0:0:0:0:
37,78,64439,2,0,P|86:74|142:52,1,80.9999975280763,2|0,0:0|0:0,0:0:0:0:
227,181,64636,2,0,P|188:170|147:167,1,80.9999975280763,8|0,0:0|0:0,0:0:0:0:
301,263,64834,6,0,P|396:270|479:233,1,161.999995056153,2|8,0:0|0:0,0:0:0:0:
498,157,65130,1,0,0:0:0:0:
498,157,65229,1,2,0:0:0:0:
464,134,65327,1,0,0:0:0:0:
425,124,65426,1,8,0:0:0:0:
385,127,65525,1,8,0:0:0:0:
348,143,65623,6,0,P|300:161|357:98,1,242.999992584229,12|0,0:0|0:0,0:0:0:0:
354,156,66018,6,0,P|305:173|370:99,1,283.499991348267,12|0,0:0|0:0,0:0:0:0:
359,168,66413,6,0,P|310:185|376:81,1,324,12|0,0:0|0:0,0:0:0:0:
364,180,66808,6,0,P|315:197|378:64,1,364.499988876343,12|0,0:0|0:0,0:0:0:0:
179,214,67202,6,0,P|147:229|42:177,1,135,6|0,0:0|0:0,0:0:0:0:
292,309,67597,2,0,P|350:278|414:295,1,135,8|0,0:0|0:0,0:0:0:0:
476,358,67893,1,0,0:0:0:0:
476,358,67992,2,0,P|464:299|472:218,1,135,2|0,0:0|0:0,0:0:0:0:
326,82,68386,6,0,P|344:123|345:166,1,67.5,8|0,0:0|0:0,0:0:0:0:
200,96,68584,2,0,P|205:62|220:32,1,67.5,0|0,0:0|0:0,0:0:0:0:
131,192,68781,2,0,P|86:212|-32:159,1,135,2|0,0:0|0:0,0:0:0:0:
222,313,69176,2,0,P|286:295|348:317,1,135,8|0,0:0|0:0,0:0:0:0:
405,380,69472,1,0,0:0:0:0:
405,380,69571,2,0,L|387:211,1,135,2|0,0:0|0:0,0:0:0:0:
280,49,69965,6,0,L|269:142,1,67.5,8|0,0:0|0:0,0:0:0:0:
459,108,70163,2,0,L|451:40,1,67.5,0|0,0:0|0:0,0:0:0:0:
178,241,70360,6,0,B|261:294|318:267|358:222|358:222|392:277|474:258,1,303.750011587143,12|0,0:0|0:0,0:0:0:0:
270,108,70755,2,0,P|204:158|248:362,1,303.750011587143,12|0,0:0|0:0,0:0:0:0:
47,373,71150,2,0,P|68:327|64:268,1,101.250003862381,10|0,0:0|0:0,0:0:0:0:
11,154,71347,1,2,0:0:0:0:
56,174,71445,1,4,0:3:0:0:
106,171,71544,1,8,0:0:0:0:
315,35,71742,6,0,B|276:95|270:154|344:215|326:283|277:347,1,303.750011587143,6|0,0:0|0:0,0:0:0:0:
398,270,72136,2,0,P|395:211|387:170,1,80.9999975280763,2|0,0:0|0:0,0:0:0:0:
215,57,72334,2,0,P|209:97|208:137,1,80.9999975280763,8|0,0:0|0:0,0:0:0:0:
395,28,72531,2,0,L|299:36,1,80.9999975280763,2|0,0:0|0:0,0:0:0:0:
122,231,72729,5,2,3:0:0:0:
174,259,72827,1,2,3:0:0:0:
234,257,72926,1,2,3:0:0:0:
285,224,73025,1,2,3:0:0:0:
311,170,73123,5,6,3:0:0:0:
367,116,73221,1,4,3:0:0:0:
444,129,73320,1,6,3:0:0:0:
480,199,73419,1,4,3:0:0:0:
445,268,73518,6,0,P|370:281|278:217,1,161.999995056153,6|8,0:0|0:0,0:0:0:0:
290,103,73814,1,0,0:0:0:0:
290,103,73913,2,0,P|340:101|383:137,1,80.9999975280763,2|0,0:0|0:0,0:0:0:0:
400,205,74110,2,0,P|437:240|441:295,1,80.9999975280763,8|0,0:0|0:0,0:0:0:0:
339,344,74308,6,0,P|339:293|425:192,1,161.999995056153,2|8,0:0|0:0,0:0:0:0:
494,117,74604,1,0,0:0:0:0:
494,117,74702,1,2,0:0:0:0:
413,104,74800,1,0,0:0:0:0:
333,92,74899,1,8,0:0:0:0:
145,206,75097,6,0,P|199:215|293:131,1,161.999995056153,2|8,0:0|0:0,0:0:0:0:
116,91,75393,1,0,0:0:0:0:
76,155,75492,2,0,L|-8:179,1,80.9999975280763,2|0,0:0|0:0,0:0:0:0:
136,284,75689,2,0,P|169:301|220:308,1,80.9999975280763,8|0,0:0|0:0,0:0:0:0:
344,314,75886,6,0,P|251:335|204:414,1,161.999995056153,2|8,0:0|0:0,0:0:0:0:
424,288,76183,1,0,0:0:0:0:
424,288,76281,2,0,P|418:239|424:206,1,80.9999975280763,2|0,0:0|0:0,0:0:0:0:
483,62,76479,1,8,0:0:0:0:
414,100,76577,1,8,0:0:0:0:
342,70,76676,6,0,P|274:59|186:175,1,202.500007724762,6|0,0:0|0:0,0:0:0:0:
330,243,76972,2,0,P|374:189|317:55,1,202.500007724762,8|0,0:0|0:0,0:0:0:0:
102,140,77268,6,0,B|49:213|141:291|141:291|233:219|185:144,1,344.250006566048,14|0,0:0|0:0,0:0:0:0:
34,39,77663,5,0,0:0:0:0:
78,32,77761,1,0,0:0:0:0:
122,25,77860,2,0,L|212:40,1,80.9999975280763,2|0,0:0|0:0,0:0:0:0:
309,98,78058,2,0,L|399:83,1,80.9999975280763,8|0,0:0|0:0,0:0:0:0:
410,215,78255,6,0,P|370:274|420:365,1,161.999995056153,6|0,0:0|0:0,0:0:0:0:
400,352,78551,2,0,P|440:293|390:202,1,161.999995056153,8|0,0:0|0:0,0:0:0:0:
213,139,78847,6,0,B|166:89|90:109|86:203|160:256|221:268|221:268|281:249|362:149|294:47|230:77|220:178,1,540,14|2,0:0|3:0,0:0:0:0:
111,323,79340,1,0,0:0:0:0:
111,323,79439,2,0,P|76:326|31:347,1,80.9999975280763,2|0,3:0|0:0,0:0:0:0:
242,350,79636,2,0,P|278:367|318:371,1,80.9999975280763,2|0,3:0|0:0,0:0:0:0:
471,228,79834,6,0,P|424:222|351:341,1,161.999995056153,6|8,0:0|0:0,0:0:0:0:
302,132,80130,1,0,0:0:0:0:
302,132,80229,2,0,P|339:149|403:150,1,80.9999975280763,2|0,0:0|0:0,0:0:0:0:
510,297,80426,2,0,P|495:258|451:212,1,80.9999975280763,8|0,0:0|0:0,0:0:0:0:
270,304,80623,6,0,P|338:326|447:279,1,161.999995056153,2|8,0:0|0:0,0:0:0:0:
226,223,80919,1,4,0:3:0:0:
226,223,81018,1,2,0:0:0:0:
145,232,81116,1,4,0:3:0:0:
65,241,81215,1,8,0:0:0:0:
317,87,81413,6,0,P|373:115|491:73,1,161.999995056153,2|8,0:0|0:0,0:0:0:0:
250,38,81709,1,0,0:0:0:0:
208,106,81808,2,0,P|152:134|34:92,1,161.999995056153,2|8,0:0|0:0,0:0:0:0:
62,272,82104,1,0,0:0:0:0:
129,227,82202,2,0,P|172:227|211:236,1,80.9999975280763,2|0,1:3|0:0,0:0:0:0:
345,322,82400,2,0,P|388:322|427:313,1,80.9999975280763,2|0,1:3|0:0,0:0:0:0:
416,90,82597,5,2,0:0:0:0:
347,130,82696,1,2,0:0:0:0:
363,207,82794,1,8,0:0:0:0:
441,215,82893,1,2,0:0:0:0:
472,143,82992,1,6,0:0:0:0:
113,55,83386,6,0,B|78:171|169:140|134:282,1,202.500007724762,6|0,0:0|0:0,0:0:0:0:
100,320,83683,1,2,0:0:0:0:
140,249,83781,2,0,P|194:216|338:274,1,202.500007724762,10|0,0:0|0:0,0:0:0:0:
475,353,84176,6,0,P|457:299|464:265,1,80.9999975280763,6|0,0:0|0:0,0:0:0:0:
492,126,84373,1,2,0:0:0:0:
423,164,84471,1,2,0:0:0:0:
347,141,84570,1,6,0:0:0:0:
274,52,84768,5,0,0:0:0:0:
244,55,84866,1,0,0:0:0:0:
215,59,84965,1,2,0:0:0:0:
185,63,85064,1,0,0:0:0:0:
156,67,85162,1,8,0:0:0:0:
126,71,85261,1,0,0:0:0:0:
82,50,85360,5,2,0:0:0:0:
25,209,85558,1,2,0:0:0:0:
184,266,85755,1,2,0:0:0:0:
236,102,85952,1,2,0:0:0:0:
272,96,86050,1,8,0:0:0:0:
309,90,86149,1,2,0:0:0:0:
465,340,86544,6,0,L|336:321,1,101.250003862381,6|0,0:0|0:0,0:0:0:0:
168,79,86939,6,0,P|236:135|140:293,1,303.750011587143,2|0,0:0|0:0,0:0:0:0:
19,173,87334,2,0,P|68:91|177:82,1,202.500007724762,6|0,0:0|0:0,0:0:0:0:
428,187,87729,5,8,0:0:0:0:
33,359,87962,5,6,0:0:0:0:
33,359,88061,1,0,0:0:0:0:
138,184,88258,1,4,0:0:0:0:
138,184,88357,1,0,0:0:0:0:
237,362,88554,1,6,0:0:0:0:
