osu file format v14

[General]
AudioFilename: audio.mp3
AudioLeadIn: 0
PreviewTime: 60196
Countdown: 0
SampleSet: Soft
StackLeniency: 0.3
Mode: 0
LetterboxInBreaks: 0
WidescreenStoryboard: 1

[Editor]
Bookmarks: 9965
DistanceSpacing: 0.5
BeatDivisor: 4
GridSize: 4
TimelineZoom: 2.1

[Metadata]
Title:smile, sweet, sister, sosister
TitleUnicode:smile, sweet, sister, sosister
Artist:gle6
ArtistUnicode:gle6
Creator:schoolboy
Version:seikatu's insane
Source:
Tags:komore testo neilperry djulus seikatu bon appetit счастливы вместе schastlivy vmeste ブレンド・S ぶれんど・えーす opening blend a gleb happy together
BeatmapID:1611445
BeatmapSetID:759957

[Difficulty]
HPDrainRate:6
CircleSize:4
OverallDifficulty:7.4
ApproachRate:8.8
SliderMultiplier:2.1
SliderTickRate:1

[Events]
//Background and Video events
0,0,"33.jpg",0,0
//Break Periods
//Storyboard Layer 0 (Background)
//Storyboard Layer 1 (Fail)
//Storyboard Layer 2 (Pass)
//Storyboard Layer 3 (Foreground)
//Storyboard Sound Samples

[TimingPoints]
887,394.736842105263,4,2,1,60,1,0
7202,-80,4,2,1,70,0,0
16676,-100,4,2,1,75,0,0
17071,-66.6666666666667,4,2,1,75,0,0
19834,-66.6666666666667,4,2,2,50,0,0
25360,-100,4,2,2,50,0,0
38781,-80,4,2,1,60,0,0
41939,-80,4,2,1,65,0,0
45886,-66.6666666666667,4,2,1,65,0,0
46676,-100,4,2,1,65,0,0
47465,-100,4,2,1,45,0,0
47860,-66.6666666666667,4,2,1,55,0,0
48255,-80,4,2,1,70,0,0
58123,-66.6666666666667,4,2,1,70,0,0
60886,-66.6666666666667,4,2,1,75,0,0
65673,-66.6666666666667,4,2,1,5,0,0
65722,-66.6666666666667,4,2,1,75,0,0
66067,-66.6666666666667,4,2,1,5,0,0
66117,-66.6666666666667,4,2,1,75,0,0
66462,-66.6666666666667,4,2,1,5,0,0
66511,-66.6666666666667,4,2,1,75,0,0
67202,-80,4,2,1,65,0,0
70360,-80,4,2,1,75,0,0
70410,-80,4,2,1,5,0,0
70755,-80,4,2,1,75,0,0
70804,-80,4,2,1,5,0,0
71150,-80,4,2,1,75,0,0
73518,-66.6666666666667,4,2,1,75,0,0
77268,-80,4,2,1,75,0,0
78255,-66.6666666666667,4,2,1,75,0,0
78847,-80,4,2,1,75,0,0
80229,-66.6666666666667,4,2,1,75,0,0
80623,-80,4,2,1,75,0,0
81018,-66.6666666666667,4,2,1,75,0,0
81413,-80,4,2,1,75,0,0
82202,-66.6666666666667,4,2,1,75,0,0
83436,-66.6666666666667,4,2,1,5,0,0
83683,-66.6666666666667,4,2,1,75,0,0
84225,-66.6666666666667,4,2,1,5,0,0
84373,-66.6666666666667,4,2,1,75,0,0
84571,-80,4,2,1,75,0,0
86544,-66.6666666666667,4,2,1,75,0,0
86594,-66.6666666666667,4,2,1,5,0,0
86939,-66.6666666666667,4,2,1,75,0,0
87383,-66.6666666666667,4,2,1,5,0,0
87531,-66.6666666666667,4,2,1,75,0,0
87962,394.736842105263,4,2,1,75,1,0
87962,-66.6666666666667,4,2,1,75,0,0
89011,-100,4,2,1,50,0,0

[Colours]
Combo1 : 255,94,55
Combo2 : 173,255,95
Combo3 : 17,254,176
Combo4 : 255,88,100

[HitObjects]
30,95,887,6,0,P|102:73|168:124,1,157.5,12|8,0:0|0:0,0:0:0:0:
242,121,1281,2,0,P|230:170|221:233,1,105,0|8,0:0|0:0,0:0:0:0:
278,371,1676,1,2,0:0:0:0:
284,345,1774,1,8,0:0:0:0:
290,319,1873,1,0,0:0:0:0:
294,294,1972,1,0,0:0:0:0:
298,268,2070,1,8,0:0:0:0:
216,42,2268,1,0,0:0:0:0:
489,15,2465,6,0,P|489:93|475:174,1,157.5,8|8,0:0|0:0,0:0:0:0:
482,250,2860,2,0,P|430:249|368:232,1,105,0|8,0:0|0:0,0:0:0:0:
254,139,3255,1,2,0:0:0:0:
280,138,3353,1,8,0:0:0:0:
306,140,3452,1,0,0:0:0:0:
332,144,3551,1,0,0:0:0:0:
357,152,3649,1,8,0:0:0:0:
278,371,3847,1,0,0:0:0:0:
163,192,4044,6,0,P|179:117|185:24,1,157.5,10|8,0:0|0:0,0:0:0:0:
110,9,4439,2,0,P|58:-1|5:0,1,105,0|8,0:0|0:0,0:0:0:0:
2,157,4834,5,2,0:0:0:0:
3,183,4932,1,8,0:0:0:0:
4,209,5031,1,2,0:0:0:0:
7,235,5130,1,0,0:0:0:0:
11,261,5228,1,2,0:0:0:0:
16,287,5327,1,0,0:0:0:0:
21,312,5426,1,2,0:0:0:0:
28,338,5524,1,0,0:0:0:0:
35,363,5623,5,6,0:0:0:0:
35,363,6413,2,0,P|36:309|115:331,1,157.5,0|2,0:0|0:3,0:0:0:0:
176,279,6808,6,0,L|172:250,1,26.25,2|0,0:3|0:0,0:0:0:0:
201,273,6906,6,0,L|202:243,1,26.25,0|0,0:0|0:0,0:0:0:0:
227,274,7005,6,0,L|233:245,1,26.25,0|0,0:0|0:0,0:0:0:0:
251,283,7104,6,0,L|262:255,1,26.25,0|0,0:0|0:0,0:0:0:0:
270,300,7202,6,0,P|294:254|358:198,1,131.25,4|8,1:2|0:0,0:0:0:0:
337,120,7498,2,0,P|357:66|300:22,1,131.25,0|0,0:0|0:0,0:0:0:0:
237,65,7794,2,0,P|244:98|255:129,1,65.625,8|0,0:0|0:0,0:0:0:0:
167,26,7992,2,0,P|101:6|52:44,1,131.25,2|8,0:0|0:0,0:0:0:0:
22,115,8288,2,0,P|35:180|53:243,1,131.25,2|0,0:0|0:0,0:0:0:0:
133,256,8584,2,0,P|168:247|200:232,1,65.625,8|0,0:0|0:0,0:0:0:0:
302,246,8781,6,0,P|241:174|195:239,1,196.875,2|0,0:0|0:0,0:0:0:0:
243,300,9176,2,0,P|304:284|387:289,1,131.25,2|8,0:0|0:0,0:0:0:0:
431,342,9472,1,0,0:0:0:0:
431,342,9571,2,0,P|414:278|416:213,1,131.25,2|8,0:0|0:0,0:0:0:0:
316,61,9965,1,2,0:0:0:0:
321,94,10064,1,0,0:0:0:0:
318,127,10163,1,8,0:0:0:0:
10,52,10360,6,0,P|70:37|137:62,1,131.25,6|8,0:0|0:0,0:0:0:0:
214,42,10656,2,0,P|220:113|169:130,1,131.25,2|0,0:0|0:0,0:0:0:0:
102,195,10952,2,0,P|93:163|90:131,1,65.625,8|0,0:0|0:0,0:0:0:0:
191,217,11150,2,0,P|210:282|222:363,1,131.25,2|8,0:0|0:0,0:0:0:0:
295,377,11446,2,0,P|360:358|441:346,1,131.25,2|0,0:0|0:0,0:0:0:0:
475,285,11742,2,0,P|464:255|456:222,1,65.625,8|0,0:0|0:0,0:0:0:0:
420,64,11939,6,0,P|482:125|454:224,1,196.875,6|0,0:0|0:0,0:0:0:0:
300,174,12334,6,0,P|321:89|421:64,1,196.875,2|0,0:0|0:0,0:0:0:0:
455,222,12729,6,0,P|371:245|299:171,1,196.875,2|0,0:0|0:0,0:0:0:0:
218,181,13123,1,8,0:0:0:0:
176,154,13222,1,8,0:0:0:0:
126,150,13321,1,8,0:0:0:0:
86,178,13419,1,8,0:0:0:0:
70,225,13518,6,0,P|51:137|18:29,1,196.875,6|0,0:0|0:0,0:0:0:0:
97,6,13913,2,0,P|155:0|182:64,1,131.25,2|8,0:0|0:0,0:0:0:0:
256,96,14209,1,0,0:0:0:0:
256,96,14308,2,0,P|334:80|410:72,1,131.25,2|8,0:0|0:0,0:0:0:0:
446,18,14604,2,0,P|498:69|451:106,1,131.25,0|0,3:0|0:0,0:0:0:0:
406,154,14900,2,0,P|402:184|400:231,1,65.625,8|0,0:0|0:0,0:0:0:0:
307,384,15097,6,0,P|317:319|319:249,1,131.25,2|8,0:0|0:0,0:0:0:0:
241,280,15393,1,2,0:0:0:0:
241,280,15492,2,0,P|161:264|98:256,1,131.25,0|8,0:0|0:0,0:0:0:0:
30,115,15886,1,2,0:0:0:0:
189,12,16084,1,8,0:0:0:0:
301,87,16281,1,2,0:0:0:0:
333,80,16380,1,0,0:0:0:0:
365,83,16479,1,8,0:0:0:0:
456,295,16676,5,2,0:0:0:0:
482,115,16873,1,2,0:0:0:0:
436,278,17071,6,0,L|456:108,1,157.500006008148,6|0,0:0|0:0,0:0:0:0:
262,17,17465,5,2,0:0:0:0:
288,197,17662,1,2,0:0:0:0:
242,34,17860,6,0,L|262:204,1,157.500006008148,6|0,0:0|0:0,0:0:0:0:
68,295,18255,5,0,0:0:0:0:
61,256,18354,5,0,0:0:0:0:
54,217,18452,6,0,P|131:177|166:237,1,157.500006008148,8|0,0:0|0:0,0:0:0:0:
357,285,18748,6,0,P|280:325|245:265,1,157.500006008148,8|0,0:0|0:0,0:0:0:0:
260,190,19044,6,0,P|293:80|471:239,1,472.500018024445,12|0,0:0|0:0,0:0:0:0:
377,167,19834,6,0,L|368:211,1,39.3750015020371,6|0,1:2|0:0,0:0:0:0:
169,90,20229,1,8,0:0:0:0:
180,116,20623,1,0,0:0:0:0:
401,151,21018,1,8,0:0:0:0:
114,294,21413,6,0,L|108:252,1,39.3750015020371,6|0,1:2|0:0,0:0:0:0:
344,317,21808,1,8,0:0:0:0:
355,291,22202,1,0,0:0:0:0:
123,324,22597,1,8,0:0:0:0:
261,73,22992,6,0,L|258:118,1,39.3750015020371,6|0,1:2|0:0,0:0:0:0:
238,316,23386,1,8,0:0:0:0:
249,342,23781,1,0,0:0:0:0:
250,47,24176,1,8,0:0:0:0:
472,222,24571,6,0,L|426:213,1,39.3750015020371,6|0,1:2|0:0,0:0:0:0:
224,177,24965,1,8,0:0:0:0:
455,91,25360,2,0,P|401:83|357:109,1,105,0|4,0:0|3:0,0:0:0:0:
289,68,25656,1,4,3:0:0:0:
289,68,25755,2,0,L|232:65,1,52.5,4|0,3:0|0:0,0:0:0:0:
173,112,25952,2,0,L|116:109,1,52.5,4|4,3:0|3:0,0:0:0:0:
40,103,26150,5,6,3:0:0:0:
79,296,26347,1,4,3:0:0:0:
71,271,26446,1,4,3:0:0:0:
69,245,26544,1,4,3:0:0:0:
70,219,26643,1,4,3:0:0:0:
77,194,26742,1,4,3:0:0:0:
276,243,26939,5,4,3:0:0:0:
251,251,27038,1,4,3:0:0:0:
225,253,27136,1,4,3:0:0:0:
199,252,27235,1,4,3:0:0:0:
174,245,27334,1,4,3:0:0:0:
226,145,27531,5,4,3:0:0:0:
251,138,27630,1,4,3:0:0:0:
277,138,27729,1,6,3:0:0:0:
374,191,27926,5,0,3:0:0:0:
399,183,28025,1,4,3:0:0:0:
425,185,28124,1,4,3:0:0:0:
489,328,28321,5,4,3:0:0:0:
464,317,28419,1,4,3:0:0:0:
437,316,28518,1,4,0:3:0:0:
411,322,28617,1,4,0:3:0:0:
392,340,28715,1,4,0:3:0:0:
193,356,28913,5,4,0:3:0:0:
218,347,29011,1,4,0:3:0:0:
245,348,29110,1,4,0:3:0:0:
271,356,29209,1,4,0:3:0:0:
288,376,29307,1,6,3:0:0:0:
310,260,29505,5,4,0:3:0:0:
305,234,29604,1,4,3:0:0:0:
305,207,29702,1,4,3:0:0:0:
231,20,29900,5,4,3:0:0:0:
241,44,29998,1,0,0:0:0:0:
246,69,30097,1,4,3:0:0:0:
245,95,30196,1,4,3:0:0:0:
240,120,30294,1,4,3:0:0:0:
36,90,30492,5,4,3:0:0:0:
60,80,30590,1,4,3:0:0:0:
85,75,30689,1,4,3:0:0:0:
111,76,30788,1,4,3:0:0:0:
136,81,30886,1,4,3:0:0:0:
136,81,31676,6,0,P|137:138|145:192,1,105,6|0,1:2|0:0,0:0:0:0:
179,255,31972,1,2,0:0:0:0:
179,255,32071,2,0,L|236:247,1,52.5,8|0,0:0|0:0,0:0:0:0:
368,307,32268,2,0,L|316:314,1,52.5,0|0,0:0|0:0,0:0:0:0:
325,193,32465,6,0,L|488:171,1,157.5,6|0,1:2|0:0,0:0:0:0:
481,171,32860,2,0,L|464:64,1,105,10|0,0:0|0:0,0:0:0:0:
283,72,33255,2,0,P|249:24|162:48,1,157.5,2|0,1:2|0:0,0:0:0:0:
163,45,33650,2,0,P|171:100|173:151,1,105,8|0,0:0|0:0,0:0:0:0:
60,267,34044,6,0,P|31:323|109:359,1,157.5,2|0,1:2|0:0,0:0:0:0:
98,363,34439,2,0,P|151:351|202:347,1,105,10|0,0:0|0:0,0:0:0:0:
351,355,34834,1,2,1:2:0:0:
331,259,35031,1,10,0:0:0:0:
512,188,35229,2,0,P|459:175|408:171,1,105,8|0,0:0|0:0,0:0:0:0:
263,12,35623,6,0,P|281:74|201:120,1,157.5,2|0,1:2|0:0,0:0:0:0:
213,122,36018,2,0,P|150:102|102:92,1,105,8|0,0:0|0:0,0:0:0:0:
47,254,36413,2,0,P|106:273|200:294,1,157.5,2|0,1:2|0:0,0:0:0:0:
199,293,36808,2,0,P|179:353|211:379,1,105,10|0,0:0|0:0,0:0:0:0:
447,303,37202,6,0,P|388:284|294:263,1,157.5,2|0,1:2|0:0,0:0:0:0:
294,263,37597,2,0,P|311:195|311:153,1,105,10|2,0:0|0:0,0:0:0:0:
225,22,37992,5,2,0:0:0:0:
335,141,38189,1,2,0:0:0:0:
505,16,38386,2,0,P|497:68|496:123,1,105,10|2,0:0|0:0,0:0:0:0:
391,359,38781,6,0,P|425:317|400:235,1,131.25,6|8,1:2|0:0,0:0:0:0:
426,164,39077,2,0,P|363:150|292:140,1,131.25,0|0,0:0|0:0,0:0:0:0:
264,216,39373,2,0,P|231:209|195:206,1,65.625,8|0,0:0|0:0,0:0:0:0:
253,73,39571,6,0,P|189:78|115:91,1,131.25,2|8,0:0|0:0,0:0:0:0:
48,53,39867,2,0,P|10:111|63:139,1,131.25,0|0,0:0|0:0,0:0:0:0:
113,235,40163,2,0,P|116:202|126:166,1,65.625,8|0,0:0|0:0,0:0:0:0:
182,294,40360,6,0,P|178:336|106:325,1,131.25,2|8,0:0|0:0,0:0:0:0:
182,294,40656,2,0,P|248:304|327:323,1,131.25,0|0,0:0|0:0,0:0:0:0:
439,271,40952,2,0,P|407:262|370:257,1,65.625,8|0,0:0|0:0,0:0:0:0:
239,126,41150,6,0,P|238:187|300:217,1,131.25,2|8,0:0|0:0,0:0:0:0:
362,171,41446,1,0,0:0:0:0:
362,171,41544,2,0,P|362:138|357:102,1,65.625,2|10,0:0|0:0,0:0:0:0:
218,32,41742,2,0,P|218:65|223:101,1,65.625,8|8,0:0|0:0,0:0:0:0:
161,270,41939,6,0,P|64:305|3:244,1,196.875,6|0,1:2|0:0,0:0:0:0:
25,117,42334,2,0,P|122:82|183:143,1,196.875,12|0,0:0|0:0,0:0:0:0:
4,247,42729,6,0,P|14:170|26:117,1,131.25,8|8,0:0|0:0,0:0:0:0:
181,139,43025,2,0,P|171:216|159:269,1,131.25,4|0,3:0|0:0,0:0:0:0:
270,85,43321,6,0,P|339:37|416:105,1,196.875,6|0,0:0|0:0,0:0:0:0:
415,100,43715,1,8,0:0:0:0:
296,320,43913,2,0,P|293:257|283:185,1,131.25,8|2,0:0|0:0,0:0:0:0:
488,136,44308,5,2,0:0:0:0:
493,168,44406,1,2,0:0:0:0:
496,200,44505,1,8,0:0:0:0:
499,233,44604,1,0,0:0:0:0:
500,266,44702,5,8,0:0:0:0:
459,239,44801,1,4,3:0:0:0:
410,246,44900,1,2,0:0:0:0:
387,289,44998,1,0,0:0:0:0:
394,337,45097,6,0,P|326:325|252:320,1,131.25,2|2,0:0|0:0,0:0:0:0:
48,297,45492,1,8,0:0:0:0:
93,280,45590,1,4,3:0:0:0:
141,272,45689,1,4,3:0:0:0:
328,198,45886,6,0,P|260:232|190:179,1,157.500006008148,6|0,0:0|0:0,0:0:0:0:
207,22,46183,6,0,P|275:-12|345:41,1,157.500006008148,2|0,0:0|0:0,0:0:0:0:
263,149,46479,6,0,P|265:109|274:66,1,78.7500030040742,2|0,0:0|0:0,0:0:0:0:
427,6,46676,6,0,P|419:189|393:375,1,367.5,6|0,0:0|0:0,0:0:0:0:
393,371,47465,2,0,L|340:365,1,52.5,2|2,0:3|0:3,0:0:0:0:
247,255,47663,2,0,L|299:261,1,52.5,2|2,0:3|0:3,0:0:0:0:
139,349,47860,6,0,L|100:377,1,39.3750015020371,2|0,0:3|0:0,0:0:0:0:
117,316,47959,6,0,L|73:336,1,39.3750015020371,2|0,0:3|0:0,0:0:0:0:
106,277,48058,6,0,L|59:289,1,39.3750015020371,2|0,0:3|0:0,0:0:0:0:
107,237,48156,6,0,L|59:241,1,39.3750015020371,2|0,0:3|0:0,0:0:0:0:
121,200,48255,6,0,P|50:193|43:137,1,131.25,2|8,1:2|0:0,0:0:0:0:
17,64,48551,2,0,P|82:41|161:32,1,131.25,0|0,0:0|0:0,0:0:0:0:
222,105,48847,2,0,P|190:116|150:122,1,65.625,8|0,0:0|0:0,0:0:0:0:
263,29,49044,2,0,P|327:38|389:60,1,131.25,2|8,0:0|0:0,0:0:0:0:
467,33,49340,2,0,P|496:90|446:125,1,131.25,0|0,0:0|0:0,0:0:0:0:
379,211,49636,2,0,P|371:177|369:133,1,65.625,8|0,0:0|0:0,0:0:0:0:
471,212,49834,6,0,P|463:297|364:308,1,196.875,2|0,0:0|0:0,0:0:0:0:
307,252,50229,2,0,P|239:252|171:266,1,131.25,2|8,0:0|0:0,0:0:0:0:
114,210,50525,1,0,0:0:0:0:
114,210,50623,2,0,P|68:253|100:303,1,131.25,2|8,0:0|0:0,0:0:0:0:
227,149,51018,2,0,P|221:73|210:13,1,131.25,2|8,0:0|0:0,0:0:0:0:
435,88,51413,6,0,P|372:104|363:49,1,131.25,6|8,0:0|0:0,0:0:0:0:
435,88,51709,2,0,P|446:152|450:218,1,131.25,0|0,0:0|0:0,0:0:0:0:
303,219,52005,2,0,P|335:210|374:205,1,65.625,8|0,0:0|0:0,0:0:0:0:
458,309,52202,2,0,P|398:325|319:334,1,131.25,2|8,0:0|0:0,0:0:0:0:
250,356,52498,2,0,P|233:291|223:216,1,131.25,0|0,0:0|0:0,0:0:0:0:
248,149,52794,2,0,P|242:116|239:80,1,65.625,8|0,0:0|0:0,0:0:0:0:
374,95,52992,6,0,P|310:30|238:89,1,196.875,6|0,0:0|0:0,0:0:0:0:
303,219,53386,6,0,P|367:284|439:225,1,196.875,2|0,0:0|0:0,0:0:0:0:
466,82,53781,2,0,P|460:114|456:152,1,65.625,2|2,0:0|0:0,0:0:0:0:
303,219,53979,2,0,P|306:186|312:154,1,65.625,8|2,0:0|0:0,0:0:0:0:
168,156,54176,1,8,0:0:0:0:
130,123,54275,1,8,0:0:0:0:
81,123,54373,1,8,0:0:0:0:
37,147,54472,1,8,0:0:0:0:
26,195,54571,6,0,P|53:263|73:384,1,196.875,6|0,0:0|0:0,0:0:0:0:
151,363,54965,2,0,P|203:321|253:362,1,131.25,2|8,0:0|0:0,0:0:0:0:
330,367,55261,1,0,0:0:0:0:
330,367,55360,2,0,P|401:368|422:319,1,131.25,2|8,0:0|0:0,0:0:0:0:
332,221,55656,1,0,0:0:0:0:
332,221,55755,2,0,P|337:253|347:285,1,65.625,2|0,0:0|0:0,0:0:0:0:
407,107,55952,2,0,P|427:81|445:53,1,65.625,8|0,0:0|0:0,0:0:0:0:
270,94,56150,6,0,P|194:81|120:74,1,131.25,2|8,0:0|0:0,0:0:0:0:
69,117,56446,1,0,0:0:0:0:
69,117,56544,2,0,P|56:193|49:267,1,131.25,2|8,0:0|0:0,0:0:0:0:
178,384,56939,2,0,P|191:308|198:234,1,131.25,2|8,0:0|0:0,0:0:0:0:
252,193,57235,2,0,P|301:217|270:279,1,131.25,0|0,0:0|0:0,0:0:0:0:
170,169,57531,2,0,P|164:135|164:99,1,65.625,8|0,0:0|0:0,0:0:0:0:
171,21,57729,5,2,0:0:0:0:
374,43,57926,1,2,0:0:0:0:
196,6,58123,6,0,L|354:20,1,157.500006008148,12|0,0:0|0:0,0:0:0:0:
455,215,58518,5,2,0:0:0:0:
252,193,58715,1,2,0:0:0:0:
430,230,58912,6,0,L|272:216,1,157.500006008148,12|0,0:0|0:0,0:0:0:0:
15,381,59308,6,0,P|50:316|102:357,1,157.500006008148,6|8,0:0|0:0,0:0:0:0:
258,368,59604,6,0,L|100:354,1,157.500006008148,0|0,0:0|0:0,0:0:0:0:
144,191,59900,6,0,P|152:231|152:274,1,78.7500030040742,8|0,0:0|0:0,0:0:0:0:
59,142,60097,6,0,P|117:48|196:110,1,236.250009012223,2|2,0:3|0:3,0:0:0:0:
195,108,60492,6,0,P|230:98|275:94,1,78.7500030040742,2|2,0:3|0:3,0:0:0:0:
444,104,60689,6,0,P|409:114|364:118,1,78.7500030040742,2|2,0:3|0:3,0:0:0:0:
334,337,60886,6,0,P|311:262|300:177,1,157.500006008148,6|8,0:0|0:0,0:0:0:0:
454,195,61183,1,0,0:0:0:0:
454,195,61281,2,0,P|477:257|400:268,1,157.500006008148,2|8,0:0|0:0,0:0:0:0:
237,382,61676,2,0,P|171:351|87:340,1,157.500006008148,2|8,0:0|0:0,0:0:0:0:
15,274,61972,1,0,0:0:0:0:
15,274,62071,2,0,P|-8:212|69:201,1,157.500006008148,2|8,0:0|0:0,0:0:0:0:
207,268,62465,6,0,P|211:181|223:108,1,157.500006008148,2|8,0:0|0:0,0:0:0:0:
281,5,62761,2,0,P|338:46|300:110,1,157.500006008148,0|0,0:0|0:0,0:0:0:0:
125,40,63058,2,0,P|163:35|203:35,1,78.7500030040742,8|0,0:0|0:0,0:0:0:0:
302,201,63255,2,0,P|385:187|466:189,1,157.500006008148,2|8,0:0|0:0,0:0:0:0:
413,372,63650,2,0,P|330:386|249:384,1,157.500006008148,2|8,0:0|0:0,0:0:0:0:
48,279,64044,6,0,P|49:193|116:190,1,157.500006008148,2|8,0:0|0:0,0:0:0:0:
47,65,64340,1,0,0:0:0:0:
47,65,64439,2,0,P|130:51|211:53,1,157.500006008148,2|8,0:0|0:0,0:0:0:0:
299,237,64834,1,2,0:0:0:0:
105,184,65031,1,8,0:0:0:0:
292,72,65229,1,2,0:0:0:0:
332,41,65327,1,0,0:0:0:0:
379,60,65426,1,8,0:0:0:0:
420,30,65525,1,8,0:0:0:0:
468,45,65623,6,0,P|528:146|490:262,1,236.250009012223,12|0,0:0|0:0,0:0:0:0:
259,73,66018,6,0,P|360:13|476:51,1,236.250009012223,12|0,0:0|0:0,0:0:0:0:
287,281,66413,6,0,P|227:180|265:64,1,236.250009012223,12|0,0:0|0:0,0:0:0:0:
496,253,66808,6,0,P|395:313|279:275,1,236.250009012223,12|0,0:0|0:0,0:0:0:0:
118,364,67202,6,0,P|107:279|109:223,1,131.25,6|0,0:0|0:0,0:0:0:0:
108,233,67597,1,8,0:0:0:0:
22,96,67794,1,0,0:0:0:0:
22,96,67893,1,0,0:0:0:0:
22,96,67992,2,0,P|34:156|36:174,1,65.625,2|0,0:0|0:0,0:0:0:0:
152,82,68189,2,0,P|157:49|164:17,1,65.625,0|0,0:0|0:0,0:0:0:0:
219,179,68386,2,0,P|287:169|367:168,1,131.25,8|0,0:0|0:0,0:0:0:0:
505,363,68781,6,0,P|419:379|304:384,1,196.875,2|0,0:0|0:0,0:0:0:0:
309,384,69176,2,0,P|332:322|285:291,1,131.25,8|0,0:0|0:0,0:0:0:0:
75,374,69571,1,2,0:0:0:0:
187,357,69768,1,0,0:0:0:0:
170,245,69965,1,8,0:0:0:0:
58,262,70163,1,0,0:0:0:0:
114,88,70360,6,0,P|215:89|321:100,1,196.875,12|0,0:0|0:0,0:0:0:0:
398,296,70755,6,0,P|297:295|191:284,1,196.875,12|0,0:0|0:0,0:0:0:0:
310,98,71150,6,0,P|315:165|253:178,1,131.25,10|2,0:0|0:0,0:0:0:0:
201,285,71446,2,0,P|169:272|120:264,1,65.625,4|8,0:3|0:0,0:0:0:0:
310,98,71742,6,0,P|463:92|450:159,1,262.5,6|2,0:0|0:0,0:0:0:0:
372,324,72334,2,0,P|373:271|367:186,1,131.25,8|2,0:0|0:0,0:0:0:0:
132,23,72729,5,2,3:0:0:0:
120,63,72827,1,2,3:0:0:0:
116,105,72926,1,2,3:0:0:0:
121,147,73025,1,2,3:0:0:0:
139,184,73123,5,6,3:0:0:0:
90,205,73222,1,4,3:0:0:0:
73,254,73321,1,6,3:0:0:0:
90,303,73419,1,4,3:0:0:0:
139,321,73518,6,0,P|223:300|321:308,1,157.500006008148,6|8,0:0|0:0,0:0:0:0:
400,159,73814,2,0,P|427:209|350:237,1,157.500006008148,0|0,0:0|0:0,0:0:0:0:
266,214,74110,2,0,P|265:172|259:115,1,78.7500030040742,8|0,0:0|0:0,0:0:0:0:
126,27,74308,6,0,P|130:103|139:190,1,157.500006008148,2|8,0:0|0:0,0:0:0:0:
61,220,74604,2,0,P|41:295|112:319,1,157.500006008148,0|0,0:0|0:0,0:0:0:0:
267,305,74900,2,0,P|233:294|174:288,1,78.7500030040742,8|4,0:0|0:3,0:0:0:0:
261,135,75097,6,0,P|339:153|420:163,1,157.500006008148,2|8,0:0|0:0,0:0:0:0:
512,27,75393,1,0,0:0:0:0:
512,27,75492,2,0,P|434:9|353:-1,1,157.500006008148,2|8,0:0|0:0,0:0:0:0:
141,35,75886,1,2,0:0:0:0:
261,135,76084,1,8,0:0:0:0:
171,280,76281,1,2,0:0:0:0:
252,352,76479,1,8,0:0:0:0:
252,352,76577,1,8,0:0:0:0:
252,352,76676,6,0,P|354:334|359:289,1,157.500006008148,6|0,0:0|0:0,0:0:0:0:
362,156,76972,6,0,P|260:174|255:219,1,157.500006008148,8|0,0:0|0:0,0:0:0:0:
464,308,77268,6,0,P|454:184|464:46,1,262.5,14|0,0:0|0:0,0:0:0:0:
325,35,77761,1,0,0:0:0:0:
325,35,77860,2,0,P|258:28|189:29,1,131.25,2|8,0:0|0:0,0:0:0:0:
107,283,78255,6,0,P|190:273|196:200,1,157.500006008148,6|0,0:0|0:0,0:0:0:0:
118,104,78551,6,0,P|35:114|29:187,1,157.500006008148,8|0,0:0|0:0,0:0:0:0:
29,363,78847,6,0,P|156:321|286:353,1,262.5,14|2,0:0|3:0,0:0:0:0:
511,264,79439,1,2,3:0:0:0:
478,269,79538,1,0,0:0:0:0:
445,268,79636,1,2,3:0:0:0:
412,261,79735,1,0,0:0:0:0:
383,244,79834,6,0,P|382:149|395:38,1,196.875,6|0,0:0|0:0,0:0:0:0:
393,47,80229,6,0,P|320:44|232:58,1,157.500006008148,2|8,0:0|0:0,0:0:0:0:
0,299,80623,6,0,P|83:295|200:273,1,196.875,2|4,0:0|0:3,0:0:0:0:
194,274,81018,6,0,P|185:180|168:112,1,157.500006008148,2|8,0:0|0:0,0:0:0:0:
383,244,81413,6,0,P|392:327|401:378,1,131.25,2|8,0:0|0:0,0:0:0:0:
512,297,81808,1,2,0:0:0:0:
291,180,82005,1,8,0:0:0:0:
509,17,82202,6,0,L|331:6,1,157.500006008148,2|2,1:3|1:3,0:0:0:0:
270,70,82498,1,0,0:0:0:0:
270,70,82597,2,0,L|192:62,1,78.7500030040742,2|2,0:0|0:0,0:0:0:0:
122,264,82794,2,0,L|200:272,1,78.7500030040742,8|2,0:0|0:0,0:0:0:0:
291,180,82992,5,6,0:0:0:0:
68,158,83189,1,0,0:0:0:0:
291,180,83386,6,0,L|449:195,1,157.500006008148,6|0,0:0|0:0,0:0:0:0:
494,280,83683,1,2,0:0:0:0:
494,280,83781,6,0,P|435:326|365:219,1,236.250009012223,10|0,0:0|0:0,0:0:0:0:
346,84,84176,6,0,L|105:60,1,236.250009012223,6|2,0:0|0:0,0:0:0:0:
13,284,84571,6,0,L|147:273,1,131.25,6|0,0:0|0:0,0:0:0:0:
197,342,84867,1,0,0:0:0:0:
197,342,84965,2,0,L|285:335,1,65.625,2|0,0:0|0:0,0:0:0:0:
202,205,85163,2,0,L|290:198,1,65.625,8|0,0:0|0:0,0:0:0:0:
444,292,85360,5,2,0:0:0:0:
341,274,85558,1,2,0:0:0:0:
359,171,85755,1,2,0:0:0:0:
462,189,85952,1,2,0:0:0:0:
462,189,86051,1,8,0:0:0:0:
462,189,86150,5,2,0:0:0:0:
256,103,86347,1,0,0:0:0:0:
50,189,86544,6,0,P|68:272|79:349,1,157.500006008148,6|0,0:0|0:0,0:0:0:0:
301,220,86939,6,0,P|251:130|171:196,1,236.250009012223,2|0,0:0|0:0,0:0:0:0:
222,319,87334,6,0,P|308:306|467:299,1,236.250009012223,6|2,0:0|0:0,0:0:0:0:
456,298,87729,5,8,0:0:0:0:
406,36,87962,6,0,P|333:13|263:59,1,157.500006008148,6|0,0:0|0:0,0:0:0:0:
298,294,88258,6,0,P|371:317|441:271,1,157.500006008148,4|0,0:0|0:0,0:0:0:0:
175,41,88554,6,0,P|94:116|208:329,1,393.750015020371,6|0,0:0|0:0,0:0:0:0:
