osu file format v14

[General]
AudioFilename: audio.mp3
AudioLeadIn: 0
PreviewTime: 60196
Countdown: 0
SampleSet: Soft
StackLeniency: 0.3
Mode: 0
LetterboxInBreaks: 0
WidescreenStoryboard: 1

[Editor]
Bookmarks: 9965
DistanceSpacing: 0.2
BeatDivisor: 4
GridSize: 4
TimelineZoom: 2.2

[Metadata]
Title:smile, sweet, sister, sosister
TitleUnicode:smile, sweet, sister, sosister
Artist:gle6
ArtistUnicode:gle6
Creator:schoolboy
Version:hard
Source:
Tags:komore testo neilperry djulus seikatu bon appetit счастливы вместе schastlivy vmeste ブレンド・S ぶれんど・えーす opening blend a gleb happy together
BeatmapID:1610040
BeatmapSetID:759957

[Difficulty]
HPDrainRate:4
CircleSize:4
OverallDifficulty:6.5
ApproachRate:8
SliderMultiplier:1.6
SliderTickRate:1

[Events]
//Background and Video events
0,0,"33.jpg",0,0
//Break Periods
//Storyboard Layer 0 (Background)
//Storyboard Layer 1 (Fail)
//Storyboard Layer 2 (Pass)
//Storyboard Layer 3 (Foreground)
//Storyboard Sound Samples

[TimingPoints]
887,394.736842105263,4,2,1,60,1,0
7202,-100,4,2,1,70,0,0
16676,-100,4,2,1,75,0,0
19834,-133.333333333333,4,2,2,50,0,0
26150,-100,4,2,2,50,0,0
29308,-117.647058823529,4,2,2,50,0,0
31281,-117.647058823529,4,2,2,50,0,0
31972,-117.647058823529,4,2,2,50,0,0
32465,-117.647058823529,4,2,2,50,0,0
34044,-117.647058823529,4,2,2,50,0,0
35229,-117.647058823529,4,2,2,50,0,0
35623,-117.647058823529,4,2,2,50,0,0
36808,-117.647058823529,4,2,2,50,0,0
38781,-100,4,2,1,60,0,0
41939,-100,4,2,1,65,0,0
42334,-100,4,2,1,65,0,0
43321,-100,4,2,1,65,0,0
45886,-100,4,2,1,65,0,0
47465,-100,4,2,1,45,0,0
47860,-100,4,2,1,55,0,0
48255,-100,4,2,1,70,0,0
57729,-100,4,2,1,70,0,0
58123,-100,4,2,1,70,0,0
58518,-100,4,2,1,70,0,0
58913,-100,4,2,1,70,0,0
59308,-100,4,2,1,70,0,0
59702,-100,4,2,1,70,0,0
60886,-100,4,2,1,75,0,0
65673,-100,4,2,1,5,0,0
65722,-100,4,2,1,75,0,0
66067,-100,4,2,1,5,0,0
66117,-100,4,2,1,75,0,0
66462,-100,4,2,1,5,0,0
66511,-100,4,2,1,75,0,0
67202,-100,4,2,1,65,0,0
70360,-100,4,2,1,75,0,0
70410,-100,4,2,1,5,0,0
70755,-100,4,2,1,75,0,0
70804,-100,4,2,1,5,0,0
71150,-100,4,2,1,75,0,0
71939,-100,4,2,1,75,0,0
76577,-100,4,2,1,75,0,0
77268,-100,4,2,1,75,0,0
77761,-100,4,2,1,75,0,0
78847,-100,4,2,1,75,0,0
79242,-100,4,2,1,75,0,0
79834,-100,4,2,1,75,0,0
83386,-100,4,2,1,75,0,0
83436,-100,4,2,1,5,0,0
83683,-100,4,2,1,75,0,0
83979,-100,4,2,1,75,0,0
84225,-100,4,2,1,5,0,0
84373,-100,4,2,1,75,0,0
84571,-100,4,2,1,75,0,0
86544,-100,4,2,1,75,0,0
86594,-100,4,2,1,5,0,0
86939,-100,4,2,1,75,0,0
87334,-100,4,2,1,75,0,0
87383,-100,4,2,1,5,0,0
87531,-100,4,2,1,75,0,0
87962,394.736842105263,4,2,1,75,1,0
87962,-100,4,2,1,75,0,0
89011,-100,4,2,1,50,0,0

[Colours]
Combo1 : 255,94,55
Combo2 : 173,255,95
Combo3 : 17,254,176
Combo4 : 255,88,100

[HitObjects]
398,194,887,6,0,P|443:153|504:180,2,120,12|8|8,0:0|0:0|0:0,0:0:0:0:
324,242,1676,1,2,0:0:0:0:
324,242,1775,2,0,P|284:231|234:225,1,80,8|0,0:0|0:0,0:0:0:0:
210,200,2071,2,0,P|146:215|125:215,1,80,8|0,0:0|0:0,0:0:0:0:
72,151,2465,6,0,P|83:89|98:16,2,120,8|8|8,0:0|0:0|0:0,0:0:0:0:
13,217,3255,1,2,0:0:0:0:
13,217,3354,1,8,0:0:0:0:
13,217,3452,1,0,0:0:0:0:
78,276,3650,2,0,P|122:283|166:255,1,80,8|0,0:0|0:0,0:0:0:0:
227,221,4044,6,0,P|287:230|358:246,2,120,10|8|8,0:0|0:0|0:0,0:0:0:0:
170,153,4834,1,2,0:0:0:0:
170,153,4933,1,8,0:0:0:0:
170,153,5031,1,2,0:0:0:0:
227,86,5229,2,0,L|220:38,3,40,2|0|2|0,0:0|0:0|0:0|0:0,0:0:0:0:
254,17,5623,5,6,0:0:0:0:
254,17,6808,2,0,P|261:72|268:136,1,120,2|0,0:3|0:0,0:0:0:0:
279,178,7202,6,0,P|341:155|389:230,1,160,4|2,1:2|0:0,0:0:0:0:
456,280,7794,1,8,0:0:0:0:
389,338,7992,2,0,P|304:327|256:332,2,120,2|2|8,0:0|0:0|0:0,0:0:0:0:
456,280,8781,6,0,P|448:229|461:176,1,80,2|8,0:0|0:0,0:0:0:0:
365,184,9176,2,0,P|379:137|404:111,1,80,2|8,0:0|0:0,0:0:0:0:
331,57,9571,2,0,P|388:29|428:30,1,80,2|8,0:0|0:0,0:0:0:0:
284,135,9965,2,0,P|235:148|185:124,1,80,2|8,0:0|0:0,0:0:0:0:
91,88,10360,6,0,P|99:147|106:206,2,120,6|2|8,0:0|0:0|0:0,0:0:0:0:
147,33,11051,1,0,0:0:0:0:
147,33,11150,2,0,P|204:27|234:62,1,80,2|8,0:0|0:0,0:0:0:0:
257,62,11446,2,0,P|296:57|336:53,1,80,2|0,0:0|0:0,0:0:0:0:
372,78,11742,1,8,0:0:0:0:
488,24,11939,6,0,P|480:67|475:126,1,80,6|8,0:0|0:0,0:0:0:0:
398,160,12334,2,0,P|406:203|411:262,1,80,2|8,0:0|0:0,0:0:0:0:
488,353,12729,2,0,P|492:313|499:273,1,80,2|0,0:0|0:0,0:0:0:0:
409,239,13123,2,0,L|360:245,3,40,8|8|8|8,0:0|0:0|0:0|0:0,0:0:0:0:
332,267,13518,6,0,P|294:226|197:251,1,160,6|2,0:0|0:0,0:0:0:0:
127,196,14110,1,8,0:0:0:0:
127,196,14209,1,0,0:0:0:0:
127,196,14308,2,0,P|84:210|34:215,1,80,2|8,0:0|0:0,0:0:0:0:
184,114,14702,2,0,P|229:121|269:132,1,80,2|8,0:0|0:0,0:0:0:0:
396,207,15097,6,0,P|405:142|422:58,2,120,2|2|8,0:0|0:0|0:0,0:0:0:0:
456,270,15886,1,2,0:0:0:0:
400,338,16084,1,8,0:0:0:0:
321,298,16281,2,0,P|282:289|230:295,1,80,2|8,0:0|0:0,0:0:0:0:
132,356,16676,5,2,0:0:0:0:
56,310,16873,1,2,0:0:0:0:
116,245,17071,2,0,L|97:132,1,80,6|0,0:0|0:0,0:0:0:0:
271,26,17465,5,2,0:0:0:0:
195,72,17662,1,2,0:0:0:0:
255,137,17860,2,0,L|236:250,1,80,6|0,0:0|0:0,0:0:0:0:
391,353,18452,6,0,P|472:353|499:410,2,120,8|8|12,0:0|0:0|0:0,0:0:0:0:
171,107,19834,5,6,1:2:0:0:
171,107,20229,2,0,P|107:100|76:147,2,120.000004577637,8|0|8,0:0|0:0|0:0,0:0:0:0:
314,234,21413,5,6,1:2:0:0:
314,234,21808,2,0,P|331:127|340:99,2,120.000004577637,8|0|8,0:0|0:0|0:0,0:0:0:0:
121,361,22992,5,6,1:2:0:0:
121,361,23386,2,0,P|101:293|142:248,1,120.000004577637,8|0,0:0|0:0,0:0:0:0:
237,96,24176,1,8,0:0:0:0:
27,176,24571,6,0,P|89:172|161:162,1,120.000004577637,6|8,1:2|0:0,0:0:0:0:
303,254,25360,2,0,L|291:324,1,60.0000022888184,0|4,0:0|3:0,0:0:0:0:
292,313,25656,1,4,3:0:0:0:
292,313,25755,1,4,3:0:0:0:
386,370,25952,2,0,L|378:322,1,30.0000011444092,4|4,3:0|3:0,0:0:0:0:
440,278,26150,5,6,3:0:0:0:
386,207,26347,2,0,L|401:143,4,40,4|4|4|4|4,3:0|3:0|3:0|3:0|3:0,0:0:0:0:
309,254,26939,2,0,L|324:318,4,40,4|4|4|4|4,3:0|3:0|3:0|3:0|3:0,0:0:0:0:
234,223,27531,5,4,3:0:0:0:
234,223,27630,1,4,3:0:0:0:
234,223,27729,2,0,L|249:128,1,80,6|0,3:0|3:0,0:0:0:0:
317,99,28123,1,4,3:0:0:0:
384,149,28321,2,0,L|430:142,4,40,4|4|4|4|4,3:0|3:0|0:3|0:3|0:3,0:0:0:0:
317,99,28913,1,4,0:3:0:0:
314,79,29011,1,4,0:3:0:0:
311,59,29110,1,4,0:3:0:0:
307,39,29209,1,4,0:3:0:0:
300,18,29308,6,0,P|244:45|258:124,1,136.000002593994,6|4,3:0|3:0,0:0:0:0:
213,193,29900,1,4,3:0:0:0:
213,193,29998,1,0,0:0:0:0:
213,193,30097,2,0,P|286:180|357:170,1,136.000002593994,4|4,3:0|3:0,0:0:0:0:
379,201,30590,1,4,3:0:0:0:
379,201,30689,2,0,L|364:260,1,34.0000006484985,4|4,3:0|3:0,0:0:0:0:
423,294,30886,5,4,3:0:0:0:
224,383,31676,5,6,1:2:0:0:
148,288,31972,1,2,0:0:0:0:
148,288,32071,2,0,P|143:232|136:182,1,102.000001945496,8|0,0:0|0:0,0:0:0:0:
155,163,32465,6,0,P|200:134|263:162,1,102.000001945496,6|0,1:2|0:0,0:0:0:0:
267,164,32860,2,0,P|302:157|363:149,1,68.0000012969971,10|0,0:0|0:0,0:0:0:0:
441,94,33255,2,0,P|434:143|424:211,1,102.000001945496,2|0,1:2|0:0,0:0:0:0:
409,220,33650,2,0,P|416:253|422:306,1,68.0000012969971,8|0,0:0|0:0,0:0:0:0:
353,346,34044,6,0,P|307:324|239:352,2,102.000001945496,2|0|0,1:2|0:0|0:0,0:0:0:0:
420,286,34834,1,2,1:2:0:0:
352,227,35031,2,0,P|344:197|339:140,1,68.0000012969971,10|8,0:0|0:0,0:0:0:0:
339,160,35623,6,0,P|347:106|361:45,2,102.000001945496,2|0|0,1:2|0:0|0:0,0:0:0:0:
274,222,36413,2,0,P|206:246|147:201,1,136.000002593994,2|10,1:2|0:0,0:0:0:0:
92,151,37005,1,0,0:0:0:0:
25,206,37202,6,0,P|31:240|36:292,1,68.0000012969971,2|2,1:2|0:0,0:0:0:0:
138,377,37597,2,0,P|141:343|147:309,1,68.0000012969971,10|2,0:0|0:0,0:0:0:0:
233,246,37992,5,2,0:0:0:0:
309,295,38189,1,2,0:0:0:0:
389,258,38386,2,0,P|428:245|465:247,1,68.0000012969971,10|2,0:0|0:0,0:0:0:0:
385,162,38781,6,0,P|329:155|261:145,1,120,6|0,1:2|0:0,0:0:0:0:
238,122,39176,2,0,L|142:136,1,80,10|8,0:0|0:0,0:0:0:0:
56,202,39571,2,0,P|30:250|57:312,1,120,2|0,0:0|0:0,0:0:0:0:
79,330,39965,2,0,P|121:322|179:319,1,80,2|8,1:3|0:0,0:0:0:0:
271,368,40360,6,0,P|266:300|260:230,1,120,2|0,0:0|0:0,0:0:0:0:
237,221,40755,1,2,0:0:0:0:
298,153,40952,1,8,0:0:0:0:
228,99,41150,2,0,P|187:107|139:112,1,80,2|8,0:0|0:0,0:0:0:0:
90,64,41446,1,0,0:0:0:0:
90,64,41544,2,0,L|98:-1,3,40,2|10|8|8,0:0|0:0|0:0|0:0,0:0:0:0:
31,114,41939,6,0,P|40:193|49:272,1,160,6|12,1:2|0:0,0:0:0:0:
221,365,42729,2,0,P|231:323|210:290,1,80,8|8,0:0|0:0,0:0:0:0:
206,288,43025,1,4,3:0:0:0:
198,285,43123,1,8,0:0:0:0:
334,353,43321,6,0,P|393:365|464:292,1,160,6|8,0:0|0:0,0:0:0:0:
404,231,43913,2,0,P|368:219|313:227,1,80,8|2,0:0|0:0,0:0:0:0:
261,162,44308,2,0,L|270:113,3,40,2|2|8|0,0:0|0:0|0:0|0:0,0:0:0:0:
241,88,44702,2,0,L|250:39,3,40,8|4|2|0,0:0|3:0|0:0|0:0,0:0:0:0:
222,12,45097,5,2,0:0:0:0:
141,46,45294,1,2,0:0:0:0:
62,19,45492,1,8,0:0:0:0:
62,19,45590,1,4,3:0:0:0:
62,19,45689,1,4,3:0:0:0:
102,158,45886,6,0,P|169:133|246:131,2,120,6|2|2,0:0|0:0|0:0,0:0:0:0:
47,266,46676,1,6,0:0:0:0:
47,266,47465,6,0,L|106:275,3,40,2|2|2|2,0:3|0:3|0:3|0:3,0:0:0:0:
122,297,47860,2,0,L|181:288,3,40,2|2|2|2,0:3|0:3|0:3|0:3,0:0:0:0:
194,261,48255,6,0,P|318:284|357:284,1,160,2|2,1:2|0:0,0:0:0:0:
417,225,48847,2,0,L|409:177,1,40,8|0,0:0|0:0,0:0:0:0:
469,138,49044,2,0,P|471:90|425:61,1,80,2|8,0:0|0:0,0:0:0:0:
443,65,49340,1,0,0:0:0:0:
435,63,49439,1,2,0:0:0:0:
371,7,49636,1,8,0:0:0:0:
306,98,49834,6,0,P|256:118|197:103,1,80,2|8,0:0|0:0,0:0:0:0:
83,24,50229,2,0,P|122:25|158:42,1,80,2|8,0:0|0:0,0:0:0:0:
110,197,50623,2,0,L|102:115,1,80,2|8,0:0|0:0,0:0:0:0:
228,213,51018,2,0,L|220:295,1,80,2|8,0:0|0:0,0:0:0:0:
18,374,51413,6,0,P|71:312|154:346,1,160,6|2,0:0|0:0,0:0:0:0:
220,292,52005,1,8,0:0:0:0:
285,350,52202,2,0,P|328:343|377:340,1,80,2|8,0:0|0:0,0:0:0:0:
496,261,52597,2,0,P|461:237|416:241,1,80,2|8,0:0|0:0,0:0:0:0:
369,147,52992,6,0,L|383:59,1,80,6|8,0:0|0:0,0:0:0:0:
234,183,53386,2,0,L|248:271,1,80,2|8,0:0|0:0,0:0:0:0:
178,317,53781,2,0,L|128:312,3,40,2|2|8|2,0:0|0:0|0:0|0:0,0:0:0:0:
105,282,54176,2,0,L|55:287,3,40,8|8|8|8,0:0|0:0|0:0|0:0,0:0:0:0:
33,317,54571,6,0,P|26:234|13:141,1,160,6|2,0:0|0:0,0:0:0:0:
62,83,55163,1,8,0:0:0:0:
62,83,55261,1,0,0:0:0:0:
62,83,55360,1,2,0:0:0:0:
140,122,55558,1,8,0:0:0:0:
213,74,55755,2,0,P|266:61|295:70,1,80,2|8,0:0|0:0,0:0:0:0:
417,134,56150,6,0,P|441:69|374:16,2,160,2|2|2,0:0|0:0|0:0,0:0:0:0:
369,208,57136,2,0,L|378:265,1,40,8|0,0:0|0:0,0:0:0:0:
438,293,57334,2,0,L|426:382,1,80,2|8,0:0|0:0,0:0:0:0:
300,317,57729,5,2,0:0:0:0:
227,267,57926,1,2,0:0:0:0:
153,315,58123,2,0,P|111:308|62:303,1,80,12|0,0:0|0:0,0:0:0:0:
181,180,58518,5,2,0:0:0:0:
254,130,58715,1,2,0:0:0:0:
328,178,58912,2,0,P|370:171|419:166,1,80,12|0,0:0|0:0,0:0:0:0:
459,332,59308,6,0,P|403:356|346:308,2,120,6|0|8,0:0|0:0|0:0,0:0:0:0:
509,260,60097,2,0,L|501:200,3,40,2|2|2|2,0:3|0:3|0:3|0:3,0:0:0:0:
480,182,60492,2,0,L|488:122,3,40,2|2|2|0,0:3|0:3|0:3|0:0,0:0:0:0:
466,102,60886,6,0,P|426:98|376:86,1,80,6|8,0:0|0:0,0:0:0:0:
275,34,61281,2,0,P|235:38|185:50,1,80,2|8,0:0|0:0,0:0:0:0:
70,129,61676,2,0,L|56:46,1,80,2|8,0:0|0:0,0:0:0:0:
56,50,61972,1,0,0:0:0:0:
56,50,62071,1,2,0:0:0:0:
145,108,62268,1,8,0:0:0:0:
109,220,62465,6,0,P|67:249|-12:226,2,120,2|0|8,0:0|0:0|0:0,0:0:0:0:
175,277,63255,2,0,P|218:279|258:289,1,80,2|8,0:0|0:0,0:0:0:0:
319,228,63650,2,0,L|418:217,1,80,2|8,0:0|0:0,0:0:0:0:
475,301,64044,6,0,P|483:247|499:175,2,120,2|0|8,0:0|0:0|0:0,0:0:0:0:
373,368,64834,1,2,0:0:0:0:
320,297,65031,1,8,0:0:0:0:
248,349,65229,2,0,P|208:362|146:333,1,80,2|8,0:0|0:0,0:0:0:0:
163,354,65525,1,8,0:0:0:0:
155,354,65623,5,12,0:0:0:0:
99,194,66018,1,12,0:0:0:0:
172,28,66413,1,12,0:0:0:0:
246,76,66610,2,0,P|285:68|324:63,1,80,2|12,0:3|0:0,0:0:0:0:
398,112,67005,1,2,0:3:0:0:
496,225,67202,6,0,P|442:214|333:199,1,160,6|8,0:0|0:0,0:0:0:0:
266,250,67794,1,0,0:0:0:0:
201,189,67992,2,0,P|184:100|249:65,1,160,2|8,0:0|0:0,0:0:0:0:
232,65,68584,1,0,0:0:0:0:
266,250,68781,6,0,P|205:206|108:255,1,160,2|8,0:0|0:0,0:0:0:0:
63,286,69373,1,0,0:0:0:0:
5,219,69571,2,0,P|18:130|34:49,1,160,2|8,0:0|0:0,0:0:0:0:
97,2,70163,1,0,0:0:0:0:
202,128,70360,5,12,0:0:0:0:
423,58,70755,1,12,0:0:0:0:
364,298,71150,2,0,P|356:259|345:207,1,80,10|2,0:0|0:0,0:0:0:0:
353,214,71446,1,4,0:3:0:0:
359,209,71544,1,8,0:0:0:0:
448,344,71742,6,0,B|363:325|386:387|284:369,1,160,6|2,0:0|0:0,0:0:0:0:
205,282,72334,2,0,P|208:243|215:203,1,80,8|2,0:0|0:0,0:0:0:0:
169,128,72729,2,0,L|108:135,3,40,2|2|2|2,3:0|3:0|3:0|3:0,0:0:0:0:
96,162,73123,2,0,L|56:157,3,40,6|4|6|4,3:0|3:0|3:0|3:0,0:0:0:0:
29,192,73518,6,0,P|18:97|10:32,1,160,6|2,0:0|0:0,0:0:0:0:
104,70,74110,1,8,0:0:0:0:
188,22,74308,2,0,P|248:13|271:21,1,80,2|8,0:0|0:0,0:0:0:0:
350,80,74702,1,2,0:0:0:0:
350,80,74801,1,0,0:0:0:0:
350,80,74900,1,8,0:0:0:0:
454,26,75097,6,0,P|443:85|433:144,2,120,2|0|8,0:0|0:0|0:0,0:0:0:0:
501,234,75886,2,0,P|448:189|340:216,1,160,2|2,0:0|0:0,0:0:0:0:
296,260,76479,1,8,0:0:0:0:
296,260,76577,1,8,0:0:0:0:
296,260,76676,6,0,P|259:252|208:248,1,80,6|0,0:0|0:0,0:0:0:0:
179,225,76972,2,0,L|87:237,1,80,8|0,0:0|0:0,0:0:0:0:
62,259,77268,2,0,P|30:182|85:131,1,160,14|0,0:0|0:0,0:0:0:0:
141,89,77761,1,0,0:0:0:0:
141,89,77860,2,0,P|181:102|242:106,1,80,2|8,0:0|0:0,0:0:0:0:
362,20,78255,6,0,L|349:112,1,80,6|0,0:0|0:0,0:0:0:0:
384,128,78551,2,0,P|399:160|384:212,1,80,8|0,0:0|0:0,0:0:0:0:
359,233,78847,2,0,P|421:226|451:317,1,160,14|2,0:0|3:0,0:0:0:0:
456,304,79340,1,0,0:0:0:0:
456,304,79439,1,2,3:0:0:0:
389,361,79636,1,2,3:0:0:0:
303,302,79834,6,0,P|244:270|173:298,1,120,6|0,0:0|0:0,0:0:0:0:
161,309,80229,2,0,P|122:306|72:303,1,80,2|8,0:0|0:0,0:0:0:0:
0,184,80623,2,0,P|59:177|119:170,1,120,2|4,0:0|0:3,0:0:0:0:
148,138,81018,2,0,L|139:84,2,40,2|4|8,0:0|0:3|0:0,0:0:0:0:
267,222,81413,6,0,P|339:240|386:201,1,120,2|0,0:0|0:0,0:0:0:0:
406,193,81808,2,0,P|399:239|390:299,1,80,2|8,0:0|0:0,0:0:0:0:
488,371,82202,1,2,1:3:0:0:
485,251,82400,1,2,1:3:0:0:
350,358,82597,2,0,L|285:339,3,40,2|2|8|2,0:0|0:0|0:0|0:0,0:0:0:0:
285,311,82992,6,0,P|231:357|160:338,1,120,6|0,0:0|0:0,0:0:0:0:
124,306,83386,1,6,0:0:0:0:
239,204,83683,1,2,0:0:0:0:
239,204,83781,6,0,L|364:220,1,120,10|0,0:0|0:0,0:0:0:0:
420,176,84176,1,6,0:0:0:0:
357,113,84373,1,2,0:0:0:0:
357,113,84472,1,2,0:0:0:0:
357,113,84571,6,0,L|271:123,1,80,6|0,0:0|0:0,0:0:0:0:
240,97,84867,1,0,0:0:0:0:
240,97,84965,2,0,L|248:37,3,40,2|0|8|0,0:0|0:0|0:0|0:0,0:0:0:0:
278,27,85360,5,2,0:0:0:0:
149,71,85558,1,2,0:0:0:0:
179,160,85755,1,2,0:0:0:0:
60,195,85952,2,0,L|12:181,1,40,2|8,0:0|0:0,0:0:0:0:
24,269,86150,6,0,P|78:241|140:254,1,120,2|0,0:0|0:0,0:0:0:0:
194,303,86544,1,6,0:0:0:0:
326,186,86939,2,0,P|313:122|299:47,1,120,2|0,0:0|0:0,0:0:0:0:
234,32,87334,2,0,P|218:60|234:127,1,80,6|0,0:0|0:0,0:0:0:0:
168,177,87729,5,8,0:0:0:0:
274,302,87961,2,0,L|359:289,1,80,6|0,0:0|0:0,0:0:0:0:
390,265,88257,2,0,P|431:259|476:274,1,80,4|0,0:0|0:0,0:0:0:0:
497,301,88553,1,6,0:0:0:0:
417,143,88948,6,0,L|429:89,2,40,0|0|0,0:0|0:0|0:0,0:0:0:0:
