osu file format v14

[General]
AudioFilename: audio.mp3
AudioLeadIn: 0
PreviewTime: 60196
Countdown: 0
SampleSet: Soft
StackLeniency: 0.3
Mode: 0
LetterboxInBreaks: 0
WidescreenStoryboard: 0

[Editor]
DistanceSpacing: 0.9
BeatDivisor: 4
GridSize: 16
TimelineZoom: 2.2

[Metadata]
Title:smile, sweet, sister, sosister
TitleUnicode:smile, sweet, sister, sosister
Artist:gle6
ArtistUnicode:gle6
Creator:schoolboy
Version:grandmaster ex
Source:
Tags:komore testo neilperry djulus seikatu bon appetit счастливы вместе schastlivy vmeste ブレンド・S ぶれんど・えーす opening blend a gleb happy together
BeatmapID:1598473
BeatmapSetID:759957

[Difficulty]
HPDrainRate:6
CircleSize:4
OverallDifficulty:8
ApproachRate:9.3
SliderMultiplier:3
SliderTickRate:1

[Events]
//Background and Video events
0,0,"33.jpg",0,0
//Break Periods
//Storyboard Layer 0 (Background)
//Storyboard Layer 1 (Fail)
//Storyboard Layer 2 (Pass)
//Storyboard Layer 3 (Foreground)
//Storyboard Sound Samples

[TimingPoints]
887,394.736842105263,4,2,1,60,1,0
7202,-90.9090909090909,4,2,1,70,0,0
16676,-76.9230769230769,4,2,1,75,0,0
19834,-200,4,2,2,50,0,0
26150,-133.333333333333,4,2,2,50,0,0
31281,-200,4,2,2,50,0,0
31972,-133.333333333333,4,2,2,50,0,0
32465,-111.111111111111,4,2,2,50,0,0
34044,-200,4,2,2,50,0,0
35229,-133.333333333333,4,2,2,50,0,0
35623,-200,4,2,2,50,0,0
36808,-133.333333333333,4,2,2,50,0,0
38781,-111.111111111111,4,2,1,60,0,0
41939,-111.111111111111,4,2,1,65,0,0
42334,-83.3333333333333,4,2,1,65,0,0
43321,-100,4,2,1,65,0,0
45886,-76.9230769230769,4,2,1,65,0,0
47465,-76.9230769230769,4,2,1,45,0,0
47860,-76.9230769230769,4,2,1,55,0,0
48255,-90.9090909090909,4,2,1,70,0,0
57729,-200,4,2,1,70,0,0
58123,-66.6666666666667,4,2,1,70,0,0
58518,-200,4,2,1,70,0,0
58913,-66.6666666666667,4,2,1,70,0,0
59308,-76.9230769230769,4,2,1,70,0,0
59702,-90.9090909090909,4,2,1,70,0,0
60886,-90.9090909090909,4,2,1,75,0,0
65673,-90.9090909090909,4,2,1,5,0,0
65722,-90.9090909090909,4,2,1,75,0,0
66067,-90.9090909090909,4,2,1,5,0,0
66117,-90.9090909090909,4,2,1,75,0,0
66462,-90.9090909090909,4,2,1,5,0,0
66511,-90.9090909090909,4,2,1,75,0,0
67202,-133.333333333333,4,2,1,65,0,0
70360,-66.6666666666667,4,2,1,75,0,0
70410,-66.6666666666667,4,2,1,5,0,0
70755,-66.6666666666667,4,2,1,75,0,0
70804,-66.6666666666667,4,2,1,5,0,0
71150,-66.6666666666667,4,2,1,75,0,0
71939,-90.9090909090909,4,2,1,75,0,0
76577,-76.9230769230769,4,2,1,75,0,0
77268,-58.8235294117647,4,2,1,75,0,0
77761,-76.9230769230769,4,2,1,75,0,0
78847,-58.8235294117647,4,2,1,75,0,0
79242,-76.9230769230769,4,2,1,75,0,0
79834,-90.9090909090909,4,2,1,75,0,0
83386,-66.6666666666667,4,2,1,75,0,0
83436,-66.6666666666667,4,2,1,5,0,0
83683,-90.9090909090909,4,2,1,75,0,0
83979,-66.6666666666667,4,2,1,75,0,0
84225,-66.6666666666667,4,2,1,5,0,0
84373,-66.6666666666667,4,2,1,75,0,0
84571,-90.9090909090909,4,2,1,75,0,0
86544,-66.6666666666667,4,2,1,75,0,0
86594,-66.6666666666667,4,2,1,5,0,0
86939,-90.9090909090909,4,2,1,75,0,0
87334,-66.6666666666667,4,2,1,75,0,0
87383,-66.6666666666667,4,2,1,5,0,0
87531,-90.9090909090909,4,2,1,75,0,0
87962,394.736842105263,4,2,1,75,1,0
87962,-76.9230769230769,4,2,1,75,0,0
89011,-133.333333333333,4,2,1,50,0,0

[Colours]
Combo1 : 255,94,55
Combo2 : 173,255,95
Combo3 : 17,254,176
Combo4 : 255,88,100

[HitObjects]
154,294,887,6,0,B|211:277|211:277|243:293|243:293|315:282,1,150,12|0,0:0|0:0,0:0:0:0:
429,223,1183,2,0,B|401:334|401:334|448:310,1,150,8|0,0:0|0:0,0:0:0:0:
338,200,1479,2,0,L|323:117,1,75,8|0,0:0|0:0,0:0:0:0:
225,295,1676,5,2,0:0:0:0:
225,295,1775,2,0,B|127:278|127:278|82:312,1,150,8|0,0:0|0:0,0:0:0:0:
171,207,2071,2,0,L|144:40,1,150,8|0,0:0|0:0,0:0:0:0:
68,121,2367,1,0,0:0:0:0:
264,214,2465,6,0,B|365:194,1,75,8|0,0:0|0:0,0:0:0:0:
512,136,2663,1,2,0:0:0:0:
512,136,2761,2,0,B|458:85|458:85|389:114,1,150,8|0,0:0|0:0,0:0:0:0:
428,271,3058,2,0,L|441:182,1,75,8|0,0:0|0:0,0:0:0:0:
310,43,3255,5,2,0:0:0:0:
310,43,3354,2,0,B|273:19|273:19|291:125,1,150,8|0,0:0|0:0,0:0:0:0:
184,188,3650,2,0,B|130:176|130:176|95:194|95:194|40:185,1,150,8|0,0:0|0:0,0:0:0:0:
78,96,3946,1,0,0:0:0:0:
150,278,4044,6,0,L|321:257,1,150,10|0,0:0|0:0,0:0:0:0:
434,194,4340,2,0,B|472:280|472:280|433:336,1,150,8|0,0:0|0:0,0:0:0:0:
343,161,4636,2,0,L|358:75,1,75,8|0,0:0|0:0,0:0:0:0:
433,40,4834,5,2,0:0:0:0:
262,108,4933,1,8,0:0:0:0:
434,194,5031,1,2,0:0:0:0:
217,311,5229,6,0,L|199:396,1,75,2|0,0:0|0:0,0:0:0:0:
42,244,5426,2,0,L|60:329,1,75,2|0,0:0|0:0,0:0:0:0:
165,201,5623,1,6,0:0:0:0:
176,27,6610,5,2,0:3:0:0:
176,27,6709,1,2,0:3:0:0:
176,27,6808,6,0,B|112:92|113:177|158:195|207:160|189:135|163:106,1,225,2|0,0:3|0:0,0:0:0:0:
171,116,7202,6,0,B|240:103|240:103|264:121|264:121|365:109,1,165.000005035401,4|8,1:2|0:0,0:0:0:0:
499,119,7498,1,0,0:0:0:0:
419,78,7597,2,0,L|402:183,1,82.5000025177003,2|0,0:0|0:0,0:0:0:0:
505,312,7794,2,0,B|516:275|516:275|500:222,1,82.5000025177003,8|0,0:0|0:0,0:0:0:0:
380,283,7992,6,0,L|209:313,1,165.000005035401,2|8,0:0|0:0,0:0:0:0:
26,230,8288,2,0,B|93:179|93:179|163:220,1,165.000005035401,2|0,0:0|0:0,0:0:0:0:
108,379,8584,2,0,L|97:281,1,82.5000025177003,8|0,0:0|0:0,0:0:0:0:
236,118,8781,6,0,B|280:96|280:96|254:238,1,165.000005035401,2|8,0:0|0:0,0:0:0:0:
429,367,9077,1,0,0:0:0:0:
429,367,9176,2,0,B|466:296|466:296|405:205,1,165.000005035401,2|8,0:0|0:0,0:0:0:0:
321,309,9472,1,0,0:0:0:0:
321,309,9571,6,0,L|144:292,1,165.000005035401,2|8,0:0|0:0,0:0:0:0:
60,105,9867,1,0,0:0:0:0:
60,105,9965,2,0,B|105:205|105:205|64:248,1,165.000005035401,2|8,0:0|0:0,0:0:0:0:
187,116,10261,1,0,0:0:0:0:
187,116,10360,6,0,P|293:83|360:152,1,165.000005035401,6|8,0:0|0:0,0:0:0:0:
481,199,10656,2,0,L|513:20,1,165.000005035401,2|0,0:0|0:0,0:0:0:0:
357,204,10952,2,0,L|373:293,1,82.5000025177003,8|0,0:0|0:0,0:0:0:0:
212,357,11150,6,0,B|139:339|139:339|120:360|120:360|21:374,1,165.000005035401,2|8,0:0|0:0,0:0:0:0:
185,129,11446,2,0,P|232:165|188:278,1,165.000005035401,2|0,0:0|0:0,0:0:0:0:
68,135,11742,2,0,L|84:20,1,82.5000025177003,8|0,0:0|0:0,0:0:0:0:
11,254,11939,6,0,L|114:233,1,82.5000025177003,6|0,0:0|0:0,0:0:0:0:
212,357,12136,1,8,0:0:0:0:
212,357,12334,6,0,L|231:218,1,82.5000025177003,2|0,0:0|0:0,0:0:0:0:
249,76,12531,1,8,0:0:0:0:
324,182,12729,5,2,0:0:0:0:
324,182,12827,2,0,B|389:167|389:167|421:185|421:185|492:175,1,165.000005035401,8|0,0:0|0:0,0:0:0:0:
437,89,13123,1,8,0:0:0:0:
437,89,13222,1,8,0:0:0:0:
373,264,13321,1,8,0:0:0:0:
373,264,13419,1,8,0:0:0:0:
209,172,13518,6,0,B|101:148|101:148|38:195,1,165.000005035401,6|0,0:0|0:0,0:0:0:0:
174,85,13814,1,0,0:0:0:0:
174,85,13913,2,0,B|186:44|186:44|165:7,1,82.5000025177003,2|0,0:0|0:0,0:0:0:0:
279,111,14110,2,0,B|317:124|317:124|360:112,1,82.5000025177003,8|0,0:0|0:0,0:0:0:0:
493,27,14308,5,2,0:0:0:0:
482,103,14406,1,0,3:0:0:0:
470,180,14505,1,8,0:0:0:0:
456,256,14604,1,0,3:0:0:0:
487,325,14702,6,0,L|366:304,1,82.5000025177003,2|0,0:0|0:0,0:0:0:0:
275,221,14900,2,0,L|154:242,1,82.5000025177003,8|0,0:0|0:0,0:0:0:0:
31,334,15097,6,0,B|68:356|68:356|46:207,1,165.000005035401,2|8,0:0|0:0,0:0:0:0:
212,71,15393,2,0,L|189:269,1,165.000005035401,2|0,0:0|0:0,0:0:0:0:
28,122,15689,2,0,B|68:102|68:102|141:120,1,82.5000025177003,8|0,0:0|0:0,0:0:0:0:
309,239,15886,6,0,B|420:212|420:212|492:255,1,165.000005035401,2|8,0:0|0:0,0:0:0:0:
362,135,16183,1,0,0:0:0:0:
362,135,16281,2,0,L|378:33,1,82.5000025177003,2|0,0:0|0:0,0:0:0:0:
215,211,16479,2,0,L|231:313,1,82.5000025177003,8|0,0:0|0:0,0:0:0:0:
361,351,16676,5,2,0:0:0:0:
83,233,16873,1,2,0:0:0:0:
83,233,17071,6,0,B|16:163|-10:-2|208:55|127:169|62:170,1,292.499986610413,6|0,0:0|0:0,0:0:0:0:
151,351,17465,5,2,0:0:0:0:
429,233,17662,1,2,0:0:0:0:
429,233,17860,6,0,B|496:163|522:-2|304:55|385:169|450:170,1,292.499986610413,6|0,0:0|0:0,0:0:0:0:
418,159,18255,1,0,0:0:0:0:
418,159,18354,1,0,0:0:0:0:
322,219,18452,6,0,B|221:193|239:276|129:254,1,194.999991073609,8|0,0:0|0:0,0:0:0:0:
49,55,18748,2,0,P|127:53|119:202,1,194.999991073609,8|0,0:0|0:0,0:0:0:0:
319,361,19044,6,0,B|402:246|382:39|259:0|30:261|406:310|446:234|481:107,1,584.999973220826,12|0,0:0|0:0,0:0:0:0:
106,293,19834,5,6,1:2:0:0:
106,293,20229,2,0,L|83:196,1,75,8|0,0:0|0:0,0:0:0:0:
208,128,20623,2,0,L|185:225,1,75,0|0,0:0|0:0,0:0:0:0:
310,282,21018,2,0,L|287:185,1,75,8|0,0:0|0:0,0:0:0:0:
396,125,21413,5,6,1:2:0:0:
396,125,21808,2,0,L|491:140,1,75,8|0,0:0|0:0,0:0:0:0:
299,26,22202,2,0,L|394:11,1,75,0|0,0:0|0:0,0:0:0:0:
206,146,22597,2,0,L|301:161,1,75,8|0,0:0|0:0,0:0:0:0:
146,43,22992,5,6,1:2:0:0:
146,43,23386,2,0,B|111:33|111:33|60:49,1,75,8|0,0:0|0:0,0:0:0:0:
206,146,23781,2,0,B|241:156|241:156|292:140,1,75,0|0,0:0|0:0,0:0:0:0:
394,44,24176,2,0,B|359:34|359:34|308:50,1,75,8|0,0:0|0:0,0:0:0:0:
427,177,24571,5,6,1:2:0:0:
427,177,24965,2,0,B|442:214|442:214|427:257,1,75,8|0,0:0|0:0,0:0:0:0:
269,350,25360,2,0,B|254:314|254:314|269:270,1,75,0|4,0:0|3:0,0:0:0:0:
351,316,25656,1,4,3:0:0:0:
351,316,25755,1,4,3:0:0:0:
121,366,25952,1,4,3:0:0:0:
98,361,26051,1,4,3:0:0:0:
65,368,26150,1,6,3:0:0:0:
196,161,26347,5,4,3:0:0:0:
227,181,26445,1,4,3:0:0:0:
240,216,26544,1,4,3:0:0:0:
239,253,26643,1,4,3:0:0:0:
217,283,26741,1,4,3:0:0:0:
352,165,26939,5,4,3:0:0:0:
389,160,27037,1,4,3:0:0:0:
426,156,27136,1,4,3:0:0:0:
464,151,27235,1,4,3:0:0:0:
501,147,27333,1,4,3:0:0:0:
282,68,27531,5,4,3:0:0:0:
263,55,27630,1,4,3:0:0:0:
287,30,27729,2,0,L|271:164,1,112.500004291535,6|0,3:0|3:0,0:0:0:0:
180,183,28025,1,4,3:0:0:0:
180,183,28123,2,0,B|172:156|172:156|185:108,1,56.2500021457673,4|4,3:0|3:0,0:0:0:0:
347,211,28321,2,0,B|355:238|355:238|342:286,1,56.2500021457673,4|4,3:0|3:0,0:0:0:0:
210,343,28518,5,4,0:3:0:0:
165,338,28617,1,4,0:3:0:0:
120,333,28715,1,4,0:3:0:0:
6,197,28913,5,4,0:3:0:0:
40,211,29011,1,4,0:3:0:0:
77,212,29110,1,4,0:3:0:0:
112,199,29209,1,4,0:3:0:0:
140,173,29308,6,0,L|121:27,1,112.500004291535,6|4,3:0|0:3,0:0:0:0:
0,116,29604,1,4,3:0:0:0:
0,116,29702,2,0,B|31:123|31:123|68:109,1,56.2500021457673,4|0,3:0|0:0,0:0:0:0:
222,164,29900,2,0,B|247:155|247:155|275:162,1,56.2500021457673,4|0,3:0|0:0,0:0:0:0:
383,78,30097,5,4,3:0:0:0:
383,78,30196,1,4,3:0:0:0:
383,78,30294,2,0,P|438:56|494:101,1,112.500004291535,4|4,3:0|3:0,0:0:0:0:
432,158,30590,1,4,3:0:0:0:
426,202,30689,1,4,3:0:0:0:
420,246,30788,1,4,3:0:0:0:
413,290,30886,5,4,3:0:0:0:
413,290,31281,2,0,L|317:282,1,75,8|0,0:0|0:0,0:0:0:0:
223,369,31676,5,6,1:2:0:0:
9,260,31972,1,2,0:0:0:0:
9,260,32071,2,0,P|65:226|127:243,1,112.5,8|0,0:0|0:0,0:0:0:0:
180,171,32367,1,0,0:0:0:0:
180,171,32465,6,0,L|156:37,1,134.999995880127,6|0,1:2|0:0,0:0:0:0:
254,89,32761,1,0,0:0:0:0:
254,89,32860,2,0,B|338:73|338:73|387:104,1,134.999995880127,10|0,0:0|0:0,0:0:0:0:
439,188,33156,1,0,0:0:0:0:
439,188,33254,2,0,P|386:160|304:193,1,134.999995880127,2|0,1:2|0:0,0:0:0:0:
263,260,33551,1,0,0:0:0:0:
263,260,33650,2,0,L|98:239,1,134.999995880127,8|0,0:0|0:0,0:0:0:0:
50,345,33946,1,0,0:0:0:0:
50,344,34044,6,0,P|40:278|19:191,2,150,2|10|2,1:2|0:0|1:2,0:0:0:0:
212,182,35031,2,0,L|226:122,1,37.5,10|0,0:0|0:0,0:0:0:0:
155,78,35229,2,0,P|116:111|140:182,1,112.5,8|0,0:0|0:0,0:0:0:0:
294,238,35623,6,0,P|371:226|444:221,2,150,2|8|2,1:2|0:0|1:2,0:0:0:0:
129,62,36610,2,0,L|141:121,1,37.5,10|0,0:0|0:0,0:0:0:0:
97,187,36808,2,0,P|154:200|206:162,1,112.5,10|0,0:0|0:0,0:0:0:0:
331,33,37202,5,2,1:2:0:0:
380,204,37400,1,2,0:0:0:0:
441,79,37597,1,10,0:0:0:0:
283,188,37794,1,2,0:0:0:0:
457,278,37992,1,2,0:0:0:0:
349,104,38189,5,2,0:0:0:0:
72,264,38386,1,10,0:0:0:0:
242,353,38584,1,2,0:0:0:0:
242,353,38781,6,0,B|270:314|270:314|236:184,1,134.999995880127,6|8,1:2|0:0,0:0:0:0:
333,168,39077,1,0,0:0:0:0:
333,168,39176,2,0,B|387:176|387:176|408:197|408:197|481:213,1,134.999995880127,10|8,0:0|0:0,0:0:0:0:
349,62,39472,1,0,0:0:0:0:
349,62,39571,2,0,L|187:90,1,134.999995880127,2|8,0:0|0:0,0:0:0:0:
126,139,39867,1,0,0:0:0:0:
126,139,39965,2,0,L|111:53,1,67.4999979400635,2|0,1:3|0:0,0:0:0:0:
234,178,40163,2,0,L|219:264,1,67.4999979400635,8|0,0:0|0:0,0:0:0:0:
43,328,40360,6,0,B|129:302|129:302|188:340,1,134.999995880127,2|8,0:0|0:0,0:0:0:0:
274,374,40656,1,0,0:0:0:0:
274,374,40755,2,0,L|446:358,1,134.999995880127,2|8,0:0|0:0,0:0:0:0:
498,283,41051,1,0,0:0:0:0:
498,283,41150,2,0,B|470:265|470:265|435:268,1,67.4999979400635,2|0,0:0|0:0,0:0:0:0:
359,184,41347,2,0,L|381:92,1,67.4999979400635,8|0,0:0|0:0,0:0:0:0:
222,27,41544,5,2,0:0:0:0:
228,71,41643,1,10,0:0:0:0:
234,115,41742,1,8,0:0:0:0:
239,159,41840,1,8,0:0:0:0:
245,203,41939,6,0,B|112:181|112:181|75:200|88:246,1,202.499993820191,6|0,1:2|0:0,0:0:0:0:
421,337,42334,6,0,B|393:230|509:274|479:143|386:111|342:210,1,269.999991760254,12|0,0:0|0:0,0:0:0:0:
268,24,42729,6,0,L|243:214,1,179.999994506836,8|8,0:0|0:0,0:0:0:0:
232,297,43025,1,4,3:0:0:0:
232,297,43123,1,8,0:0:0:0:
32,157,43321,6,0,B|160:125|124:226|267:198,1,225,6|0,0:0|0:0,0:0:0:0:
449,132,43715,2,0,P|384:88|298:127,1,150,8|8,0:0|0:0,0:0:0:0:
280,302,44110,2,0,P|338:344|409:329,1,150,2|2,0:0|0:0,0:0:0:0:
244,201,44406,5,2,0:0:0:0:
244,201,44505,2,0,L|150:223,1,75,8|0,0:0|0:0,0:0:0:0:
30,108,44702,1,8,0:0:0:0:
104,118,44801,1,4,3:0:0:0:
178,128,44900,1,2,0:0:0:0:
410,330,45097,6,0,L|432:226,1,75,2|0,0:0|0:0,0:0:0:0:
289,91,45294,2,0,L|311:195,1,75,2|0,0:0|0:0,0:0:0:0:
512,112,45492,1,8,0:0:0:0:
460,58,45590,1,4,3:0:0:0:
386,72,45689,1,4,3:0:0:0:
372,83,45788,1,0,0:0:0:0:
305,165,45886,6,0,B|208:141|221:215|119:197,1,194.999991073609,6|0,0:0|0:0,0:0:0:0:
369,250,46183,2,0,P|413:164|354:72,1,194.999991073609,2|0,0:0|0:0,0:0:0:0:
241,261,46479,2,0,L|259:363,1,97.4999955368044,2|0,0:0|0:0,0:0:0:0:
7,174,46676,6,0,B|125:198|303:96|254:-27|82:-48|-3:83|122:161|244:194|317:160,1,584.999973220826,6|0,0:0|0:0,0:0:0:0:
467,55,47465,5,2,0:3:0:0:
466,64,47564,1,2,0:3:0:0:
465,73,47663,1,2,0:3:0:0:
464,82,47761,1,2,0:3:0:0:
407,139,47860,5,2,0:3:0:0:
410,168,47959,1,2,0:3:0:0:
413,197,48058,1,2,0:3:0:0:
416,225,48156,1,2,0:3:0:0:
485,292,48255,6,0,B|433:273|433:273|398:298|398:298|302:285,1,165.000005035401,2|8,1:2|0:0,0:0:0:0:
213,235,48551,1,0,0:0:0:0:
213,235,48650,2,0,B|198:274|198:274|216:325,1,82.5000025177003,2|0,0:0|0:0,0:0:0:0:
315,171,48847,2,0,L|301:77,1,82.5000025177003,8|0,0:0|0:0,0:0:0:0:
455,20,49044,6,0,B|497:0|497:0|468:157,1,165.000005035401,2|8,0:0|0:0,0:0:0:0:
302,89,49340,1,0,0:0:0:0:
302,89,49439,2,0,B|344:74|344:74|410:92,1,82.5000025177003,2|0,0:0|0:0,0:0:0:0:
204,164,49636,2,0,L|101:151,1,82.5000025177003,8|0,0:0|0:0,0:0:0:0:
327,266,49834,6,0,B|435:242|435:242|508:291,1,165.000005035401,2|8,0:0|0:0,0:0:0:0:
346,163,50130,1,0,0:0:0:0:
346,163,50229,2,0,B|375:-7,1,165.000005035401,2|8,0:0|0:0,0:0:0:0:
204,164,50525,1,0,0:0:0:0:
204,164,50624,2,0,P|160:243|206:315,1,165.000005035401,2|8,0:0|0:0,0:0:0:0:
303,381,50919,1,0,0:0:0:0:
303,381,51018,2,0,B|318:340|318:340|302:289,1,82.5000025177003,2|0,0:0|0:0,0:0:0:0:
412,234,51215,2,0,L|501:252,1,82.5000025177003,8|0,0:0|0:0,0:0:0:0:
311,197,51413,6,0,B|282:28,1,165.000005035401,6|8,0:0|0:0,0:0:0:0:
201,132,51709,1,0,0:0:0:0:
201,132,51808,2,0,L|176:233,1,82.5000025177003,2|0,0:0|0:0,0:0:0:0:
23,152,52005,2,0,B|62:135|62:135|118:150,1,82.5000025177003,8|0,0:0|0:0,0:0:0:0:
239,306,52202,6,0,B|171:317|171:317|150:342|150:342|78:356,1,165.000005035401,2|8,0:0|0:0,0:0:0:0:
181,212,52498,1,0,0:0:0:0:
181,212,52597,2,0,L|397:241,1,165.000005035401,2|8,0:0|0:0,0:0:0:0:
512,324,52893,1,0,0:0:0:0:
512,324,52992,6,0,P|434:315|394:401,1,165.000005035401,6|8,0:0|0:0,0:0:0:0:
440,231,53288,1,0,0:0:0:0:
440,231,53386,2,0,L|428:129,1,82.5000025177003,2|0,0:0|0:0,0:0:0:0:
313,49,53584,2,0,B|293:86|293:86|304:124,1,82.5000025177003,8|0,0:0|0:0,0:0:0:0:
211,318,53781,5,2,0:0:0:0:
146,354,53880,1,2,0:0:0:0:
75,328,53979,1,8,0:0:0:0:
43,261,54077,1,2,0:0:0:0:
75,193,54176,5,8,0:0:0:0:
121,115,54275,1,8,0:0:0:0:
64,45,54373,1,8,0:0:0:0:
68,36,54472,1,8,0:0:0:0:
121,115,54571,6,0,B|206:130|198:72|281:88,1,165.000005035401,6|8,0:0|0:0,0:0:0:0:
438,161,54867,1,0,0:0:0:0:
438,161,54965,2,0,B|463:43|463:43|395:77,1,165.000005035401,2|8,0:0|0:0,0:0:0:0:
316,194,55261,1,0,0:0:0:0:
316,194,55360,2,0,L|327:278,1,82.5000025177003,2|0,0:0|0:0,0:0:0:0:
454,359,55558,2,0,B|468:320|468:320|454:278,1,82.5000025177003,8|0,0:0|0:0,0:0:0:0:
201,240,55755,2,0,B|187:279|187:279|201:321,1,82.5000025177003,2|0,0:0|0:0,0:0:0:0:
386,178,55952,2,0,L|275:152,1,82.5000025177003,8|0,0:0|0:0,0:0:0:0:
105,73,56150,6,0,B|168:52|168:52|205:73|205:73|281:64,1,165.000005035401,2|8,0:0|0:0,0:0:0:0:
408,14,56446,1,0,0:0:0:0:
408,14,56544,2,0,L|382:201,1,165.000005035401,2|8,0:0|0:0,0:0:0:0:
508,315,56840,1,0,0:0:0:0:
508,315,56939,6,0,B|401:286|401:286|350:325,1,165.000005035401,2|8,0:0|0:0,0:0:0:0:
233,262,57235,1,0,0:0:0:0:
233,262,57334,2,0,L|247:353,1,82.5000025177003,2|0,0:0|0:0,0:0:0:0:
385,177,57531,1,8,0:0:0:0:
59,31,57729,6,0,L|72:94,1,37.5,2|0,0:0|0:0,0:0:0:0:
97,87,57926,2,0,L|84:24,1,37.5,2|0,0:0|0:0,0:0:0:0:
18,126,58123,6,0,B|103:51|213:88|158:182|334:151,1,337.500012874604,12|0,0:0|0:0,0:0:0:0:
471,257,58518,6,0,L|458:320,1,37.5,2|0,0:0|0:0,0:0:0:0:
433,313,58715,2,0,L|446:250,1,37.5,2|0,0:0|0:0,0:0:0:0:
512,352,58913,6,0,B|426:277|316:314|371:408|195:377,1,337.500012874604,12|0,0:0|0:0,0:0:0:0:
0,277,59308,6,0,B|110:247|110:247|159:262|143:327,1,194.999991073609,6|8,0:0|0:0,0:0:0:0:
286,195,59604,1,0,0:0:0:0:
207,139,59702,2,0,L|198:243,1,82.5000025177003,2|0,0:0|0:0,0:0:0:0:
320,373,59900,2,0,B|334:329|334:329|315:286,1,82.5000025177003,8|0,0:0|0:0,0:0:0:0:
447,86,60097,5,2,0:3:0:0:
444,119,60196,1,2,0:3:0:0:
441,151,60294,1,2,0:3:0:0:
438,184,60393,1,2,0:3:0:0:
509,238,60492,5,2,0:3:0:0:
512,251,60590,1,2,0:3:0:0:
418,294,60689,5,2,0:3:0:0:
414,307,60787,1,2,0:3:0:0:
356,197,60886,6,0,B|242:174|242:174|191:217,1,165.000005035401,6|8,0:0|0:0,0:0:0:0:
81,59,61183,1,0,0:0:0:0:
170,42,61281,2,0,L|152:142,1,82.5000025177003,2|0,0:0|0:0,0:0:0:0:
37,238,61479,2,0,B|23:197|23:197|49:140,1,82.5000025177003,8|0,0:0|0:0,0:0:0:0:
165,328,61676,6,0,P|65:327|32:404,1,165.000005035401,2|8,0:0|0:0,0:0:0:0:
174,241,61972,1,0,0:0:0:0:
246,299,62071,2,0,L|342:285,1,82.5000025177003,2|0,0:0|0:0,0:0:0:0:
487,242,62268,2,0,L|470:322,1,82.5000025177003,8|0,0:0|0:0,0:0:0:0:
388,170,62465,6,0,L|364:-6,1,165.000005035401,2|8,0:0|0:0,0:0:0:0:
453,37,62761,1,0,0:0:0:0:
296,126,62860,2,0,B|256:137|256:137|204:119,1,82.5000025177003,2|0,0:0|0:0,0:0:0:0:
405,249,63058,2,0,L|517:240,1,82.5000025177003,8|0,0:0|0:0,0:0:0:0:
266,370,63255,2,0,B|254:331|254:331|271:282,1,82.5000025177003,2|0,0:0|0:0,0:0:0:0:
82,160,63452,2,0,B|94:199|94:199|80:238,1,82.5000025177003,8|0,0:0|0:0,0:0:0:0:
236,105,63650,2,0,L|220:9,1,82.5000025177003,2|0,0:0|0:0,0:0:0:0:
388,235,63847,2,0,L|372:331,1,82.5000025177003,8|0,0:0|0:0,0:0:0:0:
137,372,64044,6,0,B|100:358|100:358|28:379,1,82.5000025177003,2|0,0:0|0:0,0:0:0:0:
182,270,64242,2,0,L|203:94,1,165.000005035401,8|2,0:0|0:0,0:0:0:0:
120,61,64538,1,0,0:0:0:0:
39,112,64636,2,0,L|57:220,1,82.5000025177003,8|0,0:0|0:0,0:0:0:0:
182,270,64834,6,0,B|254:259|254:259|274:235|274:235|370:221,1,165.000005035401,2|8,0:0|0:0,0:0:0:0:
457,344,65130,1,0,0:0:0:0:
373,384,65229,2,0,B|361:346|361:346|378:294,1,82.5000025177003,2|0,0:0|0:0,0:0:0:0:
432,48,65426,5,8,0:0:0:0:
512,117,65525,1,8,0:0:0:0:
410,152,65623,6,0,L|351:140,1,41.2500012588501,12|0,0:0|0:0,0:0:0:0:
280,78,66018,6,0,L|221:90,1,41.2500012588501,12|0,0:0|0:0,0:0:0:0:
148,158,66413,6,0,L|89:146,1,41.2500012588501,12|0,0:0|0:0,0:0:0:0:
107,149,66610,6,0,B|90:190|90:190|107:242,1,82.5000025177003,2|0,0:3|0:0,0:0:0:0:
181,344,66808,2,0,L|82:363,1,82.5000025177003,2|0,0:3|0:0,0:0:0:0:
257,240,67005,2,0,B|299:234|299:234|341:257,1,82.5000025177003,2|0,0:3|0:0,0:0:0:0:
450,354,67202,6,0,L|473:216,1,112.500004291535,6|0,0:0|0:0,0:0:0:0:
298,117,67597,1,8,0:0:0:0:
373,54,67794,1,0,0:0:0:0:
373,54,67893,1,0,0:0:0:0:
373,54,67992,2,0,B|406:100|406:100|391:154,1,112.500004291535,2|0,0:0|0:0,0:0:0:0:
226,185,68386,2,0,B|193:139|193:139|207:84,1,112.500004291535,8|0,0:0|0:0,0:0:0:0:
134,274,68781,6,0,B|88:303|88:303|17:290,1,112.500004291535,2|0,0:0|0:0,0:0:0:0:
48,93,69077,1,0,0:0:0:0:
48,93,69176,2,0,L|74:227,1,112.500004291535,8|0,0:0|0:0,0:0:0:0:
220,311,69571,2,0,B|270:282|270:282|348:306,1,112.500004291535,2|0,0:0|0:0,0:0:0:0:
438,368,69965,5,8,0:0:0:0:
477,175,70163,1,0,0:0:0:0:
327,39,70360,6,0,L|340:112,1,56.2500021457673,12|0,0:0|0:0,0:0:0:0:
187,205,70755,6,0,L|200:132,1,56.2500021457673,12|0,0:0|0:0,0:0:0:0:
384,240,71150,5,10,0:0:0:0:
194,373,71347,1,2,0:0:0:0:
119,358,71446,1,4,0:3:0:0:
45,342,71544,1,8,0:0:0:0:
45,342,71742,6,0,B|80:208|-20:247|-56:108|84:60|116:162,1,337.500012874604,6|0,0:0|0:0,0:0:0:0:
191,237,72136,5,2,0:0:0:0:
426,128,72334,1,8,0:0:0:0:
286,9,72531,2,0,B|271:47|271:47|284:112,1,82.5000025177003,2|0,0:0|0:0,0:0:0:0:
504,269,72729,5,2,3:0:0:0:
455,238,72827,1,2,3:0:0:0:
397,237,72926,1,2,3:0:0:0:
355,277,73025,1,2,3:0:0:0:
326,347,73123,5,6,3:0:0:0:
283,286,73222,1,4,3:0:0:0:
210,269,73321,1,6,3:0:0:0:
140,294,73419,1,4,3:0:0:0:
100,356,73518,6,0,L|74:182,1,165.000005035401,6|8,0:0|0:0,0:0:0:0:
239,93,73814,1,0,0:0:0:0:
158,44,73913,2,0,L|149:137,1,82.5000025177003,2|0,0:0|0:0,0:0:0:0:
275,189,74110,2,0,B|315:199|315:199|367:178,1,82.5000025177003,8|0,0:0|0:0,0:0:0:0:
480,71,74308,6,0,B|434:50|434:50|462:194,1,165.000005035401,2|8,0:0|0:0,0:0:0:0:
330,280,74604,1,0,0:0:0:0:
408,343,74702,2,0,L|420:228,1,82.5000025177003,2|0,0:0|0:0,0:0:0:0:
265,171,74900,1,8,0:0:0:0:
265,171,74998,1,4,0:3:0:0:
183,217,75097,6,0,B|129:199|129:199|100:227|100:227|27:234,1,165.000005035401,2|8,0:0|0:0,0:0:0:0:
141,86,75393,1,0,0:0:0:0:
44,56,75492,2,0,L|64:156,1,82.5000025177003,2|0,0:0|0:0,0:0:0:0:
232,54,75689,2,0,B|271:39|271:39|319:51,1,82.5000025177003,8|0,0:0|0:0,0:0:0:0:
485,154,75886,2,0,B|446:139|446:139|398:151,1,82.5000025177003,2|0,0:0|0:0,0:0:0:0:
282,251,76084,2,0,L|260:147,1,82.5000025177003,8|0,0:0|0:0,0:0:0:0:
435,303,76281,2,0,L|413:407,1,82.5000025177003,2|0,0:0|0:0,0:0:0:0:
213,326,76479,5,8,0:0:0:0:
131,257,76577,1,8,0:0:0:0:
123,374,76676,6,0,B|216:393|216:318|315:345,1,194.999991073609,6|0,0:0|0:0,0:0:0:0:
458,139,76972,2,0,P|376:156|380:268,1,194.999991073609,8|0,0:0|0:0,0:0:0:0:
480,361,77268,6,0,B|434:266|320:224|202:261|177:358|177:358|223:302|282:297|311:333,1,510.000009727478,14|0,0:0|0:0,0:0:0:0:
163,207,77761,1,0,0:0:0:0:
163,207,77860,6,0,B|146:163|146:163|166:107,1,97.4999955368044,2|0,0:0|0:0,0:0:0:0:
367,253,78058,2,0,B|383:300|383:300|366:344,1,97.4999955368044,8|0,0:0|0:0,0:0:0:0:
306,147,78255,6,0,B|377:115|377:115|416:176|501:156,1,194.999991073609,6|0,0:0|0:0,0:0:0:0:
236,229,78551,2,0,P|197:148|251:57,1,194.999991073609,8|0,0:0|0:0,0:0:0:0:
365,344,78847,6,0,B|304:261|199:258|138:348|138:348|199:364|245:307,1,382.500007295609,14|0,0:0|0:0,0:0:0:0:
116,237,79242,6,0,B|7:249,1,97.4999955368044,2|0,3:0|0:0,0:0:0:0:
148,53,79439,2,0,B|167:96|167:96|153:145,1,97.4999955368044,2|0,3:0|0:0,0:0:0:0:
310,290,79636,2,0,B|291:247|291:247|305:198,1,97.4999955368044,2|0,3:0|0:0,0:0:0:0:
480,79,79834,6,0,L|276:54,1,165.000005035401,6|8,0:0|0:0,0:0:0:0:
233,9,80130,1,0,0:0:0:0:
148,53,80229,2,0,B|109:68|109:68|34:55,1,82.5000025177003,2|0,0:0|0:0,0:0:0:0:
304,198,80426,2,0,B|343:183|343:183|418:196,1,82.5000025177003,8|0,0:0|0:0,0:0:0:0:
181,329,80623,6,0,P|140:259|199:186,1,165.000005035401,2|8,0:0|0:0,0:0:0:0:
293,61,80919,1,4,0:3:0:0:
205,103,81018,1,2,0:0:0:0:
287,157,81117,1,4,0:3:0:0:
216,9,81215,2,0,L|95:34,1,82.5000025177003,8|0,0:0|0:0,0:0:0:0:
287,157,81413,6,0,B|356:142|356:142|381:155|381:155|446:143,1,165.000005035401,2|8,0:0|0:0,0:0:0:0:
346,241,81709,1,0,0:0:0:0:
427,291,81808,2,0,L|526:306,1,82.5000025177003,2|0,0:0|0:0,0:0:0:0:
285,384,82005,2,0,B|271:343|271:343|287:296,1,82.5000025177003,8|0,0:0|0:0,0:0:0:0:
11,265,82202,6,0,L|100:254,1,82.5000025177003,2|0,1:3|0:0,0:0:0:0:
227,122,82400,2,0,B|190:103|190:103|125:116,1,82.5000025177003,2|0,1:3|0:0,0:0:0:0:
219,269,82597,5,2,0:0:0:0:
283,305,82696,1,2,0:0:0:0:
357,301,82794,1,8,0:0:0:0:
405,244,82893,1,2,0:0:0:0:
406,169,82992,6,0,L|364:-3,1,165.000005035401,6|0,0:0|0:0,0:0:0:0:
366,8,83386,6,0,L|352:80,1,56.2500021457673,6|0,0:0|0:0,0:0:0:0:
247,352,83683,5,2,0:0:0:0:
178,288,83781,2,0,P|115:273|31:353,1,165.000005035401,10|0,0:0|0:0,0:0:0:0:
38,328,84176,6,0,L|26:258,1,56.2500021457673,6|0,0:0|0:0,0:0:0:0:
122,31,84373,5,2,0:0:0:0:
181,82,84472,1,2,0:0:0:0:
126,143,84571,6,0,L|298:120,1,165.000005035401,6|0,0:0|0:0,0:0:0:0:
377,168,84867,1,0,0:0:0:0:
457,107,84965,2,0,L|471:12,1,82.5000025177003,2|0,0:0|0:0,0:0:0:0:
434,247,85163,2,0,B|472:269|472:269|543:256,1,82.5000025177003,8|0,0:0|0:0,0:0:0:0:
368,77,85360,5,2,0:0:0:0:
154,264,85558,1,2,0:0:0:0:
253,0,85755,1,2,0:0:0:0:
336,361,85952,1,2,0:0:0:0:
358,285,86051,1,8,0:0:0:0:
291,225,86150,6,0,P|230:239|253:345,1,165.000005035401,2|0,0:0|0:0,0:0:0:0:
227,328,86544,6,0,L|216:244,1,56.2500021457673,6|0,0:0|0:0,0:0:0:0:
416,81,86939,6,0,B|456:60|456:60|431:194,1,165.000005035401,2|0,0:0|0:0,0:0:0:0:
434,177,87334,6,0,L|371:162,1,56.2500021457673,6|0,0:0|0:0,0:0:0:0:
96,285,87630,5,2,0:0:0:0:
42,207,87729,2,0,B|29:171|29:171|56:115,1,82.5000025177003,8|0,0:0|0:0,0:0:0:0:
148,67,87962,6,0,B|252:86|196:150|305:177,1,194.999991073609,6|0,0:0|0:0,0:0:0:0:
480,79,88258,2,0,B|444:46|444:46|374:107|449:196,1,194.999991073609,4|0,0:0|0:0,0:0:0:0:
338,307,88554,6,0,B|266:251|176:341|167:351|54:299|72:145|265:193|161:299,1,389.999982147218,6|0,0:0|0:0,0:0:0:0:
172,285,89047,6,0,L|158:354,1,56.2500021457673
