osu file format v14

[General]
AudioFilename: audio.mp3
AudioLeadIn: 0
PreviewTime: 60196
Countdown: 0
SampleSet: Soft
StackLeniency: 0.3
Mode: 0
LetterboxInBreaks: 0
WidescreenStoryboard: 0

[Editor]
DistanceSpacing: 0.9
BeatDivisor: 4
GridSize: 4
TimelineZoom: 2.2

[Metadata]
Title:smile, sweet, sister, sosister
TitleUnicode:smile, sweet, sister, sosister
Artist:gle6
ArtistUnicode:gle6
Creator:schoolboy
Version:djulus' normal
Source:
Tags:komore testo neilperry djulus seikatu bon appetit счастливы вместе schastlivy vmeste ブレンド・S ぶれんど・えーす opening blend a gleb happy together
BeatmapID:1603453
BeatmapSetID:759957

[Difficulty]
HPDrainRate:3
CircleSize:3.3
OverallDifficulty:4
ApproachRate:5
SliderMultiplier:1.2
SliderTickRate:1

[Events]
//Background and Video events
0,0,"33.jpg",0,0
//Break Periods
//Storyboard Layer 0 (Background)
//Storyboard Layer 1 (Fail)
//Storyboard Layer 2 (Pass)
//Storyboard Layer 3 (Foreground)
//Storyboard Sound Samples

[TimingPoints]
887,394.736842105263,4,2,1,60,1,0
7202,-100,4,2,1,70,0,0
16676,-100,4,2,1,75,0,0
19834,-111.111111111111,4,2,2,50,0,0
26150,-100,4,2,2,50,0,0
38781,-100,4,2,1,60,0,0
41939,-100,4,2,1,65,0,0
47465,-100,4,2,1,45,0,0
47860,-100,4,2,1,55,0,0
48255,-100,4,2,1,70,0,0
60886,-100,4,2,1,75,0,0
65673,-100,4,2,1,5,0,0
65722,-100,4,2,1,75,0,0
66067,-100,4,2,1,5,0,0
66117,-100,4,2,1,75,0,0
66462,-100,4,2,1,5,0,0
66511,-100,4,2,1,75,0,0
67202,-100,4,2,1,65,0,0
70360,-100,4,2,1,75,0,0
70410,-100,4,2,1,5,0,0
70755,-100,4,2,1,75,0,0
70804,-100,4,2,1,5,0,0
71150,-100,4,2,1,75,0,0
83436,-100,4,2,1,5,0,0
83683,-100,4,2,1,75,0,0
84225,-100,4,2,1,5,0,0
84373,-100,4,2,1,75,0,0
86594,-100,4,2,1,5,0,0
86939,-100,4,2,1,75,0,0
87383,-100,4,2,1,5,0,0
87531,-100,4,2,1,75,0,0
87962,394.736842105263,4,2,1,75,1,0
89011,-100,4,2,1,50,0,0

[Colours]
Combo1 : 255,94,55
Combo2 : 173,255,95
Combo3 : 17,254,176
Combo4 : 255,88,100

[HitObjects]
16,272,887,6,0,P|88:252|148:296,1,120,12|0,0:0|0:0,0:0:0:0:
208,340,1676,2,0,P|268:348|340:304,1,120,2|8,0:0|0:0,0:0:0:0:
388,240,2465,2,0,L|396:104,1,120,8|0,0:0|0:0,0:0:0:0:
356,80,3058,1,8,0:0:0:0:
356,80,3255,2,0,L|224:72,1,120,2|8,0:0|0:0,0:0:0:0:
132,100,4044,6,0,L|148:232,1,120,10|0,0:0|0:0,0:0:0:0:
212,304,4834,2,0,L|340:292,1,120,2|2,0:0|0:0,0:0:0:0:
404,212,5623,1,6,0:0:0:0:
56,84,7202,6,0,P|36:148|60:200,1,120,4|2,1:2|0:0,0:0:0:0:
132,272,7992,2,0,L|132:376,2,90,2|2|8,0:0|0:0|0:0,0:0:0:0:
172,236,8781,1,2,0:0:0:0:
272,276,9176,1,2,0:0:0:0:
364,216,9571,1,2,0:0:0:0:
352,108,9965,1,2,0:0:0:0:
256,60,10360,6,0,L|112:64,1,120,6|0,0:0|0:0,0:0:0:0:
96,164,11150,2,0,L|4:164,2,90,2|2|8,0:0|0:0|0:0,0:0:0:0:
148,172,11939,1,6,0:0:0:0:
252,208,12334,1,2,0:0:0:0:
256,316,12729,1,2,0:0:0:0:
156,360,13123,1,8,0:0:0:0:
52,336,13518,6,0,P|36:288|68:212,1,120,6|2,0:0|0:0,0:0:0:0:
120,136,14308,2,0,P|116:96|108:32,2,90,2|0|8,0:0|3:0|0:0,0:0:0:0:
168,156,15097,2,0,L|160:264,2,90,2|2|8,0:0|0:0|0:0,0:0:0:0:
216,132,15886,2,0,P|280:140|304:204,1,120,2|2,0:0|0:0,0:0:0:0:
328,292,16676,5,2,0:0:0:0:
220,296,17071,2,0,L|92:292,1,120,6|2,0:0|0:0,0:0:0:0:
40,204,17860,1,6,0:0:0:0:
168,104,18452,2,0,L|164:-4,2,90,8|8|12,0:0|0:0|0:0,0:0:0:0:
360,144,19834,6,0,P|364:192|360:256,1,107.999996704102,6|8,1:2|0:0,0:0:0:0:
312,336,20623,2,0,P|248:328|192:328,1,107.999996704102,0|8,0:0|0:0,0:0:0:0:
108,352,21413,1,6,1:2:0:0:
44,280,21808,2,0,P|52:240|60:156,1,107.999996704102,8|0,0:0|0:0,0:0:0:0:
48,76,22597,1,8,0:0:0:0:
144,96,22992,6,0,P|216:80|260:80,1,107.999996704102,6|8,1:2|0:0,0:0:0:0:
312,152,23781,2,0,P|300:216|300:276,1,107.999996704102,0|8,0:0|0:0,0:0:0:0:
368,328,24571,1,6,1:2:0:0:
456,284,24965,2,0,P|456:220|468:176,1,107.999996704102,8|0,0:0|0:0,0:0:0:0:
492,136,25558,2,0,L|495:82,1,53.9999983520508,4|4,3:0|3:0,0:0:0:0:
456,48,25952,5,4,3:0:0:0:
456,48,26150,2,0,P|388:48|336:100,1,120,6|4,3:0|3:0,0:0:0:0:
324,128,26742,1,4,3:0:0:0:
324,128,26939,2,0,L|184:124,1,120,4|4,3:0|3:0,0:0:0:0:
96,136,27729,2,0,P|100:228|96:256,1,120,6|4,3:0|3:0,0:0:0:0:
72,304,28321,1,4,3:0:0:0:
72,304,28518,2,0,P|152:308|196:320,1,120,4|4,0:3|0:3,0:0:0:0:
232,352,29110,5,4,0:3:0:0:
232,352,29308,2,0,P|292:348|360:336,1,120,6|4,3:0|3:0,0:0:0:0:
452,304,30097,2,0,L|456:168,1,120,4|4,3:0|3:0,0:0:0:0:
424,140,30689,1,4,3:0:0:0:
424,140,30886,2,0,P|328:132|292:144,1,120,4|8,3:0|0:0,0:0:0:0:
228,212,31676,1,6,1:2:0:0:
120,208,32071,1,8,0:0:0:0:
56,120,32465,6,0,P|72:64|136:36,1,120,6|10,1:2|0:0,0:0:0:0:
168,68,33058,1,0,0:0:0:0:
168,68,33255,2,0,P|224:64|288:60,1,120,2|8,1:2|0:0,0:0:0:0:
392,88,34044,2,0,L|384:212,1,120,2|10,1:2|0:0,0:0:0:0:
364,256,34636,1,0,0:0:0:0:
364,256,34834,2,0,L|376:328,2,60,2|10|8,1:2|0:0|0:0,0:0:0:0:
260,288,35623,6,0,L|268:396,2,90,2|0|0,1:2|0:0|0:0,0:0:0:0:
212,260,36413,2,0,L|208:124,1,120,2|10,1:2|0:0,0:0:0:0:
272,52,37202,1,2,1:2:0:0:
380,48,37597,1,10,0:0:0:0:
448,132,37992,1,2,0:0:0:0:
416,236,38386,1,10,0:0:0:0:
320,280,38781,6,0,L|192:280,1,120,6|10,1:2|0:0,0:0:0:0:
148,296,39373,1,8,0:0:0:0:
148,296,39571,2,0,L|140:176,1,120,2|2,0:0|1:3,0:0:0:0:
248,156,40360,2,0,P|316:156|376:152,1,120,2|2,0:0|0:0,0:0:0:0:
416,124,40952,1,8,0:0:0:0:
416,124,41150,2,0,P|420:72|364:32,1,120,2|2,0:0|0:0,0:0:0:0:
268,68,41939,5,6,1:2:0:0:
164,36,42334,1,12,0:0:0:0:
68,88,42729,2,0,L|84:172,1,60,8|8,0:0|0:0,0:0:0:0:
116,188,43123,1,8,0:0:0:0:
116,188,43321,2,0,P|104:248|112:320,1,120,6|8,0:0|0:0,0:0:0:0:
156,336,43913,1,8,0:0:0:0:
256,292,44308,1,2,0:0:0:0:
352,340,44702,1,8,0:0:0:0:
424,260,45097,6,0,L|428:124,1,120,2|8,0:0|0:0,0:0:0:0:
384,108,45689,1,4,3:0:0:0:
384,108,45886,2,0,L|388:8,2,90,6|2|2,0:0|0:0|0:0,0:0:0:0:
340,140,46676,1,6,0:0:0:0:
340,140,48255,6,0,L|203:134,1,120,2|2,1:2|0:0,0:0:0:0:
113,151,49044,1,2,0:0:0:0:
88,256,49439,1,2,0:0:0:0:
168,327,49834,2,0,L|307:323,1,120,2|2,0:0|0:0,0:0:0:0:
331,290,50426,1,8,0:0:0:0:
331,290,50623,2,0,L|460:284,1,120,2|2,0:0|0:0,0:0:0:0:
468,177,51413,6,0,L|336:164,1,120,6|2,0:0|0:0,0:0:0:0:
247,202,52202,1,2,0:0:0:0:
159,138,52597,1,2,0:0:0:0:
69,198,52992,2,0,P|83:279|89:331,1,120,6|2,0:0|0:0,0:0:0:0:
132,346,53584,1,8,0:0:0:0:
132,346,53781,2,0,L|262:342,1,120,2|8,0:0|0:0,0:0:0:0:
290,241,54571,6,0,P|284:171|279:115,1,120,6|2,0:0|0:0,0:0:0:0:
354,43,55360,2,0,P|421:47|460:101,1,120,2|2,0:0|0:0,0:0:0:0:
468,136,55952,1,8,0:0:0:0:
468,136,56150,2,0,P|467:211|461:274,1,120,2|2,0:0|0:0,0:0:0:0:
394,338,56939,2,0,L|258:332,1,120,2|2,0:0|0:0,0:0:0:0:
168,358,57729,6,0,B|112:369|112:369|45:358,1,120,2|12,0:0|0:0,0:0:0:0:
51,250,58518,2,0,B|107:239|107:239|174:250,1,120,2|12,0:0|0:0,0:0:0:0:
272,216,59308,2,0,P|354:229|419:150,1,180,6|8,0:0|0:0,0:0:0:0:
411,110,60097,1,2,0:3:0:0:
205,42,60886,6,0,L|77:59,1,120,6|2,0:0|0:0,0:0:0:0:
47,96,61479,1,8,0:0:0:0:
47,96,61676,2,0,L|68:222,1,120,2|2,0:0|0:0,0:0:0:0:
95,260,62268,1,8,0:0:0:0:
95,260,62465,2,0,L|238:251,1,120,2|2,0:0|0:0,0:0:0:0:
272,161,63255,1,2,0:0:0:0:
379,154,63650,1,2,0:0:0:0:
451,234,64044,6,0,P|436:291|424:361,1,120,2|2,0:0|0:0,0:0:0:0:
371,352,64636,1,8,0:0:0:0:
371,352,64834,2,0,L|239:368,1,120,2|2,0:0|0:0,0:0:0:0:
152,323,65623,1,12,0:0:0:0:
147,215,66018,1,12,0:0:0:0:
222,138,66413,1,12,0:0:0:0:
329,144,66808,1,12,0:0:0:0:
408,216,67202,6,0,P|400:248|394:357,1,120,6|8,0:0|0:0,0:0:0:0:
344,359,67794,1,0,0:0:0:0:
344,359,67992,2,0,L|224:363,1,120,2|8,0:0|0:0,0:0:0:0:
174,341,68584,1,0,0:0:0:0:
174,341,68781,2,0,P|163:265|188:233,1,120,2|8,0:0|0:0,0:0:0:0:
274,170,69571,2,0,P|282:94|242:50,1,120,2|8,0:0|0:0,0:0:0:0:
160,106,70360,5,12,0:0:0:0:
60,64,70755,1,12,0:0:0:0:
20,164,71150,2,0,P|22:228|20:288,1,120,10|8,0:0|0:0,0:0:0:0:
50,328,71742,2,0,L|193:325,1,120,6|2,0:0|0:0,0:0:0:0:
221,341,72334,1,8,0:0:0:0:
318,293,72729,1,2,3:0:0:0:
311,185,73123,1,6,3:0:0:0:
224,120,73518,6,0,L|78:132,1,120,6|2,0:0|0:0,0:0:0:0:
62,164,74110,1,8,0:0:0:0:
62,164,74308,2,0,P|32:215|41:273,1,120,2|2,0:0|0:0,0:0:0:0:
87,301,74900,1,8,0:0:0:0:
87,301,75097,2,0,L|217:304,1,120,2|2,0:0|0:0,0:0:0:0:
314,289,75886,2,0,P|330:231|303:169,1,120,2|2,0:0|0:0,0:0:0:0:
236,97,76676,6,0,L|138:93,2,90,6|8|14,0:0|0:0|0:0,0:0:0:0:
279,65,77465,2,0,P|332:55|413:61,1,120,0|2,0:0|0:0,0:0:0:0:
420,164,78255,2,0,P|493:168|525:169,2,90,6|8|14,0:0|0:0|0:0,0:0:0:0:
372,192,79044,1,0,0:0:0:0:
292,264,79439,1,2,3:0:0:0:
208,332,79834,6,0,P|152:324|66:319,1,120,6|2,0:0|0:0,0:0:0:0:
40,292,80426,1,8,0:0:0:0:
40,292,80623,2,0,L|61:170,1,120,2|2,0:0|0:0,0:0:0:0:
84,124,81215,1,8,0:0:0:0:
84,124,81413,2,0,P|161:122|224:118,1,120,2|2,0:0|0:0,0:0:0:0:
296,64,82202,1,2,1:3:0:0:
404,76,82597,1,2,0:0:0:0:
465,165,82992,6,0,P|500:252|456:344,1,180,6|0,0:0|0:0,0:0:0:0:
416,336,83781,2,0,L|274:341,1,120,10|6,0:0|0:0,0:0:0:0:
236,252,84571,2,0,L|230:118,1,120,6|2,0:0|0:0,0:0:0:0:
152,60,85360,1,2,0:0:0:0:
72,132,85755,1,2,0:0:0:0:
4,216,86150,6,0,P|19:315|19:342,1,120,2|6,0:0|0:0,0:0:0:0:
124,340,86939,2,0,L|245:324,1,120,2|6,0:0|0:0,0:0:0:0:
328,256,87729,1,8,0:0:0:0:
328,256,87962,2,0,L|324:154,2,90,6|4|6,0:0|0:0|0:0,0:0:0:0:
