osu file format v14

[General]
AudioFilename: audio.mp3
AudioLeadIn: 0
PreviewTime: 44387
Countdown: 0
SampleSet: Soft
StackLeniency: 0.3
Mode: 3
LetterboxInBreaks: 0
SpecialStyle: 0
WidescreenStoryboard: 1

[Editor]
Bookmarks: 6387,19187,32587,44787,68787,70387,95987,108138,126366,139366,151966,177566,203166,241853,260944,263671,321751,333764,337764,351832,364883,380883
DistanceSpacing: 0.1
BeatDivisor: 12
GridSize: 8
TimelineZoom: 2.900004

[Metadata]
Title:glass beach
TitleUnicode:glass beach
Artist:glass beach
ArtistUnicode:glass beach
Creator:diamant66
Version:glass beach
Source:
Tags:punk rock power pop the first glass beach album english rat castle recordings indie j mcclendon william white jonas newhouse daxe schaeffer fa featured artist mg mappers' guild ln grace dump
BeatmapID:3053413
BeatmapSetID:1489548

[Difficulty]
HPDrainRate:8
CircleSize:4
OverallDifficulty:7.4
ApproachRate:9.6
SliderMultiplier:1.4
SliderTickRate:1

[Events]
//Background and Video events
0,0,"bg.png",0,0
//Break Periods
//Storyboard Layer 0 (Background)
//Storyboard Layer 1 (Fail)
//Storyboard Layer 2 (Pass)
//Storyboard Layer 3 (Foreground)
//Storyboard Layer 4 (Overlay)
//Storyboard Sound Samples

[TimingPoints]
6387,400,4,2,1,20,1,0
6387,-100,4,2,1,16,0,0
17587,-100,4,2,1,20,0,0
69987,-100,4,2,1,25,0,0
95987,379.746835443038,4,2,1,20,1,0
95987,-105.3333333,4,2,1,20,0,0
126366,400,4,2,1,20,1,0
126366,-100,4,2,1,20,0,0
143966,-100,4,2,1,15,0,0
147166,-100,4,2,1,18,0,0
148766,-100,4,2,1,20,0,0
151966,-100,4,2,1,25,0,0
177566,-100,4,2,1,20,0,0
203166,400,5,2,1,20,1,0
203166,-100,5,2,1,20,0,0
207766,461.538461538462,4,2,1,20,1,0
207766,-86.66666667,4,2,1,20,0,0
208458,500.000000000001,4,2,1,20,1,0
208458,-80,4,2,1,20,0,0
220035,545.454545454546,5,2,1,12,1,0
220035,-73.33333333,5,2,1,12,0,0
241853,-73.33333333,5,2,1,15,0,0
262580,-73.33333333,5,2,1,20,0,0
263671,-73.33333333,5,2,1,25,0,1
269944,600.000000000001,5,2,1,25,1,0
269944,-66.66666667,5,2,1,25,0,0
270844,625,5,2,1,25,1,0
270844,-64,5,2,1,25,0,0
271260,588.235294117647,5,2,1,25,1,0
271260,-68,5,2,1,25,0,0
271652,810.810810810811,5,2,1,25,1,0
271652,-49.33333333,5,2,1,25,0,0
279188,857.142857142857,4,2,1,16,1,0
279188,-46.66666667,4,2,1,16,0,0
292902,-46.66666667,4,2,1,22,0,0
293330,895.522388059701,4,2,1,20,1,0
293330,-44.66666667,4,2,1,16,0,0
293777,813.559322033898,4,2,1,16,1,0
293777,-49.16666667,4,2,1,16,0,0
295810,786.885245901639,4,2,1,16,1,0
295810,-50.83333333,4,2,1,16,0,0
296203,774.193548387097,4,2,1,16,1,0
296203,-51.66666667,4,2,1,16,0,0
297751,750,4,2,1,16,1,0
297751,-53.33333333,4,2,1,16,0,0
299251,695.652173913044,4,2,1,16,1,0
299251,-57.5,4,2,1,18,0,0
299946,736.196319018405,4,2,1,18,1,0
299946,-54.33333333,4,2,1,18,0,0
300682,705.882352941176,4,2,1,18,1,0
300682,-56.66666667,4,2,1,18,0,0
302093,666.666666666667,4,2,1,20,1,0
302093,-60,4,2,1,20,0,0
303426,638.297872340426,4,2,1,20,1,0
303426,-62.66666667,4,2,1,20,0,0
304702,631.578947368421,4,2,1,20,1,0
304702,-63.33333333,4,2,1,20,0,0
305649,615.384615384615,4,2,1,20,1,0
305649,-65,4,2,1,20,0,0
306572,600,4,2,1,20,1,0
306572,-66.66666667,4,2,1,20,0,0
307172,594.059405940594,4,2,1,20,1,0
307172,-67.33333333,4,2,1,20,0,0
308063,585.365853658537,4,2,1,20,1,0
308063,-68.33333333,4,2,1,20,0,0
308941,545.454545454546,4,2,1,20,1,0
308941,-73.33333333,4,2,1,20,0,0
309486,563.380281690141,4,2,1,20,1,0
309486,-71,4,2,1,20,0,0
310049,558.139534883721,4,2,1,20,1,0
310049,-71.66666667,4,2,1,20,0,0
310607,545.454545454546,4,2,1,20,1,0
310607,-73.33333333,4,2,1,20,0,0
311152,526.315789473684,4,2,1,20,1,0
311152,-76,4,2,1,20,0,0
311678,526.315789473684,4,2,1,20,1,0
311678,-76,4,2,1,20,0,0
313256,483.870967741935,4,2,1,20,1,0
313256,-82.66666667,4,2,1,20,0,0
313739,504.201680672268,4,2,1,20,1,0
313739,-79.33333333,4,2,1,20,0,0
315251,499.999999999999,4,2,1,20,1,0
315251,-80,4,2,1,20,0,0
315751,500,4,2,1,20,1,0
315751,-80,4,2,1,20,0,0
321251,-80,4,2,1,15,0,0
321751,-80,4,2,1,10,0,0
325751,461.538461538461,4,2,1,10,1,0
325751,-86.66666667,4,2,1,10,0,0
326443,517.241379310343,4,2,1,10,1,0
326443,-77.33333333,4,2,1,10,0,0
327218,483.870967741934,4,2,1,10,1,0
327218,-82.66666667,4,2,1,10,0,0
328185,555.555555555553,4,2,1,10,1,0
328185,-72,4,2,1,10,0,0
328740,499.999999999998,4,2,1,10,1,0
328740,-80,4,2,1,10,0,0
329740,494.845360824741,4,2,1,10,1,0
329740,-80.83333333,4,2,1,10,0,0
330729,508.474576271184,4,2,1,10,1,0
330729,-78.66666667,4,2,1,10,0,0
331729,499.999999999998,4,2,1,10,1,0
331729,-80,4,2,1,10,0,0
333229,535.714285714283,4,2,1,10,1,0
333229,-74.66666667,4,2,1,10,0,0
333764,499.999999999998,4,2,1,10,1,0
333764,-80,4,2,1,10,0,0
334732,-80,4,2,1,12,0,0
335732,-80,4,2,1,14,0,0
336732,-80,4,2,1,16,0,0
337764,489.795918367344,4,2,1,18,1,0
337764,-81.66666667,4,2,1,18,0,0
339723,479.999999999998,4,2,1,18,1,0
339723,-83.33333333,4,2,1,18,0,0
341643,470.588235294116,4,2,1,20,1,0
341643,-85,4,2,1,20,0,0
342584,461.53846153846,4,2,1,20,1,0
342584,-86.66666667,4,2,1,20,0,0
343507,447.761194029849,4,2,1,20,1,0
343507,-89.33333333,4,2,1,20,0,0
343954,465.116279069766,4,2,1,20,1,0
343954,-86,4,2,1,20,0,0
344419,444.444444444443,4,2,1,20,1,0
344419,-90,4,2,1,20,0,0
345307,444.444444444443,4,2,1,22,1,0
345307,-90,4,2,1,22,0,0
346195,436.363636363635,4,2,1,22,1,0
346195,-91.66666667,4,2,1,22,0,0
347940,428.571428571427,4,2,1,22,1,0
347940,-93.33333333,4,2,1,22,0,0
348797,421.052631578946,4,2,1,24,1,0
348797,-95,4,2,1,24,0,0
349639,406.779661016948,4,2,1,24,1,0
349639,-98.33333333,4,2,1,24,0,0
350452,413.793103448275,4,2,1,26,1,0
350452,-96.66666667,4,2,1,26,0,0
351279,402.684563758388,4,2,1,26,1,0
351279,-99.33333333,4,2,1,26,0,0
351832,-99.33333333,4,2,1,18,0,0
352084,400,4,2,1,20,1,0
352084,-100,4,2,1,20,0,0
377684,-100,4,2,1,16,0,0
379284,-100,4,2,1,22,0,0
380884,-100,4,2,1,28,0,1
406484,-100,4,2,1,20,0,0
427700,480,4,2,1,20,1,0
427700,-83.33333333,4,2,1,20,0,0

[HitObjects]
448,192,6387,128,0,6512:0:0:0:0:
192,192,6412,128,0,6512:0:0:0:0:
448,192,6587,1,0,0:0:0:0:
64,192,6612,1,0,0:0:0:0:
448,192,6687,1,0,0:0:0:0:
320,192,6787,1,0,0:0:0:0:
64,192,6812,1,0,0:0:0:0:
320,192,6887,1,0,0:0:0:0:
192,192,6987,128,0,7187:0:0:0:0:
64,192,7020,128,0,7287:0:0:0:0:
448,192,7253,128,0,7387:0:0:0:0:
320,192,7387,128,0,7520:0:0:0:0:
64,192,7587,128,0,7720:0:0:0:0:
448,192,7787,128,0,7953:0:0:0:0:
192,192,7853,128,0,7920:0:0:0:0:
192,192,7987,1,0,0:0:0:0:
192,192,8287,1,0,0:0:0:0:
64,192,8587,128,0,8720:0:0:0:0:
448,192,8620,128,0,8753:0:0:0:0:
320,192,8820,128,0,8920:0:0:0:0:
448,192,8853,128,0,8987:0:0:0:0:
64,192,8987,1,0,0:0:0:0:
192,192,9087,128,0,9220:0:0:0:0:
64,192,9187,128,0,9287:0:0:0:0:
192,192,9387,1,0,0:0:0:0:
320,192,9453,128,0,9553:0:0:0:0:
192,192,9487,1,0,0:0:0:0:
64,192,9587,128,0,9712:0:0:0:0:
448,192,9612,128,0,9712:0:0:0:0:
64,192,9787,1,0,0:0:0:0:
64,192,9887,1,0,0:0:0:0:
320,192,9912,1,0,0:0:0:0:
192,192,9987,1,0,0:0:0:0:
448,192,10012,1,0,0:0:0:0:
192,192,10087,1,0,0:0:0:0:
320,192,10187,128,0,10320:0:0:0:0:
64,192,10220,128,0,10487:0:0:0:0:
448,192,10437,1,0,0:0:0:0:
192,192,10537,128,0,10687:0:0:0:0:
320,192,10787,128,0,10920:0:0:0:0:
448,192,10820,128,0,10987:0:0:0:0:
320,192,10987,1,0,0:0:0:0:
64,192,11012,1,0,0:0:0:0:
320,192,11087,128,0,11153:0:0:0:0:
192,192,11187,1,0,0:0:0:0:
192,192,11487,128,0,11653:0:0:0:0:
448,192,11753,128,0,11987:0:0:0:0:
320,192,11787,128,0,12120:0:0:0:0:
64,192,12020,128,0,12220:0:0:0:0:
192,192,12120,128,0,12287:0:0:0:0:
320,192,12220,128,0,12353:0:0:0:0:
64,192,12387,128,0,12520:0:0:0:0:
448,192,12420,128,0,12520:0:0:0:0:
64,192,12587,1,0,0:0:0:0:
64,192,12687,1,0,0:0:0:0:
320,192,12787,128,0,12912:0:0:0:0:
192,192,12812,128,0,12912:0:0:0:0:
320,192,12987,1,0,0:0:0:0:
448,192,13012,1,0,0:0:0:0:
320,192,13087,1,0,0:0:0:0:
192,192,13187,1,0,0:0:0:0:
448,192,13212,1,0,0:0:0:0:
192,192,13287,1,0,0:0:0:0:
64,192,13387,128,0,13520:0:0:0:0:
320,192,13420,128,0,13587:0:0:0:0:
64,192,13587,1,0,0:0:0:0:
448,192,13653,128,0,13887:0:0:0:0:
192,192,13687,128,0,13787:0:0:0:0:
320,192,13787,128,0,13953:0:0:0:0:
192,192,13987,128,0,14120:0:0:0:0:
64,192,14020,128,0,14187:0:0:0:0:
192,192,14187,1,0,0:0:0:0:
192,192,14287,1,0,0:0:0:0:
320,192,14387,1,0,0:0:0:0:
320,192,14687,1,0,0:0:0:0:
64,192,14987,128,0,15087:0:0:0:0:
192,192,15020,128,0,15320:0:0:0:0:
64,192,15220,128,0,15387:0:0:0:0:
320,192,15253,1,0,0:0:0:0:
448,192,15387,128,0,15487:0:0:0:0:
320,192,15487,128,0,15653:0:0:0:0:
192,192,15520,1,0,0:0:0:0:
448,192,15587,128,0,15720:0:0:0:0:
64,192,15787,1,0,0:0:0:0:
64,192,15887,128,0,15953:0:0:0:0:
192,192,15987,128,0,16112:0:0:0:0:
448,192,16012,128,0,16112:0:0:0:0:
192,192,16187,1,0,0:0:0:0:
192,192,16287,128,0,16387:0:0:0:0:
64,192,16312,128,0,16412:0:0:0:0:
320,192,16387,1,0,0:0:0:0:
448,192,16412,1,0,0:0:0:0:
320,192,16487,1,0,0:0:0:0:
448,192,16587,128,0,16787:0:0:0:0:
192,192,16620,128,0,16853:0:0:0:0:
64,192,16853,128,0,17053:0:0:0:0:
448,192,16937,1,0,0:0:0:0:
192,192,17187,128,0,17287:0:0:0:0:
320,192,17220,128,0,17353:0:0:0:0:
192,192,17387,1,0,0:0:0:0:
192,192,17487,128,0,17553:0:0:0:0:
448,192,17587,128,0,17920:0:0:0:0:
64,192,17587,128,0,17787:0:0:0:0:
320,192,17820,128,0,17987:0:0:0:0:
192,192,17887,128,0,18187:0:0:0:0:
64,192,18153,128,0,18387:0:0:0:0:
448,192,18187,128,0,18487:0:0:0:0:
320,192,18220,128,0,18453:0:0:0:0:
64,192,18587,5,0,0:0:0:0:
192,192,18587,1,0,0:0:0:0:
64,192,18787,1,0,0:0:0:0:
192,192,18787,1,0,0:0:0:0:
320,192,18887,1,0,0:0:0:0:
192,192,18987,1,0,0:0:0:0:
448,192,18987,1,0,0:0:0:0:
64,192,19187,1,0,0:0:0:0:
320,192,19187,1,0,0:0:0:0:
448,192,19187,128,0,19387:0:0:0:0:
192,192,19287,1,0,0:0:0:0:
192,192,19387,1,0,0:0:0:0:
320,192,19487,1,0,0:0:0:0:
448,192,19487,128,0,19687:0:0:0:0:
64,192,19487,1,0,0:0:0:0:
192,192,19587,1,0,0:0:0:0:
192,192,19687,1,0,0:0:0:0:
448,192,19787,128,0,20020:0:0:0:0:
64,192,19787,1,0,0:0:0:0:
320,192,19820,128,0,20087:0:0:0:0:
64,192,20087,1,0,0:0:0:0:
64,192,20187,128,0,20587:0:0:0:0:
448,192,20187,1,0,0:0:0:0:
320,192,20387,128,0,20487:0:0:0:0:
192,192,20420,128,0,20520:0:0:0:0:
192,192,20587,1,0,0:0:0:0:
448,192,20587,1,0,0:0:0:0:
320,192,20687,128,0,20787:0:0:0:0:
448,192,20720,128,0,20820:0:0:0:0:
64,192,20820,128,0,20920:0:0:0:0:
192,192,20920,128,0,21053:0:0:0:0:
64,192,20987,1,0,0:0:0:0:
448,192,20987,1,0,0:0:0:0:
320,192,21053,128,0,21387:0:0:0:0:
64,192,21387,1,0,0:0:0:0:
192,192,21387,128,0,21587:0:0:0:0:
448,192,21420,128,0,21687:0:0:0:0:
320,192,21637,128,0,21837:0:0:0:0:
64,192,21687,1,0,0:0:0:0:
192,192,21787,128,0,21987:0:0:0:0:
448,192,21787,1,0,0:0:0:0:
64,192,21853,128,0,22120:0:0:0:0:
320,192,21987,128,0,22187:0:0:0:0:
192,192,22187,1,0,0:0:0:0:
448,192,22187,128,0,22387:0:0:0:0:
320,192,22387,1,0,0:0:0:0:
192,192,22387,1,0,0:0:0:0:
64,192,22387,128,0,22587:0:0:0:0:
448,192,22487,1,0,0:0:0:0:
448,192,22587,1,0,0:0:0:0:
192,192,22687,1,0,0:0:0:0:
320,192,22687,1,0,0:0:0:0:
64,192,22687,128,0,22887:0:0:0:0:
448,192,22787,1,0,0:0:0:0:
448,192,22887,1,0,0:0:0:0:
192,192,22987,1,0,0:0:0:0:
320,192,22987,128,0,23253:0:0:0:0:
64,192,23020,128,0,23320:0:0:0:0:
448,192,23253,1,0,0:0:0:0:
64,192,23387,128,0,23487:0:0:0:0:
448,192,23387,1,0,0:0:0:0:
192,192,23453,128,0,23787:0:0:0:0:
320,192,23587,128,0,23787:0:0:0:0:
448,192,23787,1,0,0:0:0:0:
64,192,23787,1,0,0:0:0:0:
192,192,23920,128,0,24053:0:0:0:0:
448,192,24020,128,0,24120:0:0:0:0:
320,192,24120,128,0,24253:0:0:0:0:
64,192,24187,1,0,0:0:0:0:
192,192,24187,128,0,24520:0:0:0:0:
448,192,24253,128,0,24453:0:0:0:0:
448,192,24587,1,0,0:0:0:0:
64,192,24587,128,0,24887:0:0:0:0:
192,192,24620,128,0,25187:0:0:0:0:
320,192,24887,1,0,0:0:0:0:
448,192,24987,1,0,0:0:0:0:
64,192,24987,1,0,0:0:0:0:
320,192,25187,1,0,0:0:0:0:
64,192,25387,128,0,25520:0:0:0:0:
448,192,25387,1,0,0:0:0:0:
448,192,25587,1,0,0:0:0:0:
192,192,25587,1,0,0:0:0:0:
320,192,25587,128,0,25787:0:0:0:0:
64,192,25687,1,0,0:0:0:0:
64,192,25787,1,0,0:0:0:0:
192,192,25887,1,0,0:0:0:0:
448,192,25887,1,0,0:0:0:0:
320,192,25887,128,0,26087:0:0:0:0:
64,192,25987,1,0,0:0:0:0:
64,192,26087,1,0,0:0:0:0:
448,192,26187,1,0,0:0:0:0:
320,192,26187,128,0,26587:0:0:0:0:
192,192,26220,128,0,26487:0:0:0:0:
64,192,26287,1,0,0:0:0:0:
64,192,26587,128,0,26753:0:0:0:0:
192,192,26587,1,0,0:0:0:0:
320,192,26687,128,0,26987:0:0:0:0:
192,192,26720,128,0,26787:0:0:0:0:
448,192,26787,128,0,26920:0:0:0:0:
192,192,26987,1,0,0:0:0:0:
64,192,26987,128,0,27087:0:0:0:0:
320,192,27087,1,0,0:0:0:0:
448,192,27153,128,0,27253:0:0:0:0:
192,192,27253,128,0,27387:0:0:0:0:
320,192,27387,128,0,27487:0:0:0:0:
64,192,27387,1,0,0:0:0:0:
448,192,27487,128,0,27787:0:0:0:0:
192,192,27587,1,0,0:0:0:0:
64,192,27787,1,0,0:0:0:0:
192,192,27787,128,0,28087:0:0:0:0:
320,192,27820,128,0,28020:0:0:0:0:
64,192,28087,1,0,0:0:0:0:
320,192,28137,128,0,28253:0:0:0:0:
448,192,28187,1,0,0:0:0:0:
64,192,28187,128,0,28387:0:0:0:0:
192,192,28253,128,0,28320:0:0:0:0:
448,192,28387,128,0,28587:0:0:0:0:
320,192,28587,1,0,0:0:0:0:
192,192,28587,1,0,0:0:0:0:
64,192,28687,128,0,28787:0:0:0:0:
192,192,28753,128,0,28820:0:0:0:0:
320,192,28787,128,0,28887:0:0:0:0:
192,192,28887,128,0,28987:0:0:0:0:
448,192,28987,1,0,0:0:0:0:
320,192,28987,1,0,0:0:0:0:
64,192,28987,1,0,0:0:0:0:
64,192,29087,1,0,0:0:0:0:
192,192,29087,1,0,0:0:0:0:
192,192,29187,1,0,0:0:0:0:
320,192,29187,1,0,0:0:0:0:
320,192,29287,1,0,0:0:0:0:
448,192,29287,1,0,0:0:0:0:
64,192,29387,1,0,0:0:0:0:
448,192,29387,128,0,29653:0:0:0:0:
192,192,29420,128,0,29587:0:0:0:0:
192,192,29720,128,0,29853:0:0:0:0:
64,192,29787,128,0,29920:0:0:0:0:
320,192,29787,1,0,0:0:0:0:
448,192,29853,128,0,30120:0:0:0:0:
64,192,29987,128,0,30187:0:0:0:0:
448,192,30187,1,0,0:0:0:0:
192,192,30187,1,0,0:0:0:0:
320,192,30253,1,0,0:0:0:0:
64,192,30387,128,0,30487:0:0:0:0:
192,192,30487,128,0,30587:0:0:0:0:
64,192,30587,1,0,0:0:0:0:
448,192,30587,128,0,30687:0:0:0:0:
320,192,30687,128,0,31053:0:0:0:0:
192,192,30787,1,0,0:0:0:0:
64,192,30987,128,0,31287:0:0:0:0:
192,192,30987,1,0,0:0:0:0:
448,192,31020,128,0,31120:0:0:0:0:
320,192,31187,1,0,0:0:0:0:
448,192,31287,1,0,0:0:0:0:
192,192,31287,1,0,0:0:0:0:
448,192,31387,1,0,0:0:0:0:
64,192,31387,1,0,0:0:0:0:
320,192,31487,1,0,0:0:0:0:
192,192,31587,1,0,0:0:0:0:
64,192,31587,128,0,31920:0:0:0:0:
320,192,31720,1,0,0:0:0:0:
192,192,31720,1,0,0:0:0:0:
448,192,31787,1,0,0:0:0:0:
64,192,31987,1,0,0:0:0:0:
320,192,31987,1,0,0:0:0:0:
448,192,31987,128,0,32187:0:0:0:0:
192,192,32087,1,0,0:0:0:0:
192,192,32187,1,0,0:0:0:0:
64,192,32287,1,0,0:0:0:0:
320,192,32287,1,0,0:0:0:0:
448,192,32287,128,0,32487:0:0:0:0:
192,192,32387,1,0,0:0:0:0:
192,192,32487,1,0,0:0:0:0:
64,192,32587,1,0,0:0:0:0:
448,192,32587,128,0,32887:0:0:0:0:
320,192,32620,128,0,32987:0:0:0:0:
64,192,32887,1,0,0:0:0:0:
448,192,32987,128,0,33187:0:0:0:0:
192,192,32987,1,0,0:0:0:0:
64,192,33020,128,0,33320:0:0:0:0:
320,192,33187,128,0,33387:0:0:0:0:
192,192,33387,1,0,0:0:0:0:
64,192,33387,1,0,0:0:0:0:
64,192,33537,1,0,0:0:0:0:
320,192,33587,1,0,0:0:0:0:
448,192,33687,1,0,0:0:0:0:
192,192,33787,1,0,0:0:0:0:
64,192,33787,1,0,0:0:0:0:
448,192,33887,1,0,0:0:0:0:
320,192,33987,1,0,0:0:0:0:
64,192,34187,128,0,34487:0:0:0:0:
192,192,34187,1,0,0:0:0:0:
448,192,34220,128,0,34387:0:0:0:0:
320,192,34387,128,0,34487:0:0:0:0:
192,192,34487,1,0,0:0:0:0:
192,192,34587,128,0,34720:0:0:0:0:
64,192,34587,1,0,0:0:0:0:
448,192,34620,128,0,34787:0:0:0:0:
64,192,34787,128,0,34987:0:0:0:0:
192,192,34987,1,0,0:0:0:0:
320,192,34987,128,0,35087:0:0:0:0:
64,192,35187,1,0,0:0:0:0:
192,192,35187,128,0,35387:0:0:0:0:
448,192,35187,1,0,0:0:0:0:
320,192,35287,1,0,0:0:0:0:
320,192,35387,1,0,0:0:0:0:
64,192,35487,1,0,0:0:0:0:
448,192,35487,1,0,0:0:0:0:
192,192,35487,128,0,35687:0:0:0:0:
320,192,35587,1,0,0:0:0:0:
320,192,35687,1,0,0:0:0:0:
448,192,35787,1,0,0:0:0:0:
192,192,35787,128,0,36020:0:0:0:0:
64,192,35820,128,0,36087:0:0:0:0:
320,192,36020,128,0,36120:0:0:0:0:
448,192,36087,1,0,0:0:0:0:
64,192,36187,1,0,0:0:0:0:
448,192,36187,128,0,36587:0:0:0:0:
192,192,36220,128,0,36387:0:0:0:0:
320,192,36387,128,0,36587:0:0:0:0:
192,192,36587,1,0,0:0:0:0:
64,192,36587,1,0,0:0:0:0:
64,192,36787,1,0,0:0:0:0:
192,192,36887,1,0,0:0:0:0:
320,192,36987,1,0,0:0:0:0:
64,192,36987,1,0,0:0:0:0:
448,192,37187,1,0,0:0:0:0:
192,192,37387,1,0,0:0:0:0:
64,192,37387,128,0,37787:0:0:0:0:
448,192,37420,128,0,37687:0:0:0:0:
320,192,37687,1,0,0:0:0:0:
192,192,37787,128,0,38187:0:0:0:0:
320,192,37787,1,0,0:0:0:0:
448,192,37820,128,0,38087:0:0:0:0:
64,192,37987,128,0,38187:0:0:0:0:
320,192,38187,1,0,0:0:0:0:
448,192,38187,1,0,0:0:0:0:
192,192,38287,1,0,0:0:0:0:
64,192,38387,1,0,0:0:0:0:
448,192,38387,1,0,0:0:0:0:
320,192,38387,128,0,38587:0:0:0:0:
192,192,38487,1,0,0:0:0:0:
192,192,38587,1,0,0:0:0:0:
448,192,38687,1,0,0:0:0:0:
64,192,38687,1,0,0:0:0:0:
320,192,38687,128,0,38887:0:0:0:0:
192,192,38787,1,0,0:0:0:0:
192,192,38887,1,0,0:0:0:0:
448,192,38987,1,0,0:0:0:0:
320,192,38987,128,0,39220:0:0:0:0:
64,192,39020,128,0,39287:0:0:0:0:
192,192,39287,1,0,0:0:0:0:
192,192,39387,1,0,0:0:0:0:
448,192,39387,128,0,39687:0:0:0:0:
64,192,39420,128,0,39620:0:0:0:0:
320,192,39487,1,0,0:0:0:0:
192,192,39620,128,0,39787:0:0:0:0:
448,192,39787,1,0,0:0:0:0:
64,192,39787,1,0,0:0:0:0:
320,192,39862,1,0,0:0:0:0:
192,192,39937,1,0,0:0:0:0:
448,192,40087,1,0,0:0:0:0:
192,192,40187,1,0,0:0:0:0:
64,192,40187,1,0,0:0:0:0:
448,192,40387,1,0,0:0:0:0:
320,192,40487,1,0,0:0:0:0:
64,192,40587,1,0,0:0:0:0:
192,192,40587,128,0,40887:0:0:0:0:
320,192,40637,128,0,40987:0:0:0:0:
448,192,40687,1,0,0:0:0:0:
64,192,40887,1,0,0:0:0:0:
64,192,40987,1,0,0:0:0:0:
192,192,40987,128,0,41187:0:0:0:0:
448,192,41020,128,0,41287:0:0:0:0:
320,192,41087,1,0,0:0:0:0:
64,192,41187,128,0,41387:0:0:0:0:
320,192,41387,1,0,0:0:0:0:
448,192,41387,1,0,0:0:0:0:
192,192,41487,1,0,0:0:0:0:
448,192,41587,1,0,0:0:0:0:
64,192,41587,128,0,41787:0:0:0:0:
192,192,41587,1,0,0:0:0:0:
320,192,41687,1,0,0:0:0:0:
320,192,41787,1,0,0:0:0:0:
64,192,41887,128,0,42087:0:0:0:0:
192,192,41887,1,0,0:0:0:0:
448,192,41887,1,0,0:0:0:0:
320,192,41987,1,0,0:0:0:0:
320,192,42087,1,0,0:0:0:0:
448,192,42187,128,0,42487:0:0:0:0:
192,192,42187,1,0,0:0:0:0:
64,192,42220,128,0,42487:0:0:0:0:
192,192,42487,1,0,0:0:0:0:
192,192,42587,1,0,0:0:0:0:
448,192,42587,128,0,42987:0:0:0:0:
320,192,42620,128,0,42887:0:0:0:0:
64,192,42787,128,0,42987:0:0:0:0:
192,192,42987,1,0,0:0:0:0:
320,192,42987,1,0,0:0:0:0:
448,192,43187,1,0,0:0:0:0:
64,192,43287,1,0,0:0:0:0:
192,192,43387,1,0,0:0:0:0:
320,192,43387,1,0,0:0:0:0:
448,192,43587,1,0,0:0:0:0:
64,192,43787,128,0,44020:0:0:0:0:
192,192,43787,1,0,0:0:0:0:
320,192,43820,128,0,44087:0:0:0:0:
64,192,44087,1,0,0:0:0:0:
192,192,44087,1,0,0:0:0:0:
320,192,44187,1,0,0:0:0:0:
448,192,44187,1,0,0:0:0:0:
192,192,44287,1,0,0:0:0:0:
320,192,44287,1,0,0:0:0:0:
64,192,44387,1,0,0:0:0:0:
448,192,44387,1,0,0:0:0:0:
192,192,44487,1,0,0:0:0:0:
64,192,44487,1,0,0:0:0:0:
448,192,44587,1,0,0:0:0:0:
320,192,44587,1,0,0:0:0:0:
192,192,44687,1,0,0:0:0:0:
448,192,44787,128,0,45020:0:0:0:0:
64,192,44820,128,0,44887:0:0:0:0:
320,192,44853,1,0,0:0:0:0:
192,192,44987,128,0,45087:0:0:0:0:
320,192,44987,1,0,0:0:0:0:
64,192,45053,128,0,45220:0:0:0:0:
192,192,45287,1,0,0:0:0:0:
448,192,45320,128,0,45453:0:0:0:0:
64,192,45387,128,0,45587:0:0:0:0:
320,192,45387,1,0,0:0:0:0:
192,192,45553,128,0,45620:0:0:0:0:
320,192,45587,128,0,45720:0:0:0:0:
448,192,45653,128,0,45853:0:0:0:0:
64,192,45787,1,0,0:0:0:0:
320,192,45787,1,0,0:0:0:0:
192,192,45887,128,0,45987:0:0:0:0:
64,192,45987,128,0,46253:0:0:0:0:
192,192,46087,1,0,0:0:0:0:
448,192,46187,1,0,0:0:0:0:
320,192,46187,128,0,46287:0:0:0:0:
64,192,46387,128,0,46653:0:0:0:0:
448,192,46420,128,0,46620:0:0:0:0:
192,192,46587,128,0,46687:0:0:0:0:
320,192,46620,128,0,46753:0:0:0:0:
192,192,46787,128,0,47087:0:0:0:0:
64,192,46820,128,0,46987:0:0:0:0:
448,192,46887,1,0,0:0:0:0:
320,192,46987,128,0,47220:0:0:0:0:
448,192,46987,1,0,0:0:0:0:
64,192,47187,128,0,47287:0:0:0:0:
192,192,47220,128,0,47387:0:0:0:0:
64,192,47387,128,0,47553:0:0:0:0:
448,192,47387,1,0,0:0:0:0:
320,192,47553,1,0,0:0:0:0:
448,192,47587,128,0,47687:0:0:0:0:
192,192,47687,1,0,0:0:0:0:
320,192,47753,128,0,47853:0:0:0:0:
192,192,47787,128,0,47920:0:0:0:0:
64,192,47787,1,0,0:0:0:0:
64,192,47987,128,0,48320:0:0:0:0:
192,192,48020,128,0,48187:0:0:0:0:
320,192,48187,128,0,48287:0:0:0:0:
448,192,48187,1,0,0:0:0:0:
320,192,48353,128,0,48453:0:0:0:0:
192,192,48387,1,0,0:0:0:0:
448,192,48487,1,0,0:0:0:0:
192,192,48587,128,0,49053:0:0:0:0:
64,192,48620,128,0,48787:0:0:0:0:
448,192,48787,128,0,48887:0:0:0:0:
320,192,48887,1,0,0:0:0:0:
64,192,48987,128,0,49087:0:0:0:0:
448,192,48987,1,0,0:0:0:0:
320,192,49187,128,0,49320:0:0:0:0:
448,192,49220,1,0,0:0:0:0:
192,192,49287,1,0,0:0:0:0:
64,192,49387,1,0,0:0:0:0:
448,192,49387,1,0,0:0:0:0:
64,192,49587,128,0,49920:0:0:0:0:
448,192,49620,128,0,50020:0:0:0:0:
320,192,49787,1,0,0:0:0:0:
192,192,49787,1,0,0:0:0:0:
320,192,49987,128,0,50053:0:0:0:0:
192,192,50020,128,0,50120:0:0:0:0:
64,192,50087,1,0,0:0:0:0:
64,192,50187,1,0,0:0:0:0:
448,192,50220,128,0,50487:0:0:0:0:
64,192,50387,128,0,50753:0:0:0:0:
192,192,50420,128,0,50653:0:0:0:0:
448,192,50587,1,0,0:0:0:0:
320,192,50587,128,0,50687:0:0:0:0:
448,192,50787,128,0,51187:0:0:0:0:
192,192,50820,1,0,0:0:0:0:
320,192,50887,1,0,0:0:0:0:
320,192,50987,1,0,0:0:0:0:
64,192,50987,1,0,0:0:0:0:
192,192,51187,128,0,51637:0:0:0:0:
64,192,51220,128,0,51387:0:0:0:0:
320,192,51387,128,0,51487:0:0:0:0:
448,192,51387,1,0,0:0:0:0:
320,192,51587,128,0,51687:0:0:0:0:
64,192,51687,1,0,0:0:0:0:
448,192,51787,128,0,52087:0:0:0:0:
192,192,51787,1,0,0:0:0:0:
64,192,51987,128,0,52120:0:0:0:0:
192,192,52020,128,0,52253:0:0:0:0:
448,192,52187,128,0,52287:0:0:0:0:
64,192,52187,1,0,0:0:0:0:
320,192,52387,128,0,52737:0:0:0:0:
448,192,52420,1,0,0:0:0:0:
192,192,52487,1,0,0:0:0:0:
448,192,52587,1,0,0:0:0:0:
64,192,52587,1,0,0:0:0:0:
192,192,52687,128,0,52787:0:0:0:0:
64,192,52787,128,0,53053:0:0:0:0:
448,192,52820,128,0,52987:0:0:0:0:
320,192,52987,1,0,0:0:0:0:
192,192,52987,128,0,53087:0:0:0:0:
192,192,53153,128,0,53253:0:0:0:0:
320,192,53187,128,0,53320:0:0:0:0:
448,192,53287,1,0,0:0:0:0:
448,192,53387,128,0,53553:0:0:0:0:
192,192,53420,128,0,53653:0:0:0:0:
64,192,53587,128,0,53687:0:0:0:0:
448,192,53787,128,0,53887:0:0:0:0:
192,192,53787,1,0,0:0:0:0:
192,192,53987,128,0,54287:0:0:0:0:
64,192,54020,1,0,0:0:0:0:
320,192,54087,1,0,0:0:0:0:
448,192,54187,128,0,54320:0:0:0:0:
320,192,54187,1,0,0:0:0:0:
64,192,54287,128,0,54520:0:0:0:0:
192,192,54387,1,0,0:0:0:0:
320,192,54420,128,0,54687:0:0:0:0:
64,192,54587,1,0,0:0:0:0:
448,192,54587,1,0,0:0:0:0:
448,192,54787,128,0,54920:0:0:0:0:
64,192,54820,128,0,54887:0:0:0:0:
320,192,54887,1,0,0:0:0:0:
64,192,54987,128,0,55453:0:0:0:0:
448,192,55020,128,0,55253:0:0:0:0:
192,192,55187,128,0,55320:0:0:0:0:
320,192,55387,128,0,55487:0:0:0:0:
448,192,55387,1,0,0:0:0:0:
192,192,55587,128,0,55853:0:0:0:0:
320,192,55620,1,0,0:0:0:0:
448,192,55687,1,0,0:0:0:0:
320,192,55787,1,0,0:0:0:0:
64,192,55787,128,0,55920:0:0:0:0:
448,192,55987,128,0,56120:0:0:0:0:
192,192,56020,128,0,56287:0:0:0:0:
448,192,56187,128,0,56287:0:0:0:0:
64,192,56220,128,0,56320:0:0:0:0:
320,192,56387,128,0,56520:0:0:0:0:
448,192,56420,128,0,56687:0:0:0:0:
64,192,56487,1,0,0:0:0:0:
64,192,56587,128,0,56687:0:0:0:0:
320,192,56620,128,0,56720:0:0:0:0:
192,192,56787,128,0,56920:0:0:0:0:
320,192,56820,128,0,57087:0:0:0:0:
192,192,56987,128,0,57087:0:0:0:0:
448,192,57020,128,0,57120:0:0:0:0:
64,192,57187,128,0,57287:0:0:0:0:
192,192,57220,128,0,57487:0:0:0:0:
320,192,57287,1,0,0:0:0:0:
320,192,57387,1,0,0:0:0:0:
64,192,57387,128,0,57487:0:0:0:0:
320,192,57587,128,0,58053:0:0:0:0:
448,192,57620,128,0,57987:0:0:0:0:
192,192,57787,128,0,57887:0:0:0:0:
192,192,57987,128,0,58087:0:0:0:0:
64,192,58020,128,0,58120:0:0:0:0:
192,192,58187,128,0,58653:0:0:0:0:
448,192,58187,1,0,0:0:0:0:
64,192,58220,128,0,58587:0:0:0:0:
320,192,58387,128,0,58487:0:0:0:0:
320,192,58587,128,0,58687:0:0:0:0:
448,192,58620,128,0,58720:0:0:0:0:
64,192,58787,128,0,59087:0:0:0:0:
448,192,58820,128,0,59053:0:0:0:0:
192,192,58987,128,0,59087:0:0:0:0:
448,192,59187,128,0,59720:0:0:0:0:
320,192,59220,128,0,59453:0:0:0:0:
192,192,59387,128,0,59487:0:0:0:0:
64,192,59487,128,0,59653:0:0:0:0:
192,192,59587,128,0,59687:0:0:0:0:
320,192,59787,128,0,60287:0:0:0:0:
192,192,59787,1,0,0:0:0:0:
64,192,59820,128,0,60053:0:0:0:0:
448,192,59987,128,0,60087:0:0:0:0:
448,192,60187,128,0,60287:0:0:0:0:
64,192,60220,128,0,60320:0:0:0:0:
192,192,60387,128,0,60687:0:0:0:0:
64,192,60420,128,0,60620:0:0:0:0:
320,192,60587,128,0,60687:0:0:0:0:
64,192,60787,128,0,61253:0:0:0:0:
448,192,60820,128,0,61053:0:0:0:0:
192,192,60987,128,0,61087:0:0:0:0:
192,192,61187,128,0,61287:0:0:0:0:
320,192,61220,128,0,61320:0:0:0:0:
448,192,61387,1,0,0:0:0:0:
192,192,61387,128,0,61853:0:0:0:0:
320,192,61420,128,0,61653:0:0:0:0:
448,192,61587,128,0,61687:0:0:0:0:
320,192,61787,128,0,61887:0:0:0:0:
448,192,61820,128,0,62020:0:0:0:0:
192,192,61987,128,0,62120:0:0:0:0:
64,192,62020,128,0,62287:0:0:0:0:
320,192,62187,128,0,62420:0:0:0:0:
448,192,62387,128,0,62520:0:0:0:0:
192,192,62420,128,0,62620:0:0:0:0:
448,192,62587,128,0,62720:0:0:0:0:
320,192,62620,128,0,62753:0:0:0:0:
192,192,62787,128,0,62920:0:0:0:0:
64,192,62820,1,0,0:0:0:0:
192,192,62987,128,0,63087:0:0:0:0:
64,192,62987,1,0,0:0:0:0:
320,192,63020,128,0,63120:0:0:0:0:
448,192,63120,128,0,63520:0:0:0:0:
64,192,63187,128,0,63320:0:0:0:0:
320,192,63220,1,0,0:0:0:0:
64,192,63387,128,0,63487:0:0:0:0:
192,192,63420,128,0,63520:0:0:0:0:
320,192,63587,128,0,63987:0:0:0:0:
448,192,63587,128,0,63887:0:0:0:0:
192,192,63620,1,0,0:0:0:0:
64,192,63787,1,0,0:0:0:0:
192,192,63820,1,0,0:0:0:0:
448,192,63987,1,0,0:0:0:0:
192,192,63987,1,0,0:0:0:0:
64,192,64020,5,0,0:0:0:0:
320,192,64187,1,0,0:0:0:0:
448,192,64220,1,0,0:0:0:0:
64,192,64387,1,0,0:0:0:0:
192,192,64387,1,0,0:0:0:0:
320,192,64420,1,0,0:0:0:0:
448,192,64587,1,0,0:0:0:0:
64,192,64620,1,0,0:0:0:0:
192,192,64787,1,0,0:0:0:0:
320,192,64787,1,0,0:0:0:0:
448,192,64820,1,0,0:0:0:0:
320,192,64987,1,0,0:0:0:0:
64,192,65020,1,0,0:0:0:0:
64,192,65187,1,0,0:0:0:0:
448,192,65187,1,0,0:0:0:0:
192,192,65220,1,0,0:0:0:0:
320,192,65387,1,0,0:0:0:0:
192,192,65420,1,0,0:0:0:0:
64,192,65587,1,0,0:0:0:0:
320,192,65587,1,0,0:0:0:0:
448,192,65620,1,0,0:0:0:0:
192,192,65787,1,0,0:0:0:0:
64,192,65820,1,0,0:0:0:0:
448,192,65987,1,0,0:0:0:0:
320,192,65987,1,0,0:0:0:0:
192,192,66020,1,0,0:0:0:0:
320,192,66187,1,0,0:0:0:0:
64,192,66220,1,0,0:0:0:0:
448,192,66387,1,0,0:0:0:0:
64,192,66387,1,0,0:0:0:0:
192,192,66420,1,0,0:0:0:0:
320,192,66587,1,0,0:0:0:0:
192,192,66620,1,0,0:0:0:0:
64,192,66787,1,0,0:0:0:0:
320,192,66787,1,0,0:0:0:0:
448,192,66820,1,0,0:0:0:0:
448,192,66987,1,0,0:0:0:0:
192,192,67020,1,0,0:0:0:0:
64,192,67187,1,0,0:0:0:0:
192,192,67220,1,0,0:0:0:0:
320,192,67253,1,0,0:0:0:0:
192,192,67387,1,0,0:0:0:0:
320,192,67420,1,0,0:0:0:0:
448,192,67453,1,0,0:0:0:0:
448,192,67587,1,0,0:0:0:0:
320,192,67620,1,0,0:0:0:0:
64,192,67653,1,0,0:0:0:0:
320,192,67787,1,0,0:0:0:0:
192,192,67820,1,0,0:0:0:0:
64,192,67853,1,0,0:0:0:0:
64,192,67987,1,0,0:0:0:0:
448,192,68020,1,0,0:0:0:0:
192,192,68053,1,0,0:0:0:0:
192,192,68187,1,0,0:0:0:0:
448,192,68220,1,0,0:0:0:0:
320,192,68253,1,0,0:0:0:0:
320,192,68387,1,0,0:0:0:0:
64,192,68420,1,0,0:0:0:0:
192,192,68453,1,0,0:0:0:0:
448,192,68587,1,0,0:0:0:0:
64,192,68620,1,0,0:0:0:0:
320,192,68653,1,0,0:0:0:0:
64,192,68787,1,0,0:0:0:0:
192,192,68803,1,0,0:0:0:0:
320,192,68820,1,0,0:0:0:0:
448,192,68837,1,0,0:0:0:0:
64,192,69987,128,0,70387:0:0:0:0:
448,192,69987,1,0,0:0:0:0:
320,192,69987,1,0,0:0:0:0:
192,192,69987,1,0,0:0:0:0:
320,192,70387,1,0,0:0:0:0:
448,192,70387,1,0,0:0:0:0:
192,192,70453,1,0,0:0:0:0:
64,192,70520,1,0,0:0:0:0:
448,192,70587,1,0,0:0:0:0:
192,192,70653,1,0,0:0:0:0:
320,192,70720,1,0,0:0:0:0:
448,192,70787,1,0,0:0:0:0:
64,192,70853,1,0,0:0:0:0:
192,192,70920,1,0,0:0:0:0:
320,192,70987,1,0,0:0:0:0:
448,192,70987,1,0,0:0:0:0:
192,192,71053,1,0,0:0:0:0:
64,192,71120,1,0,0:0:0:0:
448,192,71187,1,0,0:0:0:0:
320,192,71253,1,0,0:0:0:0:
192,192,71320,1,0,0:0:0:0:
448,192,71387,1,0,0:0:0:0:
64,192,71453,1,0,0:0:0:0:
192,192,71520,1,0,0:0:0:0:
64,192,71587,1,0,0:0:0:0:
448,192,71587,1,0,0:0:0:0:
320,192,71653,1,0,0:0:0:0:
192,192,71720,1,0,0:0:0:0:
448,192,71787,1,0,0:0:0:0:
64,192,71853,1,0,0:0:0:0:
192,192,71920,1,0,0:0:0:0:
320,192,71987,1,0,0:0:0:0:
448,192,71987,1,0,0:0:0:0:
64,192,72053,1,0,0:0:0:0:
192,192,72120,1,0,0:0:0:0:
448,192,72187,1,0,0:0:0:0:
320,192,72253,1,0,0:0:0:0:
192,192,72320,1,0,0:0:0:0:
64,192,72387,1,0,0:0:0:0:
448,192,72453,1,0,0:0:0:0:
192,192,72520,1,0,0:0:0:0:
320,192,72587,1,0,0:0:0:0:
192,192,72687,1,0,0:0:0:0:
64,192,72787,1,0,0:0:0:0:
448,192,72787,1,0,0:0:0:0:
192,192,72887,1,0,0:0:0:0:
448,192,72987,1,0,0:0:0:0:
320,192,73087,1,0,0:0:0:0:
64,192,73087,1,0,0:0:0:0:
192,192,73087,1,0,0:0:0:0:
448,192,73187,1,0,0:0:0:0:
320,192,73287,1,0,0:0:0:0:
192,192,73387,1,0,0:0:0:0:
64,192,73387,1,0,0:0:0:0:
320,192,73487,1,0,0:0:0:0:
448,192,73587,1,0,0:0:0:0:
64,192,73587,1,0,0:0:0:0:
192,192,73687,1,0,0:0:0:0:
320,192,73687,1,0,0:0:0:0:
448,192,73787,1,0,0:0:0:0:
192,192,73853,1,0,0:0:0:0:
64,192,73920,1,0,0:0:0:0:
448,192,73987,1,0,0:0:0:0:
320,192,74053,1,0,0:0:0:0:
192,192,74120,1,0,0:0:0:0:
64,192,74187,1,0,0:0:0:0:
448,192,74187,1,0,0:0:0:0:
320,192,74253,1,0,0:0:0:0:
64,192,74320,1,0,0:0:0:0:
192,192,74387,1,0,0:0:0:0:
320,192,74453,1,0,0:0:0:0:
448,192,74520,1,0,0:0:0:0:
192,192,74587,1,0,0:0:0:0:
64,192,74587,1,0,0:0:0:0:
320,192,74653,1,0,0:0:0:0:
448,192,74720,1,0,0:0:0:0:
192,192,74787,1,0,0:0:0:0:
64,192,74787,1,0,0:0:0:0:
320,192,74853,1,0,0:0:0:0:
192,192,74920,1,0,0:0:0:0:
64,192,74987,1,0,0:0:0:0:
448,192,75053,1,0,0:0:0:0:
192,192,75120,1,0,0:0:0:0:
320,192,75187,1,0,0:0:0:0:
64,192,75187,1,0,0:0:0:0:
448,192,75253,1,0,0:0:0:0:
64,192,75320,1,0,0:0:0:0:
192,192,75387,1,0,0:0:0:0:
448,192,75453,1,0,0:0:0:0:
320,192,75520,1,0,0:0:0:0:
192,192,75587,1,0,0:0:0:0:
64,192,75653,1,0,0:0:0:0:
320,192,75720,1,0,0:0:0:0:
448,192,75787,1,0,0:0:0:0:
192,192,75887,1,0,0:0:0:0:
448,192,75987,1,0,0:0:0:0:
320,192,75987,1,0,0:0:0:0:
64,192,76087,1,0,0:0:0:0:
320,192,76187,1,0,0:0:0:0:
192,192,76287,1,0,0:0:0:0:
448,192,76287,1,0,0:0:0:0:
64,192,76287,1,0,0:0:0:0:
320,192,76387,1,0,0:0:0:0:
192,192,76487,1,0,0:0:0:0:
64,192,76587,1,0,0:0:0:0:
448,192,76587,1,0,0:0:0:0:
192,192,76687,1,0,0:0:0:0:
320,192,76787,1,0,0:0:0:0:
448,192,76787,1,0,0:0:0:0:
192,192,76887,1,0,0:0:0:0:
64,192,76987,1,0,0:0:0:0:
320,192,76987,1,0,0:0:0:0:
448,192,77087,1,0,0:0:0:0:
320,192,77187,1,0,0:0:0:0:
192,192,77253,1,0,0:0:0:0:
64,192,77320,1,0,0:0:0:0:
320,192,77387,1,0,0:0:0:0:
448,192,77453,1,0,0:0:0:0:
64,192,77520,1,0,0:0:0:0:
320,192,77587,1,0,0:0:0:0:
448,192,77587,1,0,0:0:0:0:
192,192,77653,1,0,0:0:0:0:
64,192,77720,1,0,0:0:0:0:
448,192,77787,1,0,0:0:0:0:
320,192,77853,1,0,0:0:0:0:
192,192,77920,1,0,0:0:0:0:
64,192,77987,1,0,0:0:0:0:
320,192,78053,1,0,0:0:0:0:
448,192,78120,1,0,0:0:0:0:
192,192,78187,1,0,0:0:0:0:
320,192,78253,1,0,0:0:0:0:
448,192,78320,1,0,0:0:0:0:
64,192,78387,1,0,0:0:0:0:
320,192,78453,1,0,0:0:0:0:
192,192,78520,1,0,0:0:0:0:
64,192,78587,1,0,0:0:0:0:
448,192,78653,1,0,0:0:0:0:
320,192,78720,1,0,0:0:0:0:
192,192,78787,1,0,0:0:0:0:
320,192,78853,1,0,0:0:0:0:
448,192,78920,1,0,0:0:0:0:
192,192,78987,1,0,0:0:0:0:
64,192,79087,1,0,0:0:0:0:
320,192,79187,1,0,0:0:0:0:
448,192,79187,1,0,0:0:0:0:
192,192,79287,1,0,0:0:0:0:
320,192,79387,1,0,0:0:0:0:
64,192,79487,1,0,0:0:0:0:
448,192,79487,1,0,0:0:0:0:
320,192,79587,1,0,0:0:0:0:
192,192,79687,1,0,0:0:0:0:
64,192,79787,1,0,0:0:0:0:
320,192,79787,1,0,0:0:0:0:
448,192,79887,1,0,0:0:0:0:
64,192,79987,1,0,0:0:0:0:
192,192,79987,1,0,0:0:0:0:
320,192,80053,1,0,0:0:0:0:
192,192,80120,1,0,0:0:0:0:
64,192,80187,1,0,0:0:0:0:
320,192,80253,1,0,0:0:0:0:
448,192,80320,1,0,0:0:0:0:
192,192,80387,1,0,0:0:0:0:
64,192,80387,1,0,0:0:0:0:
320,192,80453,1,0,0:0:0:0:
64,192,80520,1,0,0:0:0:0:
448,192,80587,1,0,0:0:0:0:
320,192,80653,1,0,0:0:0:0:
192,192,80720,1,0,0:0:0:0:
64,192,80787,1,0,0:0:0:0:
448,192,80787,1,0,0:0:0:0:
320,192,80853,1,0,0:0:0:0:
192,192,80920,1,0,0:0:0:0:
448,192,80987,1,0,0:0:0:0:
64,192,80987,1,0,0:0:0:0:
192,192,81053,1,0,0:0:0:0:
320,192,81120,1,0,0:0:0:0:
448,192,81187,1,0,0:0:0:0:
64,192,81187,1,0,0:0:0:0:
192,192,81253,1,0,0:0:0:0:
320,192,81320,1,0,0:0:0:0:
448,192,81387,1,0,0:0:0:0:
192,192,81453,1,0,0:0:0:0:
64,192,81520,1,0,0:0:0:0:
448,192,81587,1,0,0:0:0:0:
192,192,81587,1,0,0:0:0:0:
320,192,81653,1,0,0:0:0:0:
192,192,81720,1,0,0:0:0:0:
64,192,81787,1,0,0:0:0:0:
320,192,81853,1,0,0:0:0:0:
448,192,81920,1,0,0:0:0:0:
64,192,81987,1,0,0:0:0:0:
192,192,81987,1,0,0:0:0:0:
448,192,82053,1,0,0:0:0:0:
192,192,82120,1,0,0:0:0:0:
320,192,82187,1,0,0:0:0:0:
448,192,82253,1,0,0:0:0:0:
64,192,82320,1,0,0:0:0:0:
448,192,82387,1,0,0:0:0:0:
320,192,82387,1,0,0:0:0:0:
192,192,82487,1,0,0:0:0:0:
64,192,82587,1,0,0:0:0:0:
320,192,82587,1,0,0:0:0:0:
192,192,82687,1,0,0:0:0:0:
448,192,82787,128,0,83187:0:0:0:0:
64,192,82787,1,0,0:0:0:0:
64,192,82987,1,0,0:0:0:0:
192,192,82987,1,0,0:0:0:0:
320,192,83053,1,0,0:0:0:0:
320,192,83187,1,0,0:0:0:0:
64,192,83187,1,0,0:0:0:0:
192,192,83253,1,0,0:0:0:0:
64,192,83320,1,0,0:0:0:0:
320,192,83387,1,0,0:0:0:0:
448,192,83453,1,0,0:0:0:0:
64,192,83520,1,0,0:0:0:0:
192,192,83587,1,0,0:0:0:0:
448,192,83653,1,0,0:0:0:0:
192,192,83720,1,0,0:0:0:0:
64,192,83787,1,0,0:0:0:0:
448,192,83787,1,0,0:0:0:0:
320,192,83853,1,0,0:0:0:0:
192,192,83920,1,0,0:0:0:0:
448,192,83987,1,0,0:0:0:0:
64,192,84053,1,0,0:0:0:0:
192,192,84120,1,0,0:0:0:0:
320,192,84187,1,0,0:0:0:0:
448,192,84253,1,0,0:0:0:0:
64,192,84320,1,0,0:0:0:0:
192,192,84387,1,0,0:0:0:0:
448,192,84387,1,0,0:0:0:0:
320,192,84453,1,0,0:0:0:0:
64,192,84520,1,0,0:0:0:0:
448,192,84587,1,0,0:0:0:0:
192,192,84653,1,0,0:0:0:0:
320,192,84720,1,0,0:0:0:0:
448,192,84787,1,0,0:0:0:0:
64,192,84787,1,0,0:0:0:0:
192,192,84853,1,0,0:0:0:0:
448,192,84920,1,0,0:0:0:0:
320,192,84987,1,0,0:0:0:0:
64,192,85053,1,0,0:0:0:0:
192,192,85120,1,0,0:0:0:0:
320,192,85187,1,0,0:0:0:0:
448,192,85253,1,0,0:0:0:0:
64,192,85320,1,0,0:0:0:0:
192,192,85387,1,0,0:0:0:0:
448,192,85487,1,0,0:0:0:0:
64,192,85587,1,0,0:0:0:0:
320,192,85587,1,0,0:0:0:0:
192,192,85687,1,0,0:0:0:0:
320,192,85787,1,0,0:0:0:0:
448,192,85887,1,0,0:0:0:0:
64,192,85887,1,0,0:0:0:0:
192,192,85887,1,0,0:0:0:0:
320,192,85987,1,0,0:0:0:0:
192,192,86087,1,0,0:0:0:0:
320,192,86187,1,0,0:0:0:0:
448,192,86187,1,0,0:0:0:0:
64,192,86287,1,0,0:0:0:0:
192,192,86387,1,0,0:0:0:0:
448,192,86387,1,0,0:0:0:0:
320,192,86487,1,0,0:0:0:0:
192,192,86587,1,0,0:0:0:0:
320,192,86653,1,0,0:0:0:0:
448,192,86720,1,0,0:0:0:0:
64,192,86787,1,0,0:0:0:0:
192,192,86853,1,0,0:0:0:0:
448,192,86920,1,0,0:0:0:0:
320,192,86987,1,0,0:0:0:0:
64,192,86987,1,0,0:0:0:0:
448,192,87053,1,0,0:0:0:0:
192,192,87120,1,0,0:0:0:0:
320,192,87187,1,0,0:0:0:0:
448,192,87253,1,0,0:0:0:0:
64,192,87320,1,0,0:0:0:0:
192,192,87387,1,0,0:0:0:0:
320,192,87453,1,0,0:0:0:0:
64,192,87520,1,0,0:0:0:0:
448,192,87587,1,0,0:0:0:0:
192,192,87587,1,0,0:0:0:0:
320,192,87653,1,0,0:0:0:0:
64,192,87720,1,0,0:0:0:0:
448,192,87787,1,0,0:0:0:0:
192,192,87853,1,0,0:0:0:0:
64,192,87920,1,0,0:0:0:0:
320,192,87987,1,0,0:0:0:0:
448,192,87987,1,0,0:0:0:0:
192,192,88053,1,0,0:0:0:0:
320,192,88120,1,0,0:0:0:0:
448,192,88187,1,0,0:0:0:0:
64,192,88253,1,0,0:0:0:0:
320,192,88320,1,0,0:0:0:0:
192,192,88387,1,0,0:0:0:0:
448,192,88453,1,0,0:0:0:0:
320,192,88520,1,0,0:0:0:0:
64,192,88587,1,0,0:0:0:0:
192,192,88687,1,0,0:0:0:0:
64,192,88787,1,0,0:0:0:0:
320,192,88787,1,0,0:0:0:0:
448,192,88887,1,0,0:0:0:0:
192,192,88987,1,0,0:0:0:0:
64,192,89087,1,0,0:0:0:0:
448,192,89087,1,0,0:0:0:0:
320,192,89087,1,0,0:0:0:0:
192,192,89187,1,0,0:0:0:0:
64,192,89287,1,0,0:0:0:0:
192,192,89387,1,0,0:0:0:0:
320,192,89387,1,0,0:0:0:0:
448,192,89487,1,0,0:0:0:0:
64,192,89587,1,0,0:0:0:0:
320,192,89587,1,0,0:0:0:0:
192,192,89687,1,0,0:0:0:0:
64,192,89753,1,0,0:0:0:0:
448,192,89787,1,0,0:0:0:0:
320,192,89853,1,0,0:0:0:0:
192,192,89920,1,0,0:0:0:0:
64,192,89987,1,0,0:0:0:0:
320,192,90053,1,0,0:0:0:0:
448,192,90120,1,0,0:0:0:0:
192,192,90187,1,0,0:0:0:0:
64,192,90253,1,0,0:0:0:0:
320,192,90320,1,0,0:0:0:0:
192,192,90387,1,0,0:0:0:0:
64,192,90453,1,0,0:0:0:0:
320,192,90520,1,0,0:0:0:0:
448,192,90587,1,0,0:0:0:0:
192,192,90653,1,0,0:0:0:0:
320,192,90720,1,0,0:0:0:0:
448,192,90787,1,0,0:0:0:0:
64,192,90787,1,0,0:0:0:0:
192,192,90853,1,0,0:0:0:0:
64,192,90920,1,0,0:0:0:0:
320,192,90987,1,0,0:0:0:0:
448,192,90987,1,0,0:0:0:0:
192,192,91053,1,0,0:0:0:0:
64,192,91120,1,0,0:0:0:0:
320,192,91187,1,0,0:0:0:0:
448,192,91253,1,0,0:0:0:0:
192,192,91320,1,0,0:0:0:0:
64,192,91387,1,0,0:0:0:0:
192,192,91453,1,0,0:0:0:0:
320,192,91520,1,0,0:0:0:0:
448,192,91587,1,0,0:0:0:0:
320,192,91687,1,0,0:0:0:0:
192,192,91787,1,0,0:0:0:0:
64,192,91887,1,0,0:0:0:0:
192,192,91987,1,0,0:0:0:0:
448,192,91987,1,0,0:0:0:0:
320,192,92053,1,0,0:0:0:0:
192,192,92120,1,0,0:0:0:0:
64,192,92187,1,0,0:0:0:0:
448,192,92287,1,0,0:0:0:0:
64,192,92387,1,0,0:0:0:0:
320,192,92387,1,0,0:0:0:0:
448,192,92453,1,0,0:0:0:0:
192,192,92520,1,0,0:0:0:0:
448,192,92587,1,0,0:0:0:0:
64,192,92687,1,0,0:0:0:0:
320,192,92787,1,0,0:0:0:0:
448,192,92787,1,0,0:0:0:0:
64,192,92853,1,0,0:0:0:0:
192,192,92920,1,0,0:0:0:0:
448,192,92987,1,0,0:0:0:0:
64,192,93053,1,0,0:0:0:0:
192,192,93120,1,0,0:0:0:0:
320,192,93187,1,0,0:0:0:0:
448,192,93187,1,0,0:0:0:0:
192,192,93253,1,0,0:0:0:0:
64,192,93320,1,0,0:0:0:0:
448,192,93387,1,0,0:0:0:0:
320,192,93453,1,0,0:0:0:0:
192,192,93520,1,0,0:0:0:0:
320,192,93587,1,0,0:0:0:0:
448,192,93653,1,0,0:0:0:0:
192,192,93720,1,0,0:0:0:0:
320,192,93787,1,0,0:0:0:0:
64,192,93787,1,0,0:0:0:0:
448,192,93853,1,0,0:0:0:0:
64,192,93920,1,0,0:0:0:0:
320,192,93987,1,0,0:0:0:0:
448,192,93987,1,0,0:0:0:0:
192,192,94044,1,0,0:0:0:0:
64,192,94101,1,0,0:0:0:0:
320,192,94187,1,0,0:0:0:0:
192,192,94287,1,0,0:0:0:0:
448,192,94387,1,0,0:0:0:0:
64,192,94387,1,0,0:0:0:0:
192,192,94453,1,0,0:0:0:0:
448,192,94520,1,0,0:0:0:0:
320,192,94587,1,0,0:0:0:0:
64,192,94587,1,0,0:0:0:0:
192,192,94653,1,0,0:0:0:0:
448,192,94720,1,0,0:0:0:0:
320,192,94787,1,0,0:0:0:0:
448,192,94853,1,0,0:0:0:0:
64,192,94920,1,0,0:0:0:0:
320,192,94987,1,0,0:0:0:0:
192,192,94987,1,0,0:0:0:0:
448,192,95053,1,0,0:0:0:0:
192,192,95120,1,0,0:0:0:0:
320,192,95187,1,0,0:0:0:0:
448,192,95187,1,0,0:0:0:0:
64,192,95253,1,0,0:0:0:0:
192,192,95320,1,0,0:0:0:0:
320,192,95387,1,0,0:0:0:0:
448,192,95387,1,0,0:0:0:0:
64,192,95453,1,0,0:0:0:0:
320,192,95520,5,0,0:0:0:0:
192,192,95587,1,0,0:0:0:0:
64,192,95587,1,0,0:0:0:0:
448,192,95653,1,0,0:0:0:0:
320,192,95720,1,0,0:0:0:0:
64,192,95787,1,0,0:0:0:0:
192,192,95787,1,0,0:0:0:0:
320,192,95887,1,0,0:0:0:0:
448,192,95987,128,0,96113:0:0:0:0:
64,192,95987,128,0,96050:0:0:0:0:
320,192,96081,1,0,0:0:0:0:
320,192,96176,128,0,96303:0:0:0:0:
192,192,96271,128,0,96335:0:0:0:0:
64,192,96303,128,0,96366:0:0:0:0:
64,192,96556,128,0,96683:0:0:0:0:
448,192,96556,128,0,96619:0:0:0:0:
192,192,96651,1,0,0:0:0:0:
192,192,96746,128,0,96873:0:0:0:0:
320,192,96841,128,0,96904:0:0:0:0:
448,192,96873,128,0,96936:0:0:0:0:
448,192,97126,128,0,97252:0:0:0:0:
64,192,97126,128,0,97189:0:0:0:0:
320,192,97221,1,0,0:0:0:0:
320,192,97316,128,0,97442:0:0:0:0:
192,192,97411,128,0,97474:0:0:0:0:
64,192,97442,128,0,97505:0:0:0:0:
64,192,97695,128,0,97822:0:0:0:0:
448,192,97695,128,0,97759:0:0:0:0:
192,192,97790,1,0,0:0:0:0:
192,192,97885,128,0,98012:0:0:0:0:
320,192,97980,128,0,98043:0:0:0:0:
448,192,98012,128,0,98075:0:0:0:0:
64,192,98265,128,0,98455:0:0:0:0:
320,192,98297,128,0,98423:0:0:0:0:
448,192,98328,128,0,98392:0:0:0:0:
192,192,98455,128,0,98550:0:0:0:0:
448,192,98487,128,0,98581:0:0:0:0:
64,192,98645,128,0,98835:0:0:0:0:
320,192,98676,128,0,98803:0:0:0:0:
448,192,98708,128,0,98771:0:0:0:0:
192,192,98835,128,0,98930:0:0:0:0:
448,192,98866,128,0,98961:0:0:0:0:
64,192,99024,128,0,99151:0:0:0:0:
448,192,99024,128,0,99088:0:0:0:0:
320,192,99119,1,0,0:0:0:0:
320,192,99214,128,0,99341:0:0:0:0:
448,192,99309,128,0,99373:0:0:0:0:
192,192,99341,128,0,99404:0:0:0:0:
448,192,99594,128,0,99721:0:0:0:0:
64,192,99594,128,0,99657:0:0:0:0:
192,192,99689,1,0,0:0:0:0:
192,192,99784,128,0,99911:0:0:0:0:
64,192,99879,128,0,99942:0:0:0:0:
320,192,99911,128,0,99974:0:0:0:0:
64,192,100164,128,0,100290:0:0:0:0:
448,192,100164,128,0,100227:0:0:0:0:
320,192,100259,1,0,0:0:0:0:
320,192,100354,128,0,100480:0:0:0:0:
448,192,100449,128,0,100512:0:0:0:0:
192,192,100480,128,0,100543:0:0:0:0:
448,192,100733,128,0,100860:0:0:0:0:
64,192,100733,128,0,100797:0:0:0:0:
192,192,100828,1,0,0:0:0:0:
192,192,100923,128,0,101050:0:0:0:0:
64,192,101018,128,0,101081:0:0:0:0:
320,192,101050,128,0,101113:0:0:0:0:
64,192,101303,128,0,101493:0:0:0:0:
192,192,101335,128,0,101461:0:0:0:0:
448,192,101366,128,0,101430:0:0:0:0:
320,192,101493,128,0,101588:0:0:0:0:
448,192,101524,128,0,101619:0:0:0:0:
64,192,101683,128,0,101873:0:0:0:0:
192,192,101714,128,0,101841:0:0:0:0:
448,192,101746,128,0,101809:0:0:0:0:
320,192,101873,128,0,101968:0:0:0:0:
448,192,101904,128,0,101999:0:0:0:0:
64,192,102062,128,0,102347:0:0:0:0:
192,192,102094,128,0,102316:0:0:0:0:
320,192,102126,128,0,102284:0:0:0:0:
448,192,102347,128,0,102632:0:0:0:0:
320,192,102379,128,0,102600:0:0:0:0:
192,192,102411,128,0,102569:0:0:0:0:
64,192,102632,128,0,102854:0:0:0:0:
192,192,102664,128,0,102822:0:0:0:0:
320,192,102695,128,0,102790:0:0:0:0:
448,192,102854,1,0,0:0:0:0:
320,192,102885,1,0,0:0:0:0:
192,192,102917,1,0,0:0:0:0:
192,192,103107,128,0,103297:0:0:0:0:
64,192,103202,128,0,103328:0:0:0:0:
448,192,103202,1,0,0:0:0:0:
320,192,103297,128,0,103392:0:0:0:0:
192,192,103392,128,0,103487:0:0:0:0:
448,192,103423,128,0,103550:0:0:0:0:
320,192,103487,128,0,103581:0:0:0:0:
64,192,103581,128,0,103866:0:0:0:0:
192,192,103613,128,0,103803:0:0:0:0:
448,192,103645,128,0,103835:0:0:0:0:
320,192,103866,128,0,104151:0:0:0:0:
192,192,103898,128,0,104088:0:0:0:0:
448,192,103930,128,0,104119:0:0:0:0:
64,192,104151,128,0,104373:0:0:0:0:
192,192,104183,128,0,104341:0:0:0:0:
448,192,104214,128,0,104309:0:0:0:0:
320,192,104373,1,0,0:0:0:0:
448,192,104404,1,0,0:0:0:0:
448,192,104531,1,0,0:0:0:0:
320,192,104531,1,0,0:0:0:0:
64,192,104626,1,0,0:0:0:0:
320,192,104626,1,0,0:0:0:0:
64,192,104721,1,0,0:0:0:0:
192,192,104721,1,0,0:0:0:0:
192,192,104911,1,0,0:0:0:0:
448,192,104911,1,0,0:0:0:0:
64,192,105100,128,0,105322:0:0:0:0:
320,192,105100,1,0,0:0:0:0:
192,192,105385,128,0,105607:0:0:0:0:
448,192,105480,1,0,0:0:0:0:
320,192,105670,128,0,105765:0:0:0:0:
448,192,105860,128,0,106240:0:0:0:0:
64,192,105860,1,0,0:0:0:0:
192,192,105860,128,0,106081:0:0:0:0:
320,192,106145,128,0,106366:0:0:0:0:
192,192,106240,1,0,0:0:0:0:
64,192,106271,1,0,0:0:0:0:
192,192,106430,128,0,106524:0:0:0:0:
320,192,106619,128,0,106778:0:0:0:0:
448,192,106619,128,0,106809:0:0:0:0:
64,192,106841,128,0,106999:0:0:0:0:
448,192,106904,128,0,107094:0:0:0:0:
320,192,106999,128,0,107126:0:0:0:0:
192,192,107189,128,0,107284:0:0:0:0:
64,192,107221,1,0,0:0:0:0:
448,192,107379,128,0,107569:0:0:0:0:
64,192,107379,128,0,107505:0:0:0:0:
320,192,107411,128,0,107664:0:0:0:0:
192,192,107569,128,0,107695:0:0:0:0:
64,192,107664,128,0,107854:0:0:0:0:
448,192,107695,128,0,107822:0:0:0:0:
320,192,107759,128,0,108012:0:0:0:0:
192,192,107917,1,0,0:0:0:0:
448,192,107949,128,0,108075:0:0:0:0:
64,192,108138,128,0,108423:0:0:0:0:
192,192,108170,128,0,108392:0:0:0:0:
320,192,108202,128,0,108360:0:0:0:0:
448,192,108423,128,0,108708:0:0:0:0:
320,192,108455,128,0,108676:0:0:0:0:
192,192,108487,128,0,108645:0:0:0:0:
64,192,108708,128,0,108930:0:0:0:0:
192,192,108740,128,0,108898:0:0:0:0:
320,192,108771,128,0,108866:0:0:0:0:
448,192,108930,1,0,0:0:0:0:
320,192,108961,1,0,0:0:0:0:
192,192,108993,1,0,0:0:0:0:
64,192,109024,1,0,0:0:0:0:
192,192,109183,128,0,109562:0:0:0:0:
320,192,109278,128,0,109499:0:0:0:0:
64,192,109657,128,0,109942:0:0:0:0:
192,192,109689,128,0,109911:0:0:0:0:
448,192,109721,128,0,109879:0:0:0:0:
320,192,109942,128,0,110227:0:0:0:0:
448,192,109974,128,0,110195:0:0:0:0:
192,192,110005,128,0,110164:0:0:0:0:
64,192,110227,128,0,110449:0:0:0:0:
192,192,110259,128,0,110417:0:0:0:0:
448,192,110290,128,0,110385:0:0:0:0:
320,192,110449,1,0,0:0:0:0:
448,192,110480,1,0,0:0:0:0:
448,192,110607,1,0,0:0:0:0:
320,192,110607,1,0,0:0:0:0:
192,192,110702,1,0,0:0:0:0:
320,192,110702,1,0,0:0:0:0:
64,192,110797,1,0,0:0:0:0:
192,192,110797,1,0,0:0:0:0:
192,192,110987,1,0,0:0:0:0:
448,192,110987,1,0,0:0:0:0:
64,192,111050,1,0,0:0:0:0:
448,192,111176,1,0,0:0:0:0:
64,192,111176,128,0,112600:0:0:0:0:
320,192,111271,1,0,0:0:0:0:
192,192,111335,1,0,0:0:0:0:
448,192,111366,1,0,0:0:0:0:
320,192,111461,1,0,0:0:0:0:
448,192,111556,1,0,0:0:0:0:
320,192,111619,1,0,0:0:0:0:
192,192,111746,1,0,0:0:0:0:
448,192,111809,1,0,0:0:0:0:
192,192,111873,1,0,0:0:0:0:
320,192,111936,1,0,0:0:0:0:
448,192,111936,1,0,0:0:0:0:
192,192,112062,1,0,0:0:0:0:
448,192,112126,1,0,0:0:0:0:
192,192,112221,1,0,0:0:0:0:
320,192,112252,1,0,0:0:0:0:
192,192,112316,1,0,0:0:0:0:
448,192,112379,1,0,0:0:0:0:
448,192,112505,1,0,0:0:0:0:
320,192,112569,1,0,0:0:0:0:
448,192,112695,128,0,114119:0:0:0:0:
192,192,112727,1,0,0:0:0:0:
64,192,112822,1,0,0:0:0:0:
192,192,112885,1,0,0:0:0:0:
64,192,112949,1,0,0:0:0:0:
320,192,112980,1,0,0:0:0:0:
64,192,113075,1,0,0:0:0:0:
192,192,113202,1,0,0:0:0:0:
320,192,113265,1,0,0:0:0:0:
64,192,113297,1,0,0:0:0:0:
320,192,113392,1,0,0:0:0:0:
192,192,113455,1,0,0:0:0:0:
64,192,113455,1,0,0:0:0:0:
320,192,113550,1,0,0:0:0:0:
192,192,113645,1,0,0:0:0:0:
64,192,113740,1,0,0:0:0:0:
192,192,113771,1,0,0:0:0:0:
320,192,113898,1,0,0:0:0:0:
320,192,114024,1,0,0:0:0:0:
64,192,114056,1,0,0:0:0:0:
192,192,114088,1,0,0:0:0:0:
448,192,114214,128,0,114499:0:0:0:0:
320,192,114246,128,0,114468:0:0:0:0:
192,192,114278,128,0,114436:0:0:0:0:
64,192,114499,128,0,114784:0:0:0:0:
192,192,114531,128,0,114752:0:0:0:0:
320,192,114562,128,0,114721:0:0:0:0:
448,192,114784,128,0,115005:0:0:0:0:
320,192,114816,128,0,114974:0:0:0:0:
192,192,114847,128,0,114942:0:0:0:0:
64,192,115005,1,0,0:0:0:0:
192,192,115037,1,0,0:0:0:0:
320,192,115069,1,0,0:0:0:0:
192,192,115259,128,0,115702:0:0:0:0:
320,192,115290,128,0,115638:0:0:0:0:
64,192,115354,128,0,115449:0:0:0:0:
448,192,115733,128,0,116018:0:0:0:0:
320,192,115765,128,0,115987:0:0:0:0:
64,192,115797,128,0,115955:0:0:0:0:
192,192,116018,128,0,116303:0:0:0:0:
64,192,116050,128,0,116271:0:0:0:0:
320,192,116081,128,0,116240:0:0:0:0:
448,192,116303,128,0,116524:0:0:0:0:
320,192,116335,128,0,116493:0:0:0:0:
64,192,116366,128,0,116461:0:0:0:0:
192,192,116524,1,0,0:0:0:0:
64,192,116556,1,0,0:0:0:0:
192,192,116683,1,0,0:0:0:0:
64,192,116683,1,0,0:0:0:0:
320,192,116778,1,0,0:0:0:0:
64,192,116778,1,0,0:0:0:0:
448,192,116873,1,0,0:0:0:0:
320,192,116873,1,0,0:0:0:0:
320,192,117062,1,0,0:0:0:0:
192,192,117062,1,0,0:0:0:0:
64,192,117252,128,0,117474:0:0:0:0:
320,192,117252,1,0,0:0:0:0:
192,192,117537,128,0,117759:0:0:0:0:
448,192,117632,1,0,0:0:0:0:
320,192,117822,128,0,117917:0:0:0:0:
448,192,118012,128,0,118392:0:0:0:0:
64,192,118012,1,0,0:0:0:0:
192,192,118075,128,0,118297:0:0:0:0:
320,192,118297,128,0,118518:0:0:0:0:
64,192,118392,1,0,0:0:0:0:
192,192,118581,128,0,118676:0:0:0:0:
320,192,118771,128,0,118930:0:0:0:0:
64,192,118771,128,0,118961:0:0:0:0:
448,192,119024,128,0,119183:0:0:0:0:
64,192,119056,128,0,119246:0:0:0:0:
192,192,119151,128,0,119278:0:0:0:0:
320,192,119341,128,0,119436:0:0:0:0:
448,192,119373,1,0,0:0:0:0:
64,192,119499,128,0,119721:0:0:0:0:
448,192,119531,128,0,119657:0:0:0:0:
192,192,119531,128,0,119784:0:0:0:0:
320,192,119721,128,0,119847:0:0:0:0:
448,192,119784,128,0,119974:0:0:0:0:
64,192,119879,128,0,120005:0:0:0:0:
192,192,119911,128,0,120164:0:0:0:0:
320,192,120037,1,0,0:0:0:0:
64,192,120100,128,0,120195:0:0:0:0:
448,192,120290,128,0,120575:0:0:0:0:
320,192,120322,128,0,120543:0:0:0:0:
192,192,120354,128,0,120512:0:0:0:0:
64,192,120575,128,0,120860:0:0:0:0:
192,192,120607,128,0,120828:0:0:0:0:
320,192,120638,128,0,120797:0:0:0:0:
448,192,120860,128,0,121081:0:0:0:0:
320,192,120892,128,0,121050:0:0:0:0:
192,192,120923,128,0,121018:0:0:0:0:
64,192,121081,1,0,0:0:0:0:
192,192,121113,1,0,0:0:0:0:
320,192,121145,1,0,0:0:0:0:
448,192,121176,1,0,0:0:0:0:
320,192,121303,128,0,121746:0:0:0:0:
192,192,121430,128,0,121683:0:0:0:0:
64,192,121493,128,0,121619:0:0:0:0:
448,192,121556,128,0,121873:0:0:0:0:
64,192,121683,1,0,0:0:0:0:
320,192,121873,1,0,0:0:0:0:
192,192,121936,1,0,0:0:0:0:
64,192,121999,128,0,122189:0:0:0:0:
192,192,122031,128,0,122157:0:0:0:0:
320,192,122062,128,0,122126:0:0:0:0:
448,192,122189,128,0,122379:0:0:0:0:
320,192,122221,128,0,122347:0:0:0:0:
192,192,122252,128,0,122316:0:0:0:0:
64,192,122379,128,0,122600:0:0:0:0:
192,192,122411,128,0,122569:0:0:0:0:
320,192,122442,128,0,122537:0:0:0:0:
448,192,122600,1,0,0:0:0:0:
320,192,122632,1,0,0:0:0:0:
192,192,122664,1,0,0:0:0:0:
320,192,122759,128,0,122885:0:0:0:0:
448,192,122949,1,0,0:0:0:0:
64,192,122949,128,0,123012:0:0:0:0:
192,192,122980,128,0,123043:0:0:0:0:
320,192,123138,1,0,0:0:0:0:
448,192,123138,1,0,0:0:0:0:
448,192,123328,1,0,0:0:0:0:
320,192,123392,1,0,0:0:0:0:
192,192,123455,1,0,0:0:0:0:
448,192,123518,1,0,0:0:0:0:
320,192,123581,1,0,0:0:0:0:
64,192,123645,1,0,0:0:0:0:
320,192,123708,1,0,0:0:0:0:
192,192,123771,1,0,0:0:0:0:
448,192,123835,1,0,0:0:0:0:
64,192,123898,1,0,0:0:0:0:
192,192,123961,1,0,0:0:0:0:
320,192,124024,1,0,0:0:0:0:
448,192,124088,128,0,124246:0:0:0:0:
64,192,124151,1,0,0:0:0:0:
320,192,124214,1,0,0:0:0:0:
192,192,124278,1,0,0:0:0:0:
448,192,124341,128,0,124499:0:0:0:0:
192,192,124404,1,0,0:0:0:0:
320,192,124468,1,0,0:0:0:0:
64,192,124531,1,0,0:0:0:0:
448,192,124594,128,0,124752:0:0:0:0:
192,192,124657,1,0,0:0:0:0:
64,192,124721,1,0,0:0:0:0:
320,192,124784,1,0,0:0:0:0:
192,192,124847,128,0,125005:0:0:0:0:
64,192,124911,1,0,0:0:0:0:
448,192,124974,1,0,0:0:0:0:
320,192,125037,1,0,0:0:0:0:
192,192,125100,128,0,125259:0:0:0:0:
64,192,125164,1,0,0:0:0:0:
320,192,125227,1,0,0:0:0:0:
448,192,125290,1,0,0:0:0:0:
192,192,125354,128,0,125512:0:0:0:0:
64,192,125417,1,0,0:0:0:0:
448,192,125480,128,0,125575:0:0:0:0:
320,192,125607,128,0,125765:0:0:0:0:
64,192,125607,1,0,0:0:0:0:
192,192,125797,1,0,0:0:0:0:
320,192,125860,128,0,126018:0:0:0:0:
448,192,125892,1,0,0:0:0:0:
320,192,126113,128,0,126271:0:0:0:0:
64,192,126176,1,0,0:0:0:0:
64,192,126366,1,0,0:0:0:0:
448,192,126366,128,0,126566:0:0:0:0:
320,192,126399,128,0,126499:0:0:0:0:
192,192,126566,1,0,0:0:0:0:
64,192,126566,1,0,0:0:0:0:
320,192,126632,128,0,126766:0:0:0:0:
448,192,126666,128,0,126832:0:0:0:0:
192,192,126766,1,0,0:0:0:0:
64,192,126899,128,0,127032:0:0:0:0:
320,192,126966,128,0,127099:0:0:0:0:
448,192,126966,1,0,0:0:0:0:
192,192,127166,128,0,127232:0:0:0:0:
448,192,127199,128,0,127299:0:0:0:0:
64,192,127366,1,0,0:0:0:0:
192,192,127366,1,0,0:0:0:0:
320,192,127432,128,0,127599:0:0:0:0:
192,192,127566,128,0,127666:0:0:0:0:
64,192,127666,1,0,0:0:0:0:
448,192,127699,128,0,127766:0:0:0:0:
192,192,127766,1,0,0:0:0:0:
320,192,127766,128,0,127832:0:0:0:0:
448,192,127832,1,0,0:0:0:0:
64,192,127966,128,0,128266:0:0:0:0:
320,192,127999,128,0,128199:0:0:0:0:
448,192,128166,1,0,0:0:0:0:
192,192,128199,128,0,128332:0:0:0:0:
448,192,128366,128,0,128466:0:0:0:0:
192,192,128466,128,0,128632:0:0:0:0:
320,192,128566,128,0,128666:0:0:0:0:
448,192,128566,1,0,0:0:0:0:
64,192,128766,128,0,128866:0:0:0:0:
448,192,128799,128,0,128899:0:0:0:0:
320,192,128966,1,0,0:0:0:0:
448,192,128966,1,0,0:0:0:0:
192,192,129032,128,0,129166:0:0:0:0:
64,192,129166,128,0,129299:0:0:0:0:
448,192,129199,1,0,0:0:0:0:
320,192,129266,128,0,129366:0:0:0:0:
192,192,129366,1,0,0:0:0:0:
448,192,129366,1,0,0:0:0:0:
320,192,129499,128,0,129632:0:0:0:0:
192,192,129566,128,0,129999:0:0:0:0:
64,192,129599,128,0,129766:0:0:0:0:
320,192,129766,1,0,0:0:0:0:
448,192,129766,1,0,0:0:0:0:
448,192,129899,128,0,130032:0:0:0:0:
64,192,129966,128,0,130066:0:0:0:0:
320,192,130166,128,0,130432:0:0:0:0:
64,192,130199,128,0,130299:0:0:0:0:
192,192,130366,128,0,130466:0:0:0:0:
448,192,130566,128,0,130666:0:0:0:0:
64,192,130566,1,0,0:0:0:0:
448,192,130766,128,0,130966:0:0:0:0:
192,192,130799,128,0,130899:0:0:0:0:
64,192,130866,1,0,0:0:0:0:
64,192,130966,128,0,131066:0:0:0:0:
448,192,131166,128,0,131399:0:0:0:0:
320,192,131199,128,0,131366:0:0:0:0:
192,192,131366,128,0,131432:0:0:0:0:
64,192,131399,128,0,131499:0:0:0:0:
320,192,131566,128,0,131799:0:0:0:0:
64,192,131599,128,0,131699:0:0:0:0:
192,192,131666,1,0,0:0:0:0:
448,192,131766,128,0,131866:0:0:0:0:
64,192,131799,1,0,0:0:0:0:
192,192,131966,128,0,132166:0:0:0:0:
64,192,131999,1,0,0:0:0:0:
64,192,132132,128,0,132232:0:0:0:0:
320,192,132166,128,0,132399:0:0:0:0:
448,192,132232,128,0,132366:0:0:0:0:
192,192,132299,128,0,132466:0:0:0:0:
64,192,132366,128,0,132632:0:0:0:0:
448,192,132466,1,0,0:0:0:0:
192,192,132566,1,0,0:0:0:0:
448,192,132566,1,0,0:0:0:0:
320,192,132766,128,0,133099:0:0:0:0:
448,192,132799,128,0,133066:0:0:0:0:
64,192,132966,128,0,133066:0:0:0:0:
192,192,132966,1,0,0:0:0:0:
64,192,133166,128,0,133299:0:0:0:0:
192,192,133199,128,0,133266:0:0:0:0:
320,192,133266,1,0,0:0:0:0:
448,192,133366,128,0,133599:0:0:0:0:
192,192,133399,128,0,133466:0:0:0:0:
320,192,133566,128,0,133666:0:0:0:0:
64,192,133599,128,0,133832:0:0:0:0:
192,192,133766,128,0,133866:0:0:0:0:
448,192,133766,1,0,0:0:0:0:
320,192,133899,128,0,133966:0:0:0:0:
192,192,133966,128,0,134199:0:0:0:0:
320,192,134066,1,0,0:0:0:0:
448,192,134166,1,0,0:0:0:0:
64,192,134166,1,0,0:0:0:0:
320,192,134366,128,0,134766:0:0:0:0:
448,192,134399,128,0,134699:0:0:0:0:
192,192,134566,1,0,0:0:0:0:
64,192,134566,1,0,0:0:0:0:
64,192,134732,128,0,134799:0:0:0:0:
192,192,134766,128,0,134866:0:0:0:0:
320,192,134866,1,0,0:0:0:0:
64,192,134966,128,0,135366:0:0:0:0:
448,192,134966,1,0,0:0:0:0:
192,192,134999,128,0,135132:0:0:0:0:
320,192,135166,128,0,135266:0:0:0:0:
320,192,135366,128,0,135499:0:0:0:0:
448,192,135399,128,0,135466:0:0:0:0:
192,192,135566,128,0,135766:0:0:0:0:
448,192,135566,1,0,0:0:0:0:
320,192,135666,1,0,0:0:0:0:
64,192,135766,1,0,0:0:0:0:
320,192,135766,1,0,0:0:0:0:
320,192,135966,128,0,136366:0:0:0:0:
192,192,135999,128,0,136166:0:0:0:0:
64,192,136166,1,0,0:0:0:0:
448,192,136166,1,0,0:0:0:0:
192,192,136332,128,0,136399:0:0:0:0:
448,192,136366,128,0,136499:0:0:0:0:
64,192,136466,1,0,0:0:0:0:
192,192,136566,128,0,136966:0:0:0:0:
64,192,136599,128,0,136799:0:0:0:0:
320,192,136766,1,0,0:0:0:0:
320,192,136932,128,0,137032:0:0:0:0:
448,192,136966,128,0,137099:0:0:0:0:
64,192,137166,128,0,137432:0:0:0:0:
192,192,137199,1,0,0:0:0:0:
320,192,137266,1,0,0:0:0:0:
448,192,137366,1,0,0:0:0:0:
320,192,137366,128,0,137466:0:0:0:0:
64,192,137566,128,0,137832:0:0:0:0:
192,192,137599,128,0,137766:0:0:0:0:
320,192,137766,128,0,137866:0:0:0:0:
448,192,137799,128,0,137866:0:0:0:0:
192,192,137966,128,0,138266:0:0:0:0:
448,192,137999,128,0,138166:0:0:0:0:
64,192,138066,1,0,0:0:0:0:
320,192,138166,128,0,138266:0:0:0:0:
64,192,138199,128,0,138299:0:0:0:0:
320,192,138366,128,0,138632:0:0:0:0:
448,192,138399,128,0,138599:0:0:0:0:
192,192,138566,128,0,138666:0:0:0:0:
64,192,138599,128,0,138666:0:0:0:0:
448,192,138766,128,0,139032:0:0:0:0:
192,192,138799,128,0,138899:0:0:0:0:
320,192,138866,1,0,0:0:0:0:
64,192,138966,128,0,139066:0:0:0:0:
192,192,138966,1,0,0:0:0:0:
320,192,139166,128,0,139299:0:0:0:0:
192,192,139199,128,0,139366:0:0:0:0:
64,192,139232,128,0,139432:0:0:0:0:
64,192,143966,128,0,145466:0:0:0:0:
320,192,143966,128,0,144766:0:0:0:0:
448,192,144766,128,0,145566:0:0:0:0:
192,192,145566,1,0,0:0:0:0:
320,192,145566,1,0,0:0:0:0:
64,192,145599,1,0,0:0:0:0:
320,192,145766,1,0,0:0:0:0:
448,192,145799,1,0,0:0:0:0:
64,192,145966,1,0,0:0:0:0:
448,192,145966,1,0,0:0:0:0:
192,192,145999,1,0,0:0:0:0:
320,192,146166,1,0,0:0:0:0:
192,192,146199,1,0,0:0:0:0:
64,192,146366,1,0,0:0:0:0:
320,192,146366,1,0,0:0:0:0:
448,192,146399,1,0,0:0:0:0:
64,192,146566,1,0,0:0:0:0:
192,192,146599,1,0,0:0:0:0:
320,192,146766,1,0,0:0:0:0:
448,192,146766,1,0,0:0:0:0:
192,192,146799,1,0,0:0:0:0:
64,192,146966,1,0,0:0:0:0:
320,192,146999,1,0,0:0:0:0:
192,192,147166,1,0,0:0:0:0:
448,192,147166,1,0,0:0:0:0:
64,192,147199,1,0,0:0:0:0:
448,192,147366,1,0,0:0:0:0:
320,192,147399,1,0,0:0:0:0:
192,192,147566,1,0,0:0:0:0:
320,192,147566,1,0,0:0:0:0:
64,192,147599,1,0,0:0:0:0:
192,192,147766,1,0,0:0:0:0:
448,192,147799,1,0,0:0:0:0:
64,192,147966,1,0,0:0:0:0:
448,192,147966,1,0,0:0:0:0:
320,192,147999,1,0,0:0:0:0:
192,192,148166,1,0,0:0:0:0:
64,192,148199,1,0,0:0:0:0:
320,192,148366,1,0,0:0:0:0:
448,192,148366,1,0,0:0:0:0:
192,192,148399,1,0,0:0:0:0:
64,192,148566,1,0,0:0:0:0:
448,192,148599,1,0,0:0:0:0:
448,192,148766,1,0,0:0:0:0:
320,192,148799,1,0,0:0:0:0:
192,192,148832,1,0,0:0:0:0:
320,192,148966,1,0,0:0:0:0:
64,192,148999,1,0,0:0:0:0:
192,192,149032,1,0,0:0:0:0:
320,192,149166,1,0,0:0:0:0:
448,192,149199,1,0,0:0:0:0:
64,192,149232,1,0,0:0:0:0:
192,192,149366,1,0,0:0:0:0:
64,192,149399,1,0,0:0:0:0:
448,192,149432,1,0,0:0:0:0:
64,192,149566,1,0,0:0:0:0:
320,192,149599,1,0,0:0:0:0:
448,192,149632,1,0,0:0:0:0:
320,192,149766,1,0,0:0:0:0:
64,192,149799,1,0,0:0:0:0:
192,192,149832,1,0,0:0:0:0:
448,192,149966,1,0,0:0:0:0:
192,192,149999,1,0,0:0:0:0:
320,192,150032,1,0,0:0:0:0:
64,192,150166,1,0,0:0:0:0:
192,192,150199,1,0,0:0:0:0:
448,192,150232,1,0,0:0:0:0:
64,192,150366,1,0,0:0:0:0:
192,192,150382,1,0,0:0:0:0:
320,192,150399,1,0,0:0:0:0:
448,192,150416,1,0,0:0:0:0:
320,192,151166,128,0,151499:0:0:0:0:
64,192,151566,1,0,0:0:0:0:
192,192,151566,1,0,0:0:0:0:
448,192,151566,1,0,0:0:0:0:
320,192,151566,1,0,0:0:0:0:
64,192,151966,1,0,0:0:0:0:
192,192,151966,1,0,0:0:0:0:
320,192,152032,1,0,0:0:0:0:
448,192,152099,1,0,0:0:0:0:
192,192,152166,1,0,0:0:0:0:
64,192,152232,1,0,0:0:0:0:
320,192,152299,1,0,0:0:0:0:
448,192,152366,1,0,0:0:0:0:
64,192,152432,1,0,0:0:0:0:
320,192,152499,1,0,0:0:0:0:
192,192,152566,1,0,0:0:0:0:
64,192,152566,1,0,0:0:0:0:
320,192,152632,1,0,0:0:0:0:
448,192,152699,1,0,0:0:0:0:
192,192,152766,1,0,0:0:0:0:
64,192,152832,1,0,0:0:0:0:
320,192,152899,1,0,0:0:0:0:
192,192,152966,1,0,0:0:0:0:
448,192,153032,1,0,0:0:0:0:
64,192,153099,1,0,0:0:0:0:
320,192,153166,1,0,0:0:0:0:
448,192,153166,1,0,0:0:0:0:
192,192,153232,1,0,0:0:0:0:
64,192,153299,1,0,0:0:0:0:
320,192,153366,1,0,0:0:0:0:
448,192,153432,1,0,0:0:0:0:
320,192,153499,1,0,0:0:0:0:
64,192,153566,1,0,0:0:0:0:
192,192,153566,1,0,0:0:0:0:
448,192,153632,1,0,0:0:0:0:
192,192,153699,1,0,0:0:0:0:
320,192,153766,1,0,0:0:0:0:
448,192,153832,1,0,0:0:0:0:
64,192,153899,1,0,0:0:0:0:
320,192,153966,1,0,0:0:0:0:
448,192,154032,1,0,0:0:0:0:
64,192,154099,1,0,0:0:0:0:
192,192,154166,1,0,0:0:0:0:
64,192,154266,1,0,0:0:0:0:
320,192,154366,1,0,0:0:0:0:
192,192,154366,1,0,0:0:0:0:
448,192,154466,1,0,0:0:0:0:
320,192,154566,1,0,0:0:0:0:
64,192,154666,1,0,0:0:0:0:
192,192,154666,1,0,0:0:0:0:
448,192,154666,1,0,0:0:0:0:
320,192,154766,1,0,0:0:0:0:
64,192,154866,1,0,0:0:0:0:
192,192,154966,1,0,0:0:0:0:
320,192,154966,1,0,0:0:0:0:
448,192,155066,1,0,0:0:0:0:
64,192,155166,1,0,0:0:0:0:
192,192,155166,1,0,0:0:0:0:
320,192,155232,1,0,0:0:0:0:
448,192,155299,1,0,0:0:0:0:
192,192,155366,1,0,0:0:0:0:
64,192,155432,1,0,0:0:0:0:
320,192,155499,1,0,0:0:0:0:
192,192,155566,1,0,0:0:0:0:
64,192,155632,1,0,0:0:0:0:
192,192,155699,1,0,0:0:0:0:
448,192,155766,1,0,0:0:0:0:
320,192,155766,1,0,0:0:0:0:
64,192,155832,1,0,0:0:0:0:
192,192,155899,1,0,0:0:0:0:
320,192,155966,1,0,0:0:0:0:
64,192,156032,1,0,0:0:0:0:
320,192,156099,1,0,0:0:0:0:
192,192,156166,1,0,0:0:0:0:
448,192,156232,1,0,0:0:0:0:
320,192,156299,1,0,0:0:0:0:
64,192,156366,1,0,0:0:0:0:
192,192,156366,1,0,0:0:0:0:
320,192,156432,1,0,0:0:0:0:
448,192,156499,1,0,0:0:0:0:
192,192,156566,1,0,0:0:0:0:
64,192,156632,1,0,0:0:0:0:
448,192,156699,1,0,0:0:0:0:
192,192,156766,1,0,0:0:0:0:
64,192,156766,1,0,0:0:0:0:
320,192,156832,1,0,0:0:0:0:
192,192,156899,1,0,0:0:0:0:
448,192,156966,1,0,0:0:0:0:
320,192,157032,1,0,0:0:0:0:
192,192,157099,1,0,0:0:0:0:
64,192,157166,1,0,0:0:0:0:
320,192,157232,1,0,0:0:0:0:
64,192,157299,1,0,0:0:0:0:
192,192,157366,1,0,0:0:0:0:
320,192,157466,1,0,0:0:0:0:
64,192,157566,1,0,0:0:0:0:
448,192,157566,1,0,0:0:0:0:
192,192,157666,1,0,0:0:0:0:
320,192,157766,1,0,0:0:0:0:
64,192,157866,1,0,0:0:0:0:
192,192,157866,1,0,0:0:0:0:
448,192,157866,1,0,0:0:0:0:
320,192,157966,1,0,0:0:0:0:
192,192,158066,1,0,0:0:0:0:
448,192,158166,1,0,0:0:0:0:
64,192,158166,1,0,0:0:0:0:
192,192,158266,1,0,0:0:0:0:
320,192,158366,1,0,0:0:0:0:
64,192,158366,1,0,0:0:0:0:
448,192,158466,1,0,0:0:0:0:
320,192,158566,1,0,0:0:0:0:
192,192,158566,1,0,0:0:0:0:
64,192,158666,1,0,0:0:0:0:
448,192,158766,1,0,0:0:0:0:
320,192,158832,1,0,0:0:0:0:
64,192,158899,1,0,0:0:0:0:
320,192,158966,1,0,0:0:0:0:
448,192,159032,1,0,0:0:0:0:
192,192,159099,1,0,0:0:0:0:
320,192,159166,1,0,0:0:0:0:
64,192,159166,1,0,0:0:0:0:
448,192,159232,1,0,0:0:0:0:
320,192,159299,1,0,0:0:0:0:
64,192,159366,1,0,0:0:0:0:
192,192,159366,1,0,0:0:0:0:
448,192,159432,1,0,0:0:0:0:
64,192,159499,1,0,0:0:0:0:
192,192,159566,1,0,0:0:0:0:
448,192,159566,1,0,0:0:0:0:
320,192,159632,1,0,0:0:0:0:
64,192,159699,1,0,0:0:0:0:
320,192,159766,1,0,0:0:0:0:
448,192,159766,1,0,0:0:0:0:
192,192,159832,1,0,0:0:0:0:
64,192,159899,1,0,0:0:0:0:
192,192,159966,1,0,0:0:0:0:
448,192,160032,1,0,0:0:0:0:
64,192,160099,1,0,0:0:0:0:
320,192,160166,1,0,0:0:0:0:
192,192,160232,1,0,0:0:0:0:
64,192,160299,1,0,0:0:0:0:
320,192,160366,1,0,0:0:0:0:
448,192,160432,1,0,0:0:0:0:
64,192,160499,1,0,0:0:0:0:
192,192,160566,1,0,0:0:0:0:
448,192,160666,1,0,0:0:0:0:
64,192,160766,1,0,0:0:0:0:
320,192,160766,1,0,0:0:0:0:
192,192,160866,1,0,0:0:0:0:
320,192,160966,1,0,0:0:0:0:
192,192,161066,1,0,0:0:0:0:
448,192,161066,1,0,0:0:0:0:
64,192,161166,1,0,0:0:0:0:
192,192,161266,1,0,0:0:0:0:
320,192,161366,1,0,0:0:0:0:
64,192,161366,1,0,0:0:0:0:
448,192,161466,1,0,0:0:0:0:
64,192,161566,1,0,0:0:0:0:
192,192,161566,1,0,0:0:0:0:
320,192,161632,1,0,0:0:0:0:
448,192,161699,1,0,0:0:0:0:
64,192,161766,1,0,0:0:0:0:
192,192,161832,1,0,0:0:0:0:
320,192,161899,1,0,0:0:0:0:
192,192,161966,1,0,0:0:0:0:
64,192,162032,1,0,0:0:0:0:
448,192,162099,1,0,0:0:0:0:
320,192,162166,1,0,0:0:0:0:
192,192,162232,1,0,0:0:0:0:
64,192,162299,1,0,0:0:0:0:
320,192,162366,1,0,0:0:0:0:
448,192,162366,1,0,0:0:0:0:
192,192,162432,1,0,0:0:0:0:
320,192,162499,1,0,0:0:0:0:
448,192,162566,1,0,0:0:0:0:
64,192,162566,1,0,0:0:0:0:
192,192,162632,1,0,0:0:0:0:
320,192,162699,1,0,0:0:0:0:
448,192,162766,1,0,0:0:0:0:
64,192,162766,1,0,0:0:0:0:
192,192,162832,1,0,0:0:0:0:
448,192,162899,1,0,0:0:0:0:
192,192,162966,1,0,0:0:0:0:
64,192,162966,1,0,0:0:0:0:
320,192,163032,1,0,0:0:0:0:
448,192,163099,1,0,0:0:0:0:
320,192,163166,1,0,0:0:0:0:
64,192,163232,1,0,0:0:0:0:
192,192,163299,1,0,0:0:0:0:
320,192,163366,1,0,0:0:0:0:
64,192,163432,1,0,0:0:0:0:
192,192,163499,1,0,0:0:0:0:
448,192,163566,1,0,0:0:0:0:
320,192,163632,1,0,0:0:0:0:
448,192,163699,1,0,0:0:0:0:
64,192,163766,1,0,0:0:0:0:
320,192,163832,1,0,0:0:0:0:
192,192,163899,1,0,0:0:0:0:
320,192,163966,1,0,0:0:0:0:
448,192,163966,1,0,0:0:0:0:
64,192,164032,1,0,0:0:0:0:
448,192,164099,1,0,0:0:0:0:
64,192,164166,1,0,0:0:0:0:
192,192,164166,1,0,0:0:0:0:
320,192,164266,1,0,0:0:0:0:
448,192,164366,1,0,0:0:0:0:
192,192,164366,128,0,164766:0:0:0:0:
320,192,164566,1,0,0:0:0:0:
448,192,164566,1,0,0:0:0:0:
64,192,164632,1,0,0:0:0:0:
64,192,164766,1,0,0:0:0:0:
320,192,164766,1,0,0:0:0:0:
448,192,164832,1,0,0:0:0:0:
192,192,164899,1,0,0:0:0:0:
320,192,164966,1,0,0:0:0:0:
448,192,165032,1,0,0:0:0:0:
192,192,165099,1,0,0:0:0:0:
64,192,165166,1,0,0:0:0:0:
320,192,165232,1,0,0:0:0:0:
192,192,165299,1,0,0:0:0:0:
64,192,165366,1,0,0:0:0:0:
448,192,165366,1,0,0:0:0:0:
320,192,165432,1,0,0:0:0:0:
192,192,165499,1,0,0:0:0:0:
64,192,165566,1,0,0:0:0:0:
320,192,165632,1,0,0:0:0:0:
448,192,165699,1,0,0:0:0:0:
192,192,165766,1,0,0:0:0:0:
64,192,165766,1,0,0:0:0:0:
320,192,165832,1,0,0:0:0:0:
448,192,165899,1,0,0:0:0:0:
64,192,165966,1,0,0:0:0:0:
192,192,165966,1,0,0:0:0:0:
320,192,166032,1,0,0:0:0:0:
192,192,166099,1,0,0:0:0:0:
64,192,166166,1,0,0:0:0:0:
448,192,166232,1,0,0:0:0:0:
192,192,166299,1,0,0:0:0:0:
64,192,166366,1,0,0:0:0:0:
320,192,166366,1,0,0:0:0:0:
448,192,166432,1,0,0:0:0:0:
192,192,166499,1,0,0:0:0:0:
320,192,166566,1,0,0:0:0:0:
64,192,166632,1,0,0:0:0:0:
448,192,166699,1,0,0:0:0:0:
320,192,166766,1,0,0:0:0:0:
192,192,166832,1,0,0:0:0:0:
64,192,166899,1,0,0:0:0:0:
448,192,166966,1,0,0:0:0:0:
64,192,167066,1,0,0:0:0:0:
320,192,167166,1,0,0:0:0:0:
448,192,167166,1,0,0:0:0:0:
64,192,167266,1,0,0:0:0:0:
192,192,167366,1,0,0:0:0:0:
448,192,167466,1,0,0:0:0:0:
64,192,167466,1,0,0:0:0:0:
320,192,167466,1,0,0:0:0:0:
192,192,167566,1,0,0:0:0:0:
320,192,167666,1,0,0:0:0:0:
64,192,167766,1,0,0:0:0:0:
448,192,167766,1,0,0:0:0:0:
320,192,167866,1,0,0:0:0:0:
192,192,167966,1,0,0:0:0:0:
448,192,167966,1,0,0:0:0:0:
64,192,168099,1,0,0:0:0:0:
192,192,168166,1,0,0:0:0:0:
320,192,168232,1,0,0:0:0:0:
448,192,168299,1,0,0:0:0:0:
192,192,168366,1,0,0:0:0:0:
320,192,168432,1,0,0:0:0:0:
192,192,168499,1,0,0:0:0:0:
64,192,168566,1,0,0:0:0:0:
448,192,168566,1,0,0:0:0:0:
320,192,168632,1,0,0:0:0:0:
448,192,168699,1,0,0:0:0:0:
64,192,168766,1,0,0:0:0:0:
320,192,168832,1,0,0:0:0:0:
192,192,168899,1,0,0:0:0:0:
64,192,168966,1,0,0:0:0:0:
320,192,169032,1,0,0:0:0:0:
192,192,169099,1,0,0:0:0:0:
320,192,169166,1,0,0:0:0:0:
448,192,169166,1,0,0:0:0:0:
64,192,169232,1,0,0:0:0:0:
448,192,169299,1,0,0:0:0:0:
192,192,169366,1,0,0:0:0:0:
64,192,169366,1,0,0:0:0:0:
320,192,169432,1,0,0:0:0:0:
448,192,169499,1,0,0:0:0:0:
64,192,169566,1,0,0:0:0:0:
320,192,169632,1,0,0:0:0:0:
192,192,169699,1,0,0:0:0:0:
64,192,169766,1,0,0:0:0:0:
448,192,169832,1,0,0:0:0:0:
320,192,169899,1,0,0:0:0:0:
192,192,169966,1,0,0:0:0:0:
64,192,170032,1,0,0:0:0:0:
192,192,170099,1,0,0:0:0:0:
448,192,170166,1,0,0:0:0:0:
320,192,170266,1,0,0:0:0:0:
64,192,170366,1,0,0:0:0:0:
192,192,170366,1,0,0:0:0:0:
320,192,170466,1,0,0:0:0:0:
448,192,170566,1,0,0:0:0:0:
64,192,170666,1,0,0:0:0:0:
192,192,170666,1,0,0:0:0:0:
320,192,170666,1,0,0:0:0:0:
448,192,170766,1,0,0:0:0:0:
192,192,170866,1,0,0:0:0:0:
320,192,170966,1,0,0:0:0:0:
64,192,170966,1,0,0:0:0:0:
192,192,171066,1,0,0:0:0:0:
320,192,171166,1,0,0:0:0:0:
448,192,171166,1,0,0:0:0:0:
64,192,171266,1,0,0:0:0:0:
448,192,171366,1,0,0:0:0:0:
320,192,171366,1,0,0:0:0:0:
192,192,171466,1,0,0:0:0:0:
320,192,171566,1,0,0:0:0:0:
448,192,171632,1,0,0:0:0:0:
192,192,171699,1,0,0:0:0:0:
320,192,171766,1,0,0:0:0:0:
192,192,171832,1,0,0:0:0:0:
64,192,171899,1,0,0:0:0:0:
320,192,171966,1,0,0:0:0:0:
448,192,171966,1,0,0:0:0:0:
192,192,172032,1,0,0:0:0:0:
320,192,172099,1,0,0:0:0:0:
64,192,172166,1,0,0:0:0:0:
448,192,172166,1,0,0:0:0:0:
192,192,172232,1,0,0:0:0:0:
320,192,172299,1,0,0:0:0:0:
64,192,172366,1,0,0:0:0:0:
448,192,172366,1,0,0:0:0:0:
192,192,172432,1,0,0:0:0:0:
64,192,172499,1,0,0:0:0:0:
320,192,172566,1,0,0:0:0:0:
448,192,172566,1,0,0:0:0:0:
192,192,172632,1,0,0:0:0:0:
64,192,172699,1,0,0:0:0:0:
320,192,172766,1,0,0:0:0:0:
448,192,172832,1,0,0:0:0:0:
192,192,172899,1,0,0:0:0:0:
320,192,172966,1,0,0:0:0:0:
448,192,173032,1,0,0:0:0:0:
64,192,173099,1,0,0:0:0:0:
192,192,173166,1,0,0:0:0:0:
64,192,173232,1,0,0:0:0:0:
448,192,173299,1,0,0:0:0:0:
192,192,173366,1,0,0:0:0:0:
448,192,173466,1,0,0:0:0:0:
320,192,173566,1,0,0:0:0:0:
64,192,173566,1,0,0:0:0:0:
192,192,173632,1,0,0:0:0:0:
320,192,173699,1,0,0:0:0:0:
64,192,173766,1,0,0:0:0:0:
448,192,173766,1,0,0:0:0:0:
192,192,173866,1,0,0:0:0:0:
448,192,173966,1,0,0:0:0:0:
320,192,173966,1,0,0:0:0:0:
64,192,174032,1,0,0:0:0:0:
192,192,174099,1,0,0:0:0:0:
320,192,174166,1,0,0:0:0:0:
448,192,174266,1,0,0:0:0:0:
64,192,174366,1,0,0:0:0:0:
192,192,174366,1,0,0:0:0:0:
448,192,174432,1,0,0:0:0:0:
320,192,174499,1,0,0:0:0:0:
192,192,174566,1,0,0:0:0:0:
448,192,174632,1,0,0:0:0:0:
320,192,174699,1,0,0:0:0:0:
192,192,174766,1,0,0:0:0:0:
64,192,174832,1,0,0:0:0:0:
192,192,174899,1,0,0:0:0:0:
448,192,174966,1,0,0:0:0:0:
320,192,175032,1,0,0:0:0:0:
448,192,175099,1,0,0:0:0:0:
64,192,175166,1,0,0:0:0:0:
192,192,175166,1,0,0:0:0:0:
320,192,175232,1,0,0:0:0:0:
448,192,175299,1,0,0:0:0:0:
64,192,175366,1,0,0:0:0:0:
192,192,175366,1,0,0:0:0:0:
448,192,175432,1,0,0:0:0:0:
320,192,175499,1,0,0:0:0:0:
192,192,175566,1,0,0:0:0:0:
448,192,175566,1,0,0:0:0:0:
64,192,175632,1,0,0:0:0:0:
192,192,175699,1,0,0:0:0:0:
448,192,175766,1,0,0:0:0:0:
320,192,175766,1,0,0:0:0:0:
64,192,175866,1,0,0:0:0:0:
448,192,175966,1,0,0:0:0:0:
192,192,176066,1,0,0:0:0:0:
64,192,176116,1,0,0:0:0:0:
320,192,176166,1,0,0:0:0:0:
192,192,176232,1,0,0:0:0:0:
64,192,176299,1,0,0:0:0:0:
448,192,176366,1,0,0:0:0:0:
320,192,176432,1,0,0:0:0:0:
192,192,176499,1,0,0:0:0:0:
320,192,176566,1,0,0:0:0:0:
448,192,176632,1,0,0:0:0:0:
64,192,176699,1,0,0:0:0:0:
192,192,176766,1,0,0:0:0:0:
448,192,176766,1,0,0:0:0:0:
320,192,176832,1,0,0:0:0:0:
64,192,176899,1,0,0:0:0:0:
448,192,176966,1,0,0:0:0:0:
320,192,176966,1,0,0:0:0:0:
192,192,177032,1,0,0:0:0:0:
64,192,177099,1,0,0:0:0:0:
192,192,177166,1,0,0:0:0:0:
320,192,177166,1,0,0:0:0:0:
448,192,177232,1,0,0:0:0:0:
64,192,177299,1,0,0:0:0:0:
320,192,177366,1,0,0:0:0:0:
192,192,177432,1,0,0:0:0:0:
64,192,177499,1,0,0:0:0:0:
320,192,177566,128,0,177766:0:0:0:0:
448,192,177766,128,0,177966:0:0:0:0:
64,192,177766,1,0,0:0:0:0:
192,192,177966,128,0,178166:0:0:0:0:
320,192,178066,1,0,0:0:0:0:
64,192,178166,128,0,178366:0:0:0:0:
448,192,178166,1,0,0:0:0:0:
320,192,178366,128,0,178566:0:0:0:0:
192,192,178566,128,0,178766:0:0:0:0:
448,192,178566,1,0,0:0:0:0:
64,192,178766,128,0,178832:0:0:0:0:
320,192,178816,128,0,178966:0:0:0:0:
64,192,178899,128,0,179166:0:0:0:0:
192,192,178966,1,0,0:0:0:0:
448,192,178966,1,0,0:0:0:0:
448,192,179166,128,0,179366:0:0:0:0:
320,192,179366,128,0,179566:0:0:0:0:
64,192,179366,1,0,0:0:0:0:
448,192,179566,128,0,179766:0:0:0:0:
192,192,179666,1,0,0:0:0:0:
64,192,179766,128,0,179966:0:0:0:0:
320,192,179766,1,0,0:0:0:0:
448,192,179966,128,0,180766:0:0:0:0:
64,192,180166,1,0,0:0:0:0:
192,192,180166,1,0,0:0:0:0:
320,192,180366,1,0,0:0:0:0:
192,192,180466,1,0,0:0:0:0:
64,192,180566,1,0,0:0:0:0:
320,192,180566,1,0,0:0:0:0:
192,192,180766,128,0,180966:0:0:0:0:
64,192,180966,128,0,181166:0:0:0:0:
448,192,180966,1,0,0:0:0:0:
320,192,181166,128,0,181232:0:0:0:0:
448,192,181191,128,0,181291:0:0:0:0:
64,192,181266,1,0,0:0:0:0:
192,192,181316,128,0,181566:0:0:0:0:
320,192,181366,1,0,0:0:0:0:
448,192,181366,1,0,0:0:0:0:
64,192,181566,128,0,181799:0:0:0:0:
320,192,181766,1,0,0:0:0:0:
448,192,181766,1,0,0:0:0:0:
448,192,181966,128,0,182099:0:0:0:0:
64,192,182066,1,0,0:0:0:0:
320,192,182116,128,0,182191:0:0:0:0:
192,192,182166,128,0,182232:0:0:0:0:
64,192,182166,1,0,0:0:0:0:
448,192,182216,128,0,182316:0:0:0:0:
320,192,182266,128,0,182399:0:0:0:0:
64,192,182366,128,0,182666:0:0:0:0:
192,192,182566,1,0,0:0:0:0:
448,192,182566,1,0,0:0:0:0:
320,192,182766,128,0,183166:0:0:0:0:
192,192,182866,1,0,0:0:0:0:
64,192,182966,1,0,0:0:0:0:
448,192,182966,1,0,0:0:0:0:
448,192,183166,128,0,183566:0:0:0:0:
64,192,183366,1,0,0:0:0:0:
192,192,183366,1,0,0:0:0:0:
320,192,183566,128,0,183966:0:0:0:0:
64,192,183666,1,0,0:0:0:0:
192,192,183766,1,0,0:0:0:0:
448,192,183766,1,0,0:0:0:0:
64,192,183966,128,0,184366:0:0:0:0:
192,192,183999,128,0,184166:0:0:0:0:
320,192,184166,1,0,0:0:0:0:
448,192,184166,1,0,0:0:0:0:
448,192,184366,128,0,184766:0:0:0:0:
192,192,184466,1,0,0:0:0:0:
320,192,184566,1,0,0:0:0:0:
64,192,184566,1,0,0:0:0:0:
320,192,184766,128,0,185166:0:0:0:0:
192,192,184966,1,0,0:0:0:0:
64,192,184966,1,0,0:0:0:0:
448,192,185166,128,0,185532:0:0:0:0:
64,192,185266,1,0,0:0:0:0:
192,192,185366,1,0,0:0:0:0:
320,192,185366,1,0,0:0:0:0:
320,192,185466,128,0,185632:0:0:0:0:
192,192,185566,128,0,185966:0:0:0:0:
64,192,185766,1,0,0:0:0:0:
320,192,185766,1,0,0:0:0:0:
448,192,185966,128,0,186366:0:0:0:0:
64,192,186066,1,0,0:0:0:0:
192,192,186166,1,0,0:0:0:0:
320,192,186166,1,0,0:0:0:0:
64,192,186366,128,0,186566:0:0:0:0:
192,192,186466,128,0,186732:0:0:0:0:
448,192,186566,1,0,0:0:0:0:
320,192,186566,1,0,0:0:0:0:
64,192,186666,128,0,186799:0:0:0:0:
320,192,186716,1,0,0:0:0:0:
448,192,186766,128,0,187166:0:0:0:0:
192,192,186866,1,0,0:0:0:0:
320,192,186966,1,0,0:0:0:0:
64,192,186966,1,0,0:0:0:0:
192,192,187166,128,0,187432:0:0:0:0:
320,192,187366,128,0,187499:0:0:0:0:
64,192,187366,1,0,0:0:0:0:
448,192,187466,128,0,187532:0:0:0:0:
64,192,187566,128,0,187766:0:0:0:0:
192,192,187666,1,0,0:0:0:0:
320,192,187766,128,0,187966:0:0:0:0:
448,192,187766,1,0,0:0:0:0:
192,192,187966,128,0,188099:0:0:0:0:
448,192,187999,128,0,188232:0:0:0:0:
320,192,188166,128,0,188366:0:0:0:0:
64,192,188166,1,0,0:0:0:0:
192,192,188366,128,0,188466:0:0:0:0:
64,192,188399,128,0,188699:0:0:0:0:
320,192,188466,1,0,0:0:0:0:
448,192,188566,1,0,0:0:0:0:
192,192,188566,1,0,0:0:0:0:
320,192,188766,128,0,188832:0:0:0:0:
448,192,188832,128,0,188932:0:0:0:0:
320,192,188899,128,0,189132:0:0:0:0:
192,192,188966,1,0,0:0:0:0:
64,192,188966,1,0,0:0:0:0:
64,192,189132,128,0,189266:0:0:0:0:
192,192,189266,128,0,189499:0:0:0:0:
448,192,189366,1,0,0:0:0:0:
320,192,189366,1,0,0:0:0:0:
64,192,189466,128,0,189532:0:0:0:0:
448,192,189566,128,0,189766:0:0:0:0:
320,192,189766,128,0,189966:0:0:0:0:
64,192,189766,1,0,0:0:0:0:
192,192,189899,128,0,189966:0:0:0:0:
64,192,189966,128,0,190166:0:0:0:0:
320,192,190066,1,0,0:0:0:0:
448,192,190166,128,0,190266:0:0:0:0:
192,192,190166,1,0,0:0:0:0:
320,192,190232,128,0,190366:0:0:0:0:
192,192,190332,128,0,190432:0:0:0:0:
64,192,190366,128,0,190599:0:0:0:0:
448,192,190366,1,0,0:0:0:0:
448,192,190566,128,0,190699:0:0:0:0:
448,192,190766,128,0,190899:0:0:0:0:
192,192,190766,1,0,0:0:0:0:
64,192,190966,128,0,191199:0:0:0:0:
448,192,190966,1,0,0:0:0:0:
320,192,190966,1,0,0:0:0:0:
448,192,191166,128,0,191299:0:0:0:0:
192,192,191166,1,0,0:0:0:0:
448,192,191366,128,0,191499:0:0:0:0:
64,192,191566,128,0,191799:0:0:0:0:
320,192,191566,1,0,0:0:0:0:
448,192,191766,128,0,191966:0:0:0:0:
320,192,191966,128,0,192199:0:0:0:0:
64,192,191966,1,0,0:0:0:0:
192,192,192166,128,0,192299:0:0:0:0:
192,192,192366,128,0,192466:0:0:0:0:
64,192,192366,1,0,0:0:0:0:
192,192,192532,1,0,0:0:0:0:
320,192,192566,128,0,192799:0:0:0:0:
448,192,192566,1,0,0:0:0:0:
192,192,192766,128,0,192899:0:0:0:0:
64,192,192766,1,0,0:0:0:0:
192,192,192966,128,0,193099:0:0:0:0:
320,192,193166,128,0,193399:0:0:0:0:
448,192,193166,1,0,0:0:0:0:
192,192,193366,128,0,193499:0:0:0:0:
320,192,193566,128,0,193799:0:0:0:0:
448,192,193566,1,0,0:0:0:0:
64,192,193766,128,0,193899:0:0:0:0:
64,192,193966,128,0,194066:0:0:0:0:
448,192,193966,1,0,0:0:0:0:
64,192,194132,1,0,0:0:0:0:
320,192,194166,128,0,194399:0:0:0:0:
192,192,194166,1,0,0:0:0:0:
64,192,194366,128,0,194499:0:0:0:0:
448,192,194366,1,0,0:0:0:0:
64,192,194566,128,0,194666:0:0:0:0:
192,192,194732,1,0,0:0:0:0:
320,192,194766,128,0,194999:0:0:0:0:
64,192,194966,128,0,195099:0:0:0:0:
320,192,195132,1,0,0:0:0:0:
192,192,195166,128,0,195399:0:0:0:0:
448,192,195366,128,0,195499:0:0:0:0:
448,192,195566,128,0,195666:0:0:0:0:
320,192,195566,1,0,0:0:0:0:
448,192,195732,1,0,0:0:0:0:
192,192,195766,128,0,195999:0:0:0:0:
64,192,195766,1,0,0:0:0:0:
448,192,195966,128,0,196099:0:0:0:0:
320,192,195966,1,0,0:0:0:0:
448,192,196166,128,0,196299:0:0:0:0:
64,192,196332,1,0,0:0:0:0:
192,192,196366,128,0,196599:0:0:0:0:
448,192,196566,128,0,196699:0:0:0:0:
64,192,196766,128,0,196816:0:0:0:0:
448,192,196766,1,0,0:0:0:0:
64,192,196882,128,0,196932:0:0:0:0:
448,192,196966,1,0,0:0:0:0:
64,192,196999,128,0,197049:0:0:0:0:
64,192,197116,128,0,197166:0:0:0:0:
320,192,197166,1,0,0:0:0:0:
448,192,197166,1,0,0:0:0:0:
64,192,197249,128,0,197299:0:0:0:0:
448,192,197366,1,0,0:0:0:0:
64,192,197366,128,0,197416:0:0:0:0:
64,192,197499,128,0,197566:0:0:0:0:
320,192,197566,128,0,197616:0:0:0:0:
192,192,197566,1,0,0:0:0:0:
320,192,197682,128,0,197732:0:0:0:0:
192,192,197766,1,0,0:0:0:0:
320,192,197799,128,0,197849:0:0:0:0:
64,192,197882,128,0,197966:0:0:0:0:
448,192,197932,128,0,198016:0:0:0:0:
192,192,197966,1,0,0:0:0:0:
448,192,198082,128,0,198132:0:0:0:0:
192,192,198166,1,0,0:0:0:0:
448,192,198216,128,0,198266:0:0:0:0:
64,192,198299,128,0,198366:0:0:0:0:
320,192,198366,1,0,0:0:0:0:
448,192,198366,1,0,0:0:0:0:
192,192,198399,128,0,198449:0:0:0:0:
192,192,198516,128,0,198566:0:0:0:0:
320,192,198566,1,0,0:0:0:0:
192,192,198632,128,0,198682:0:0:0:0:
64,192,198766,128,0,198816:0:0:0:0:
320,192,198766,1,0,0:0:0:0:
64,192,198866,128,0,198932:0:0:0:0:
320,192,198966,1,0,0:0:0:0:
64,192,198999,128,0,199066:0:0:0:0:
320,192,199099,128,0,199466:0:0:0:0:
64,192,199166,1,0,0:0:0:0:
192,192,199166,1,0,0:0:0:0:
448,192,199199,128,0,199432:0:0:0:0:
192,192,199299,128,0,199499:0:0:0:0:
64,192,199366,1,0,0:0:0:0:
64,192,199566,128,0,199666:0:0:0:0:
320,192,199566,1,0,0:0:0:0:
192,192,199666,128,0,199866:0:0:0:0:
64,192,199732,128,0,199832:0:0:0:0:
320,192,199766,1,0,0:0:0:0:
448,192,199766,128,0,199899:0:0:0:0:
320,192,199966,128,0,200049:0:0:0:0:
64,192,199966,1,0,0:0:0:0:
192,192,200132,128,0,200199:0:0:0:0:
320,192,200166,128,0,200299:0:0:0:0:
64,192,200166,1,0,0:0:0:0:
320,192,200366,128,0,200432:0:0:0:0:
64,192,200366,1,0,0:0:0:0:
192,192,200432,128,0,200499:0:0:0:0:
320,192,200499,128,0,200566:0:0:0:0:
192,192,200566,128,0,200699:0:0:0:0:
64,192,200566,1,0,0:0:0:0:
320,192,200766,128,0,200916:0:0:0:0:
448,192,200766,1,0,0:0:0:0:
320,192,200966,128,0,201016:0:0:0:0:
448,192,200966,1,0,0:0:0:0:
192,192,201016,128,0,201099:0:0:0:0:
320,192,201066,128,0,201499:0:0:0:0:
192,192,201166,1,0,0:0:0:0:
64,192,201166,1,0,0:0:0:0:
448,192,201266,128,0,201366:0:0:0:0:
64,192,201366,1,0,0:0:0:0:
192,192,201466,128,0,201532:0:0:0:0:
64,192,201499,128,0,201799:0:0:0:0:
448,192,201566,1,0,0:0:0:0:
320,192,201566,1,0,0:0:0:0:
448,192,201766,1,0,0:0:0:0:
320,192,201766,1,0,0:0:0:0:
64,192,201899,128,0,202266:0:0:0:0:
192,192,201966,1,0,0:0:0:0:
448,192,201966,1,0,0:0:0:0:
320,192,201966,1,0,0:0:0:0:
448,192,202166,1,0,0:0:0:0:
320,192,202166,1,0,0:0:0:0:
448,192,202366,1,0,0:0:0:0:
320,192,202366,1,0,0:0:0:0:
64,192,202366,128,0,202666:0:0:0:0:
320,192,202566,1,0,0:0:0:0:
448,192,202566,1,0,0:0:0:0:
192,192,202566,128,0,202832:0:0:0:0:
64,192,202766,1,0,0:0:0:0:
448,192,202766,1,0,0:0:0:0:
320,192,202766,128,0,202999:0:0:0:0:
192,192,202966,1,0,0:0:0:0:
64,192,202966,1,0,0:0:0:0:
448,192,202966,128,0,203166:0:0:0:0:
64,192,203166,1,0,0:0:0:0:
192,192,203166,1,0,0:0:0:0:
320,192,203166,1,0,0:0:0:0:
64,192,203499,128,0,203799:0:0:0:0:
320,192,203766,128,0,203966:0:0:0:0:
448,192,203799,128,0,203866:0:0:0:0:
192,192,203966,128,0,204299:0:0:0:0:
64,192,203999,128,0,204332:0:0:0:0:
320,192,204166,128,0,204266:0:0:0:0:
448,192,204366,128,0,204699:0:0:0:0:
320,192,204399,128,0,204632:0:0:0:0:
192,192,204432,128,0,204766:0:0:0:0:
64,192,204566,128,0,204832:0:0:0:0:
320,192,204766,128,0,205032:0:0:0:0:
64,192,205166,128,0,205449:0:0:0:0:
192,192,205199,128,0,205499:0:0:0:0:
448,192,205232,128,0,205566:0:0:0:0:
320,192,205366,128,0,205532:0:0:0:0:
64,192,205566,128,0,205699:0:0:0:0:
192,192,205766,128,0,206066:0:0:0:0:
448,192,206132,128,0,206299:0:0:0:0:
320,192,206366,128,0,206716:0:0:0:0:
192,192,206399,128,0,206649:0:0:0:0:
64,192,206432,128,0,206599:0:0:0:0:
64,192,206766,128,0,207166:0:0:0:0:
448,192,207166,128,0,207566:0:0:0:0:
320,192,207199,128,0,207599:0:0:0:0:
192,192,207232,128,0,207666:0:0:0:0:
64,192,207599,128,0,207804:0:0:0:0:
320,192,207766,128,0,207996:0:0:0:0:
192,192,207804,128,0,207919:0:0:0:0:
448,192,207842,128,0,208073:0:0:0:0:
192,192,207996,128,0,208150:0:0:0:0:
320,192,208073,128,0,208227:0:0:0:0:
448,192,208150,128,0,208304:0:0:0:0:
192,192,208227,128,0,208689:0:0:0:0:
320,192,208304,128,0,208650:0:0:0:0:
448,192,208381,128,0,208573:0:0:0:0:
64,192,208458,1,0,0:0:0:0:
64,192,208791,128,0,209041:0:0:0:0:
320,192,208791,128,0,208999:0:0:0:0:
448,192,208833,128,0,208999:0:0:0:0:
448,192,209124,128,0,209374:0:0:0:0:
320,192,209124,128,0,209333:0:0:0:0:
64,192,209166,128,0,209333:0:0:0:0:
64,192,209458,128,0,216458:0:0:0:0:
192,192,209458,128,0,214458:0:0:0:0:
320,192,209499,128,0,212458:0:0:0:0:
448,192,209541,128,0,211458:0:0:0:0:
64,192,220035,5,0,0:0:0:0:
192,192,220080,1,0,0:0:0:0:
448,192,220125,1,0,0:0:0:0:
192,192,221307,1,0,0:0:0:0:
64,192,221398,1,0,0:0:0:0:
320,192,221535,1,0,0:0:0:0:
448,192,221580,1,0,0:0:0:0:
64,192,221625,1,0,0:0:0:0:
320,192,221671,1,0,0:0:0:0:
192,192,221716,1,0,0:0:0:0:
320,192,222307,1,0,0:0:0:0:
448,192,222353,1,0,0:0:0:0:
192,192,222444,1,0,0:0:0:0:
64,192,222535,1,0,0:0:0:0:
320,192,222625,1,0,0:0:0:0:
448,192,222694,1,0,0:0:0:0:
192,192,222762,1,0,0:0:0:0:
320,192,222807,1,0,0:0:0:0:
192,192,222918,1,0,0:0:0:0:
64,192,223262,1,0,0:0:0:0:
192,192,223444,1,0,0:0:0:0:
448,192,223489,1,0,0:0:0:0:
64,192,223580,1,0,0:0:0:0:
448,192,223625,1,0,0:0:0:0:
192,192,223944,1,0,0:0:0:0:
64,192,223989,1,0,0:0:0:0:
448,192,224035,1,0,0:0:0:0:
320,192,224080,1,0,0:0:0:0:
192,192,224125,1,0,0:0:0:0:
448,192,224171,1,0,0:0:0:0:
64,192,224216,1,0,0:0:0:0:
320,192,224353,1,0,0:0:0:0:
192,192,224398,1,0,0:0:0:0:
448,192,224432,1,0,0:0:0:0:
64,192,224466,1,0,0:0:0:0:
448,192,224641,1,0,0:0:0:0:
320,192,224853,1,0,0:0:0:0:
192,192,225080,1,0,0:0:0:0:
448,192,225148,1,0,0:0:0:0:
64,192,225182,1,0,0:0:0:0:
64,192,225398,1,0,0:0:0:0:
320,192,225444,1,0,0:0:0:0:
192,192,225489,1,0,0:0:0:0:
448,192,225853,1,0,0:0:0:0:
320,192,225989,1,0,0:0:0:0:
64,192,226080,1,0,0:0:0:0:
192,192,226171,1,0,0:0:0:0:
448,192,226239,1,0,0:0:0:0:
192,192,226338,1,0,0:0:0:0:
320,192,226580,1,0,0:0:0:0:
192,192,226648,1,0,0:0:0:0:
64,192,226716,1,0,0:0:0:0:
448,192,226762,1,0,0:0:0:0:
320,192,226807,1,0,0:0:0:0:
192,192,226853,1,0,0:0:0:0:
64,192,226898,1,0,0:0:0:0:
448,192,226944,1,0,0:0:0:0:
320,192,227035,1,0,0:0:0:0:
192,192,227125,1,0,0:0:0:0:
320,192,227489,1,0,0:0:0:0:
448,192,227853,1,0,0:0:0:0:
192,192,228125,1,0,0:0:0:0:
64,192,228171,1,0,0:0:0:0:
320,192,228262,1,0,0:0:0:0:
64,192,228353,1,0,0:0:0:0:
192,192,228398,1,0,0:0:0:0:
320,192,228519,1,0,0:0:0:0:
448,192,228591,1,0,0:0:0:0:
64,192,229580,1,0,0:0:0:0:
448,192,229671,1,0,0:0:0:0:
320,192,229716,1,0,0:0:0:0:
64,192,229762,1,0,0:0:0:0:
448,192,229807,1,0,0:0:0:0:
448,192,230364,1,0,0:0:0:0:
64,192,230398,1,0,0:0:0:0:
192,192,230762,1,0,0:0:0:0:
320,192,230853,1,0,0:0:0:0:
448,192,230898,1,0,0:0:0:0:
192,192,230944,1,0,0:0:0:0:
64,192,230978,1,0,0:0:0:0:
448,192,232035,1,0,0:0:0:0:
192,192,232080,1,0,0:0:0:0:
64,192,232125,1,0,0:0:0:0:
320,192,232216,1,0,0:0:0:0:
192,192,232307,1,0,0:0:0:0:
320,192,232398,1,0,0:0:0:0:
448,192,232478,1,0,0:0:0:0:
64,192,232535,1,0,0:0:0:0:
192,192,232614,1,0,0:0:0:0:
64,192,232671,1,0,0:0:0:0:
320,192,232716,1,0,0:0:0:0:
448,192,233216,1,0,0:0:0:0:
320,192,233262,1,0,0:0:0:0:
192,192,233307,1,0,0:0:0:0:
64,192,233364,1,0,0:0:0:0:
64,192,233500,1,0,0:0:0:0:
192,192,233637,1,0,0:0:0:0:
448,192,233705,1,0,0:0:0:0:
320,192,233762,1,0,0:0:0:0:
192,192,234216,1,0,0:0:0:0:
64,192,234307,1,0,0:0:0:0:
448,192,234353,1,0,0:0:0:0:
64,192,234489,1,0,0:0:0:0:
320,192,234523,1,0,0:0:0:0:
448,192,234557,1,0,0:0:0:0:
192,192,234807,1,0,0:0:0:0:
320,192,234853,1,0,0:0:0:0:
448,192,234898,1,0,0:0:0:0:
64,192,234944,1,0,0:0:0:0:
192,192,235035,1,0,0:0:0:0:
320,192,235103,1,0,0:0:0:0:
448,192,235216,1,0,0:0:0:0:
64,192,235262,1,0,0:0:0:0:
192,192,235307,1,0,0:0:0:0:
320,192,235535,1,0,0:0:0:0:
192,192,235762,1,0,0:0:0:0:
64,192,235989,1,0,0:0:0:0:
192,192,236262,1,0,0:0:0:0:
320,192,236330,1,0,0:0:0:0:
64,192,236364,1,0,0:0:0:0:
448,192,236398,1,0,0:0:0:0:
320,192,236807,1,0,0:0:0:0:
64,192,236898,1,0,0:0:0:0:
192,192,236944,1,0,0:0:0:0:
320,192,237148,1,0,0:0:0:0:
64,192,237216,1,0,0:0:0:0:
448,192,237262,1,0,0:0:0:0:
320,192,237489,1,0,0:0:0:0:
192,192,237557,1,0,0:0:0:0:
64,192,237625,1,0,0:0:0:0:
448,192,237671,1,0,0:0:0:0:
320,192,237716,1,0,0:0:0:0:
64,192,237762,1,0,0:0:0:0:
448,192,237853,1,0,0:0:0:0:
192,192,237944,1,0,0:0:0:0:
64,192,238035,1,0,0:0:0:0:
320,192,238375,1,0,0:0:0:0:
192,192,238398,1,0,0:0:0:0:
64,192,238716,1,0,0:0:0:0:
320,192,238762,1,0,0:0:0:0:
192,192,238955,1,0,0:0:0:0:
64,192,239023,1,0,0:0:0:0:
448,192,239125,1,0,0:0:0:0:
320,192,239171,1,0,0:0:0:0:
64,192,239216,1,0,0:0:0:0:
448,192,239262,1,0,0:0:0:0:
192,192,239364,1,0,0:0:0:0:
64,192,240580,1,0,0:0:0:0:
192,192,240625,1,0,0:0:0:0:
320,192,240671,1,0,0:0:0:0:
448,192,240716,128,0,241262:0:0:0:0:
64,192,240762,1,0,0:0:0:0:
64,192,241216,1,0,0:0:0:0:
320,192,241262,128,0,241853:0:0:0:0:
192,192,241580,1,0,0:0:0:0:
64,192,241671,1,0,0:0:0:0:
64,192,241853,1,0,0:0:0:0:
448,192,241853,1,0,0:0:0:0:
192,192,241898,1,0,0:0:0:0:
448,192,242009,1,0,0:0:0:0:
320,192,242125,1,0,0:0:0:0:
320,192,242262,1,0,0:0:0:0:
320,192,242398,1,0,0:0:0:0:
320,192,242535,1,0,0:0:0:0:
64,192,242671,1,0,0:0:0:0:
192,192,242671,1,0,0:0:0:0:
192,192,242944,1,0,0:0:0:0:
448,192,242944,1,0,0:0:0:0:
192,192,243080,1,0,0:0:0:0:
320,192,243148,1,0,0:0:0:0:
448,192,243216,1,0,0:0:0:0:
192,192,243307,1,0,0:0:0:0:
448,192,243398,1,0,0:0:0:0:
64,192,243489,1,0,0:0:0:0:
320,192,243489,1,0,0:0:0:0:
64,192,243762,1,0,0:0:0:0:
64,192,243898,1,0,0:0:0:0:
320,192,243974,1,0,0:0:0:0:
64,192,244035,1,0,0:0:0:0:
448,192,244035,1,0,0:0:0:0:
320,192,244216,1,0,0:0:0:0:
448,192,244307,1,0,0:0:0:0:
192,192,244398,1,0,0:0:0:0:
64,192,244444,1,0,0:0:0:0:
320,192,244512,1,0,0:0:0:0:
192,192,244580,1,0,0:0:0:0:
448,192,244580,1,0,0:0:0:0:
64,192,244625,1,0,0:0:0:0:
448,192,244716,1,0,0:0:0:0:
320,192,244762,1,0,0:0:0:0:
192,192,244853,1,0,0:0:0:0:
64,192,244853,1,0,0:0:0:0:
192,192,244989,1,0,0:0:0:0:
320,192,245125,1,0,0:0:0:0:
64,192,245216,1,0,0:0:0:0:
320,192,245307,1,0,0:0:0:0:
192,192,245398,1,0,0:0:0:0:
64,192,245398,1,0,0:0:0:0:
448,192,245432,1,0,0:0:0:0:
448,192,245671,1,0,0:0:0:0:
192,192,245671,1,0,0:0:0:0:
448,192,245807,1,0,0:0:0:0:
320,192,245875,1,0,0:0:0:0:
448,192,245944,1,0,0:0:0:0:
192,192,245944,1,0,0:0:0:0:
64,192,245989,1,0,0:0:0:0:
320,192,246125,1,0,0:0:0:0:
192,192,246182,1,0,0:0:0:0:
448,192,246216,1,0,0:0:0:0:
64,192,246216,1,0,0:0:0:0:
320,192,246421,1,0,0:0:0:0:
192,192,246489,1,0,0:0:0:0:
192,192,246625,1,0,0:0:0:0:
448,192,246671,1,0,0:0:0:0:
192,192,246762,1,0,0:0:0:0:
64,192,246762,1,0,0:0:0:0:
448,192,246898,1,0,0:0:0:0:
64,192,246966,1,0,0:0:0:0:
192,192,247035,1,0,0:0:0:0:
192,192,247205,1,0,0:0:0:0:
320,192,247262,1,0,0:0:0:0:
64,192,247307,1,0,0:0:0:0:
448,192,247307,1,0,0:0:0:0:
320,192,247580,1,0,0:0:0:0:
320,192,247716,1,0,0:0:0:0:
192,192,247807,1,0,0:0:0:0:
320,192,247853,1,0,0:0:0:0:
64,192,247898,1,0,0:0:0:0:
192,192,247955,1,0,0:0:0:0:
320,192,248035,1,0,0:0:0:0:
448,192,248125,1,0,0:0:0:0:
64,192,248125,1,0,0:0:0:0:
320,192,248171,1,0,0:0:0:0:
64,192,248398,1,0,0:0:0:0:
192,192,248398,1,0,0:0:0:0:
320,192,248489,1,0,0:0:0:0:
64,192,248535,1,0,0:0:0:0:
192,192,248580,1,0,0:0:0:0:
448,192,248671,1,0,0:0:0:0:
192,192,248762,1,0,0:0:0:0:
448,192,248807,1,0,0:0:0:0:
64,192,248853,1,0,0:0:0:0:
192,192,248944,1,0,0:0:0:0:
320,192,248944,1,0,0:0:0:0:
192,192,249080,1,0,0:0:0:0:
192,192,249216,1,0,0:0:0:0:
448,192,249307,1,0,0:0:0:0:
192,192,249353,1,0,0:0:0:0:
192,192,249489,1,0,0:0:0:0:
64,192,249489,1,0,0:0:0:0:
320,192,249671,1,0,0:0:0:0:
448,192,249762,1,0,0:0:0:0:
448,192,249898,1,0,0:0:0:0:
448,192,250035,1,0,0:0:0:0:
192,192,250035,1,0,0:0:0:0:
320,192,250171,1,0,0:0:0:0:
64,192,250273,1,0,0:0:0:0:
320,192,250307,1,0,0:0:0:0:
192,192,250307,1,0,0:0:0:0:
192,192,250444,1,0,0:0:0:0:
448,192,250478,1,0,0:0:0:0:
192,192,250580,1,0,0:0:0:0:
320,192,250716,1,0,0:0:0:0:
320,192,250853,1,0,0:0:0:0:
64,192,250853,1,0,0:0:0:0:
192,192,251125,1,0,0:0:0:0:
320,192,251125,1,0,0:0:0:0:
448,192,251398,1,0,0:0:0:0:
320,192,251398,1,0,0:0:0:0:
192,192,251535,1,0,0:0:0:0:
320,192,251603,1,0,0:0:0:0:
448,192,251637,1,0,0:0:0:0:
192,192,251671,1,0,0:0:0:0:
64,192,251671,128,0,252216:0:0:0:0:
448,192,251944,1,0,0:0:0:0:
448,192,252080,1,0,0:0:0:0:
320,192,252171,1,0,0:0:0:0:
192,192,252216,128,0,252580:0:0:0:0:
448,192,252216,1,0,0:0:0:0:
64,192,252489,1,0,0:0:0:0:
64,192,252660,1,0,0:0:0:0:
192,192,252694,1,0,0:0:0:0:
320,192,252762,1,0,0:0:0:0:
448,192,252762,1,0,0:0:0:0:
64,192,252918,1,0,0:0:0:0:
448,192,252966,1,0,0:0:0:0:
320,192,253035,1,0,0:0:0:0:
320,192,253171,1,0,0:0:0:0:
320,192,253307,128,0,253898:0:0:0:0:
64,192,253463,1,0,0:0:0:0:
64,192,253580,1,0,0:0:0:0:
448,192,253580,1,0,0:0:0:0:
64,192,253853,1,0,0:0:0:0:
192,192,253853,1,0,0:0:0:0:
448,192,253989,128,0,254216:0:0:0:0:
192,192,254125,1,0,0:0:0:0:
320,192,254307,1,0,0:0:0:0:
192,192,254353,1,0,0:0:0:0:
64,192,254398,128,0,254853:0:0:0:0:
448,192,254444,1,0,0:0:0:0:
192,192,254535,1,0,0:0:0:0:
448,192,254671,1,0,0:0:0:0:
448,192,254807,1,0,0:0:0:0:
320,192,254944,128,0,255398:0:0:0:0:
448,192,254944,1,0,0:0:0:0:
64,192,255053,1,0,0:0:0:0:
192,192,255125,1,0,0:0:0:0:
448,192,255171,1,0,0:0:0:0:
64,192,255216,1,0,0:0:0:0:
64,192,255398,1,0,0:0:0:0:
192,192,255489,128,0,256489:0:0:0:0:
448,192,255535,1,0,0:0:0:0:
320,192,255762,1,0,0:0:0:0:
448,192,255762,1,0,0:0:0:0:
320,192,255898,1,0,0:0:0:0:
320,192,256035,1,0,0:0:0:0:
448,192,256171,1,0,0:0:0:0:
64,192,256262,1,0,0:0:0:0:
320,192,256307,1,0,0:0:0:0:
448,192,256307,1,0,0:0:0:0:
64,192,256580,1,0,0:0:0:0:
192,192,256580,1,0,0:0:0:0:
320,192,256682,1,0,0:0:0:0:
64,192,256750,1,0,0:0:0:0:
448,192,256819,1,0,0:0:0:0:
320,192,256853,1,0,0:0:0:0:
64,192,256853,1,0,0:0:0:0:
64,192,257057,1,0,0:0:0:0:
192,192,257091,1,0,0:0:0:0:
448,192,257125,128,0,257364:0:0:0:0:
320,192,257125,1,0,0:0:0:0:
320,192,257364,128,0,257569:0:0:0:0:
192,192,257432,1,0,0:0:0:0:
448,192,257535,1,0,0:0:0:0:
192,192,257625,128,0,257853:0:0:0:0:
448,192,257671,1,0,0:0:0:0:
64,192,257705,1,0,0:0:0:0:
64,192,257910,1,0,0:0:0:0:
320,192,257944,128,0,258148:0:0:0:0:
448,192,258080,1,0,0:0:0:0:
64,192,258216,128,0,259307:0:0:0:0:
192,192,258216,1,0,0:0:0:0:
320,192,258285,1,0,0:0:0:0:
448,192,258319,1,0,0:0:0:0:
192,192,258489,1,0,0:0:0:0:
192,192,258625,1,0,0:0:0:0:
448,192,258762,1,0,0:0:0:0:
320,192,258807,1,0,0:0:0:0:
192,192,258853,1,0,0:0:0:0:
448,192,258898,1,0,0:0:0:0:
320,192,259035,1,0,0:0:0:0:
192,192,259125,1,0,0:0:0:0:
448,192,259307,1,0,0:0:0:0:
320,192,259307,1,0,0:0:0:0:
192,192,259428,1,0,0:0:0:0:
64,192,259489,1,0,0:0:0:0:
448,192,259535,1,0,0:0:0:0:
320,192,259580,1,0,0:0:0:0:
192,192,259625,1,0,0:0:0:0:
64,192,259671,1,0,0:0:0:0:
448,192,259716,1,0,0:0:0:0:
192,192,259807,1,0,0:0:0:0:
320,192,259853,128,0,260125:0:0:0:0:
64,192,259853,1,0,0:0:0:0:
64,192,260125,1,0,0:0:0:0:
448,192,260216,128,0,260489:0:0:0:0:
192,192,260216,1,0,0:0:0:0:
320,192,260398,1,0,0:0:0:0:
64,192,260580,128,0,260944:0:0:0:0:
192,192,260580,1,0,0:0:0:0:
320,192,260671,1,0,0:0:0:0:
448,192,260807,1,0,0:0:0:0:
320,192,260944,1,0,0:0:0:0:
192,192,260944,1,0,0:0:0:0:
448,192,260944,1,0,0:0:0:0:
448,192,261080,1,0,0:0:0:0:
192,192,261114,1,0,0:0:0:0:
64,192,261171,1,0,0:0:0:0:
320,192,261216,1,0,0:0:0:0:
192,192,261353,1,0,0:0:0:0:
448,192,261421,1,0,0:0:0:0:
320,192,261455,1,0,0:0:0:0:
192,192,261625,1,0,0:0:0:0:
320,192,261762,1,0,0:0:0:0:
448,192,262035,1,0,0:0:0:0:
448,192,262171,1,0,0:0:0:0:
320,192,262307,1,0,0:0:0:0:
192,192,262341,1,0,0:0:0:0:
64,192,262424,1,0,0:0:0:0:
448,192,262512,1,0,0:0:0:0:
64,192,262580,5,0,0:0:0:0:
320,192,262580,1,0,0:0:0:0:
192,192,262580,1,0,0:0:0:0:
64,192,262853,1,0,0:0:0:0:
320,192,262853,1,0,0:0:0:0:
192,192,262853,1,0,0:0:0:0:
448,192,262944,1,0,0:0:0:0:
64,192,263080,1,0,0:0:0:0:
192,192,263125,1,0,0:0:0:0:
320,192,263125,1,0,0:0:0:0:
448,192,263125,1,0,0:0:0:0:
64,192,263216,1,0,0:0:0:0:
192,192,263398,1,0,0:0:0:0:
448,192,263398,1,0,0:0:0:0:
320,192,263398,1,0,0:0:0:0:
64,192,263500,1,0,0:0:0:0:
64,192,263580,1,0,0:0:0:0:
448,192,263671,128,0,264307:0:0:0:0:
320,192,263671,128,0,263807:0:0:0:0:
192,192,263705,128,0,263773:0:0:0:0:
64,192,263739,5,0,0:0:0:0:
320,192,264125,128,0,264353:0:0:0:0:
192,192,264262,128,0,264398:0:0:0:0:
64,192,264489,128,0,264898:0:0:0:0:
192,192,264489,128,0,264625:0:0:0:0:
320,192,264523,128,0,264591:0:0:0:0:
448,192,264557,1,0,0:0:0:0:
192,192,265216,128,0,265625:0:0:0:0:
64,192,265307,128,0,265375:0:0:0:0:
320,192,265341,1,0,0:0:0:0:
448,192,265375,1,0,0:0:0:0:
192,192,265762,128,0,266035:0:0:0:0:
448,192,265853,128,0,265921:0:0:0:0:
64,192,265887,1,0,0:0:0:0:
320,192,265921,1,0,0:0:0:0:
320,192,266125,128,0,266216:0:0:0:0:
448,192,266262,128,0,267035:0:0:0:0:
320,192,266398,128,0,266535:0:0:0:0:
192,192,266432,128,0,266500:0:0:0:0:
64,192,266466,1,0,0:0:0:0:
192,192,266853,128,0,267080:0:0:0:0:
320,192,266989,128,0,267125:0:0:0:0:
192,192,267216,128,0,267353:0:0:0:0:
64,192,267216,128,0,267489:0:0:0:0:
320,192,267250,128,0,267319:0:0:0:0:
448,192,267285,1,0,0:0:0:0:
320,192,267716,128,0,267898:0:0:0:0:
192,192,268035,128,0,268353:0:0:0:0:
320,192,268035,128,0,268103:0:0:0:0:
448,192,268069,1,0,0:0:0:0:
64,192,268103,1,0,0:0:0:0:
320,192,268216,128,0,268421:0:0:0:0:
448,192,268307,128,0,268489:0:0:0:0:
64,192,268489,128,0,268580:0:0:0:0:
192,192,268580,128,0,268762:0:0:0:0:
448,192,268614,128,0,268682:0:0:0:0:
320,192,268648,1,0,0:0:0:0:
320,192,268853,128,0,268989:0:0:0:0:
64,192,269125,128,0,269773:0:0:0:0:
320,192,269125,128,0,269262:0:0:0:0:
192,192,269160,128,0,269228:0:0:0:0:
448,192,269194,1,0,0:0:0:0:
192,192,269535,128,0,269705:0:0:0:0:
448,192,269875,128,0,270281:0:0:0:0:
192,192,269944,128,0,270094:0:0:0:0:
320,192,269981,128,0,270056:0:0:0:0:
64,192,270019,1,0,0:0:0:0:
448,192,270394,128,0,270544:0:0:0:0:
192,192,270731,128,0,270922:0:0:0:0:
320,192,270844,1,0,0:0:0:0:
64,192,270844,1,0,0:0:0:0:
448,192,270883,1,0,0:0:0:0:
192,192,271000,128,0,271156:0:0:0:0:
320,192,271195,128,0,271480:0:0:0:0:
192,192,271260,1,0,0:0:0:0:
448,192,271260,1,0,0:0:0:0:
64,192,271296,1,0,0:0:0:0:
192,192,271480,128,0,271652:0:0:0:0:
320,192,271652,1,0,0:0:0:0:
64,192,271652,128,0,271897:0:0:0:0:
448,192,271702,1,0,0:0:0:0:
64,192,272057,128,0,279188:0:0:0:0:
192,192,272091,128,0,278949:0:0:0:0:
320,192,272124,128,0,276516:0:0:0:0:
448,192,272158,128,0,274895:0:0:0:0:
192,192,279129,128,0,279283:0:0:0:0:
448,192,279188,128,0,279402:0:0:0:0:
320,192,279188,128,0,279402:0:0:0:0:
192,192,279616,128,0,279830:0:0:0:0:
64,192,279616,1,0,0:0:0:0:
192,192,280045,128,0,280259:0:0:0:0:
448,192,280045,1,0,0:0:0:0:
192,192,280473,128,0,280688:0:0:0:0:
192,192,280902,128,0,281116:0:0:0:0:
448,192,280902,1,0,0:0:0:0:
192,192,281330,128,0,281545:0:0:0:0:
192,192,281759,128,0,281973:0:0:0:0:
448,192,281759,1,0,0:0:0:0:
192,192,282188,128,0,282402:0:0:0:0:
64,192,282616,128,0,282830:0:0:0:0:
320,192,282616,1,0,0:0:0:0:
448,192,282670,128,0,282723:0:0:0:0:
64,192,283045,128,0,283259:0:0:0:0:
64,192,283473,128,0,283688:0:0:0:0:
320,192,283473,1,0,0:0:0:0:
64,192,283902,128,0,284116:0:0:0:0:
64,192,284330,128,0,284545:0:0:0:0:
320,192,284330,1,0,0:0:0:0:
64,192,284759,128,0,284973:0:0:0:0:
64,192,285188,128,0,285402:0:0:0:0:
320,192,285188,1,0,0:0:0:0:
64,192,285616,128,0,285830:0:0:0:0:
192,192,285830,128,0,285973:0:0:0:0:
448,192,285902,128,0,286045:0:0:0:0:
64,192,285973,128,0,286045:0:0:0:0:
320,192,286045,128,0,286259:0:0:0:0:
192,192,286045,1,0,0:0:0:0:
320,192,286473,128,0,286688:0:0:0:0:
320,192,286902,128,0,287116:0:0:0:0:
192,192,286902,1,0,0:0:0:0:
320,192,287330,128,0,287545:0:0:0:0:
320,192,287759,128,0,287973:0:0:0:0:
192,192,287759,1,0,0:0:0:0:
320,192,288188,128,0,288402:0:0:0:0:
64,192,288241,128,0,288348:0:0:0:0:
320,192,288616,128,0,288830:0:0:0:0:
192,192,288616,1,0,0:0:0:0:
64,192,288670,128,0,288884:0:0:0:0:
320,192,289045,128,0,289259:0:0:0:0:
448,192,289098,128,0,289313:0:0:0:0:
192,192,289473,128,0,289688:0:0:0:0:
448,192,289473,1,0,0:0:0:0:
192,192,289902,128,0,290116:0:0:0:0:
320,192,289955,128,0,290063:0:0:0:0:
192,192,290330,128,0,290545:0:0:0:0:
448,192,290330,1,0,0:0:0:0:
192,192,290759,128,0,290973:0:0:0:0:
320,192,290813,128,0,291080:0:0:0:0:
448,192,291188,128,0,291402:0:0:0:0:
64,192,291188,1,0,0:0:0:0:
448,192,291616,128,0,291830:0:0:0:0:
192,192,291670,128,0,291777:0:0:0:0:
448,192,292045,128,0,292259:0:0:0:0:
64,192,292098,128,0,292313:0:0:0:0:
448,192,292473,128,0,292688:0:0:0:0:
192,192,292527,128,0,292741:0:0:0:0:
64,192,292902,128,0,293277:0:0:0:0:
448,192,292902,128,0,293223:0:0:0:0:
192,192,292955,128,0,293277:0:0:0:0:
320,192,293009,128,0,293223:0:0:0:0:
320,192,293330,128,0,293553:0:0:0:0:
448,192,293330,1,0,0:0:0:0:
320,192,293777,128,0,293980:0:0:0:0:
64,192,293777,1,0,0:0:0:0:
320,192,294183,128,0,294387:0:0:0:0:
320,192,294590,128,0,294793:0:0:0:0:
192,192,294590,1,0,0:0:0:0:
320,192,294997,128,0,295200:0:0:0:0:
320,192,295404,128,0,295607:0:0:0:0:
192,192,295404,1,0,0:0:0:0:
320,192,295810,128,0,296006:0:0:0:0:
64,192,296203,128,0,296396:0:0:0:0:
320,192,296251,128,0,296444:0:0:0:0:
64,192,296590,128,0,296783:0:0:0:0:
64,192,296977,128,0,297170:0:0:0:0:
320,192,296977,1,0,0:0:0:0:
64,192,297364,128,0,297557:0:0:0:0:
448,192,297412,128,0,297509:0:0:0:0:
64,192,297751,128,0,297938:0:0:0:0:
320,192,297797,128,0,297938:0:0:0:0:
64,192,298126,128,0,298313:0:0:0:0:
320,192,298172,128,0,298313:0:0:0:0:
64,192,298501,128,0,298688:0:0:0:0:
192,192,298547,128,0,298735:0:0:0:0:
64,192,298876,128,0,299063:0:0:0:0:
192,192,298922,128,0,299110:0:0:0:0:
448,192,299251,128,0,299424:0:0:0:0:
320,192,299294,128,0,299424:0:0:0:0:
448,192,299598,128,0,299772:0:0:0:0:
448,192,299946,128,0,300130:0:0:0:0:
64,192,299946,1,0,0:0:0:0:
448,192,300314,128,0,300498:0:0:0:0:
448,192,300682,128,0,300858:0:0:0:0:
192,192,300682,1,0,0:0:0:0:
448,192,301034,128,0,301211:0:0:0:0:
448,192,301387,128,0,301564:0:0:0:0:
64,192,301432,128,0,301608:0:0:0:0:
448,192,301740,128,0,301917:0:0:0:0:
64,192,301784,128,0,301961:0:0:0:0:
192,192,302093,128,0,302259:0:0:0:0:
448,192,302093,1,0,0:0:0:0:
320,192,302134,128,0,302259:0:0:0:0:
192,192,302426,128,0,302593:0:0:0:0:
64,192,302426,1,0,0:0:0:0:
192,192,302759,128,0,302926:0:0:0:0:
320,192,302759,1,0,0:0:0:0:
448,192,302801,128,0,302884:0:0:0:0:
192,192,303093,128,0,303259:0:0:0:0:
320,192,303093,1,0,0:0:0:0:
448,192,303134,128,0,303218:0:0:0:0:
320,192,303426,128,0,303585:0:0:0:0:
192,192,303465,128,0,303625:0:0:0:0:
320,192,303745,128,0,303904:0:0:0:0:
64,192,303745,1,0,0:0:0:0:
320,192,304064,128,0,304223:0:0:0:0:
448,192,304064,1,0,0:0:0:0:
64,192,304104,128,0,304223:0:0:0:0:
320,192,304383,128,0,304543:0:0:0:0:
192,192,304383,1,0,0:0:0:0:
64,192,304702,128,0,304859:0:0:0:0:
192,192,304741,128,0,304899:0:0:0:0:
320,192,304780,128,0,304899:0:0:0:0:
64,192,305017,128,0,305175:0:0:0:0:
64,192,305333,128,0,305491:0:0:0:0:
448,192,305333,1,0,0:0:0:0:
448,192,305649,128,0,305802:0:0:0:0:
320,192,305687,128,0,305841:0:0:0:0:
192,192,305725,128,0,305841:0:0:0:0:
448,192,305956,128,0,306110:0:0:0:0:
64,192,305956,1,0,0:0:0:0:
448,192,306264,128,0,306418:0:0:0:0:
192,192,306264,1,0,0:0:0:0:
192,192,306572,128,0,306722:0:0:0:0:
320,192,306609,128,0,306759:0:0:0:0:
64,192,306647,128,0,306759:0:0:0:0:
192,192,306872,128,0,307022:0:0:0:0:
320,192,307172,128,0,307320:0:0:0:0:
448,192,307209,128,0,307357:0:0:0:0:
64,192,307246,128,0,307357:0:0:0:0:
320,192,307469,128,0,307617:0:0:0:0:
320,192,307766,128,0,307914:0:0:0:0:
192,192,307766,1,0,0:0:0:0:
64,192,308063,128,0,308209:0:0:0:0:
320,192,308099,128,0,308245:0:0:0:0:
448,192,308136,128,0,308245:0:0:0:0:
64,192,308355,128,0,308502:0:0:0:0:
448,192,308355,1,0,0:0:0:0:
64,192,308648,128,0,308794:0:0:0:0:
320,192,308648,1,0,0:0:0:0:
192,192,308941,128,0,309077:0:0:0:0:
448,192,308975,128,0,309111:0:0:0:0:
320,192,309009,128,0,309111:0:0:0:0:
192,192,309213,128,0,309350:0:0:0:0:
64,192,309213,1,0,0:0:0:0:
448,192,309486,128,0,309626:0:0:0:0:
320,192,309521,128,0,309662:0:0:0:0:
64,192,309556,128,0,309662:0:0:0:0:
448,192,309767,128,0,309908:0:0:0:0:
192,192,309767,1,0,0:0:0:0:
448,192,310049,128,0,310188:0:0:0:0:
64,192,310049,1,0,0:0:0:0:
320,192,310328,128,0,310467:0:0:0:0:
64,192,310362,128,0,310502:0:0:0:0:
448,192,310397,128,0,310502:0:0:0:0:
320,192,310607,128,0,310743:0:0:0:0:
192,192,310607,1,0,0:0:0:0:
320,192,310879,128,0,311016:0:0:0:0:
64,192,310879,1,0,0:0:0:0:
192,192,311152,128,0,311283:0:0:0:0:
320,192,311184,128,0,311316:0:0:0:0:
448,192,311217,128,0,311316:0:0:0:0:
192,192,311415,128,0,311546:0:0:0:0:
64,192,311415,1,0,0:0:0:0:
64,192,311678,128,0,311875:0:0:0:0:
320,192,311710,128,0,311842:0:0:0:0:
64,192,311941,128,0,312138:0:0:0:0:
320,192,311974,128,0,312105:0:0:0:0:
192,192,312204,128,0,312401:0:0:0:0:
64,192,312204,1,0,0:0:0:0:
320,192,312237,128,0,312368:0:0:0:0:
192,192,312467,128,0,312664:0:0:0:0:
320,192,312500,128,0,312631:0:0:0:0:
448,192,312730,128,0,312928:0:0:0:0:
320,192,312730,1,0,0:0:0:0:
64,192,312763,128,0,312895:0:0:0:0:
448,192,312993,128,0,313191:0:0:0:0:
64,192,313026,128,0,313158:0:0:0:0:
320,192,313256,128,0,313437:0:0:0:0:
448,192,313256,1,0,0:0:0:0:
64,192,313286,128,0,313407:0:0:0:0:
320,192,313497,128,0,313679:0:0:0:0:
64,192,313528,128,0,313649:0:0:0:0:
64,192,313739,5,0,0:0:0:0:
192,192,313739,1,0,0:0:0:0:
448,192,313770,1,0,0:0:0:0:
320,192,313991,1,0,0:0:0:0:
192,192,314022,1,0,0:0:0:0:
64,192,314243,1,0,0:0:0:0:
448,192,314243,1,0,0:0:0:0:
320,192,314274,1,0,0:0:0:0:
192,192,314495,1,0,0:0:0:0:
64,192,314526,1,0,0:0:0:0:
64,192,314747,1,0,0:0:0:0:
192,192,314747,1,0,0:0:0:0:
320,192,314778,1,0,0:0:0:0:
448,192,314999,1,0,0:0:0:0:
320,192,315031,1,0,0:0:0:0:
64,192,315251,1,0,0:0:0:0:
192,192,315251,1,0,0:0:0:0:
448,192,315282,1,0,0:0:0:0:
320,192,315501,1,0,0:0:0:0:
64,192,315532,1,0,0:0:0:0:
192,192,315751,1,0,0:0:0:0:
448,192,315751,1,0,0:0:0:0:
320,192,315782,1,0,0:0:0:0:
64,192,316001,1,0,0:0:0:0:
448,192,316032,1,0,0:0:0:0:
64,192,316251,1,0,0:0:0:0:
320,192,316251,1,0,0:0:0:0:
192,192,316282,1,0,0:0:0:0:
448,192,316501,1,0,0:0:0:0:
320,192,316532,1,0,0:0:0:0:
64,192,316751,1,0,0:0:0:0:
192,192,316751,1,0,0:0:0:0:
448,192,316782,1,0,0:0:0:0:
320,192,317001,1,0,0:0:0:0:
64,192,317032,1,0,0:0:0:0:
192,192,317251,1,0,0:0:0:0:
320,192,317251,1,0,0:0:0:0:
448,192,317282,1,0,0:0:0:0:
64,192,317501,1,0,0:0:0:0:
320,192,317532,1,0,0:0:0:0:
192,192,317751,1,0,0:0:0:0:
320,192,317782,1,0,0:0:0:0:
448,192,317813,1,0,0:0:0:0:
64,192,318001,1,0,0:0:0:0:
320,192,318032,1,0,0:0:0:0:
192,192,318063,1,0,0:0:0:0:
64,192,318251,1,0,0:0:0:0:
320,192,318282,1,0,0:0:0:0:
448,192,318313,1,0,0:0:0:0:
192,192,318501,1,0,0:0:0:0:
448,192,318532,1,0,0:0:0:0:
64,192,318563,1,0,0:0:0:0:
448,192,318751,1,0,0:0:0:0:
320,192,318782,1,0,0:0:0:0:
64,192,318813,1,0,0:0:0:0:
448,192,319001,1,0,0:0:0:0:
192,192,319032,1,0,0:0:0:0:
320,192,319063,1,0,0:0:0:0:
320,192,319251,1,0,0:0:0:0:
64,192,319282,1,0,0:0:0:0:
448,192,319313,1,0,0:0:0:0:
448,192,319501,1,0,0:0:0:0:
192,192,319532,1,0,0:0:0:0:
64,192,319563,1,0,0:0:0:0:
448,192,319751,1,0,0:0:0:0:
320,192,319782,1,0,0:0:0:0:
64,192,319813,1,0,0:0:0:0:
448,192,320001,1,0,0:0:0:0:
192,192,320032,1,0,0:0:0:0:
64,192,320063,1,0,0:0:0:0:
320,192,320251,1,0,0:0:0:0:
448,192,320282,1,0,0:0:0:0:
64,192,320313,1,0,0:0:0:0:
192,192,320501,1,0,0:0:0:0:
320,192,320532,1,0,0:0:0:0:
448,192,320563,1,0,0:0:0:0:
64,192,320751,1,0,0:0:0:0:
192,192,320771,1,0,0:0:0:0:
320,192,320792,1,0,0:0:0:0:
448,192,320813,1,0,0:0:0:0:
64,192,321251,128,0,321751:0:0:0:0:
448,192,321751,128,0,322126:0:0:0:0:
320,192,321782,1,0,0:0:0:0:
192,192,322001,128,0,322282:0:0:0:0:
64,192,322251,128,0,322376:0:0:0:0:
448,192,322501,128,0,322876:0:0:0:0:
320,192,322532,1,0,0:0:0:0:
192,192,322751,128,0,323032:0:0:0:0:
64,192,323001,128,0,323126:0:0:0:0:
448,192,323251,128,0,323626:0:0:0:0:
320,192,323282,1,0,0:0:0:0:
192,192,323501,128,0,323782:0:0:0:0:
448,192,323751,128,0,324126:0:0:0:0:
320,192,323782,1,0,0:0:0:0:
192,192,324001,128,0,324282:0:0:0:0:
64,192,324251,128,0,324376:0:0:0:0:
448,192,324501,128,0,324657:0:0:0:0:
320,192,324751,128,0,324876:0:0:0:0:
192,192,324813,128,0,324938:0:0:0:0:
64,192,324876,128,0,325032:0:0:0:0:
192,192,325126,128,0,325376:0:0:0:0:
320,192,325344,128,0,325438:0:0:0:0:
448,192,325501,128,0,325688:0:0:0:0:
64,192,325751,128,0,326039:0:0:0:0:
192,192,325779,1,0,0:0:0:0:
320,192,325981,128,0,326241:0:0:0:0:
448,192,326212,128,0,326327:0:0:0:0:
64,192,326443,128,0,326751:0:0:0:0:
192,192,326475,1,0,0:0:0:0:
320,192,326701,128,0,326992:0:0:0:0:
448,192,326960,128,0,327089:0:0:0:0:
64,192,327218,128,0,327520:0:0:0:0:
192,192,327248,1,0,0:0:0:0:
320,192,327459,128,0,327732:0:0:0:0:
64,192,327701,128,0,327984:0:0:0:0:
192,192,327732,1,0,0:0:0:0:
320,192,327943,128,0,328219:0:0:0:0:
448,192,328185,128,0,328306:0:0:0:0:
64,192,328462,128,0,328566:0:0:0:0:
192,192,328740,128,0,329115:0:0:0:0:
448,192,328771,1,0,0:0:0:0:
320,192,329083,128,0,329146:0:0:0:0:
64,192,329115,128,0,329427:0:0:0:0:
320,192,329427,128,0,329583:0:0:0:0:
192,192,329490,1,0,0:0:0:0:
448,192,329740,128,0,330049:0:0:0:0:
192,192,329770,1,0,0:0:0:0:
320,192,329987,128,0,330265:0:0:0:0:
64,192,330234,128,0,330358:0:0:0:0:
320,192,330482,128,0,330792:0:0:0:0:
448,192,330513,1,0,0:0:0:0:
192,192,330729,128,0,331015:0:0:0:0:
320,192,330983,128,0,331110:0:0:0:0:
320,192,331237,128,0,331555:0:0:0:0:
64,192,331269,1,0,0:0:0:0:
192,192,331459,128,0,331587:0:0:0:0:
64,192,331729,128,0,332104:0:0:0:0:
448,192,331760,1,0,0:0:0:0:
320,192,331979,128,0,332260:0:0:0:0:
448,192,332229,128,0,332354:0:0:0:0:
192,192,332479,128,0,332791:0:0:0:0:
64,192,332510,1,0,0:0:0:0:
320,192,332729,128,0,333010:0:0:0:0:
192,192,332979,128,0,333104:0:0:0:0:
64,192,333197,128,0,333731:0:0:0:0:
320,192,333229,1,0,0:0:0:0:
320,192,333429,128,0,333697:0:0:0:0:
192,192,333664,128,0,333764:0:0:0:0:
448,192,333764,128,0,333826:0:0:0:0:
320,192,333795,128,0,333889:0:0:0:0:
448,192,334014,128,0,334076:0:0:0:0:
320,192,334045,128,0,334139:0:0:0:0:
448,192,334232,128,0,334295:0:0:0:0:
320,192,334264,128,0,334357:0:0:0:0:
64,192,334295,128,0,334389:0:0:0:0:
448,192,334482,128,0,334545:0:0:0:0:
320,192,334514,128,0,334607:0:0:0:0:
448,192,334732,128,0,334826:0:0:0:0:
320,192,334764,128,0,334857:0:0:0:0:
64,192,334795,128,0,334920:0:0:0:0:
448,192,334982,128,0,335076:0:0:0:0:
320,192,335014,128,0,335107:0:0:0:0:
64,192,335045,128,0,335170:0:0:0:0:
448,192,335232,128,0,335326:0:0:0:0:
320,192,335264,128,0,335389:0:0:0:0:
64,192,335295,128,0,335420:0:0:0:0:
448,192,335482,128,0,335576:0:0:0:0:
320,192,335514,128,0,335639:0:0:0:0:
64,192,335545,128,0,335670:0:0:0:0:
192,192,335732,128,0,335826:0:0:0:0:
320,192,335764,128,0,335889:0:0:0:0:
448,192,335795,128,0,335951:0:0:0:0:
192,192,335982,128,0,336055:0:0:0:0:
64,192,335982,1,0,0:0:0:0:
320,192,336014,128,0,336139:0:0:0:0:
448,192,336045,128,0,336201:0:0:0:0:
192,192,336232,128,0,336357:0:0:0:0:
64,192,336264,1,0,0:0:0:0:
320,192,336264,128,0,336389:0:0:0:0:
448,192,336295,128,0,336451:0:0:0:0:
192,192,336482,128,0,336607:0:0:0:0:
320,192,336514,128,0,336639:0:0:0:0:
64,192,336514,1,0,0:0:0:0:
448,192,336545,128,0,336701:0:0:0:0:
192,192,336732,128,0,336857:0:0:0:0:
64,192,336764,1,0,0:0:0:0:
320,192,336764,128,0,336920:0:0:0:0:
448,192,336795,128,0,336951:0:0:0:0:
192,192,336982,128,0,337107:0:0:0:0:
64,192,337014,1,0,0:0:0:0:
320,192,337014,128,0,337170:0:0:0:0:
448,192,337045,128,0,337201:0:0:0:0:
192,192,337232,128,0,337389:0:0:0:0:
64,192,337264,1,0,0:0:0:0:
320,192,337264,128,0,337420:0:0:0:0:
448,192,337295,128,0,337451:0:0:0:0:
192,192,337482,128,0,337639:0:0:0:0:
64,192,337514,1,0,0:0:0:0:
320,192,337514,128,0,337670:0:0:0:0:
448,192,337545,128,0,337701:0:0:0:0:
64,192,337732,128,0,338253:0:0:0:0:
320,192,337764,128,0,338008:0:0:0:0:
192,192,337764,128,0,338070:0:0:0:0:
448,192,338008,1,0,0:0:0:0:
448,192,338131,1,0,0:0:0:0:
192,192,338253,1,0,0:0:0:0:
320,192,338406,1,0,0:0:0:0:
64,192,338498,1,0,0:0:0:0:
192,192,338621,1,0,0:0:0:0:
448,192,338743,1,0,0:0:0:0:
192,192,338896,1,0,0:0:0:0:
448,192,338988,1,0,0:0:0:0:
320,192,339110,1,0,0:0:0:0:
64,192,339110,1,0,0:0:0:0:
192,192,339233,1,0,0:0:0:0:
320,192,339355,1,0,0:0:0:0:
448,192,339355,1,0,0:0:0:0:
64,192,339478,1,0,0:0:0:0:
192,192,339600,1,0,0:0:0:0:
320,192,339600,1,0,0:0:0:0:
448,192,339723,1,0,0:0:0:0:
64,192,339843,1,0,0:0:0:0:
192,192,339843,1,0,0:0:0:0:
448,192,339963,1,0,0:0:0:0:
64,192,340083,1,0,0:0:0:0:
320,192,340083,1,0,0:0:0:0:
192,192,340203,1,0,0:0:0:0:
320,192,340323,1,0,0:0:0:0:
448,192,340323,1,0,0:0:0:0:
64,192,340443,1,0,0:0:0:0:
320,192,340593,1,0,0:0:0:0:
64,192,340683,128,0,341163:0:0:0:0:
192,192,340713,128,0,341043:0:0:0:0:
448,192,340713,128,0,340983:0:0:0:0:
320,192,340923,1,0,0:0:0:0:
320,192,341043,1,0,0:0:0:0:
448,192,341163,1,0,0:0:0:0:
64,192,341283,1,0,0:0:0:0:
320,192,341283,1,0,0:0:0:0:
192,192,341403,1,0,0:0:0:0:
448,192,341523,1,0,0:0:0:0:
320,192,341523,1,0,0:0:0:0:
192,192,341643,128,0,341878:0:0:0:0:
64,192,341672,128,0,341819:0:0:0:0:
320,192,341760,1,0,0:0:0:0:
448,192,341878,1,0,0:0:0:0:
64,192,341995,1,0,0:0:0:0:
192,192,341995,1,0,0:0:0:0:
320,192,342113,1,0,0:0:0:0:
448,192,342260,1,0,0:0:0:0:
192,192,342348,1,0,0:0:0:0:
64,192,342466,1,0,0:0:0:0:
320,192,342466,1,0,0:0:0:0:
192,192,342584,1,0,0:0:0:0:
448,192,342584,1,0,0:0:0:0:
320,192,342699,1,0,0:0:0:0:
64,192,342814,1,0,0:0:0:0:
192,192,342930,1,0,0:0:0:0:
448,192,343045,1,0,0:0:0:0:
320,192,343160,1,0,0:0:0:0:
64,192,343160,1,0,0:0:0:0:
192,192,343276,1,0,0:0:0:0:
320,192,343391,1,0,0:0:0:0:
448,192,343391,1,0,0:0:0:0:
64,192,343507,1,0,0:0:0:0:
192,192,343507,1,0,0:0:0:0:
320,192,343618,1,0,0:0:0:0:
192,192,343730,1,0,0:0:0:0:
448,192,343730,1,0,0:0:0:0:
64,192,343842,1,0,0:0:0:0:
320,192,343842,1,0,0:0:0:0:
192,192,343954,1,0,0:0:0:0:
448,192,344070,1,0,0:0:0:0:
320,192,344070,1,0,0:0:0:0:
192,192,344186,1,0,0:0:0:0:
320,192,344302,1,0,0:0:0:0:
448,192,344419,128,0,344863:0:0:0:0:
192,192,344446,128,0,344752:0:0:0:0:
64,192,344446,128,0,344696:0:0:0:0:
320,192,344641,1,0,0:0:0:0:
320,192,344752,1,0,0:0:0:0:
192,192,344863,1,0,0:0:0:0:
64,192,344863,1,0,0:0:0:0:
320,192,345002,1,0,0:0:0:0:
192,192,345085,1,0,0:0:0:0:
64,192,345196,1,0,0:0:0:0:
448,192,345196,1,0,0:0:0:0:
192,192,345307,128,0,345640:0:0:0:0:
320,192,345334,128,0,345584:0:0:0:0:
448,192,345334,128,0,345751:0:0:0:0:
64,192,345455,1,0,0:0:0:0:
64,192,345640,1,0,0:0:0:0:
320,192,345751,1,0,0:0:0:0:
192,192,345751,128,0,345862:0:0:0:0:
64,192,345973,128,0,346121:0:0:0:0:
320,192,345973,1,0,0:0:0:0:
448,192,345973,1,0,0:0:0:0:
192,192,346112,1,0,0:0:0:0:
64,192,346195,128,0,346340:0:0:0:0:
320,192,346195,1,0,0:0:0:0:
448,192,346304,1,0,0:0:0:0:
64,192,346413,128,0,346558:0:0:0:0:
192,192,346413,1,0,0:0:0:0:
320,192,346549,1,0,0:0:0:0:
448,192,346631,128,0,346776:0:0:0:0:
192,192,346631,1,0,0:0:0:0:
64,192,346658,1,0,0:0:0:0:
320,192,346740,1,0,0:0:0:0:
448,192,346849,128,0,346995:0:0:0:0:
64,192,346958,1,0,0:0:0:0:
192,192,346958,1,0,0:0:0:0:
448,192,347067,128,0,347213:0:0:0:0:
192,192,347122,1,0,0:0:0:0:
64,192,347176,1,0,0:0:0:0:
320,192,347176,1,0,0:0:0:0:
448,192,347285,128,0,347431:0:0:0:0:
192,192,347285,1,0,0:0:0:0:
64,192,347313,1,0,0:0:0:0:
320,192,347395,1,0,0:0:0:0:
448,192,347504,128,0,347649:0:0:0:0:
64,192,347504,1,0,0:0:0:0:
320,192,347613,1,0,0:0:0:0:
192,192,347722,128,0,347867:0:0:0:0:
320,192,347831,1,0,0:0:0:0:
192,192,347940,128,0,348082:0:0:0:0:
448,192,348047,1,0,0:0:0:0:
320,192,348127,1,0,0:0:0:0:
192,192,348154,128,0,348297:0:0:0:0:
64,192,348154,1,0,0:0:0:0:
448,192,348261,1,0,0:0:0:0:
320,192,348368,128,0,348582:0:0:0:0:
64,192,348475,1,0,0:0:0:0:
448,192,348582,128,0,348797:0:0:0:0:
192,192,348582,1,0,0:0:0:0:
64,192,348690,1,0,0:0:0:0:
320,192,348690,1,0,0:0:0:0:
192,192,348797,128,0,348928:0:0:0:0:
64,192,348823,128,0,348928:0:0:0:0:
448,192,348902,1,0,0:0:0:0:
192,192,349007,128,0,349139:0:0:0:0:
64,192,349033,128,0,349139:0:0:0:0:
320,192,349147,1,0,0:0:0:0:
448,192,349182,1,0,0:0:0:0:
192,192,349218,128,0,349349:0:0:0:0:
64,192,349244,128,0,349349:0:0:0:0:
192,192,349428,128,0,349560:0:0:0:0:
448,192,349428,1,0,0:0:0:0:
64,192,349454,128,0,349560:0:0:0:0:
192,192,349639,128,0,349766:0:0:0:0:
320,192,349639,1,0,0:0:0:0:
64,192,349664,128,0,349766:0:0:0:0:
192,192,349842,128,0,349969:0:0:0:0:
448,192,349842,1,0,0:0:0:0:
64,192,349867,128,0,349969:0:0:0:0:
192,192,350045,128,0,350172:0:0:0:0:
320,192,350045,1,0,0:0:0:0:
64,192,350071,128,0,350172:0:0:0:0:
448,192,350079,1,0,0:0:0:0:
192,192,350249,128,0,350376:0:0:0:0:
320,192,350249,1,0,0:0:0:0:
64,192,350274,128,0,350376:0:0:0:0:
448,192,350316,1,0,0:0:0:0:
320,192,350452,128,0,350581:0:0:0:0:
192,192,350477,128,0,350555:0:0:0:0:
448,192,350503,128,0,350581:0:0:0:0:
64,192,350555,1,0,0:0:0:0:
320,192,350658,128,0,350788:0:0:0:0:
192,192,350684,128,0,350762:0:0:0:0:
448,192,350684,128,0,350788:0:0:0:0:
320,192,350865,128,0,350995:0:0:0:0:
64,192,350865,1,0,0:0:0:0:
448,192,350891,128,0,350995:0:0:0:0:
192,192,350891,128,0,350969:0:0:0:0:
320,192,351072,128,0,351202:0:0:0:0:
192,192,351098,128,0,351176:0:0:0:0:
64,192,351124,1,0,0:0:0:0:
448,192,351124,128,0,351202:0:0:0:0:
320,192,351279,128,0,351505:0:0:0:0:
64,192,351279,128,0,351631:0:0:0:0:
192,192,351304,128,0,351455:0:0:0:0:
448,192,351329,128,0,351555:0:0:0:0:
64,192,351832,1,0,0:0:0:0:
320,192,351883,1,0,0:0:0:0:
448,192,351933,1,0,0:0:0:0:
320,192,351983,1,0,0:0:0:0:
192,192,352034,1,0,0:0:0:0:
64,192,352084,1,0,0:0:0:0:
448,192,352084,1,0,0:0:0:0:
320,192,352184,1,0,0:0:0:0:
448,192,352234,1,0,0:0:0:0:
64,192,352284,1,0,0:0:0:0:
320,192,352334,1,0,0:0:0:0:
192,192,352384,1,0,0:0:0:0:
64,192,352434,1,0,0:0:0:0:
448,192,352484,1,0,0:0:0:0:
320,192,352517,1,0,0:0:0:0:
64,192,352600,1,0,0:0:0:0:
448,192,352634,1,0,0:0:0:0:
320,192,352667,1,0,0:0:0:0:
192,192,352700,1,0,0:0:0:0:
448,192,352759,1,0,0:0:0:0:
192,192,352834,1,0,0:0:0:0:
320,192,352867,1,0,0:0:0:0:
64,192,352884,1,0,0:0:0:0:
448,192,352984,1,0,0:0:0:0:
64,192,353050,1,0,0:0:0:0:
192,192,353084,1,0,0:0:0:0:
448,192,353184,1,0,0:0:0:0:
320,192,353234,1,0,0:0:0:0:
64,192,353284,1,0,0:0:0:0:
192,192,353284,1,0,0:0:0:0:
448,192,353317,1,0,0:0:0:0:
64,192,353417,1,0,0:0:0:0:
192,192,353484,1,0,0:0:0:0:
448,192,353534,1,0,0:0:0:0:
320,192,353617,1,0,0:0:0:0:
64,192,353684,1,0,0:0:0:0:
448,192,353684,1,0,0:0:0:0:
192,192,353784,1,0,0:0:0:0:
64,192,353884,1,0,0:0:0:0:
448,192,353950,1,0,0:0:0:0:
192,192,353984,1,0,0:0:0:0:
320,192,354050,1,0,0:0:0:0:
64,192,354084,1,0,0:0:0:0:
320,192,354184,1,0,0:0:0:0:
192,192,354250,1,0,0:0:0:0:
448,192,354284,1,0,0:0:0:0:
64,192,354434,1,0,0:0:0:0:
320,192,354484,1,0,0:0:0:0:
448,192,354484,128,0,354784:0:0:0:0:
192,192,354684,1,0,0:0:0:0:
192,192,354784,128,0,355009:0:0:0:0:
64,192,354784,1,0,0:0:0:0:
320,192,354784,1,0,0:0:0:0:
448,192,354884,1,0,0:0:0:0:
320,192,354984,128,0,355059:0:0:0:0:
64,192,355034,128,0,355284:0:0:0:0:
192,192,355084,1,0,0:0:0:0:
192,192,355284,1,0,0:0:0:0:
448,192,355284,1,0,0:0:0:0:
320,192,355417,1,0,0:0:0:0:
448,192,355450,1,0,0:0:0:0:
192,192,355484,1,0,0:0:0:0:
64,192,355550,1,0,0:0:0:0:
448,192,355650,1,0,0:0:0:0:
320,192,355684,1,0,0:0:0:0:
64,192,355784,1,0,0:0:0:0:
192,192,355850,1,0,0:0:0:0:
320,192,355884,1,0,0:0:0:0:
448,192,355884,1,0,0:0:0:0:
448,192,355984,1,0,0:0:0:0:
64,192,356034,1,0,0:0:0:0:
192,192,356084,1,0,0:0:0:0:
320,192,356134,1,0,0:0:0:0:
64,192,356184,1,0,0:0:0:0:
448,192,356250,1,0,0:0:0:0:
320,192,356284,1,0,0:0:0:0:
64,192,356334,1,0,0:0:0:0:
192,192,356450,1,0,0:0:0:0:
320,192,356484,1,0,0:0:0:0:
448,192,356484,1,0,0:0:0:0:
64,192,356559,1,0,0:0:0:0:
448,192,356617,1,0,0:0:0:0:
64,192,356684,1,0,0:0:0:0:
192,192,356750,1,0,0:0:0:0:
448,192,356784,1,0,0:0:0:0:
320,192,356850,1,0,0:0:0:0:
192,192,356884,1,0,0:0:0:0:
64,192,356884,1,0,0:0:0:0:
448,192,356950,1,0,0:0:0:0:
320,192,357000,1,0,0:0:0:0:
192,192,357084,1,0,0:0:0:0:
448,192,357150,1,0,0:0:0:0:
64,192,357217,1,0,0:0:0:0:
192,192,357250,1,0,0:0:0:0:
448,192,357284,1,0,0:0:0:0:
64,192,357350,1,0,0:0:0:0:
320,192,357417,1,0,0:0:0:0:
448,192,357450,1,0,0:0:0:0:
64,192,357484,1,0,0:0:0:0:
192,192,357550,1,0,0:0:0:0:
320,192,357617,1,0,0:0:0:0:
192,192,357684,1,0,0:0:0:0:
448,192,357684,1,0,0:0:0:0:
64,192,357734,128,0,357984:0:0:0:0:
192,192,357884,1,0,0:0:0:0:
448,192,357984,1,0,0:0:0:0:
320,192,357984,128,0,358234:0:0:0:0:
192,192,358084,1,0,0:0:0:0:
64,192,358184,1,0,0:0:0:0:
448,192,358234,128,0,358484:0:0:0:0:
192,192,358284,1,0,0:0:0:0:
192,192,358484,1,0,0:0:0:0:
64,192,358550,1,0,0:0:0:0:
320,192,358584,1,0,0:0:0:0:
448,192,358650,1,0,0:0:0:0:
64,192,358684,1,0,0:0:0:0:
192,192,358784,1,0,0:0:0:0:
448,192,358834,1,0,0:0:0:0:
320,192,358884,1,0,0:0:0:0:
64,192,358934,1,0,0:0:0:0:
192,192,359009,1,0,0:0:0:0:
320,192,359084,1,0,0:0:0:0:
448,192,359084,1,0,0:0:0:0:
64,192,359150,1,0,0:0:0:0:
192,192,359184,1,0,0:0:0:0:
448,192,359284,1,0,0:0:0:0:
192,192,359384,1,0,0:0:0:0:
320,192,359400,1,0,0:0:0:0:
64,192,359500,1,0,0:0:0:0:
448,192,359534,1,0,0:0:0:0:
192,192,359584,1,0,0:0:0:0:
448,192,359684,1,0,0:0:0:0:
64,192,359684,1,0,0:0:0:0:
320,192,359717,1,0,0:0:0:0:
192,192,359784,1,0,0:0:0:0:
64,192,359884,1,0,0:0:0:0:
448,192,359934,1,0,0:0:0:0:
320,192,360017,1,0,0:0:0:0:
192,192,360084,1,0,0:0:0:0:
64,192,360084,1,0,0:0:0:0:
448,192,360134,1,0,0:0:0:0:
320,192,360234,1,0,0:0:0:0:
64,192,360284,1,0,0:0:0:0:
192,192,360350,1,0,0:0:0:0:
320,192,360417,1,0,0:0:0:0:
448,192,360467,1,0,0:0:0:0:
64,192,360484,1,0,0:0:0:0:
320,192,360584,1,0,0:0:0:0:
448,192,360650,1,0,0:0:0:0:
192,192,360684,1,0,0:0:0:0:
64,192,360684,1,0,0:0:0:0:
320,192,360750,1,0,0:0:0:0:
192,192,360817,1,0,0:0:0:0:
64,192,360884,128,0,361184:0:0:0:0:
448,192,360884,1,0,0:0:0:0:
448,192,361084,1,0,0:0:0:0:
192,192,361184,128,0,361434:0:0:0:0:
320,192,361284,1,0,0:0:0:0:
448,192,361284,1,0,0:0:0:0:
64,192,361384,1,0,0:0:0:0:
320,192,361434,128,0,361684:0:0:0:0:
448,192,361484,1,0,0:0:0:0:
64,192,361684,1,0,0:0:0:0:
192,192,361750,1,0,0:0:0:0:
320,192,361784,1,0,0:0:0:0:
448,192,361850,1,0,0:0:0:0:
64,192,361884,1,0,0:0:0:0:
192,192,361967,1,0,0:0:0:0:
448,192,361984,1,0,0:0:0:0:
320,192,361984,1,0,0:0:0:0:
64,192,362100,1,0,0:0:0:0:
320,192,362184,1,0,0:0:0:0:
448,192,362250,1,0,0:0:0:0:
192,192,362300,1,0,0:0:0:0:
320,192,362384,1,0,0:0:0:0:
64,192,362417,1,0,0:0:0:0:
448,192,362484,1,0,0:0:0:0:
320,192,362550,1,0,0:0:0:0:
192,192,362584,1,0,0:0:0:0:
64,192,362584,1,0,0:0:0:0:
448,192,362684,1,0,0:0:0:0:
320,192,362784,1,0,0:0:0:0:
192,192,362834,1,0,0:0:0:0:
64,192,362884,1,0,0:0:0:0:
448,192,362884,1,0,0:0:0:0:
320,192,362950,1,0,0:0:0:0:
448,192,363017,1,0,0:0:0:0:
192,192,363084,1,0,0:0:0:0:
64,192,363184,1,0,0:0:0:0:
320,192,363184,1,0,0:0:0:0:
448,192,363250,1,0,0:0:0:0:
192,192,363300,1,0,0:0:0:0:
320,192,363350,1,0,0:0:0:0:
64,192,363384,1,0,0:0:0:0:
448,192,363384,1,0,0:0:0:0:
192,192,363450,1,0,0:0:0:0:
320,192,363534,1,0,0:0:0:0:
64,192,363584,1,0,0:0:0:0:
192,192,363584,1,0,0:0:0:0:
448,192,363684,1,0,0:0:0:0:
64,192,363750,1,0,0:0:0:0:
192,192,363784,1,0,0:0:0:0:
320,192,363784,1,0,0:0:0:0:
448,192,363859,1,0,0:0:0:0:
320,192,363884,1,0,0:0:0:0:
192,192,363950,1,0,0:0:0:0:
64,192,363984,1,0,0:0:0:0:
448,192,363984,1,0,0:0:0:0:
320,192,364059,1,0,0:0:0:0:
192,192,364134,1,0,0:0:0:0:
448,192,364184,1,0,0:0:0:0:
64,192,364184,1,0,0:0:0:0:
320,192,364250,1,0,0:0:0:0:
64,192,364334,1,0,0:0:0:0:
192,192,364417,1,0,0:0:0:0:
320,192,364484,1,0,0:0:0:0:
448,192,364484,1,0,0:0:0:0:
64,192,364784,1,0,0:0:0:0:
192,192,364834,1,0,0:0:0:0:
448,192,364884,1,0,0:0:0:0:
64,192,364900,1,0,0:0:0:0:
320,192,364967,1,0,0:0:0:0:
192,192,365017,1,0,0:0:0:0:
64,192,365067,1,0,0:0:0:0:
448,192,365084,1,0,0:0:0:0:
320,192,365184,1,0,0:0:0:0:
448,192,365234,1,0,0:0:0:0:
192,192,365284,1,0,0:0:0:0:
320,192,365384,1,0,0:0:0:0:
192,192,365434,1,0,0:0:0:0:
448,192,365467,1,0,0:0:0:0:
64,192,365467,1,0,0:0:0:0:
320,192,365567,1,0,0:0:0:0:
64,192,365617,1,0,0:0:0:0:
448,192,365667,1,0,0:0:0:0:
192,192,365734,1,0,0:0:0:0:
320,192,365800,1,0,0:0:0:0:
448,192,365834,1,0,0:0:0:0:
64,192,365884,1,0,0:0:0:0:
192,192,365950,1,0,0:0:0:0:
320,192,366017,1,0,0:0:0:0:
448,192,366067,1,0,0:0:0:0:
64,192,366100,1,0,0:0:0:0:
320,192,366184,1,0,0:0:0:0:
64,192,366267,1,0,0:0:0:0:
192,192,366334,1,0,0:0:0:0:
64,192,366384,1,0,0:0:0:0:
448,192,366400,1,0,0:0:0:0:
320,192,366450,1,0,0:0:0:0:
192,192,366500,1,0,0:0:0:0:
320,192,366550,1,0,0:0:0:0:
64,192,366584,1,0,0:0:0:0:
448,192,366650,1,0,0:0:0:0:
192,192,366684,1,0,0:0:0:0:
64,192,366784,1,0,0:0:0:0:
448,192,366817,1,0,0:0:0:0:
192,192,366909,1,0,0:0:0:0:
320,192,366934,1,0,0:0:0:0:
448,192,366984,1,0,0:0:0:0:
64,192,366984,1,0,0:0:0:0:
192,192,367034,1,0,0:0:0:0:
64,192,367117,1,0,0:0:0:0:
448,192,367150,128,0,367333:0:0:0:0:
320,192,367283,128,0,367367:0:0:0:0:
192,192,367300,128,0,367400:0:0:0:0:
64,192,367334,128,0,367534:0:0:0:0:
192,192,367484,128,0,367634:0:0:0:0:
320,192,367584,128,0,367717:0:0:0:0:
448,192,367617,128,0,367784:0:0:0:0:
64,192,367633,128,0,367700:0:0:0:0:
192,192,367784,1,0,0:0:0:0:
320,192,367784,128,0,368017:0:0:0:0:
64,192,367850,1,0,0:0:0:0:
192,192,367984,128,0,368084:0:0:0:0:
320,192,368084,1,0,0:0:0:0:
448,192,368117,1,0,0:0:0:0:
64,192,368150,1,0,0:0:0:0:
448,192,368217,1,0,0:0:0:0:
320,192,368284,1,0,0:0:0:0:
64,192,368334,1,0,0:0:0:0:
192,192,368417,1,0,0:0:0:0:
320,192,368450,1,0,0:0:0:0:
448,192,368484,1,0,0:0:0:0:
192,192,368572,1,0,0:0:0:0:
64,192,368650,1,0,0:0:0:0:
320,192,368684,1,0,0:0:0:0:
192,192,368684,1,0,0:0:0:0:
448,192,368784,1,0,0:0:0:0:
320,192,368784,1,0,0:0:0:0:
64,192,368884,1,0,0:0:0:0:
192,192,368934,1,0,0:0:0:0:
448,192,368984,1,0,0:0:0:0:
320,192,368984,1,0,0:0:0:0:
192,192,369050,1,0,0:0:0:0:
64,192,369134,1,0,0:0:0:0:
192,192,369184,1,0,0:0:0:0:
448,192,369259,1,0,0:0:0:0:
320,192,369284,1,0,0:0:0:0:
192,192,369384,1,0,0:0:0:0:
448,192,369417,1,0,0:0:0:0:
64,192,369484,1,0,0:0:0:0:
320,192,369517,1,0,0:0:0:0:
64,192,369584,1,0,0:0:0:0:
192,192,369584,1,0,0:0:0:0:
448,192,369609,1,0,0:0:0:0:
320,192,369717,1,0,0:0:0:0:
192,192,369784,1,0,0:0:0:0:
64,192,369784,1,0,0:0:0:0:
448,192,369817,1,0,0:0:0:0:
320,192,369884,1,0,0:0:0:0:
192,192,369917,1,0,0:0:0:0:
64,192,369984,1,0,0:0:0:0:
320,192,370050,1,0,0:0:0:0:
192,192,370084,1,0,0:0:0:0:
448,192,370084,1,0,0:0:0:0:
64,192,370150,1,0,0:0:0:0:
320,192,370234,1,0,0:0:0:0:
64,192,370350,1,0,0:0:0:0:
192,192,370384,128,0,370534:0:0:0:0:
448,192,370384,1,0,0:0:0:0:
320,192,370484,128,0,370650:0:0:0:0:
64,192,370584,1,0,0:0:0:0:
192,192,370684,128,0,370809:0:0:0:0:
320,192,370784,128,0,370909:0:0:0:0:
192,192,370859,128,0,370934:0:0:0:0:
448,192,370934,128,0,371034:0:0:0:0:
64,192,370984,1,0,0:0:0:0:
448,192,371084,128,0,371234:0:0:0:0:
64,192,371184,1,0,0:0:0:0:
320,192,371234,1,0,0:0:0:0:
192,192,371284,1,0,0:0:0:0:
64,192,371350,1,0,0:0:0:0:
448,192,371384,1,0,0:0:0:0:
320,192,371409,1,0,0:0:0:0:
192,192,371484,1,0,0:0:0:0:
320,192,371534,1,0,0:0:0:0:
64,192,371584,1,0,0:0:0:0:
448,192,371634,1,0,0:0:0:0:
192,192,371684,1,0,0:0:0:0:
448,192,371784,1,0,0:0:0:0:
192,192,371884,1,0,0:0:0:0:
320,192,371934,1,0,0:0:0:0:
64,192,371984,1,0,0:0:0:0:
448,192,371984,1,0,0:0:0:0:
192,192,372050,1,0,0:0:0:0:
320,192,372084,1,0,0:0:0:0:
64,192,372134,1,0,0:0:0:0:
448,192,372184,1,0,0:0:0:0:
320,192,372184,1,0,0:0:0:0:
192,192,372250,1,0,0:0:0:0:
64,192,372317,1,0,0:0:0:0:
448,192,372350,1,0,0:0:0:0:
192,192,372417,1,0,0:0:0:0:
320,192,372484,1,0,0:0:0:0:
448,192,372550,1,0,0:0:0:0:
64,192,372650,1,0,0:0:0:0:
320,192,372684,1,0,0:0:0:0:
448,192,372734,1,0,0:0:0:0:
64,192,372784,1,0,0:0:0:0:
192,192,372784,1,0,0:0:0:0:
320,192,372884,1,0,0:0:0:0:
64,192,372950,1,0,0:0:0:0:
448,192,372984,1,0,0:0:0:0:
320,192,372984,1,0,0:0:0:0:
192,192,373050,1,0,0:0:0:0:
448,192,373084,1,0,0:0:0:0:
64,192,373117,1,0,0:0:0:0:
192,192,373217,1,0,0:0:0:0:
320,192,373284,1,0,0:0:0:0:
448,192,373334,1,0,0:0:0:0:
192,192,373334,1,0,0:0:0:0:
64,192,373450,1,0,0:0:0:0:
448,192,373517,1,0,0:0:0:0:
320,192,373550,1,0,0:0:0:0:
192,192,373584,1,0,0:0:0:0:
64,192,373584,128,0,374250:0:0:0:0:
320,192,373684,128,0,373934:0:0:0:0:
192,192,373784,128,0,373984:0:0:0:0:
448,192,373884,1,0,0:0:0:0:
448,192,373984,128,0,374417:0:0:0:0:
320,192,374084,128,0,374334:0:0:0:0:
192,192,374284,1,0,0:0:0:0:
64,192,374484,128,0,374984:0:0:0:0:
192,192,374517,128,0,374884:0:0:0:0:
320,192,374550,128,0,374784:0:0:0:0:
320,192,375084,128,0,375784:0:0:0:0:
192,192,375117,128,0,375684:0:0:0:0:
64,192,375150,128,0,375584:0:0:0:0:
448,192,376084,128,0,376584:0:0:0:0:
320,192,376117,128,0,376384:0:0:0:0:
64,192,376150,128,0,376484:0:0:0:0:
192,192,376684,128,0,377584:0:0:0:0:
320,192,376717,128,0,377384:0:0:0:0:
448,192,376750,128,0,377284:0:0:0:0:
320,192,377684,1,0,0:0:0:0:
448,192,377684,1,0,0:0:0:0:
192,192,377884,1,0,0:0:0:0:
64,192,377984,1,0,0:0:0:0:
320,192,377984,1,0,0:0:0:0:
448,192,377984,1,0,0:0:0:0:
192,192,378084,1,0,0:0:0:0:
320,192,378284,1,0,0:0:0:0:
448,192,378284,1,0,0:0:0:0:
64,192,378484,1,0,0:0:0:0:
192,192,378584,1,0,0:0:0:0:
448,192,378584,1,0,0:0:0:0:
320,192,378684,1,0,0:0:0:0:
64,192,378884,1,0,0:0:0:0:
192,192,378884,1,0,0:0:0:0:
448,192,378984,1,0,0:0:0:0:
320,192,379084,1,0,0:0:0:0:
448,192,379284,1,0,0:0:0:0:
320,192,379284,1,0,0:0:0:0:
64,192,379284,1,0,0:0:0:0:
448,192,379364,1,0,0:0:0:0:
192,192,379364,1,0,0:0:0:0:
320,192,379444,1,0,0:0:0:0:
64,192,379524,1,0,0:0:0:0:
192,192,379524,1,0,0:0:0:0:
320,192,379604,1,0,0:0:0:0:
448,192,379604,1,0,0:0:0:0:
192,192,379684,1,0,0:0:0:0:
64,192,379684,1,0,0:0:0:0:
448,192,379764,1,0,0:0:0:0:
320,192,379764,1,0,0:0:0:0:
192,192,379844,1,0,0:0:0:0:
64,192,379924,1,0,0:0:0:0:
448,192,380004,5,0,0:0:0:0:
320,192,380004,1,0,0:0:0:0:
192,192,380084,1,0,0:0:0:0:
448,192,380164,1,0,0:0:0:0:
320,192,380164,1,0,0:0:0:0:
64,192,380164,1,0,0:0:0:0:
192,192,380244,1,0,0:0:0:0:
64,192,380244,1,0,0:0:0:0:
320,192,380484,128,0,380884:0:0:0:0:
64,192,380884,1,0,0:0:0:0:
448,192,380884,1,0,0:0:0:0:
192,192,380950,1,0,0:0:0:0:
64,192,381017,1,0,0:0:0:0:
448,192,381084,1,0,0:0:0:0:
192,192,381150,1,0,0:0:0:0:
448,192,381217,1,0,0:0:0:0:
64,192,381284,1,0,0:0:0:0:
320,192,381350,1,0,0:0:0:0:
64,192,381417,1,0,0:0:0:0:
192,192,381484,1,0,0:0:0:0:
448,192,381484,1,0,0:0:0:0:
320,192,381550,1,0,0:0:0:0:
192,192,381617,1,0,0:0:0:0:
448,192,381684,1,0,0:0:0:0:
64,192,381750,1,0,0:0:0:0:
320,192,381817,1,0,0:0:0:0:
192,192,381884,1,0,0:0:0:0:
64,192,381950,1,0,0:0:0:0:
320,192,382017,1,0,0:0:0:0:
448,192,382084,1,0,0:0:0:0:
64,192,382084,1,0,0:0:0:0:
192,192,382150,1,0,0:0:0:0:
448,192,382217,1,0,0:0:0:0:
320,192,382284,1,0,0:0:0:0:
64,192,382350,1,0,0:0:0:0:
320,192,382417,1,0,0:0:0:0:
448,192,382484,1,0,0:0:0:0:
192,192,382484,1,0,0:0:0:0:
64,192,382550,1,0,0:0:0:0:
192,192,382617,1,0,0:0:0:0:
320,192,382684,1,0,0:0:0:0:
64,192,382750,1,0,0:0:0:0:
448,192,382817,1,0,0:0:0:0:
64,192,382884,1,0,0:0:0:0:
192,192,382950,1,0,0:0:0:0:
320,192,383017,1,0,0:0:0:0:
448,192,383084,1,0,0:0:0:0:
192,192,383084,1,0,0:0:0:0:
64,192,383184,1,0,0:0:0:0:
320,192,383284,1,0,0:0:0:0:
448,192,383284,1,0,0:0:0:0:
320,192,383384,1,0,0:0:0:0:
192,192,383484,1,0,0:0:0:0:
320,192,383584,1,0,0:0:0:0:
448,192,383584,1,0,0:0:0:0:
64,192,383584,1,0,0:0:0:0:
64,192,383684,1,0,0:0:0:0:
320,192,383784,1,0,0:0:0:0:
448,192,383884,1,0,0:0:0:0:
192,192,383884,1,0,0:0:0:0:
64,192,383984,1,0,0:0:0:0:
320,192,384084,1,0,0:0:0:0:
448,192,384084,1,0,0:0:0:0:
192,192,384184,1,0,0:0:0:0:
64,192,384284,1,0,0:0:0:0:
320,192,384284,1,0,0:0:0:0:
448,192,384350,1,0,0:0:0:0:
64,192,384417,1,0,0:0:0:0:
192,192,384484,1,0,0:0:0:0:
320,192,384550,1,0,0:0:0:0:
192,192,384617,1,0,0:0:0:0:
320,192,384684,1,0,0:0:0:0:
448,192,384684,1,0,0:0:0:0:
64,192,384750,1,0,0:0:0:0:
320,192,384817,1,0,0:0:0:0:
448,192,384884,1,0,0:0:0:0:
64,192,384950,1,0,0:0:0:0:
320,192,385017,1,0,0:0:0:0:
192,192,385084,1,0,0:0:0:0:
64,192,385150,1,0,0:0:0:0:
320,192,385217,1,0,0:0:0:0:
192,192,385284,1,0,0:0:0:0:
448,192,385284,1,0,0:0:0:0:
64,192,385350,1,0,0:0:0:0:
448,192,385417,1,0,0:0:0:0:
192,192,385484,1,0,0:0:0:0:
320,192,385550,1,0,0:0:0:0:
192,192,385617,1,0,0:0:0:0:
448,192,385684,1,0,0:0:0:0:
64,192,385684,1,0,0:0:0:0:
320,192,385750,1,0,0:0:0:0:
192,192,385817,1,0,0:0:0:0:
64,192,385884,1,0,0:0:0:0:
320,192,385884,1,0,0:0:0:0:
192,192,385950,1,0,0:0:0:0:
64,192,386017,1,0,0:0:0:0:
320,192,386084,1,0,0:0:0:0:
64,192,386150,1,0,0:0:0:0:
448,192,386217,1,0,0:0:0:0:
320,192,386284,1,0,0:0:0:0:
192,192,386284,1,0,0:0:0:0:
448,192,386384,1,0,0:0:0:0:
64,192,386484,1,0,0:0:0:0:
320,192,386484,1,0,0:0:0:0:
64,192,386584,1,0,0:0:0:0:
192,192,386584,1,0,0:0:0:0:
448,192,386684,1,0,0:0:0:0:
192,192,386784,1,0,0:0:0:0:
192,192,386884,1,0,0:0:0:0:
64,192,386884,1,0,0:0:0:0:
320,192,386984,1,0,0:0:0:0:
64,192,387084,1,0,0:0:0:0:
448,192,387184,1,0,0:0:0:0:
320,192,387184,1,0,0:0:0:0:
320,192,387284,1,0,0:0:0:0:
64,192,387284,1,0,0:0:0:0:
192,192,387384,1,0,0:0:0:0:
448,192,387484,1,0,0:0:0:0:
320,192,387484,1,0,0:0:0:0:
192,192,387584,1,0,0:0:0:0:
64,192,387684,1,0,0:0:0:0:
320,192,387684,1,0,0:0:0:0:
192,192,387750,1,0,0:0:0:0:
448,192,387817,1,0,0:0:0:0:
320,192,387884,1,0,0:0:0:0:
64,192,387950,1,0,0:0:0:0:
448,192,388000,1,0,0:0:0:0:
192,192,388017,1,0,0:0:0:0:
320,192,388084,1,0,0:0:0:0:
192,192,388150,1,0,0:0:0:0:
64,192,388217,1,0,0:0:0:0:
448,192,388284,1,0,0:0:0:0:
192,192,388350,1,0,0:0:0:0:
320,192,388400,1,0,0:0:0:0:
64,192,388417,1,0,0:0:0:0:
448,192,388484,1,0,0:0:0:0:
320,192,388550,1,0,0:0:0:0:
448,192,388617,1,0,0:0:0:0:
192,192,388684,1,0,0:0:0:0:
320,192,388750,1,0,0:0:0:0:
64,192,388817,1,0,0:0:0:0:
448,192,388884,1,0,0:0:0:0:
192,192,388884,1,0,0:0:0:0:
64,192,388984,1,0,0:0:0:0:
448,192,388984,1,0,0:0:0:0:
192,192,389084,1,0,0:0:0:0:
320,192,389184,1,0,0:0:0:0:
448,192,389184,1,0,0:0:0:0:
320,192,389284,1,0,0:0:0:0:
64,192,389384,1,0,0:0:0:0:
192,192,389384,1,0,0:0:0:0:
64,192,389484,1,0,0:0:0:0:
448,192,389550,1,0,0:0:0:0:
192,192,389617,1,0,0:0:0:0:
320,192,389684,1,0,0:0:0:0:
448,192,389684,1,0,0:0:0:0:
192,192,389784,1,0,0:0:0:0:
64,192,389784,1,0,0:0:0:0:
64,192,389884,1,0,0:0:0:0:
192,192,389984,1,0,0:0:0:0:
448,192,389984,1,0,0:0:0:0:
320,192,390084,1,0,0:0:0:0:
192,192,390184,1,0,0:0:0:0:
64,192,390184,1,0,0:0:0:0:
320,192,390284,1,0,0:0:0:0:
64,192,390384,1,0,0:0:0:0:
448,192,390384,1,0,0:0:0:0:
448,192,390484,1,0,0:0:0:0:
320,192,390584,1,0,0:0:0:0:
64,192,390684,1,0,0:0:0:0:
192,192,390684,1,0,0:0:0:0:
320,192,390750,1,0,0:0:0:0:
64,192,390817,1,0,0:0:0:0:
448,192,390884,1,0,0:0:0:0:
192,192,390950,1,0,0:0:0:0:
64,192,390984,1,0,0:0:0:0:
448,192,391017,1,0,0:0:0:0:
320,192,391084,1,0,0:0:0:0:
192,192,391184,1,0,0:0:0:0:
448,192,391184,1,0,0:0:0:0:
64,192,391284,1,0,0:0:0:0:
320,192,391350,1,0,0:0:0:0:
64,192,391417,1,0,0:0:0:0:
448,192,391484,1,0,0:0:0:0:
192,192,391550,1,0,0:0:0:0:
320,192,391600,1,0,0:0:0:0:
64,192,391617,1,0,0:0:0:0:
448,192,391684,1,0,0:0:0:0:
192,192,391784,1,0,0:0:0:0:
320,192,391784,1,0,0:0:0:0:
448,192,391884,1,0,0:0:0:0:
320,192,391950,1,0,0:0:0:0:
192,192,392000,1,0,0:0:0:0:
64,192,392017,1,0,0:0:0:0:
320,192,392084,1,0,0:0:0:0:
448,192,392184,1,0,0:0:0:0:
192,192,392217,1,0,0:0:0:0:
64,192,392284,1,0,0:0:0:0:
64,192,392384,1,0,0:0:0:0:
448,192,392417,1,0,0:0:0:0:
192,192,392484,1,0,0:0:0:0:
320,192,392484,1,0,0:0:0:0:
448,192,392550,1,0,0:0:0:0:
64,192,392600,1,0,0:0:0:0:
192,192,392617,1,0,0:0:0:0:
448,192,392684,1,0,0:0:0:0:
64,192,392750,1,0,0:0:0:0:
192,192,392784,1,0,0:0:0:0:
320,192,392817,1,0,0:0:0:0:
192,192,392884,1,0,0:0:0:0:
448,192,392950,1,0,0:0:0:0:
64,192,393017,1,0,0:0:0:0:
320,192,393084,1,0,0:0:0:0:
192,192,393150,1,0,0:0:0:0:
448,192,393217,1,0,0:0:0:0:
192,192,393284,128,0,393617:0:0:0:0:
448,192,393384,1,0,0:0:0:0:
64,192,393450,1,0,0:0:0:0:
64,192,393559,1,0,0:0:0:0:
320,192,393684,1,0,0:0:0:0:
448,192,393684,1,0,0:0:0:0:
64,192,393750,1,0,0:0:0:0:
448,192,393817,1,0,0:0:0:0:
192,192,393884,1,0,0:0:0:0:
64,192,393884,1,0,0:0:0:0:
320,192,393950,1,0,0:0:0:0:
192,192,394017,1,0,0:0:0:0:
64,192,394084,1,0,0:0:0:0:
448,192,394084,1,0,0:0:0:0:
320,192,394150,1,0,0:0:0:0:
192,192,394217,1,0,0:0:0:0:
448,192,394284,1,0,0:0:0:0:
320,192,394350,1,0,0:0:0:0:
64,192,394396,1,0,0:0:0:0:
192,192,394417,1,0,0:0:0:0:
320,192,394484,1,0,0:0:0:0:
448,192,394484,1,0,0:0:0:0:
192,192,394550,1,0,0:0:0:0:
448,192,394617,1,0,0:0:0:0:
192,192,394684,1,0,0:0:0:0:
64,192,394684,1,0,0:0:0:0:
320,192,394750,1,0,0:0:0:0:
64,192,394817,1,0,0:0:0:0:
192,192,394884,1,0,0:0:0:0:
448,192,394884,1,0,0:0:0:0:
320,192,394950,1,0,0:0:0:0:
64,192,394984,1,0,0:0:0:0:
448,192,395017,1,0,0:0:0:0:
192,192,395084,1,0,0:0:0:0:
320,192,395150,1,0,0:0:0:0:
192,192,395217,1,0,0:0:0:0:
64,192,395284,1,0,0:0:0:0:
448,192,395284,1,0,0:0:0:0:
320,192,395350,1,0,0:0:0:0:
192,192,395417,1,0,0:0:0:0:
320,192,395500,1,0,0:0:0:0:
64,192,395584,1,0,0:0:0:0:
448,192,395584,1,0,0:0:0:0:
320,192,395684,1,0,0:0:0:0:
192,192,395750,1,0,0:0:0:0:
64,192,395798,1,0,0:0:0:0:
320,192,395884,1,0,0:0:0:0:
192,192,395950,1,0,0:0:0:0:
448,192,396017,1,0,0:0:0:0:
192,192,396084,1,0,0:0:0:0:
64,192,396084,1,0,0:0:0:0:
320,192,396184,1,0,0:0:0:0:
320,192,396284,1,0,0:0:0:0:
448,192,396284,1,0,0:0:0:0:
192,192,396384,1,0,0:0:0:0:
448,192,396384,1,0,0:0:0:0:
64,192,396484,1,0,0:0:0:0:
64,192,396584,1,0,0:0:0:0:
192,192,396584,1,0,0:0:0:0:
320,192,396684,1,0,0:0:0:0:
192,192,396784,1,0,0:0:0:0:
64,192,396884,1,0,0:0:0:0:
448,192,396884,1,0,0:0:0:0:
320,192,396984,1,0,0:0:0:0:
448,192,397034,1,0,0:0:0:0:
192,192,397084,1,0,0:0:0:0:
64,192,397150,1,0,0:0:0:0:
192,192,397217,1,0,0:0:0:0:
448,192,397284,1,0,0:0:0:0:
320,192,397321,1,0,0:0:0:0:
64,192,397350,1,0,0:0:0:0:
192,192,397417,1,0,0:0:0:0:
448,192,397484,1,0,0:0:0:0:
320,192,397550,1,0,0:0:0:0:
64,192,397595,1,0,0:0:0:0:
448,192,397617,1,0,0:0:0:0:
192,192,397684,1,0,0:0:0:0:
64,192,397750,1,0,0:0:0:0:
448,192,397817,1,0,0:0:0:0:
320,192,397884,1,0,0:0:0:0:
64,192,397917,1,0,0:0:0:0:
192,192,397950,1,0,0:0:0:0:
448,192,398017,1,0,0:0:0:0:
64,192,398084,1,0,0:0:0:0:
192,192,398084,1,0,0:0:0:0:
320,192,398150,1,0,0:0:0:0:
192,192,398217,1,0,0:0:0:0:
64,192,398284,1,0,0:0:0:0:
448,192,398284,1,0,0:0:0:0:
320,192,398350,1,0,0:0:0:0:
448,192,398417,1,0,0:0:0:0:
192,192,398484,1,0,0:0:0:0:
64,192,398484,1,0,0:0:0:0:
320,192,398550,1,0,0:0:0:0:
192,192,398617,1,0,0:0:0:0:
320,192,398684,1,0,0:0:0:0:
64,192,398784,1,0,0:0:0:0:
448,192,398817,1,0,0:0:0:0:
192,192,398884,1,0,0:0:0:0:
64,192,398884,1,0,0:0:0:0:
192,192,398984,1,0,0:0:0:0:
448,192,399050,1,0,0:0:0:0:
64,192,399100,1,0,0:0:0:0:
320,192,399184,1,0,0:0:0:0:
448,192,399284,1,0,0:0:0:0:
320,192,399284,1,0,0:0:0:0:
64,192,399350,1,0,0:0:0:0:
448,192,399417,1,0,0:0:0:0:
320,192,399484,1,0,0:0:0:0:
192,192,399484,1,0,0:0:0:0:
448,192,399584,1,0,0:0:0:0:
448,192,399684,1,0,0:0:0:0:
64,192,399684,1,0,0:0:0:0:
192,192,399784,1,0,0:0:0:0:
192,192,399884,1,0,0:0:0:0:
448,192,399884,1,0,0:0:0:0:
320,192,399984,1,0,0:0:0:0:
64,192,400084,1,0,0:0:0:0:
448,192,400084,1,0,0:0:0:0:
192,192,400150,1,0,0:0:0:0:
64,192,400217,1,0,0:0:0:0:
448,192,400284,1,0,0:0:0:0:
320,192,400284,1,0,0:0:0:0:
192,192,400350,1,0,0:0:0:0:
448,192,400417,1,0,0:0:0:0:
320,192,400484,1,0,0:0:0:0:
64,192,400550,1,0,0:0:0:0:
192,192,400567,1,0,0:0:0:0:
320,192,400617,1,0,0:0:0:0:
64,192,400684,1,0,0:0:0:0:
448,192,400684,1,0,0:0:0:0:
192,192,400750,1,0,0:0:0:0:
448,192,400817,1,0,0:0:0:0:
320,192,400884,1,0,0:0:0:0:
64,192,400884,1,0,0:0:0:0:
192,192,400950,1,0,0:0:0:0:
64,192,401017,1,0,0:0:0:0:
320,192,401084,1,0,0:0:0:0:
192,192,401150,1,0,0:0:0:0:
448,192,401200,1,0,0:0:0:0:
64,192,401217,1,0,0:0:0:0:
192,192,401284,1,0,0:0:0:0:
448,192,401350,1,0,0:0:0:0:
192,192,401417,1,0,0:0:0:0:
64,192,401484,1,0,0:0:0:0:
320,192,401484,1,0,0:0:0:0:
448,192,401550,1,0,0:0:0:0:
320,192,401617,1,0,0:0:0:0:
192,192,401684,1,0,0:0:0:0:
64,192,401750,1,0,0:0:0:0:
192,192,401817,1,0,0:0:0:0:
448,192,401884,1,0,0:0:0:0:
320,192,401884,1,0,0:0:0:0:
64,192,401950,1,0,0:0:0:0:
448,192,402017,1,0,0:0:0:0:
320,192,402084,1,0,0:0:0:0:
64,192,402084,1,0,0:0:0:0:
192,192,402184,1,0,0:0:0:0:
448,192,402284,1,0,0:0:0:0:
64,192,402284,1,0,0:0:0:0:
448,192,402384,1,0,0:0:0:0:
64,192,402484,1,0,0:0:0:0:
320,192,402484,1,0,0:0:0:0:
192,192,402550,1,0,0:0:0:0:
64,192,402617,1,0,0:0:0:0:
320,192,402684,1,0,0:0:0:0:
448,192,402684,1,0,0:0:0:0:
192,192,402750,1,0,0:0:0:0:
320,192,402817,1,0,0:0:0:0:
64,192,402884,1,0,0:0:0:0:
448,192,402884,1,0,0:0:0:0:
192,192,402934,1,0,0:0:0:0:
320,192,402984,1,0,0:0:0:0:
64,192,403084,1,0,0:0:0:0:
448,192,403146,1,0,0:0:0:0:
320,192,403209,1,0,0:0:0:0:
64,192,403284,1,0,0:0:0:0:
192,192,403284,1,0,0:0:0:0:
448,192,403350,1,0,0:0:0:0:
192,192,403417,1,0,0:0:0:0:
320,192,403484,1,0,0:0:0:0:
64,192,403550,1,0,0:0:0:0:
320,192,403617,1,0,0:0:0:0:
64,192,403684,1,0,0:0:0:0:
448,192,403684,1,0,0:0:0:0:
192,192,403750,1,0,0:0:0:0:
448,192,403817,1,0,0:0:0:0:
192,192,403884,1,0,0:0:0:0:
64,192,403950,1,0,0:0:0:0:
192,192,404017,1,0,0:0:0:0:
448,192,404084,1,0,0:0:0:0:
64,192,404150,1,0,0:0:0:0:
448,192,404217,1,0,0:0:0:0:
64,192,404284,1,0,0:0:0:0:
320,192,404284,1,0,0:0:0:0:
192,192,404350,1,0,0:0:0:0:
320,192,404417,1,0,0:0:0:0:
448,192,404484,1,0,0:0:0:0:
64,192,404484,1,0,0:0:0:0:
192,192,404550,1,0,0:0:0:0:
448,192,404617,1,0,0:0:0:0:
64,192,404684,1,0,0:0:0:0:
320,192,404717,1,0,0:0:0:0:
448,192,404784,1,0,0:0:0:0:
320,192,404884,1,0,0:0:0:0:
192,192,404884,1,0,0:0:0:0:
64,192,404934,1,0,0:0:0:0:
320,192,405009,1,0,0:0:0:0:
448,192,405059,1,0,0:0:0:0:
64,192,405109,1,0,0:0:0:0:
192,192,405159,1,0,0:0:0:0:
448,192,405234,1,0,0:0:0:0:
320,192,405284,1,0,0:0:0:0:
192,192,405284,1,0,0:0:0:0:
64,192,405334,1,0,0:0:0:0:
448,192,405409,1,0,0:0:0:0:
320,192,405459,1,0,0:0:0:0:
192,192,405509,1,0,0:0:0:0:
64,192,405559,1,0,0:0:0:0:
320,192,405634,1,0,0:0:0:0:
448,192,405684,1,0,0:0:0:0:
192,192,405684,1,0,0:0:0:0:
64,192,405750,1,0,0:0:0:0:
320,192,405817,1,0,0:0:0:0:
64,192,405884,1,0,0:0:0:0:
192,192,405884,1,0,0:0:0:0:
320,192,405950,1,0,0:0:0:0:
448,192,406017,5,0,0:0:0:0:
320,192,406084,1,0,0:0:0:0:
64,192,406084,1,0,0:0:0:0:
192,192,406150,1,0,0:0:0:0:
448,192,406217,1,0,0:0:0:0:
192,192,406284,1,0,0:0:0:0:
64,192,406284,1,0,0:0:0:0:
448,192,406334,1,0,0:0:0:0:
320,192,406384,1,0,0:0:0:0:
192,192,406434,1,0,0:0:0:0:
64,192,406484,5,0,0:0:0:0:
320,192,406484,1,0,0:0:0:0:
448,192,406484,128,0,406684:0:0:0:0:
192,192,406584,1,0,0:0:0:0:
192,192,406684,1,0,0:0:0:0:
320,192,406784,1,0,0:0:0:0:
448,192,406784,128,0,406984:0:0:0:0:
64,192,406784,1,0,0:0:0:0:
192,192,406884,1,0,0:0:0:0:
192,192,406984,1,0,0:0:0:0:
448,192,407084,128,0,407384:0:0:0:0:
64,192,407084,1,0,0:0:0:0:
320,192,407117,128,0,407317:0:0:0:0:
64,192,407384,1,0,0:0:0:0:
192,192,407484,1,0,0:0:0:0:
320,192,407484,128,0,407884:0:0:0:0:
448,192,407684,1,0,0:0:0:0:
64,192,407884,1,0,0:0:0:0:
192,192,407884,1,0,0:0:0:0:
448,192,408084,128,0,408217:0:0:0:0:
192,192,408217,128,0,408350:0:0:0:0:
320,192,408284,1,0,0:0:0:0:
448,192,408284,1,0,0:0:0:0:
64,192,408350,128,0,408684:0:0:0:0:
320,192,408484,1,0,0:0:0:0:
320,192,408684,128,0,409084:0:0:0:0:
192,192,408684,1,0,0:0:0:0:
448,192,408717,128,0,408984:0:0:0:0:
64,192,408984,1,0,0:0:0:0:
448,192,409084,128,0,409284:0:0:0:0:
192,192,409084,1,0,0:0:0:0:
192,192,409284,128,0,409484:0:0:0:0:
320,192,409484,128,0,409684:0:0:0:0:
64,192,409484,1,0,0:0:0:0:
448,192,409684,1,0,0:0:0:0:
192,192,409684,1,0,0:0:0:0:
64,192,409684,128,0,409884:0:0:0:0:
320,192,409784,1,0,0:0:0:0:
320,192,409884,1,0,0:0:0:0:
192,192,409984,1,0,0:0:0:0:
448,192,409984,1,0,0:0:0:0:
64,192,409984,128,0,410184:0:0:0:0:
320,192,410084,1,0,0:0:0:0:
320,192,410184,1,0,0:0:0:0:
192,192,410284,1,0,0:0:0:0:
64,192,410284,128,0,410484:0:0:0:0:
448,192,410317,128,0,410550:0:0:0:0:
64,192,410584,128,0,410684:0:0:0:0:
192,192,410634,128,0,410709:0:0:0:0:
320,192,410684,128,0,411084:0:0:0:0:
448,192,410684,1,0,0:0:0:0:
192,192,410884,1,0,0:0:0:0:
448,192,411084,1,0,0:0:0:0:
64,192,411084,1,0,0:0:0:0:
64,192,411284,128,0,411384:0:0:0:0:
192,192,411384,128,0,411484:0:0:0:0:
448,192,411484,1,0,0:0:0:0:
320,192,411484,128,0,411784:0:0:0:0:
64,192,411684,1,0,0:0:0:0:
320,192,411884,128,0,412484:0:0:0:0:
192,192,411884,1,0,0:0:0:0:
64,192,411917,128,0,412184:0:0:0:0:
192,192,412184,1,0,0:0:0:0:
448,192,412284,1,0,0:0:0:0:
64,192,412284,1,0,0:0:0:0:
192,192,412484,1,0,0:0:0:0:
448,192,412684,1,0,0:0:0:0:
192,192,412684,128,0,412884:0:0:0:0:
448,192,412884,1,0,0:0:0:0:
64,192,412884,1,0,0:0:0:0:
320,192,412884,128,0,413084:0:0:0:0:
192,192,412984,1,0,0:0:0:0:
192,192,413084,1,0,0:0:0:0:
64,192,413184,1,0,0:0:0:0:
448,192,413184,1,0,0:0:0:0:
320,192,413184,128,0,413384:0:0:0:0:
192,192,413284,1,0,0:0:0:0:
192,192,413384,1,0,0:0:0:0:
448,192,413484,1,0,0:0:0:0:
320,192,413484,128,0,413884:0:0:0:0:
64,192,413517,128,0,413784:0:0:0:0:
448,192,413684,1,0,0:0:0:0:
192,192,413784,1,0,0:0:0:0:
64,192,413884,128,0,414484:0:0:0:0:
448,192,413917,128,0,414184:0:0:0:0:
192,192,414084,1,0,0:0:0:0:
448,192,414284,1,0,0:0:0:0:
320,192,414284,1,0,0:0:0:0:
448,192,414484,128,0,414550:0:0:0:0:
320,192,414584,128,0,414684:0:0:0:0:
448,192,414684,1,0,0:0:0:0:
64,192,414684,128,0,414817:0:0:0:0:
192,192,414784,128,0,415084:0:0:0:0:
320,192,414884,1,0,0:0:0:0:
64,192,415084,1,0,0:0:0:0:
448,192,415084,128,0,415384:0:0:0:0:
320,192,415117,128,0,415284:0:0:0:0:
320,192,415384,1,0,0:0:0:0:
192,192,415484,128,0,415684:0:0:0:0:
64,192,415484,1,0,0:0:0:0:
448,192,415484,1,0,0:0:0:0:
64,192,415684,128,0,415984:0:0:0:0:
192,192,415884,128,0,416017:0:0:0:0:
320,192,415884,1,0,0:0:0:0:
448,192,415984,128,0,416084:0:0:0:0:
64,192,416084,1,0,0:0:0:0:
192,192,416084,128,0,416284:0:0:0:0:
320,192,416084,1,0,0:0:0:0:
448,192,416184,1,0,0:0:0:0:
448,192,416284,1,0,0:0:0:0:
64,192,416384,1,0,0:0:0:0:
192,192,416384,128,0,416584:0:0:0:0:
320,192,416384,1,0,0:0:0:0:
448,192,416484,1,0,0:0:0:0:
448,192,416584,1,0,0:0:0:0:
192,192,416684,128,0,416884:0:0:0:0:
64,192,416684,1,0,0:0:0:0:
320,192,416717,128,0,416984:0:0:0:0:
192,192,416984,128,0,417084:0:0:0:0:
64,192,417084,128,0,417184:0:0:0:0:
448,192,417084,1,0,0:0:0:0:
320,192,417184,128,0,417484:0:0:0:0:
192,192,417284,1,0,0:0:0:0:
64,192,417484,1,0,0:0:0:0:
192,192,417484,1,0,0:0:0:0:
448,192,417550,1,0,0:0:0:0:
64,192,417684,128,0,417750:0:0:0:0:
192,192,417784,128,0,417884:0:0:0:0:
64,192,417884,1,0,0:0:0:0:
320,192,417884,128,0,418017:0:0:0:0:
448,192,417984,128,0,418284:0:0:0:0:
192,192,418084,1,0,0:0:0:0:
320,192,418284,1,0,0:0:0:0:
64,192,418317,128,0,418484:0:0:0:0:
448,192,418384,128,0,418784:0:0:0:0:
192,192,418484,1,0,0:0:0:0:
64,192,418584,1,0,0:0:0:0:
192,192,418684,1,0,0:0:0:0:
64,192,418684,1,0,0:0:0:0:
320,192,418784,1,0,0:0:0:0:
64,192,418884,128,0,419184:0:0:0:0:
320,192,419084,1,0,0:0:0:0:
448,192,419084,1,0,0:0:0:0:
192,192,419184,1,0,0:0:0:0:
64,192,419284,1,0,0:0:0:0:
448,192,419284,1,0,0:0:0:0:
320,192,419284,128,0,419484:0:0:0:0:
192,192,419384,1,0,0:0:0:0:
192,192,419484,1,0,0:0:0:0:
320,192,419584,128,0,419784:0:0:0:0:
448,192,419584,1,0,0:0:0:0:
64,192,419584,1,0,0:0:0:0:
192,192,419684,1,0,0:0:0:0:
192,192,419784,1,0,0:0:0:0:
320,192,419884,128,0,420284:0:0:0:0:
64,192,419884,1,0,0:0:0:0:
448,192,419917,128,0,420150:0:0:0:0:
192,192,420234,128,0,420334:0:0:0:0:
64,192,420284,128,0,420884:0:0:0:0:
448,192,420284,1,0,0:0:0:0:
448,192,420484,1,0,0:0:0:0:
192,192,420684,1,0,0:0:0:0:
320,192,420684,1,0,0:0:0:0:
448,192,420884,128,0,420984:0:0:0:0:
320,192,420984,128,0,421084:0:0:0:0:
192,192,421084,128,0,421284:0:0:0:0:
448,192,421084,1,0,0:0:0:0:
64,192,421284,1,0,0:0:0:0:
448,192,421417,128,0,421684:0:0:0:0:
64,192,421484,1,0,0:0:0:0:
320,192,421484,1,0,0:0:0:0:
192,192,421584,1,0,0:0:0:0:
64,192,421684,1,0,0:0:0:0:
320,192,421784,128,0,422084:0:0:0:0:
192,192,421884,1,0,0:0:0:0:
64,192,421884,1,0,0:0:0:0:
64,192,422084,128,0,422284:0:0:0:0:
192,192,422284,1,0,0:0:0:0:
448,192,422284,1,0,0:0:0:0:
320,192,422384,1,0,0:0:0:0:
448,192,422484,1,0,0:0:0:0:
64,192,422484,1,0,0:0:0:0:
192,192,422484,128,0,422684:0:0:0:0:
320,192,422584,1,0,0:0:0:0:
320,192,422684,1,0,0:0:0:0:
448,192,422684,1,0,0:0:0:0:
192,192,422784,1,0,0:0:0:0:
64,192,422784,1,0,0:0:0:0:
192,192,422884,1,0,0:0:0:0:
320,192,422884,1,0,0:0:0:0:
64,192,422984,1,0,0:0:0:0:
320,192,422984,1,0,0:0:0:0:
192,192,423084,128,0,423484:0:0:0:0:
448,192,423084,1,0,0:0:0:0:
64,192,423117,128,0,423417:0:0:0:0:
320,192,423284,1,0,0:0:0:0:
448,192,423484,128,0,423617:0:0:0:0:
64,192,423550,128,0,424084:0:0:0:0:
192,192,423684,1,0,0:0:0:0:
448,192,423684,1,0,0:0:0:0:
320,192,423884,1,0,0:0:0:0:
192,192,424084,128,0,424284:0:0:0:0:
448,192,424150,1,0,0:0:0:0:
320,192,424234,128,0,424434:0:0:0:0:
64,192,424284,1,0,0:0:0:0:
448,192,424384,128,0,424984:0:0:0:0:
320,192,424684,128,0,425084:0:0:0:0:
192,192,424684,128,0,425134:0:0:0:0:
64,192,424709,128,0,425209:0:0:0:0:
