osu file format v14

[General]
AudioFilename: audio.mp3
AudioLeadIn: 0
PreviewTime: 7630
Countdown: 0
SampleSet: Normal
StackLeniency: 0.9
Mode: 0
LetterboxInBreaks: 0
WidescreenStoryboard: 1

[Editor]
DistanceSpacing: 1
BeatDivisor: 4
GridSize: 32
TimelineZoom: 1.4

[Metadata]
Title:cold weather
TitleUnicode:cold weather
Artist:glass beach
ArtistUnicode:glass beach
Creator:pishifat
Version:normal
Source:
Tags:featured artist the first album rock english
BeatmapID:2664008
BeatmapSetID:1280001

[Difficulty]
HPDrainRate:4
CircleSize:3
OverallDifficulty:4
ApproachRate:5
SliderMultiplier:1
SliderTickRate:1

[Events]
//Background and Video events
0,0,"cover.jpg",0,0
//Break Periods
2,49482,60082
2,105320,110540
//Storyboard Layer 0 (Background)
//Storyboard Layer 1 (Fail)
//Storyboard Layer 2 (Pass)
//Storyboard Layer 3 (Foreground)
//Storyboard Layer 4 (Overlay)
//Storyboard Sound Samples

[TimingPoints]
68,315.78947368421,5,1,1,70,1,0
68,-90.9090909090909,5,1,1,70,0,0
4804,321.715817694369,4,1,1,70,1,0
4804,-90.9090909090909,4,1,1,70,0,0
6090,382.165605095541,4,1,1,60,1,0
6090,-90.9090909090909,4,1,1,60,0,0
6854,-90.9090909090909,4,1,1,70,0,0
6949,-100,4,1,1,5,0,0
9147,-100,4,2,0,25,0,0
9800,375,4,2,1,70,1,0
9800,-100,4,2,1,70,0,0
10175,387.096774193548,4,2,1,70,1,0
11336,387.096774193548,4,2,1,70,1,0
14819,400,4,2,1,70,1,0
15219,387.096774193548,4,2,1,70,1,0
15412,-100,4,2,1,60,0,0
15993,387.096774193548,4,2,1,60,1,0
16670,-100,4,2,1,5,0,0
16767,-100,4,2,1,60,0,0
17445,-100,4,2,1,5,0,0
17541,-100,4,2,1,60,0,0
18993,-100,4,2,1,5,0,0
19090,-100,4,3,1,60,0,0
20251,-100,4,2,1,70,0,0
20832,-100,4,2,1,25,0,0
21025,-100,4,2,1,35,0,0
21219,-100,4,2,1,45,0,0
21412,387.096774193548,4,2,1,60,1,0
21412,-100,4,2,1,60,0,0
27024,-100,4,2,1,60,0,0
30605,-100,4,2,1,5,0,0
30702,-100,4,3,1,60,0,0
32250,-100,4,2,1,70,0,0
33799,-83.3333333333333,4,1,1,70,0,1
35347,-83.3333333333333,4,1,1,70,0,0
35541,-83.3333333333333,4,1,1,5,0,0
35637,-83.3333333333333,4,1,1,70,0,0
36411,-83.3333333333333,4,1,1,5,0,0
36508,-83.3333333333333,4,1,1,70,0,0
36895,-83.3333333333333,4,1,1,70,0,1
38444,-83.3333333333333,4,1,1,70,0,0
38637,-83.3333333333333,4,1,1,5,0,0
38734,-83.3333333333333,4,1,1,70,0,0
39992,-83.3333333333333,4,1,1,70,0,1
44541,-83.3333333333333,4,1,1,45,0,1
44637,-83.3333333333333,4,1,1,70,0,1
44928,-83.3333333333333,4,1,1,45,0,1
45024,-83.3333333333333,4,1,1,70,0,1
45315,-83.3333333333333,4,1,1,45,0,1
45411,-83.3333333333333,4,1,1,70,0,1
47637,-83.3333333333333,4,1,1,45,0,1
47734,-83.3333333333333,4,1,1,70,0,1
48024,-83.3333333333333,4,1,1,45,0,1
48121,-83.3333333333333,4,1,1,70,0,1
49282,375,4,1,1,70,1,0
61282,-100,4,3,1,50,0,0
70282,387.096774193548,4,2,1,70,1,0
71249,-100,4,2,1,70,0,0
71830,-100,4,2,1,55,0,0
77443,-100,4,2,1,60,0,0
80733,-100,4,3,1,60,0,0
81023,-100,4,3,1,5,0,0
81120,-100,4,3,1,60,0,0
82862,-100,4,3,1,40,0,0
83056,-100,4,3,1,50,0,0
83443,387.096774193548,4,2,1,55,1,0
83443,-100,4,2,1,55,0,0
89055,-100,4,2,1,60,0,0
90023,-100,4,2,1,70,0,1
90313,-100,4,2,1,5,0,1
90410,-100,4,2,1,70,0,0
90701,-100,4,2,1,5,0,0
90797,-100,4,2,1,70,0,1
91088,-100,4,2,1,5,0,1
91184,-100,4,2,1,70,0,0
91475,-100,4,2,1,5,0,0
91572,-100,4,2,1,70,0,1
91862,-100,4,2,1,5,0,1
91959,-100,4,2,1,70,0,0
92249,-100,4,2,1,5,0,0
92346,-100,4,2,1,70,0,1
92636,-100,4,2,1,5,0,1
92733,-100,4,3,1,60,0,0
95830,-83.3333333333333,4,1,1,70,0,1
96701,-83.3333333333333,4,1,1,5,0,1
96797,-83.3333333333333,4,1,1,70,0,1
97378,-83.3333333333333,4,1,1,70,0,0
97572,-83.3333333333333,4,1,1,5,0,0
97668,-83.3333333333333,4,1,1,70,0,0
98442,-83.3333333333333,4,1,1,5,0,0
98539,-83.3333333333333,4,1,1,70,0,0
98926,-83.3333333333333,4,1,1,70,0,1
99797,-83.3333333333333,4,1,1,5,0,1
99894,-83.3333333333333,4,1,1,70,0,1
100475,-83.3333333333333,4,1,1,70,0,0
100668,-83.3333333333333,4,1,1,5,0,0
100765,-83.3333333333333,4,1,1,70,0,0
101152,-83.3333333333333,4,1,1,5,0,0
101249,-83.3333333333333,4,1,1,70,0,0
101539,-83.3333333333333,4,1,1,5,0,0
101636,-83.3333333333333,4,1,1,70,0,0
101733,-83.3333333333333,4,1,1,50,0,0
101830,-83.3333333333333,4,1,1,70,0,0
101926,-83.3333333333333,4,1,1,50,0,0
102023,-83.3333333333333,4,1,1,70,0,1
105120,413.793103448275,4,2,0,70,1,0
111740,-100,4,1,1,30,0,0
112568,-100,4,1,1,35,0,0
113395,-100,4,1,1,40,0,0
114223,-100,4,1,1,45,0,0
115051,-100,4,1,1,50,0,0
116292,-100,4,1,1,55,0,0
116706,-100,4,1,1,60,0,0
117119,-100,4,1,1,65,0,0
117533,-100,4,1,1,70,0,0
118361,-83.3333333333333,4,1,1,70,0,1
118775,-83.3333333333333,4,1,1,70,0,1
119919,-83.3333333333333,4,1,1,45,0,1
120016,387.096774193548,4,1,1,70,1,1
120209,-83.3333333333333,4,1,1,70,0,1
120306,-83.3333333333333,4,1,1,45,0,1
120403,-83.3333333333333,4,1,1,70,0,1
120693,-83.3333333333333,4,1,1,45,0,1
120790,400,4,1,1,70,1,1
120990,-83.3333333333333,4,1,1,70,0,1
121590,393.44262295082,4,1,1,70,1,1
121590,-83.3333333333333,4,1,1,70,0,1
123065,-83.3333333333333,4,1,1,45,0,1
123163,-83.3333333333333,4,1,1,70,0,1
123458,-83.3333333333333,4,1,1,45,0,1
123557,-83.3333333333333,4,1,1,70,0,1
123852,-83.3333333333333,4,1,1,45,0,1
123950,-83.3333333333333,4,1,1,70,0,1
124737,375,4,1,1,70,1,1
125112,-83.3333333333333,4,1,1,70,0,1
126143,-83.3333333333333,4,1,1,45,0,1
126237,-83.3333333333333,4,1,1,70,0,1
126518,-83.3333333333333,4,1,1,45,0,1
126612,-83.3333333333333,4,1,1,70,0,1
126893,-83.3333333333333,4,1,1,45,0,1
126987,-83.3333333333333,4,1,1,70,0,1
127362,333.333333333333,4,1,1,70,1,1
127362,-83.3333333333333,4,1,1,70,0,1
127695,363.636363636363,4,1,1,70,1,1
128058,-83.3333333333333,4,1,1,70,0,1
129058,-83.3333333333333,4,1,1,45,0,1
129149,-83.3333333333333,4,1,1,70,0,1
129422,-83.3333333333333,4,1,1,45,0,1
129513,-83.3333333333333,4,1,1,70,0,1
130604,300,5,1,1,70,1,0
130604,-90.9090909090909,5,1,1,70,0,0
131279,-90.9090909090909,5,1,1,5,0,0
131354,-90.9090909090909,5,1,1,70,0,0
132029,-90.9090909090909,5,1,1,5,0,0
132104,-90.9090909090909,5,1,1,70,0,0
132779,-90.9090909090909,5,1,1,5,0,0
132854,-90.9090909090909,5,1,1,70,0,0
133229,-90.9090909090909,5,1,1,5,0,0
133304,-90.9090909090909,5,1,1,70,0,0
133529,-90.9090909090909,5,1,1,5,0,0
133604,-90.9090909090909,5,1,1,70,0,0
134279,-90.9090909090909,5,1,1,5,0,0
134354,-90.9090909090909,5,1,1,70,0,0
135029,-90.9090909090909,5,1,1,5,0,0
135104,-90.9090909090909,5,1,1,70,0,0

[Colours]
Combo1 : 241,241,241
Combo2 : 14,235,169
Combo3 : 227,70,105
Combo4 : 126,136,184

[HitObjects]
73,190,68,6,0,L|65:132,1,55.0000016784668,12|8,0:1|0:0,0:0:0:0:
93,88,383,2,0,L|85:30,1,55.0000016784668,4|8,0:3|0:0,0:0:0:0:
198,54,857,1,4,0:3:0:0:
198,54,1015,2,0,P|247:67|289:111,1,110.000003356934,8|8,0:0|0:0,0:0:0:0:
340,204,1646,6,0,L|409:214,2,55.0000016784668,12|8|4,0:1|0:0|0:3,0:0:0:0:
296,237,2120,1,8,0:0:0:0:
367,328,2436,1,4,0:3:0:0:
367,328,2594,2,0,L|250:345,1,110.000003356934,8|8,0:0|0:0,0:0:0:0:
175,270,3225,38,0,P|142:241|119:232,1,55.0000016784668,12|8,0:1|0:0,0:0:0:0:
77,226,3541,2,0,P|35:234|11:247,1,55.0000016784668,4|8,0:3|0:0,0:0:0:0:
27,132,4015,1,4,0:3:0:0:
27,132,4173,2,0,P|93:116|139:85,1,110.000003356934,8|8,0:0|0:0,0:0:0:0:
205,18,4804,5,8,0:0:0:0:
410,94,5447,1,8,0:0:0:0:
243,230,6090,2,0,L|232:146,2,73.3333355712891,8|8|8,0:0|0:0|0:0,0:0:0:0:
256,309,6854,1,8,0:0:0:0:
256,192,6949,12,0,9147,0:0:0:0:
188,315,9800,22,0,P|145:324|89:330,1,100,4|10,0:3|0:0,0:0:0:0:
72,232,10562,2,0,P|115:223|170:216,2,100,4|10|4,0:3|0:0|0:3,0:0:0:0:
31,140,11723,2,0,P|34:110|52:71,1,50,10|2,0:0|0:0,0:0:0:0:
85,70,12110,2,0,P|95:50|122:20,2,50,4|2|10,0:3|0:0|0:0,0:0:0:0:
179,101,12884,38,0,P|228:108|275:123,1,100,4|10,0:3|0:0,0:0:0:0:
319,213,13658,2,0,P|366:228|415:235,1,100,4|10,0:3|0:0,0:0:0:0:
508,198,14432,1,4,0:3:0:0:
468,106,14819,2,0,L|460:56,2,50,10|2|6,0:0|0:0|0:3,0:0:0:0:
427,135,15412,1,10,0:0:0:0:
342,80,15799,1,10,0:2:0:0:
342,80,15993,6,0,P|322:143|318:192,1,100,4|10,0:3|0:0,0:0:0:0:
220,155,16767,2,0,P|236:107|243:58,2,100,4|10|4,0:3|0:0|0:3,0:0:0:0:
128,196,17929,2,0,L|62:184,2,50,10|2|4,0:0|0:0|0:3,0:0:0:0:
207,256,18703,1,10,0:0:0:0:
126,315,19090,38,0,B|64:327|64:327|44:347|44:347|-15:357,2,150,8|8|8,3:1|3:1|0:1,0:0:0:0:
215,359,20638,1,8,0:1:0:0:
410,316,21412,6,0,P|431:267|427:207,1,100,4|10,0:3|0:0,0:0:0:0:
332,201,22186,2,0,P|311:250|315:310,2,100,4|10|4,0:3|0:0|0:3,0:0:0:0:
401,129,23347,2,0,L|466:114,1,50,10|2,0:0|0:0,0:0:0:0:
476,75,23734,2,0,L|464:15,1,50,4|2,0:3|0:0,0:0:0:0:
419,6,24121,1,10,0:0:0:0:
329,50,24508,38,0,P|277:40|231:5,1,100,4|10,0:3|0:0,0:0:0:0:
142,40,25282,2,0,P|131:91|97:137,1,100,4|10,0:3|0:0,0:0:0:0:
23,188,26057,1,4,0:3:0:0:
82,265,26444,2,0,L|73:321,2,50,10|2|4,0:0|0:0|0:3,0:0:0:0:
124,239,27024,1,10,0:0:0:0:
209,291,27411,1,10,0:0:0:0:
209,291,27605,6,0,P|279:228|301:224,1,100,4|10,0:3|0:0,0:0:0:0:
334,142,28379,2,0,P|346:76|371:44,2,100,4|10|4,0:3|0:0|0:3,0:0:0:0:
423,186,29541,2,0,L|437:242,1,50,10|0,0:0|0:0,0:0:0:0:
464,275,29928,2,0,P|440:334|406:360,1,100,4|10,0:3|0:0,0:0:0:0:
326,306,30702,38,0,B|309:233|309:233|227:196,2,150,8|8|8,0:1|0:1|0:1,0:0:0:0:
226,301,32250,1,8,0:1:0:0:
56,53,33411,1,8,0:1:0:0:
56,53,33799,22,0,L|41:181,1,119.999996337891,4|8,0:1|0:0,0:0:0:0:
35,225,34379,2,0,P|96:169|209:189,1,179.999994506836,4|8,0:1|0:0,0:0:0:0:
222,277,35347,2,0,P|164:280|118:254,2,89.9999972534181,12|12|8,0:1|0:1|0:1,0:0:0:0:
267,247,36121,1,12,0:1:0:0:
366,313,36508,1,4,0:3:0:0:
366,313,36702,1,8,0:0:0:0:
366,313,36895,6,0,L|384:168,1,119.999996337891,4|8,0:1|0:0,0:0:0:0:
417,153,37476,2,0,P|394:77|288:45,1,179.999994506836,4|8,0:1|0:0,0:0:0:0:
215,99,38444,2,0,L|201:2,2,89.9999972534181,12|12|8,0:1|0:1|0:0,0:0:0:0:
187,145,39218,1,12,0:1:0:0:
145,244,39605,1,8,0:1:0:0:
145,244,39799,1,8,0:0:0:0:
145,244,39992,38,0,B|115:297|115:297|123:374,1,119.999996337891,12|8,0:0|0:0,0:0:0:0:
222,317,40766,2,0,B|275:347|275:347|352:339,1,119.999996337891,8|8,0:0|0:0,0:0:0:0:
384,320,41347,1,8,0:0:0:0:
434,299,41541,2,0,L|450:157,1,119.999996337891,12|8,0:1|0:0,0:0:0:0:
339,172,42315,2,0,L|355:30,1,119.999996337891,8|8,0:0|0:0,0:0:0:0:
317,12,42895,1,4,0:3:0:0:
317,12,43089,6,0,B|260:22|260:22|221:77,1,119.999996337891,12|8,0:1|0:0,0:0:0:0:
163,162,43863,2,0,L|175:230,2,59.9999981689454,8|4|8,0:0|0:3|0:0,0:0:0:0:
116,133,44444,2,0,L|-12:108,2,119.999996337891,4|4|4,0:3|0:3|0:3,0:0:0:0:
173,221,45605,2,0,L|237:233,2,59.9999981689454,8|8|4,0:3|0:0|0:3,0:0:0:0:
125,246,46186,38,0,P|90:296|92:373,1,119.999996337891,12|8,0:1|0:0,0:0:0:0:
193,367,46960,2,0,L|259:350,1,59.9999981689454,8|4,0:0|0:3,0:0:0:0:
302,368,47347,1,8,0:0:0:0:
302,368,47541,2,0,P|345:287|330:184,1,179.999994506836,4|8,0:3|0:0,0:0:0:0:
270,116,48508,1,8,0:0:0:0:
359,74,48895,1,8,0:0:0:0:
425,145,49282,5,12,0:1:0:0:
37,88,61282,6,0,B|139:95|114:39|252:49,1,200,4|8,0:3|0:2,0:0:0:0:
319,91,62407,2,0,L|335:196,2,100,0|0|8,0:2|0:0|0:3,0:0:0:0:
392,22,63532,1,8,0:0:0:0:
456,211,64282,6,0,P|381:227|302:335,1,200,4|8,0:3|0:2,0:0:0:0:
216,272,65407,1,0,0:0:0:0:
131,325,65782,2,0,L|113:209,1,100,0|8,0:0|0:3,0:0:0:0:
98,127,66532,2,0,L|88:58,2,50,8|0|4,0:0|0:0|0:3,0:0:0:0:
187,82,67282,38,0,L|396:119,1,200,4|10,0:3|0:0,0:0:0:0:
465,183,68407,2,0,P|424:245|383:263,1,100,0|0,0:0|0:0,0:0:0:0:
211,198,69532,2,0,B|101:207|134:256|25:264,1,200,8|4,0:0|0:3,0:0:0:0:
12,215,70475,38,0,L|20:151,1,50,8|8,0:0|0:0,0:0:0:0:
46,124,70862,2,0,L|53:61,1,50,8|8,0:0|0:0,0:0:0:0:
91,43,71249,2,0,B|134:67|134:67|200:53,1,100,6|14,0:3|0:3,0:0:0:0:
224,27,71830,22,0,P|290:27|330:37,1,100,4|10,0:3|0:0,0:0:0:0:
409,84,72604,2,0,P|457:74|507:76,2,100,4|10|4,0:3|0:0|0:3,0:0:0:0:
327,141,73765,2,0,L|318:214,2,50,10|2|4,0:0|0:0|0:3,0:0:0:0:
228,159,74540,2,0,L|219:221,1,50,10|2,0:0|0:0,0:0:0:0:
252,247,74927,38,0,P|285:301|297:342,1,100,4|10,0:3|0:0,0:0:0:0:
195,331,75701,2,0,P|150:309|101:299,1,100,4|10,0:3|0:0,0:0:0:0:
24,235,76475,1,4,0:3:0:0:
80,152,76862,2,0,L|148:141,2,50,10|2|4,0:0|0:0|0:3,0:0:0:0:
39,122,77443,1,10,0:0:0:0:
106,48,77830,1,10,0:0:0:0:
106,48,78023,6,0,P|157:59|221:65,1,100,4|10,0:3|0:0,0:0:0:0:
267,142,78798,2,0,P|256:192|250:257,2,100,4|10|4,0:3|0:0|0:3,0:0:0:0:
353,92,79959,2,0,L|411:77,1,50,10|2,0:0|0:0,0:0:0:0:
451,86,80346,2,0,P|483:157|490:189,1,100,4|10,0:3|0:2,0:0:0:0:
439,265,81120,38,0,B|509:291|509:291|468:364,2,150,8|8|8,0:1|0:1|0:1,0:0:0:0:
369,336,82669,1,8,0:1:0:0:
287,277,83056,1,8,0:2:0:0:
192,309,83443,6,0,P|128:297|96:265,1,100,4|10,0:2|0:0,0:0:0:0:
143,183,84217,2,0,P|134:118|155:78,2,100,4|10|4,0:3|0:0|0:3,0:0:0:0:
234,141,85378,2,0,L|299:134,1,50,10|2,0:0|0:0,0:0:0:0:
323,105,85765,2,0,L|316:51,2,50,4|2|10,0:3|0:0|0:0,0:0:0:0:
382,185,86539,1,4,0:3:0:0:
473,144,86926,38,0,P|500:88|492:40,1,100,10|4,0:0|0:3,0:0:0:0:
404,17,87701,2,0,P|361:49|302:53,1,100,10|4,0:0|0:3,0:0:0:0:
217,41,88475,2,0,L|159:30,2,50,10|2|4,0:0|0:0|0:3,0:0:0:0:
228,89,89055,1,10,0:0:0:0:
134,126,89443,1,10,0:0:0:0:
134,126,89636,1,4,0:3:0:0:
98,219,90023,38,0,B|121:213|121:213|212:235,1,100,12|4,0:1|0:3,0:0:0:0:
222,326,90797,2,0,B|234:305|234:305|313:256,1,100,12|4,0:1|0:3,0:0:0:0:
389,309,91572,2,0,B|382:286|382:286|405:195,1,100,12|4,0:1|0:3,0:0:0:0:
495,180,92346,2,0,B|474:167|474:167|453:134,1,50,12|0,0:1|0:0,0:0:0:0:
447,97,92733,6,0,B|384:76|384:76|375:58|375:58|307:32,2,150,8|8|8,0:1|0:1|0:1,0:0:0:0:
490,7,94281,1,8,0:1:0:0:
372,348,95442,1,8,0:1:0:0:
372,348,95830,22,0,L|241:330,1,119.999996337891,12|8,0:1|0:0,0:0:0:0:
199,323,96410,2,0,P|234:279|210:157,1,179.999994506836,4|8,0:1|0:0,0:0:0:0:
110,139,97378,2,0,P|87:170|31:195,2,89.9999972534181,12|12|8,0:1|0:1|0:0,0:0:0:0:
124,86,98152,1,12,0:0:0:0:
202,11,98539,2,0,L|280:26,1,59.9999981689454,4|8,0:3|0:0,0:0:0:0:
307,49,98926,5,4,0:1:0:0:
307,49,99120,2,0,B|339:55|339:55|380:30,1,59.9999981689454,4|12,0:3|0:0,0:0:0:0:
415,26,99507,2,0,P|410:81|507:169,1,179.999994506836,4|8,0:0|0:0,0:0:0:0:
495,274,100475,2,0,L|379:296,1,89.9999972534181,12|12,0:1|0:0,0:0:0:0:
325,301,101055,1,4,0:3:0:0:
325,301,101249,1,12,0:0:0:0:
229,251,101636,1,8,0:0:0:0:
229,251,101830,1,8,0:0:0:0:
229,251,102023,38,0,B|170:240|170:240|116:285,1,119.999996337891,4|8,0:1|0:0,0:0:0:0:
48,200,102797,2,0,B|91:158|91:158|86:88,1,119.999996337891,8|8,0:0|0:0,0:0:0:0:
81,45,103378,1,8,0:0:0:0:
81,45,103572,2,0,L|202:66,1,119.999996337891,12|8,0:1|0:0,0:0:0:0:
301,30,104346,2,0,L|422:51,1,119.999996337891,8|8,0:0|0:0,0:0:0:0:
465,78,104926,1,4,0:3:0:0:
465,78,105120,5,4,1:1:0:0:
256,192,111740,12,0,117533,0:0:0:0:
65,66,118361,38,0,B|29:115|29:115|40:184,1,119.999996337891,12|12,0:1|0:0,0:0:0:0:
143,199,119188,2,0,B|179:150|179:150|168:81,1,119.999996337891,12|8,0:1|0:0,0:0:0:0:
162,37,119809,1,4,0:3:0:0:
272,18,120209,1,4,0:3:0:0:
379,6,120596,1,4,0:3:0:0:
449,85,120990,2,0,L|511:93,2,59.9999981689454,4|8|4,0:3|0:0|0:3,0:0:0:0:
399,109,121590,6,0,B|373:144|373:144|392:243,1,119.999996337891,12|12,0:1|0:1,0:0:0:0:
279,264,122376,2,0,B|305:229|305:229|286:130,1,119.999996337891,12|8,0:0|0:0,0:0:0:0:
255,112,122967,1,4,0:3:0:0:
152,78,123360,1,4,0:3:0:0:
69,147,123753,2,0,L|58:278,1,119.999996337891,4|4,0:3|0:3,0:0:0:0:
81,316,124344,2,0,L|148:302,1,59.9999981689454,8|4,0:0|0:3,0:0:0:0:
194,321,124737,37,12,0:1:0:0:
295,357,125112,1,12,0:0:0:0:
389,304,125487,2,0,L|460:287,2,59.9999981689454,12|4|8,0:0|0:3|0:0,0:0:0:0:
343,274,126049,2,0,B|303:232|303:232|316:156,2,119.999996337891,4|4|4,0:3|0:3|0:3,0:0:0:0:
419,197,127174,1,4,0:3:0:0:
419,197,127362,2,0,L|427:131,1,59.9999981689454,0|4,0:0|0:3,0:0:0:0:
436,82,127695,5,12,0:1:0:0:
336,39,128058,1,12,0:0:0:0:
242,93,128422,2,0,L|255:160,2,59.9999981689454,12|4|8,0:0|0:3|0:0,0:0:0:0:
206,52,128967,2,0,P|125:76|92:109,1,119.999996337891,4|4,0:3|0:3,0:0:0:0:
77,148,129513,2,0,L|104:293,1,119.999996337891,8|12,0:0|0:0,0:0:0:0:
213,294,130240,1,12,0:0:0:0:
213,294,130422,1,4,0:3:0:0:
213,294,130604,38,0,L|203:352,2,55.0000016784668,12|8|4,0:1|0:0|0:3,0:0:0:0:
250,253,131054,2,0,P|329:250|394:324,1,165.000005035401,8|8,0:0|0:0,0:0:0:0:
483,249,131804,1,8,0:0:0:0:
454,142,132104,6,0,L|445:74,1,55.0000016784668,12|8,0:1|0:0,0:0:0:0:
465,35,132404,1,4,0:3:0:0:
465,35,132554,2,0,L|290:13,1,165.000005035401,8|8,0:0|0:0,0:0:0:0:
209,75,133304,1,8,0:0:0:0:
99,74,133604,38,0,L|88:20,2,55.0000016784668,12|8|4,0:0|0:0|0:3,0:0:0:0:
58,112,134054,2,0,P|39:164|88:255,1,165.000005035401,8|8,0:0|0:0,0:0:0:0:
191,217,134804,1,8,0:0:0:0:
224,321,135104,37,12,0:1:0:0:
