osu file format v14

[General]
AudioFilename: audio.mp3
AudioLeadIn: 0
PreviewTime: 208989
Countdown: 0
SampleSet: Soft
StackLeniency: 0.3
Mode: 0
LetterboxInBreaks: 0
WidescreenStoryboard: 1

[Editor]
Bookmarks: 102770,167629,284379
DistanceSpacing: 0.9
BeatDivisor: 4
GridSize: 8
TimelineZoom: 2.813103

[Metadata]
Title:classic j dies and goes to hell part 1
TitleUnicode:classic j dies and goes to hell part 1
Artist:glass beach
ArtistUnicode:glass beach
Creator:Sytho
Version:grab my hand and run away
Source:osu!
Tags:english zglock power pop indie rock midwest emo the first album featured artist mpg mappers guild fa
BeatmapID:2691656
BeatmapSetID:1297467

[Difficulty]
HPDrainRate:5
CircleSize:4.2
OverallDifficulty:8.2
ApproachRate:9
SliderMultiplier:1.3
SliderTickRate:1

[Events]
//Background and Video events
0,0,"go to hell.jpg",0,0
//Break Periods
2,207189,209181
//Storyboard Layer 0 (Background)
//Storyboard Layer 1 (Fail)
//Storyboard Layer 2 (Pass)
//Storyboard Layer 3 (Foreground)
//Storyboard Layer 4 (Overlay)
//Storyboard Sound Samples

[TimingPoints]
2916,731.707317073171,4,2,1,40,1,0
8769,722.89156626506,4,2,1,40,1,0
11660,714.285714285714,4,2,1,40,1,0
14517,727.272727272727,4,2,1,40,1,0
17426,784.313725490196,4,2,1,40,1,0
18994,641.711229946524,4,2,1,40,1,0
19635,754.716981132075,4,2,1,40,1,0
20389,816.326530612245,4,2,1,40,1,0
23654,-105.263157894737,4,2,1,40,0,0
27011,875.912408759124,4,2,1,40,1,0
27891,885.60885608856,4,2,1,40,1,0
28776,895.5223880597,4,2,1,40,1,0
30567,919.540229885056,4,2,1,40,1,0
31486,916.030534351144,4,2,1,40,1,0
32860,999.999999999998,4,2,1,40,1,0
33360,941.176470588234,4,2,1,40,1,0
34301,967.741935483869,4,2,1,40,1,0
35268,963.855421686745,4,2,1,40,1,0
36231,1016.94915254237,4,2,1,40,1,0
37247,956.175298804778,4,2,1,40,1,0
38203,948.616600790511,4,2,1,40,1,0
39151,1030.04291845493,4,2,1,40,1,0
39666,1764.70588235294,4,2,1,40,1,0
39666,-52.9100529100529,4,2,1,40,0,0
40107,983.606557377047,4,2,1,40,1,0
42074,952.38095238095,4,2,1,40,1,0
43026,963.855421686744,4,2,1,40,1,0
45917,971.659919028337,4,2,1,40,1,0
48831,963.855421686744,4,2,1,40,1,0
49553,-100,4,2,1,5,0,0
49794,971.659919028337,4,2,1,40,1,0
51494,-100,4,2,1,5,0,0
51737,967.741935483868,4,2,1,40,1,0
53672,963.855421686744,4,2,1,40,1,0
57045,1025.64102564102,4,2,1,40,1,0
57557,952.38095238095,4,2,1,50,1,0
58509,963.855421686744,4,2,1,50,1,0
61400,971.659919028337,4,2,1,50,1,0
64314,956.175298804778,4,2,1,50,1,0
65270,975.609756097558,4,2,1,50,1,0
66977,-100,4,2,1,5,0,0
67221,-100,4,2,1,50,0,0
67952,-100,4,2,1,5,0,0
68191,902.255639097742,4,2,1,50,1,0
68867,-100,4,2,1,5,0,0
69098,1021.27659574468,4,2,1,50,1,0
70119,967.741935483868,4,2,1,50,1,0
72054,963.855421686744,4,2,1,50,1,0
73981,956.175298804778,4,2,1,50,1,0
74698,-100,4,2,1,5,0,0
74937,-100,4,2,1,50,0,0
75654,-100,4,2,1,5,0,0
75893,916.030534351143,4,2,1,50,1,0
76580,-100,4,2,1,5,0,0
76809,-100,4,2,1,50,0,0
79557,898.87640449438,4,2,1,50,1,0
80455,882.352941176468,4,2,1,50,1,0
81337,866.425992779781,4,2,1,50,1,0
81337,-33.3333333333333,4,2,1,50,0,0
83936,842.105263157893,4,2,1,40,1,0
84778,836.236933797907,4,2,1,50,1,0
86450,799.999999999998,4,2,1,55,1,0
87250,1025.64102564102,4,2,1,60,1,0
87762,483.870967741935,4,2,1,80,1,0
87762,-43.4782608695652,4,2,1,80,0,0
89213,483.870967741935,4,2,1,80,1,0
89213,-43.4782608695652,4,2,1,80,0,0
90180,495.867768595041,4,2,1,80,1,0
90180,-43.4782608695652,4,2,1,80,0,0
90675,483.870967741935,4,2,1,80,1,0
90675,-43.4782608695652,4,2,1,80,0,0
91158,483.870967741935,4,2,1,80,1,0
91158,-43.4782608695652,4,2,1,80,0,0
102767,483.870967741935,4,2,1,80,1,0
102767,-43.4782608695652,4,2,1,80,0,0
113170,-50,4,2,1,80,0,0
113896,-43.4782608695652,4,2,1,80,0,0
114863,476.190476190476,4,2,1,80,1,0
114863,-66.6666666666667,4,2,1,80,0,0
115339,479.999999999999,4,2,1,80,1,0
115339,-66.6666666666667,4,2,1,80,0,0
115819,483.870967741935,4,2,1,80,1,0
115819,-66.6666666666667,4,2,1,80,0,0
116302,-47.6190476190476,4,2,1,80,0,0
117754,508.474576271186,4,2,1,80,1,0
118008,-41.6666666666667,4,2,1,80,0,0
118262,491.803278688524,4,2,1,80,1,0
118262,-43.4782608695652,4,2,1,80,0,0
118753,472.440944881889,4,2,1,80,1,0
118753,-43.4782608695652,4,2,1,80,0,0
119225,468.749999999999,4,2,1,80,1,0
119225,-43.4782608695652,4,2,1,80,0,0
119716,461.538461538461,4,2,1,80,1,0
119716,-43.4782608695652,4,2,1,80,0,0
120169,512.820512820512,4,2,1,80,1,0
120169,-43.4782608695652,4,2,1,80,0,0
120681,465.116279069767,4,2,1,80,1,0
120921,465.116279069767,4,2,1,40,1,0
120921,-43.4782608695652,4,2,1,80,0,0
121154,461.538461538461,4,2,1,80,1,0
121154,-43.4782608695652,4,2,1,80,0,0
121384,522.875816993464,4,2,1,80,1,0
121384,-43.4782608695652,4,2,1,80,0,0
121645,483.870967741935,4,2,1,80,1,0
121645,-43.4782608695652,4,2,1,80,0,0
122128,483.870967741935,4,2,1,80,1,0
122128,-43.4782608695652,4,2,1,80,0,0
125998,461.538461538461,4,2,1,80,1,0
125998,-43.4782608695652,4,2,1,80,0,0
126459,495.867768595041,4,2,1,80,1,0
126459,-43.4782608695652,4,2,1,80,0,0
126954,487.80487804878,4,2,1,80,1,0
126954,-43.4782608695652,4,2,1,80,0,0
127441,483.870967741935,4,2,1,80,1,0
127441,-43.4782608695652,4,2,1,80,0,0
127924,483.870967741935,4,2,1,80,1,0
127924,-43.4782608695652,4,2,1,80,0,0
128528,-66.6666666666667,4,2,1,80,0,0
129859,491.803278688524,4,2,1,80,1,0
129859,-43.4782608695652,4,2,1,80,0,0
130350,476.190476190476,4,2,1,80,1,0
130350,-43.4782608695652,4,2,1,80,0,0
131302,491.803278688524,4,2,1,80,1,0
131302,-43.4782608695652,4,2,1,80,0,0
132777,483.870967741935,4,2,1,80,1,0
132777,-43.4782608695652,4,2,1,80,0,0
133260,447.76119402985,4,2,1,80,1,0
133260,-43.4782608695652,4,2,1,80,0,0
133483,522.875816993463,4,2,1,80,1,0
133483,-43.4782608695652,4,2,1,80,0,0
133744,483.870967741935,4,2,1,80,1,0
133744,-43.4782608695652,4,2,1,80,0,0
134227,472.440944881889,4,2,1,80,1,0
134227,-43.4782608695652,4,2,1,80,0,0
134699,491.803278688524,4,2,1,80,1,0
134699,-43.4782608695652,4,2,1,80,0,0
135190,483.870967741935,4,2,1,80,1,0
135190,-43.4782608695652,4,2,1,80,0,0
137609,483.870967741935,4,2,1,80,1,0
137609,-43.4782608695652,4,2,1,80,0,0
141963,491.803278688524,4,2,1,80,1,0
141963,-43.4782608695652,4,2,1,80,0,0
142454,483.870967741935,4,2,1,80,1,0
142454,-43.4782608695652,4,2,1,80,0,0
145357,481.927710843373,4,2,1,80,1,0
145357,-43.4782608695652,4,2,1,80,0,0
146320,485.82995951417,4,2,1,80,1,0
146320,-43.4782608695652,4,2,1,80,0,0
147291,479.999999999999,4,2,1,80,1,0
147291,-43.4782608695652,4,2,1,80,0,0
148251,483.870967741935,4,2,1,80,1,0
148251,-43.4782608695652,4,2,1,80,0,0
149218,483.870967741935,4,2,1,80,1,0
149218,-43.4782608695652,4,2,1,80,0,0
160347,451.127819548872,4,2,1,80,1,0
160826,476.190476190476,4,2,1,80,1,0
161322,483.870967741935,4,2,1,80,1,0
161813,487.80487804878,4,2,1,80,1,0
162321,495.867768595041,4,2,1,60,1,0
162825,508.474576271186,4,2,1,60,1,0
162825,-66.6666666666667,4,2,1,60,0,0
163337,517.241379310345,4,2,1,70,1,0
163337,-66.6666666666667,4,2,1,70,0,0
163854,530.973451327434,4,2,1,60,1,0
163854,-166.666666666667,4,2,1,60,0,0
164915,540.54054054054,4,2,1,60,1,0
167077,549.199084668191,4,2,1,60,1,0
168724,540.54054054054,4,2,1,60,1,0
169264,540.54054054054,4,2,1,60,1,0
169804,535.714285714285,4,2,1,60,1,0
171946,-83.3333333333333,4,2,1,60,0,0
172482,-74.0740740740741,4,2,1,60,0,0
173196,-68.9655172413793,4,2,1,60,0,0
173554,535.714285714285,4,2,1,60,1,0
177839,521.739130434782,4,2,1,60,1,0
179925,530.973451327433,4,2,1,60,1,0
181517,519.480519480519,4,2,1,60,1,0
184633,517.241379310344,4,2,1,60,1,0
185667,530.973451327433,4,2,1,60,1,0
186728,504.201680672268,4,2,1,60,1,0
187736,516.129032258064,4,2,1,60,1,0
190316,-74.0740740740741,4,2,1,60,0,0
191348,512.820512820512,4,2,1,60,1,0
191348,-74.0740740740741,4,2,1,60,0,0
191604,-64.5161290322581,4,2,1,60,0,0
194424,-83.3333333333333,4,2,1,60,0,0
194937,499.999999999999,4,2,1,60,1,0
194937,-83.3333333333333,4,2,1,60,0,0
195437,560.747663551401,4,2,1,60,1,0
195437,-83.3333333333333,4,2,1,60,0,0
195997,456.273764258555,4,2,1,60,1,0
195997,-83.3333333333333,4,2,1,60,0,0
196453,652.173913043477,4,2,1,60,1,0
196453,-83.3333333333333,4,2,1,60,0,0
197105,666.666666666666,4,2,1,60,1,0
197105,-83.3333333333333,4,2,1,60,0,0
197771,681.818181818181,4,2,1,60,1,0
198452,697.67441860465,4,2,1,60,1,0
199149,638.297872340425,4,2,1,60,1,0
199787,689.655172413792,4,2,1,30,1,0
200476,789.473684210525,4,2,1,30,1,0
200870,599.999999999999,4,2,1,30,1,0
201170,631.57894736842,4,2,1,30,1,0
201801,697.67441860465,4,2,1,30,1,0
202498,599.999999999999,4,2,1,30,1,0
203098,638.297872340425,4,2,1,30,1,0
203736,689.655172413792,4,2,1,30,1,0
204425,659.340659340658,4,2,1,30,1,0
205084,612.244897959183,4,2,1,30,1,0
205696,634.920634920634,4,2,1,30,1,0
206330,659.340659340658,4,2,1,30,1,0
209132,644.122383252818,4,2,1,30,1,0
209132,-125,4,2,1,30,0,0
209781,375,4,2,1,80,1,1
209966,-38.4615384615385,4,2,1,80,0,1
224779,-86.9565217391304,4,2,1,80,0,1
231904,-50,4,2,1,80,0,1
232279,-38.4615384615385,4,2,1,80,0,1
233781,-80,4,2,1,60,0,0
235562,-80,4,2,1,5,0,0
235656,-80,4,2,1,60,0,0
235937,-80,4,2,1,5,0,0
236031,-80,4,2,1,60,0,0
236312,-80,4,2,1,5,0,0
236406,-80,4,2,1,60,0,0
237529,-153.846153846154,4,2,1,60,0,0
238279,-38.4615384615385,4,2,1,70,0,0
238560,-38.4615384615385,4,2,1,5,0,0
238654,-43.4782608695652,4,2,1,70,0,0
238935,-43.4782608695652,4,2,1,5,0,0
239029,-55.5555555555556,4,2,1,70,0,0
239310,-55.5555555555556,4,2,1,5,0,0
239404,-333.333333333333,4,2,1,70,0,0
239685,-333.333333333333,4,2,1,5,0,0
239781,-38.4615384615385,4,2,1,90,0,1
248781,-66.6666666666667,4,2,1,80,0,0
251781,-38.4615384615385,4,2,1,90,0,1
256281,-38.4615384615385,4,2,1,80,0,0
257779,400,4,2,1,80,1,0
259379,-55.5555555555556,4,2,1,80,0,0
262579,-66.6666666666667,4,2,1,80,0,0
263779,-76.9230769230769,4,2,1,80,0,0
283379,-38.4615384615385,4,2,1,90,0,1
284179,-48.8997555012225,4,2,1,90,0,1
284767,428.571428571429,4,2,1,90,1,1
284981,444.444444444444,4,2,1,90,1,1
285425,400,4,2,1,90,1,1
285625,352.941176470588,4,2,1,90,1,1
285801,368.098159509202,4,2,1,90,1,1
285985,389.61038961039,4,2,1,90,1,1
286569,375,4,2,1,90,1,1
286756,379.746835443038,4,2,1,90,1,1
286945,315.789473684211,4,2,1,90,1,1
287102,342.857142857143,4,2,1,90,1,1
287187,428.571428571429,4,2,1,90,1,1
287294,413.793103448276,4,2,1,90,1,1
287500,400,4,2,1,90,1,1
287700,428.571428571429,4,2,1,90,1,1
288158,413.793103448276,4,2,1,90,1,1
288364,387.096774193548,4,2,1,90,1,1
288557,-52.6315789473684,4,2,1,90,0,1
289331,444.444444444444,4,2,1,90,1,1
289553,375,4,2,1,90,1,1
289834,400,4,2,1,90,1,1
290034,375,4,2,1,90,1,1
290221,363.636363636364,4,2,1,90,1,1
290402,333.333333333333,4,2,1,90,1,1
290735,352.941176470588,4,2,1,90,1,1
291087,333.333333333333,4,2,1,90,1,1
291805,333.333333333333,4,2,1,90,1,1
291971,248.447204968944,4,2,1,90,1,1
292467,480,4,2,1,90,1,1
292467,-37.6222723852521,4,2,1,90,0,1
292707,333.333333333333,4,2,1,90,1,1
292873,359.281437125748,4,2,1,90,1,1
293591,350.877192982456,4,2,1,90,1,1
294292,348.837209302326,4,2,1,90,1,1
294989,344.827586206897,4,2,1,90,1,1
295506,394.736842105263,4,2,1,90,1,0
295900,437.956204379562,4,2,1,90,1,0
296118,555.555555555556,4,2,1,90,1,0
296395,588.235294117647,4,2,1,90,1,0
296689,689.655172413794,4,2,1,90,1,0
297033,631.578947368422,4,2,1,90,1,0
297348,526.315789473685,4,2,1,90,1,0
297874,560.747663551402,4,2,1,90,1,0
298434,555.555555555556,4,2,1,70,1,0
298434,-111.111111111111,4,2,1,70,0,0
299822,-111.111111111111,4,2,1,5,0,0

[Colours]
Combo1 : 183,0,0
Combo2 : 0,128,192
Combo3 : 255,221,204
SliderBorder : 230,170,140
SliderTrackOverride : 0,0,0

[HitObjects]
70,357,2916,6,0,B|149:343|119:387|195:376,3,130,2|2|2|2,0:0|0:0|0:0|0:0,0:0:0:0:
301,292,5842,2,0,B|221:276|249:318|166:299,1,130,2|2,0:0|0:0,0:0:0:0:
140,231,6940,1,2,0:0:0:0:
203,183,7306,2,0,L|342:188,1,130,2|2,0:0|0:0,0:0:0:0:
332,187,8769,6,0,P|398:195|451:139,1,130,2|2,0:0|0:0,0:0:0:0:
379,77,10214,2,0,L|375:142,2,43.3333333333333,2|0|0,0:0|0:0|0:0,0:0:0:0:
304,48,10937,2,0,L|306:91,2,43.3333333333333,2|0|0,0:0|0:0|0:0,0:0:0:0:
225,20,11660,2,0,L|132:17,1,65,2|0,0:0|0:0,0:0:0:0:
152,91,12374,2,0,L|216:93,1,65,2|0,0:0|0:0,0:0:0:0:
256,164,13088,1,2,0:0:0:0:
172,193,13445,1,2,0:0:0:0:
265,290,13802,1,2,0:2:0:0:
184,271,14160,1,2,0:0:0:0:
328,233,14517,6,0,P|339:292|354:379,1,130,2|0,3:2|0:0,0:0:0:0:
398,216,15971,2,0,P|446:174|510:186,2,130,2|2|2,0:0|0:0|0:0,0:0:0:0:
467,245,18994,1,2,0:0:0:0:
467,245,20389,6,0,B|485:310|421:369|421:369|348:340|348:268|348:268|295:325|224:286,1,390,2|2,0:0|0:0,0:0:0:0:
173,260,23246,1,0,0:0:0:0:
112,205,23654,6,0,B|57:136|120:34|120:34|237:79|224:193,1,370.499990106583,2|0,0:0|0:0,0:0:0:0:
118,263,27011,5,0,3:0:0:0:
118,263,27886,5,2,0:0:0:0:
86,334,28776,2,0,P|124:374|197:345,1,130,2|2,0:0|0:0,0:0:0:0:
213,279,30567,2,0,L|200:140,1,130,2|0,0:0|0:0,0:0:0:0:
273,146,31944,2,0,L|285:275,1,130,2|0,0:0|0:0,0:0:0:0:
285,357,33360,2,0,L|353:362,1,65,2|0,0:0|0:0,0:0:0:0:
394,302,34301,6,0,B|420:245|420:245|390:175,1,130,0|2,3:0|0:0,0:0:0:0:
291,34,36231,2,0,P|261:84|283:157,1,130,2|2,0:0|0:0,0:0:0:0:
466,106,38203,2,0,L|335:98,1,130,2|0,0:0|0:0,0:0:0:0:
327,175,39666,2,0,L|456:182,1,130,2|0,0:0|0:0,0:0:0:0:
499,251,41090,2,0,L|506:330,1,65,2|0,0:0|0:0,0:0:0:0:
444,368,42074,6,0,P|375:373|324:313,1,130,0|2,3:0|0:0,0:0:0:0:
286,273,43507,1,0,0:0:0:0:
213,266,43989,2,0,L|75:278,1,130,2|2,0:0|0:0,0:0:0:0:
12,83,45917,2,0,B|93:56|65:109|159:75,1,130,2|2,0:0|0:0,0:0:0:0:
207,37,47374,2,0,P|262:16|276:79,1,130,2|2,0:0|0:0,0:0:0:0:
232,132,48831,2,0,P|240:202|247:257,1,97.5,2|0,0:0|0:0,0:0:0:0:
246,240,49794,1,0,3:0:0:0:
180,290,50765,6,0,B|157:247|157:247|176:178,1,97.5,2|0,0:0|0:0,0:0:0:0:
230,147,51737,2,0,L|378:143,1,130,2|2,0:0|0:0,0:0:0:0:
217,70,53672,2,0,L|208:222,1,130,2|2,0:0|0:0,0:0:0:0:
176,273,55117,2,0,P|131:276|95:283,1,65,2|0,0:0|0:0,0:0:0:0:
259,298,56081,2,0,P|290:333|313:358,1,65,2|0,0:0|0:0,0:0:0:0:
239,216,57045,2,0,P|250:172|260:133,1,65,2|0,0:0|0:0,0:0:0:0:
272,74,58033,5,2,0:0:0:0:
329,128,58509,2,0,P|400:120|418:119,1,65,2|0,3:2|0:0,0:0:0:0:
466,178,59472,2,0,P|459:234|435:201,1,130,2|2,0:0|3:2,0:0:0:0:
318,358,61400,2,0,B|270:348|270:348|232:357|232:357|185:348,1,130,2|2,0:0|3:2,0:0:0:0:
48,357,62857,2,0,P|94:342|123:258,1,130,2|2,0:0|0:0,0:0:0:0:
31,214,64314,2,0,P|47:273|53:300,2,65,2|0|0,3:2|0:0|0:0,0:0:0:0:
63,141,65757,5,2,0:0:0:0:
63,141,66245,2,0,P|128:155|161:119,1,97.5,2|0,3:2|0:0,0:0:0:0:
154,124,67221,2,0,L|274:114,1,97.5,2|0,0:0|0:2,0:0:0:0:
262,130,68191,2,0,L|376:124,1,97.5,2|0,3:2|0:0,0:0:0:0:
390,222,69098,2,0,P|355:256|267:230,1,130,2|2,0:0|3:2,0:0:0:0:
307,125,70602,2,0,P|320:173|326:198,1,65,2|0,0:0|0:0,0:0:0:0:
387,124,71570,1,2,0:0:0:0:
387,124,72054,2,0,P|400:76|406:47,1,65,2|0,3:2|0:0,0:0:0:0:
321,7,73017,1,0,0:0:0:0:
321,7,73981,6,0,P|258:-5|208:24,1,97.5,2|0,3:2|0:0,0:0:0:0:
203,77,74937,2,0,P|149:74|83:75,1,97.5,2|0,0:0|0:0,0:0:0:0:
41,128,75893,2,0,P|74:153|133:149,1,97.5,2|0,3:2|0:0,0:0:0:0:
138,150,76809,2,0,P|149:223|151:234,1,65,2|0,0:0|0:0,0:0:0:0:
162,291,77725,1,2,3:2:0:0:
220,238,78183,2,0,B|264:228|264:228|302:243|302:243|356:230,1,130,2|2,0:0|0:0,0:0:0:0:
378,299,79557,2,0,L|299:319,1,65,2|0,3:2|0:0,0:0:0:0:
236,338,80455,1,0,3:0:0:0:
69,201,81337,6,0,B|166:180|166:180|236:196|236:196|368:162,1,292.50001115799,2|0,3:2|0:2,0:2:0:0:
354,87,82203,2,0,B|236:118|236:118|166:102|166:102|66:123,1,292.50001115799,2|0,3:2|0:0,0:0:0:0:
0,285,83069,2,0,B|38:318|38:318|137:322,1,97.50000371933,2|0,3:2|0:0,0:0:0:0:
169,236,83503,2,0,L|62:249,1,97.50000371933,4|0,3:3|0:0,0:0:0:0:
176,313,83936,5,8,0:0:0:0:
252,298,84357,1,8,0:0:0:0:
329,288,84778,1,8,0:0:0:0:
405,274,85196,1,8,0:0:0:0:
307,87,85614,6,0,L|270:84,2,21.6666666666667,8|8|8,0:0|0:0|0:0,0:0:0:0:
366,134,86032,2,0,L|403:131,2,21.6666666666667,8|8|8,0:0|0:0|0:0,0:0:0:0:
296,192,86450,5,8,0:0:0:0:
282,188,86583,1,8,0:0:0:0:
270,185,86716,1,8,0:0:0:0:
196,188,86850,5,8,0:0:0:0:
161,257,86983,1,8,0:0:0:0:
207,318,87116,1,8,0:0:0:0:
284,294,87250,6,0,L|293:348,1,48.75,2|0,0:0|0:0,0:0:0:0:
358,279,87762,6,0,P|398:286|422:319,1,74.7500014257431,10|0,0:2|0:0,0:0:0:0:
495,384,88003,1,0,1:0:0:0:
493,374,88124,1,0,0:0:0:0:
492,364,88245,2,0,L|481:204,1,149.500002851486,0|0,1:0|0:0,0:0:0:0:
465,49,88608,1,0,0:0:0:0:
465,49,88729,2,0,L|472:150,1,74.7500014257431,8|0,0:0|0:0,0:0:0:0:
384,64,88971,2,0,L|389:138,1,74.7500014257431
188,76,89213,6,0,P|216:69|210:102,1,74.7500014257431,0|0,1:0|0:0,0:0:0:0:
123,114,89454,2,0,P|118:52|130:33,1,74.7500014257431,0|0,1:0|0:0,0:0:0:0:
181,169,89696,2,0,P|190:204|180:240,1,74.7500014257431,8|0,0:0|0:0,0:0:0:0:
133,352,89938,2,0,P|163:243|235:258,1,149.500002851486,0|0,1:0|0:0,0:0:0:0:
281,218,90303,1,0,0:0:0:0:
287,226,90427,2,0,L|384:211,1,74.7500014257431,0|0,1:0|0:0,0:0:0:0:
340,313,90675,2,0,B|282:302|282:302|250:318|250:318|192:308,1,149.500002851486,8|0,0:0|0:0,0:0:0:0:
62,266,91037,1,8,0:0:0:0:
71,256,91158,5,0,1:0:0:0:
56,220,91278,5,0,0:0:0:0:
79,167,91399,5,2,1:2:0:0:
40,101,91520,5,2,0:0:0:0:
37,92,91641,6,0,L|40:13,1,74.7500014257431,8|0,0:0|0:0,0:0:0:0:
118,99,91883,2,0,L|121:20,1,74.7500014257431,2|0,0:0|0:0,0:0:0:0:
195,113,92125,1,0,1:0:0:0:
196,105,92246,1,0,0:0:0:0:
196,97,92367,2,0,L|200:15,1,74.7500014257431,0|0,1:0|0:0,0:0:0:0:
259,156,92609,2,0,P|211:191|172:182,1,74.7500014257431,10|0,0:0|0:0,0:0:0:0:
271,82,92851,2,0,L|357:76,1,74.7500014257431,2|0,0:0|0:0,0:0:0:0:
367,144,93093,6,0,L|441:151,1,74.7500014257431,0|0,1:0|0:0,0:0:0:0:
477,281,93335,2,0,L|419:235,1,74.7500014257431,2|0,1:2|0:0,0:0:0:0:
433,77,93577,2,0,L|445:185,1,74.7500014257431,10|0,0:0|0:0,0:0:0:0:
405,315,93819,2,0,P|331:345|267:285,1,149.500002851486,2|0,1:2|0:0,0:0:0:0:
126,105,94303,2,0,P|156:190|163:230,1,74.7500014257431,2|0,1:2|0:0,0:0:0:0:
80,306,94545,2,0,P|132:232|161:203,1,74.7500014257431,10|0,0:0|0:0,0:0:0:0:
287,231,94787,1,0,0:0:0:0:
280,234,94908,1,8,0:0:0:0:
273,235,95028,6,0,P|182:234|142:227,2,74.7500014257431,0|0|2,1:0|0:0|1:2,0:0:0:0:
317,158,95391,1,2,0:0:0:0:
308,147,95512,5,8,0:0:0:0:
321,98,95633,5,0,0:0:0:0:
297,64,95754,5,0,1:0:0:0:
312,33,95875,5,0,0:0:0:0:
306,26,95996,6,0,L|208:16,1,74.7500014257431,0|0,1:0|0:0,0:0:0:0:
219,109,96238,2,0,L|125:127,1,74.7500014257431,0|0,0:0|0:0,0:0:0:0:
60,25,96480,2,0,L|154:43,1,74.7500014257431,10|0,0:0|0:0,0:0:0:0:
74,181,96722,2,0,L|60:60,1,74.7500014257431,0|0,1:0|0:0,0:0:0:0:
145,123,96964,6,0,L|162:271,1,149.500002851486,0|2,1:0|1:2,0:0:0:0:
140,345,97327,1,0,0:0:0:0:
133,352,97448,2,0,L|56:345,1,74.7500014257431,10|0,0:0|0:0,0:0:0:0:
218,323,97690,2,0,L|369:308,1,149.500002851486,2|0,1:2|0:0,0:0:0:0:
338,150,98174,2,0,L|354:241,1,74.7500014257431,2|0,1:2|0:0,0:0:0:0:
261,131,98416,1,10,0:0:0:0:
405,108,98657,1,4,0:3:0:0:
162,141,98899,6,0,P|97:147|51:157,1,74.7500014257431,12|0,0:0|0:0,0:0:0:0:
14,193,99141,1,0,1:0:0:0:
213,269,99383,2,0,P|136:246|107:243,1,74.7500014257431,12|0,0:0|0:0,0:0:0:0:
64,247,99625,1,0,1:0:0:0:
273,324,99867,2,0,P|292:238|226:193,1,149.500002851486,12|0,0:0|1:0,0:0:0:0:
151,173,100230,1,0,0:0:0:0:
142,172,100351,2,0,L|137:340,1,149.500002851486,12|0,0:0|1:0,0:0:0:0:
355,50,100835,6,0,B|261:11|285:76|183:25,1,149.500002851486,12|0,0:0|1:0,0:0:0:0:
108,11,101198,1,8,0:0:0:0:
116,16,101319,2,0,P|140:72|130:108,1,74.7500014257431,2|0,0:0|1:0,0:0:0:0:
100,157,101561,2,0,P|40:160|13:132,1,74.7500014257431,12|0,0:0|0:0,0:0:0:0:
182,150,101803,1,0,1:0:0:0:
190,147,101924,1,8,0:0:0:0:
198,144,102045,2,0,L|299:119,1,74.7500014257431,2|0,0:0|1:0,0:0:0:0:
192,237,102287,1,12,0:0:0:0:
342,216,102528,2,0,L|215:199,1,74.7500014257431,0|0,1:0|0:0,0:0:0:0:
120,260,102767,6,0,P|190:313|252:280,1,149.500002851486,4|0,1:2|0:0,0:0:0:0:
294,358,103129,1,0,0:0:0:0:
294,358,103250,2,0,P|379:328|469:328,1,149.500002851486,8|0,0:0|0:0,0:0:0:0:
478,254,103613,1,0,0:0:0:0:
478,254,103734,2,0,P|492:150|506:78,1,149.500002851486,0|0,1:0|1:0,0:0:0:0:
378,22,104218,2,0,P|390:95|400:169,1,149.500002851486,8|0,0:0|0:0,0:0:0:0:
300,212,104581,1,0,0:0:0:0:
292,208,104702,6,0,P|310:148|341:143,1,74.7500014257431,0|0,1:0|0:0,0:0:0:0:
369,243,104944,1,0,1:0:0:0:
215,250,105186,1,8,0:0:0:0:
294,362,105428,1,0,1:0:0:0:
294,362,105912,2,0,L|401:365,1,74.7500014257431,0|0,1:0|0:0,0:0:0:0:
211,345,106154,2,0,B|116:324|156:389|54:361,1,149.500002851486,8|0,0:0|0:0,0:0:0:0:
25,300,106517,1,8,0:0:0:0:
19,292,106637,5,0,1:0:0:0:
37,258,106758,5,0,0:0:0:0:
11,217,106879,5,2,1:2:0:0:
25,179,107000,5,2,0:2:0:0:
16,171,107121,6,0,L|4:78,1,74.7500014257431,10|0,0:0|0:0,0:0:0:0:
93,146,107363,2,0,L|81:53,1,74.7500014257431,2|0,0:0|0:0,0:0:0:0:
162,45,107605,2,0,B|192:84|192:84|177:229,1,149.500002851486,0|0,1:0|0:0,0:0:0:0:
169,267,107968,1,0,0:0:0:0:
169,267,108089,2,0,P|114:225|115:184,1,74.7500014257431,10|0,0:0|0:0,0:0:0:0:
160,346,108331,2,0,P|234:319|248:269,1,74.7500014257431,2|0,0:0|0:0,0:0:0:0:
276,241,108573,6,0,B|372:210|335:278|449:229,1,149.500002851486,0|0,1:0|1:0,0:0:0:0:
493,194,108936,1,0,0:0:0:0:
493,194,109057,1,8,0:0:0:0:
374,70,109299,1,0,1:0:0:0:
374,70,109783,2,0,B|344:161,1,74.7500014257431,0|0,1:0|0:0,0:0:0:0:
465,41,110025,2,0,L|291:18,1,149.500002851486,8|0,0:0|0:0,0:0:0:0:
253,71,110387,1,8,0:0:0:0:
253,71,110508,6,0,L|161:59,1,74.7500014257431,0|0,1:0|0:0,0:0:0:0:
122,113,110750,5,2,1:2:0:0:
117,124,110871,1,2,0:0:0:0:
81,136,110992,5,10,0:0:0:0:
96,163,111113,5,0,0:0:0:0:
100,190,111234,6,0,P|89:234|68:251,1,74.7500014257431,0|0,1:0|0:0,0:0:0:0:
3,287,111476,2,0,P|80:326|134:277,1,149.500002851486,2|0,1:2|1:0,0:0:0:0:
171,230,111839,1,0,0:0:0:0:
204,305,111960,2,0,P|254:327|303:294,2,74.7500014257431,8|0|0,0:0|0:0|1:0,0:0:0:0:
243,167,112323,1,0,0:0:0:0:
246,177,112444,6,0,L|254:261,1,74.7500014257431,0|0,1:0|0:0,0:0:0:0:
230,91,112686,1,2,1:2:0:0:
328,74,112928,1,10,0:2:0:0:
127,55,113170,2,0,B|71:47|71:47|55:56|55:56|-24:45,1,130,2|0,1:2|1:0,0:0:0:0:
267,19,113654,1,0,1:0:0:0:
317,144,113896,2,0,P|332:110|328:74,2,74.7500014257431,8|0|0,0:0|0:0|1:0,0:0:0:0:
92,302,114379,5,12,0:0:0:0:
316,260,114621,1,0,1:0:0:0:
112,214,114863,2,0,B|48:226|48:226|16:272,1,97.50000371933,12|0,0:0|1:0,0:0:0:0:
210,354,115339,2,0,P|227:303|211:256,1,97.50000371933,12|0,0:0|1:0,0:0:0:0:
167,79,115819,2,0,P|155:131|176:176,1,97.50000371933,12|0,0:0|1:0,0:0:0:0:
402,124,116302,6,0,B|325:103|345:148|263:117,1,136.499995834351,12|0,0:0|1:0,0:0:0:0:
306,53,116665,1,8,0:0:0:0:
316,52,116786,2,0,L|398:39,1,68.2499979171754,2|0,0:0|0:0,0:0:0:0:
228,30,117028,2,0,L|160:19,1,68.2499979171754,12|0,0:0|0:0,0:0:0:0:
28,74,117270,1,0,1:0:0:0:
11,146,117391,1,8,0:0:0:0:
70,191,117512,2,0,P|104:152|91:122,1,68.2499979171754,2|0,0:0|0:0,0:0:0:0:
11,244,117754,1,12,0:0:0:0:
13,254,117881,1,0,0:0:0:0:
15,264,118008,2,0,L|28:354,1,77.999997619629,4|0,1:3|0:0,0:0:0:0:
111,377,118262,6,0,P|200:347|211:281,1,149.500002851486,4|0,1:2|0:0,0:0:0:0:
206,189,118630,1,0,0:0:0:0:
206,189,118753,2,0,P|247:237|300:235,1,74.7500014257431,8|0,0:0|0:0,0:0:0:0:
353,162,118989,2,0,P|264:167|252:167,1,74.7500014257431,0|0,0:0|0:0,0:0:0:0:
444,152,119225,1,0,1:0:0:0:
309,77,119459,1,0,1:0:0:0:
360,248,119716,1,8,0:0:0:0:
445,77,119946,2,0,L|443:158,1,74.7500014257431,0|0,0:0|0:0,0:0:0:0:
440,313,120169,6,0,L|444:138,1,149.500002851486,0|0,1:0|1:0,0:0:0:0:
374,40,120681,1,8,0:0:0:0:
183,102,120921,2,0,P|251:141|287:211,1,149.500002851486,0|0,1:0|0:0,0:0:0:0:
222,25,121384,1,0,1:0:0:0:
195,204,121645,2,0,P|212:332|219:399,1,149.500002851486,8|0,0:0|0:0,0:0:0:0:
288,362,122007,1,8,0:0:0:0:
294,371,122128,6,0,L|371:362,1,74.7500014257431,0|0,1:0|0:0,0:0:0:0:
442,355,122369,1,0,1:0:0:0:
171,319,122611,5,10,0:0:0:0:
141,340,122732,5,2,0:0:0:0:
125,316,122853,5,2,0:0:0:0:
106,328,122974,5,2,0:0:0:0:
100,315,123095,6,0,P|82:226|67:136,1,149.500002851486,0|0,1:0|1:0,0:0:0:0:
101,95,123458,1,0,0:0:0:0:
172,123,123579,2,0,B|262:117|213:62|335:71,1,149.500002851486,8|0,0:0|0:0,0:0:0:0:
387,83,123942,1,8,0:0:0:0:
387,83,124063,6,0,B|420:122|420:122|389:257,1,149.500002851486,0|0,1:0|1:0,0:0:0:0:
293,357,124547,1,8,0:0:0:0:
365,312,124789,2,0,P|276:274|226:304,1,149.500002851486,0|0,1:0|0:0,0:0:0:0:
90,376,125273,2,0,P|102:313|98:266,1,74.7500014257431,0|0,1:0|0:0,0:0:0:0:
20,177,125515,2,0,P|57:264|143:261,1,149.500002851486,8|0,0:0|0:0,0:0:0:0:
179,236,125878,1,8,0:0:0:0:
130,135,125998,6,0,P|111:189|123:216,1,74.7500014257431,0|0,1:0|0:0,0:0:0:0:
177,311,126228,1,0,1:0:0:0:
194,96,126459,1,8,0:0:0:0:
170,319,126706,1,0,0:0:0:0:
128,64,126954,2,0,P|83:30|-2:69,1,149.500002851486,0|0,1:0|1:0,0:0:0:0:
195,16,127319,1,0,0:0:0:0:
203,24,127441,2,0,B|263:-6|331:-3|291:39|364:62|421:17,1,224.250004277229,8|0,0:0|0:0,0:0:0:0:
493,98,127924,5,0,1:0:0:0:
417,92,128165,1,0,0:0:0:0:
502,103,128407,1,8,0:0:0:0:
344,163,128649,2,0,P|265:165|210:177,1,97.50000371933,0|0,1:0|0:0,0:0:0:0:
434,257,129133,1,0,1:0:0:0:
240,245,129375,1,8,0:0:0:0:
371,307,129617,1,4,0:3:0:0:
207,378,129859,6,0,P|186:295|181:265,1,74.7500014257431,12|0,0:0|0:0,0:0:0:0:
126,238,130104,2,0,P|117:274|107:310,1,74.7500014257431,0|0,1:0|0:0,0:0:0:0:
44,221,130350,2,0,P|94:163|188:195,1,149.500002851486,12|0,0:0|1:0,0:0:0:0:
241,244,130707,1,0,0:0:0:0:
251,253,130826,2,0,P|283:172|319:88,1,149.500002851486,12|0,0:0|1:0,0:0:0:0:
168,30,131183,1,0,0:0:0:0:
160,39,131302,2,0,P|176:131|189:223,1,149.500002851486,12|0,0:0|1:0,0:0:0:0:
162,362,131793,6,0,P|247:376|293:319,1,149.500002851486,12|0,0:0|1:0,0:0:0:0:
331,263,132162,1,8,0:0:0:0:
403,382,132285,2,0,P|394:297|399:254,1,74.7500014257431,2|0,0:0|0:0,0:0:0:0:
396,170,132531,2,0,P|332:218|248:171,1,149.500002851486,12|0,0:0|1:0,0:0:0:0:
219,126,132897,1,8,0:0:0:0:
183,265,133018,2,0,P|176:232|166:192,1,74.7500014257431
55,37,133260,2,0,B|15:68|15:68|26:212,1,149.500002851486,12|0,0:0|1:0,0:0:0:0:
14,345,133744,6,0,B|105:370|60:305|181:344,1,149.500002851486,6|0,1:2|0:0,0:0:0:0:
234,372,134106,1,0,0:0:0:0:
234,372,134227,1,8,0:0:0:0:
246,188,134463,1,0,1:0:0:0:
81,216,134699,2,0,B|45:241|45:241|176:263,1,149.500002851486,0|0,1:0|0:0,0:0:0:0:
143,172,135067,1,0,0:0:0:0:
143,172,135190,2,0,P|68:140|8:180,1,149.500002851486,8|0,0:0|0:0,0:0:0:0:
214,295,135673,6,0,P|259:268|275:232,1,74.7500014257431,0|0,1:0|0:0,0:0:0:0:
274,150,135915,2,0,P|269:202|289:235,1,74.7500014257431,0|0,1:0|0:0,0:0:0:0:
364,275,136157,2,0,P|323:241|284:238,1,74.7500014257431,8|0,0:2|0:0,0:0:0:0:
132,301,136399,2,0,P|214:373|273:338,2,149.500002851486,0|0|0,1:0|0:0|1:2,0:0:0:0:
259,108,137125,2,0,B|309:142|317:225|249:218|281:297|304:319,1,224.250004277229,8|8,0:0|0:0,0:0:0:0:
411,378,137609,6,0,L|423:275,1,74.7500014257431,0|0,1:0|0:0,0:0:0:0:
423,127,137850,2,0,L|435:230,1,74.7500014257431,0|0,1:0|0:0,0:0:0:0:
497,241,138092,2,0,P|414:278|360:228,1,149.500002851486,8|0,0:0|0:0,0:0:0:0:
324,187,138455,1,0,0:0:0:0:
324,187,138576,2,0,B|289:226|289:226|316:331,1,149.500002851486,0|0,1:0|1:0,0:0:0:0:
250,368,138939,1,0,0:0:0:0:
250,368,139060,2,0,L|202:181,1,149.500002851486,8|0,0:0|0:0,0:0:0:0:
13,137,139544,6,0,P|68:185|152:152,1,149.500002851486,0|0,1:0|1:0,0:0:0:0:
191,112,139907,1,0,0:0:0:0:
142,58,140028,2,0,P|93:78|109:116,1,74.7500014257431,8|0,0:0|0:0,0:0:0:0:
198,124,140270,2,0,P|285:111|386:97,1,149.500002851486,0|0,1:0|0:0,0:0:0:0:
489,308,140754,1,0,1:0:0:0:
489,308,140996,2,0,P|436:267|410:254,1,74.7500014257431,8|0,0:0|0:0,0:0:0:0:
259,285,141238,1,0,0:0:0:0:
266,282,141359,1,8,0:0:0:0:
272,279,141479,6,0,P|335:258|360:245,1,74.7500014257431,0|0,1:0|0:0,0:0:0:0:
420,115,141721,2,0,P|400:178|396:206,1,74.7500014257431,0|0,1:0|0:0,0:0:0:0:
294,356,141963,2,0,P|217:352|185:274,1,149.500002851486,8|0,0:0|0:0,0:0:0:0:
201,195,142331,1,0,0:0:0:0:
196,204,142454,2,0,B|127:216|127:216|123:227|123:227|26:243,1,149.500002851486,0|0,1:0|1:0,0:0:0:0:
0,156,142816,1,0,0:0:0:0:
5,147,142937,2,0,B|74:135|74:135|78:124|78:124|175:108,1,149.500002851486,8|0,0:0|1:0,0:0:0:0:
306,170,143421,6,0,B|315:227|315:227|295:263,1,74.7500014257431,0|0,1:0|0:0,0:0:0:0:
255,97,143663,1,0,1:0:0:0:
263,97,143784,1,0,0:0:0:0:
272,98,143905,2,0,L|362:103,1,74.7500014257431,8|0,0:0|0:0,0:0:0:0:
294,25,144147,2,0,B|189:-4|239:69|111:17,2,149.500002851486,0|0|0,1:0|0:0|1:0,0:0:0:0:
416,205,144873,1,8,0:0:0:0:
435,236,144994,1,0,0:0:0:0:
420,268,145115,1,0,1:0:0:0:
134,344,145357,6,0,P|132:267|140:237,1,74.7500014257431,12|0,0:0|0:0,0:0:0:0:
179,187,145597,1,0,1:0:0:0:
223,321,145838,2,0,P|291:267|301:263,1,74.7500014257431,12|0,0:0|0:0,0:0:0:0:
350,228,146079,1,0,1:0:0:0:
131,269,146320,2,0,P|75:205|66:183,1,74.7500014257431,12|0,0:0|0:0,0:0:0:0:
55,135,146562,1,0,1:0:0:0:
179,187,146805,2,0,P|197:104|210:83,1,74.7500014257431,12|0,0:0|0:0,0:0:0:0:
241,47,147047,1,0,1:0:0:0:
395,106,147291,6,0,P|315:144|252:91,1,149.500002851486,12|0,0:0|1:0,0:0:0:0:
326,70,147651,1,8,0:0:0:0:
326,70,147771,2,0,L|336:183,1,74.7500014257431,2|0,0:0|0:0,0:0:0:0:
343,225,148011,2,0,L|355:374,1,149.500002851486,12|0,0:0|1:0,0:0:0:0:
279,378,148371,1,8,0:0:0:0:
279,378,148492,2,0,L|273:303,1,74.7500014257431,2|0,0:0|0:0,0:0:0:0:
265,225,148734,1,12,0:0:0:0:
491,228,148976,2,0,L|398:222,1,74.7500014257431,0|0,1:0|0:0,0:0:0:0:
259,217,149218,6,0,B|162:193|206:252|105:227,1,149.500002851486,4|0,1:2|0:0,0:0:0:0:
49,193,149580,1,0,0:0:0:0:
49,193,149701,2,0,P|107:157|136:166,1,74.7500014257431,8|0,0:0|0:0,0:0:0:0:
121,303,149943,2,0,L|113:213,1,74.7500014257431,0|0,1:0|0:0,0:0:0:0:
124,8,150185,2,0,L|107:173,1,149.500002851486,0|0,1:0|0:0,0:0:0:0:
47,309,150548,1,0,0:0:0:0:
44,320,150669,2,0,P|125:380|187:339,1,149.500002851486,8|0,0:0|0:0,0:0:0:0:
349,226,151153,6,0,B|316:243|316:243|304:291,1,74.7500014257431,0|0,1:0|0:0,0:0:0:0:
381,369,151395,2,0,L|374:262,1,74.7500014257431,0|0,1:0|0:0,0:0:0:0:
343,151,151637,2,0,L|351:257,1,74.7500014257431,8|0,0:0|0:0,0:0:0:0:
270,362,151879,2,0,B|233:342|233:342|215:222,1,149.500002851486,0|0,1:0|0:0,0:0:0:0:
265,9,152363,2,0,P|277:102|278:127,1,74.7500014257431,0|0,1:0|0:0,0:0:0:0:
205,138,152605,2,0,P|274:74|294:59,1,74.7500014257431,8|0,0:0|0:0,0:0:0:0:
357,107,152847,2,0,P|265:86|241:78,1,74.7500014257431,0|8,0:0|0:0,0:0:0:0:
185,31,153088,6,0,B|90:7|132:68|30:45,1,149.500002851486,0|0,1:0|1:0,0:0:0:0:
11,114,153451,1,0,0:0:0:0:
21,120,153572,5,10,0:0:0:0:
8,151,153693,5,2,0:0:0:0:
40,176,153814,5,2,0:0:0:0:
7,225,153935,5,2,0:0:0:0:
27,293,154056,6,0,L|144:305,1,74.7500014257431,0|0,1:0|0:0,0:0:0:0:
142,238,154298,2,0,L|220:235,1,74.7500014257431,0|0,1:0|0:0,0:0:0:0:
108,375,154540,2,0,L|99:284,1,74.7500014257431,8|0,0:0|0:0,0:0:0:0:
149,163,154782,2,0,L|140:254,1,74.7500014257431,0|8,0:0|0:0,0:0:0:0:
83,120,155024,6,0,B|113:79|113:79|218:97,1,149.500002851486,0|0,1:0|1:0,0:0:0:0:
286,118,155387,1,0,0:0:0:0:
286,118,155508,2,0,L|369:98,1,74.7500014257431,8|0,0:0|0:0,0:0:0:0:
259,37,155750,2,0,L|239:232,1,149.500002851486,0|0,1:0|0:0,0:0:0:0:
450,340,156234,2,0,L|444:232,1,74.7500014257431,0|0,1:0|0:0,0:0:0:0:
432,172,156476,2,0,P|367:204|370:297,1,149.500002851486,8|0,0:0|0:0,0:0:0:0:
365,354,156838,1,8,0:0:0:0:
365,354,156959,6,0,B|324:349|324:349|265:316,2,74.7500014257431,0|0|0,1:0|0:0|1:0,0:0:0:0:
280,258,157322,1,0,0:0:0:0:
280,258,157443,2,0,L|117:269,1,149.500002851486,8|0,0:0|1:0,0:0:0:0:
81,329,157806,1,0,0:0:0:0:
81,329,157927,2,0,P|53:252|102:201,1,149.500002851486,0|0,1:0|0:0,0:0:0:0:
161,50,158411,2,0,P|201:108|171:174,1,149.500002851486,8|0,0:0|1:0,0:0:0:0:
57,122,158774,1,0,0:0:0:0:
57,122,158895,6,0,L|147:113,1,74.7500014257431,0|0,1:0|0:0,0:0:0:0:
245,181,159137,2,0,L|170:173,1,74.7500014257431,0|0,1:0|0:0,0:0:0:0:
298,126,159379,2,0,P|320:173|317:203,1,74.7500014257431,8|0,0:0|0:0,0:0:0:0:
242,330,159621,2,0,L|245:164,1,149.500002851486,0|0,1:0|0:0,0:0:0:0:
248,41,160105,1,0,1:0:0:0:
389,115,160347,1,8,0:0:0:0:
244,180,160572,1,0,1:2:0:0:
463,27,160826,5,12,0:2:0:0:
403,227,161064,1,0,1:0:0:0:
289,12,161322,5,12,0:0:0:0:
274,183,161563,1,0,1:0:0:0:
121,16,161813,5,12,0:0:0:0:
171,154,162056,1,0,1:0:0:0:
21,144,162321,5,12,0:0:0:0:
120,218,162568,1,0,1:0:0:0:
219,91,162825,6,0,P|151:76|125:89,1,97.50000371933,12|0,0:0|1:0,0:0:0:0:
120,218,163337,2,0,P|164:235|215:220,1,97.50000371933,12|0,0:0|1:0,0:0:0:0:
171,154,163854,2,0,L|218:148,2,38.9999988098145,12|0|8,0:0|1:0|0:0,0:0:0:0:
151,78,164650,1,4,0:3:0:0:
151,78,164915,6,0,B|171:43|171:43|291:39,1,130,2|0,1:2|0:0,0:0:0:0:
286,123,165725,5,0,1:0:0:0:
286,123,165996,2,0,P|354:135|401:80,1,130,8|0,0:0|0:0,0:0:0:0:
332,43,166806,2,8,L|330:64,2,21.6666666666667
285,122,167077,2,0,L|295:255,1,130,0|0,1:0|0:0,0:0:0:0:
217,302,167900,1,0,1:0:0:0:
140,263,168175,6,0,L|99:276,2,43.3333333333333,8|8|0,0:0|1:2|1:0,0:0:0:0:
103,154,168724,1,8,0:3:0:0:
103,154,168904,2,0,L|97:205,1,43.3333333333333,8|8,1:2|0:0,0:0:0:0:
19,209,169264,6,0,B|5:124|5:124|42:99,1,130,0|0,1:2|0:0,0:0:0:0:
116,83,170071,1,0,1:0:0:0:
116,83,170339,2,0,L|252:74,1,130,8|0,0:0|0:0,0:0:0:0:
287,139,171143,1,8,1:2:0:0:
318,68,171411,6,0,L|323:8,2,43.3333333333333,0|8|8,1:0|0:0|0:0,0:0:0:0:
392,89,171946,2,0,L|434:35,2,51.999998413086,0|8|8,1:0|0:0|0:0,0:0:0:0:
430,160,172482,2,0,L|498:144,2,58.5000002231598,0|8|8,1:0|0:0|0:0,0:0:0:0:
359,198,173018,1,0,1:0:0:0:
359,198,173196,2,0,L|350:275,1,62.8333352508546,8|8,0:0|0:0,0:0:0:0:
379,330,173554,6,0,B|303:343|338:303|241:321,1,130,0|0,1:0|0:0,0:0:0:0:
191,362,174357,1,0,1:0:0:0:
191,362,174625,2,0,P|128:354|115:357,1,65,8|0,0:0|0:0,0:0:0:0:
57,376,175161,1,0,0:0:0:0:
73,279,175429,2,0,L|78:315,2,21.6666666666667,8|8|8,0:0|0:0|0:0,0:0:0:0:
68,263,175696,6,0,B|129:254|129:254|136:260|136:260|220:245,2,130,0|0|8,1:0|0:0|0:0,0:0:0:0:
128,168,177304,2,0,L|199:175,1,65,0|8,1:0|0:0,0:0:0:0:
321,209,177839,2,0,B|292:188|292:188|235:198,2,65,0|0|0,1:0|0:0|0:0,0:0:0:0:
265,328,178621,1,0,1:0:0:0:
265,328,178882,2,0,L|273:256,2,65,8|0|0,0:0|0:0|0:0,0:0:0:0:
331,357,179665,1,8,0:0:0:0:
395,323,179925,5,0,1:0:0:0:
355,207,180455,1,0,1:0:0:0:
388,123,180986,1,8,0:0:0:0:
347,63,181517,1,0,1:0:0:0:
338,40,182036,6,0,B|254:23|289:74|202:54,1,130,0|0,1:0|0:0,0:0:0:0:
148,13,182815,1,0,1:0:0:0:
90,59,183075,2,0,L|96:197,1,130,8|0,0:0|0:0,0:0:0:0:
172,283,183854,2,0,L|228:288,1,32.5,8|8,0:0|0:0,0:0:0:0:
260,239,184114,6,0,P|300:235|349:234,1,65,0|0,1:0|0:0,0:0:0:0:
426,129,184633,2,0,P|406:164|379:204,1,65,0|0,0:0|1:0,0:0:0:0:
429,334,185150,2,0,P|411:297|393:252,1,65,8|0,0:0|0:0,0:0:0:0:
255,242,185667,2,0,P|295:238|344:237,1,65,0|8,0:0|0:0,0:0:0:0:
283,167,186197,6,0,B|197:151|239:195|154:177,1,130,0|0,1:0|0:0,0:0:0:0:
100,113,186980,1,0,1:0:0:0:
100,113,187232,2,0,L|93:41,1,65,8|0,0:0|0:0,0:0:0:0:
72,192,187736,2,0,L|67:276,1,65,0|0,0:0|1:0,0:0:0:0:
95,345,188252,2,0,P|149:366|210:301,1,130,0|0,1:0|0:0,0:0:0:0:
225,254,189026,1,0,1:0:0:0:
225,254,189284,2,0,B|287:243|287:243|296:249|296:249|372:236,1,130,8|0,0:0|0:0,0:0:0:0:
457,85,190316,6,0,B|431:42|431:42|285:61,1,175.500000669479,0|0,1:0|0:0,0:0:0:0:
251,109,191090,1,0,1:0:0:0:
201,168,191348,2,0,P|176:88|239:35,1,175.500000669479,8|0,0:0|0:0,0:0:0:0:
322,132,192117,2,0,L|327:202,1,50.3750003843308,8|8,0:0|0:0,0:0:0:0:
291,245,192373,2,0,L|211:251,2,67.1666671791077,0|8|8,1:0|0:0|0:0,0:0:0:0:
362,275,192886,2,0,L|442:281,2,67.1666671791077,0|8|8,1:0|0:0|0:0,0:0:0:0:
299,320,193399,2,0,L|219:326,2,67.1666671791077,0|8|8,1:0|0:0|0:0,0:0:0:0:
370,350,193912,2,0,L|450:356,2,67.1666671791077,0|8|8,1:0|0:0|0:0,0:0:0:0:
232,325,194424,6,0,B|131:303|170:355|60:329,1,155.999995239258,0|0,1:0|0:0,0:0:0:0:
33,277,195187,1,0,1:0:0:0:
96,237,195437,2,0,L|194:239,1,77.999997619629,8|0,0:0|0:0,0:0:0:0:
254,245,195997,1,0,1:0:0:0:
373,53,196453,5,4,1:0:0:0:
299,36,196779,1,0,0:0:0:0:
254,99,197105,1,2,0:0:0:0:
303,157,197438,1,0,0:0:0:0:
375,132,197771,1,2,0:0:0:0:
434,178,198111,1,0,0:0:0:0:
422,255,198452,1,2,0:0:0:0:
348,278,198800,1,0,0:0:0:0:
291,231,199149,6,0,B|207:214|245:264|146:242,1,130,2|0,0:0|0:0,0:0:0:0:
113,192,200131,1,0,0:0:0:0:
113,192,200476,2,0,L|107:108,1,65,2|0,0:0|0:0,0:0:0:0:
37,79,201170,2,0,L|31:163,1,65,2|0,0:0|0:0,0:0:0:0:
50,226,201801,2,0,P|90:257|168:242,1,130,2|2,0:0|0:0,0:0:0:0:
217,182,203098,6,0,B|279:178|279:178|290:186|290:186|362:182,1,130,2|2,0:0|0:0,0:0:0:0:
326,110,204425,1,2,0:0:0:0:
249,106,205084,1,2,0:0:0:0:
331,105,205696,1,2,0:0:0:0:
245,114,206330,1,2,0:0:0:0:
365,126,206989,1,2,0:0:0:0:
59,101,209781,5,2,1:2:0:0:
148,206,209968,2,0,P|135:126|32:114,1,168.999992263794,8|0,0:0|0:0,0:0:0:0:
19,223,210249,1,0,1:0:0:0:
13,217,210343,2,0,P|56:176|97:188,1,84.4999961318971,10|0,0:0|0:0,0:0:0:0:
220,217,210531,2,0,B|292:226|292:226|307:239|307:239|326:232|326:232|436:247,1,168.999992263794,2|8,1:2|0:2,0:2:0:0:
452,188,210812,1,0,0:2:0:0:
461,183,210906,2,0,L|466:76,1,84.4999961318971,0|0,0:2|1:2,0:2:0:0:
465,265,211093,2,0,L|470:372,1,84.4999961318971,8|0,0:2|0:2,0:2:0:0:
375,148,211281,5,2,1:2:0:0:
371,131,211374,1,0,0:2:0:0:
366,113,211468,1,8,0:2:0:0:
362,95,211562,1,0,0:2:0:0:
291,64,211656,5,2,0:2:0:0:
288,74,211749,1,0,0:2:0:0:
285,84,211843,1,8,0:2:0:0:
283,93,211937,1,0,0:2:0:0:
248,160,212031,6,0,L|148:168,1,84.4999961318971,2|0,1:2|0:2,0:2:0:0:
309,221,212218,2,0,L|409:229,1,84.4999961318971,8|0,0:2|0:2,0:2:0:0:
110,232,212406,1,2,0:2:0:0:
103,231,212499,1,0,0:2:0:0:
97,229,212593,2,0,L|80:125,1,84.4999961318971,8|0,0:2|0:2,0:2:0:0:
131,15,212781,6,0,B|170:49|170:49|163:166,1,168.999992263794,2|8,1:2|0:2,0:2:0:0:
141,329,213062,1,0,0:2:0:0:
151,328,213156,2,0,L|252:319,1,84.4999961318971,0|0,0:2|1:2,0:2:0:0:
390,381,213343,2,0,L|289:372,1,84.4999961318971,10|0,0:2|0:2,0:2:0:0:
235,320,213531,2,0,P|212:231|289:181,1,168.999992263794,2|8,1:2|0:2,0:2:0:0:
382,180,213812,1,0,0:2:0:0:
386,190,213906,2,0,P|358:226|308:216,1,84.4999961318971,0|0,0:2|1:2,0:2:0:0:
347,105,214093,2,0,L|444:110,1,84.4999961318971,8|0,0:2|0:2,0:2:0:0:
262,34,214281,5,2,1:2:0:0:
245,37,214374,1,0,2:2:0:0:
225,40,214468,1,8,2:2:0:0:
207,43,214562,1,0,2:2:0:0:
170,120,214656,5,2,2:2:0:0:
177,123,214749,1,0,1:2:0:0:
185,127,214843,1,8,2:2:0:0:
194,130,214937,1,0,2:2:0:0:
258,179,215031,6,0,B|300:214|300:214|156:233,1,168.999992263794,2|8,1:2|0:2,0:2:0:0:
202,303,215312,1,0,0:2:0:0:
212,301,215406,2,0,L|302:287,2,84.4999961318971,2|0|8,0:2|1:2|0:2,0:2:0:0:
463,42,215781,6,0,B|469:107|469:107|479:126|479:126|469:146|469:146|477:246,1,168.999992263794,2|8,1:2|0:2,0:2:0:0:
484,374,216062,1,0,0:2:0:0:
482,365,216156,2,0,L|476:254,1,84.4999961318971,0|0,0:2|1:2,0:2:0:0:
318,216,216343,2,0,L|439:245,1,84.4999961318971,10|0,0:2|0:2,0:2:0:0:
375,318,216531,2,0,B|312:303|312:303|276:316|276:316|199:297,1,168.999992263794,2|8,1:2|0:2,0:2:0:0:
235,137,216812,1,0,0:2:0:0:
236,146,216906,2,0,L|248:241,1,84.4999961318971,0|0,0:2|1:2,0:2:0:0:
139,342,217093,2,0,L|128:258,1,84.4999961318971,8|0,0:2|0:2,0:2:0:0:
96,97,217281,6,0,P|135:27|215:31,1,168.999992263794,2|8,1:2|0:2,0:2:0:0:
380,59,217562,1,0,0:2:0:0:
370,61,217656,2,0,L|227:72,1,84.4999961318971,2|0,0:2|1:2,0:2:0:0:
77,184,217843,2,0,L|162:170,1,84.4999961318971,8|0,0:2|0:2,0:2:0:0:
308,156,218031,2,0,B|415:147|370:203|476:194,1,168.999992263794,2|8,1:2|0:2,0:2:0:0:
459,18,218312,1,0,0:2:0:0:
458,26,218406,2,0,P|443:104|440:149,1,84.4999961318971,2|0,0:2|1:2,0:2:0:0:
450,296,218593,1,8,0:2:0:0:
450,296,218781,6,0,B|426:338|375:338|375:338|344:311|338:260,1,168.999992263794,2|8,1:2|0:2,0:2:0:0:
260,352,219062,1,0,0:2:0:0:
252,349,219156,2,0,P|188:324|128:321,1,84.4999961318971,0|0,0:2|1:2,0:2:0:0:
15,347,219343,2,0,P|88:308|120:272,1,84.4999961318971,10|0,0:2|0:2,0:2:0:0:
145,235,219531,2,0,P|165:148|78:106,1,168.999992263794,2|8,1:2|0:2,0:2:0:0:
15,76,219812,5,0,0:2:0:0:
6,85,219906,5,2,0:2:0:0:
0,113,219999,5,2,1:2:0:0:
29,163,220093,5,10,0:2:0:0:
96,178,220187,5,2,0:2:0:0:
166,117,220281,6,0,P|260:93|320:170,1,168.999992263794,2|8,1:2|0:2,0:2:0:0:
331,218,220562,1,0,0:2:0:0:
341,218,220656,2,0,L|465:207,1,84.4999961318971,2|0,0:2|0:2,0:2:0:0:
350,294,220843,2,0,L|474:283,1,84.4999961318971,8|0,0:2|0:2,0:2:0:0:
222,155,221031,2,0,L|137:162,1,84.4999961318971,2|0,1:2|0:2,0:2:0:0:
231,231,221218,2,0,L|146:238,1,84.4999961318971,8|0,0:2|0:2,0:2:0:0:
320,62,221406,2,0,L|444:51,1,84.4999961318971,2|0,0:2|0:2,0:2:0:0:
329,138,221593,2,0,L|453:127,1,84.4999961318971,8|0,0:2|0:2,0:2:0:0:
217,44,221781,6,0,B|152:40|152:40|113:60|113:60|39:55,1,168.999992263794,2|8,1:2|0:2,0:2:0:0:
14,160,222062,1,0,0:2:0:0:
14,160,222156,2,0,P|39:229|48:280,1,84.4999961318971,0|0,0:2|1:2,0:2:0:0:
76,375,222343,2,0,P|87:334|103:295,1,84.4999961318971,10|0,0:2|0:2,0:2:0:0:
231,231,222531,2,0,P|230:325|152:349,1,168.999992263794,2|8,1:2|0:2,0:2:0:0:
136,216,222812,1,0,0:2:0:0:
136,216,222906,2,0,P|126:122|124:103,2,84.4999961318971,0|0|10,0:2|1:2|0:2,0:2:0:0:
375,83,223281,6,0,P|264:100|192:119,1,168.999992263794,2|8,1:2|0:2,0:2:0:0:
382,229,223562,1,0,0:2:0:0:
375,225,223656,2,0,P|250:195|180:192,1,168.999992263794,2|8,0:2|0:2,0:2:0:0:
113,366,223937,1,0,0:2:0:0:
109,357,224031,2,0,P|175:282|282:329,1,168.999992263794,2|8,1:2|0:2,0:2:0:0:
288,350,224312,1,0,0:2:0:0:
360,325,224406,2,0,P|477:330|511:336,1,84.4999961318971,2|0,0:2|1:2,0:2:0:0:
209,359,224593,1,8,0:2:0:0:
209,359,224781,6,0,P|159:278|187:231,1,149.500002851486,2|8,1:2|0:2,0:2:0:0:
248,195,225343,1,2,1:2:0:0:
322,224,225531,2,0,P|379:213|399:182,1,74.7500014257431,2|0,1:2|0:2,0:2:0:0:
412,129,225906,1,8,0:2:0:0:
412,129,226093,1,0,1:2:0:0:
340,11,226281,2,0,B|313:50|313:50|336:168,1,149.500002851486,4|8,1:1|0:2,0:2:0:0:
371,288,226843,1,0,1:2:0:0:
371,288,227031,2,0,L|372:201,1,74.7500014257431,2|0,1:2|0:2,0:2:0:0:
272,371,227406,1,10,0:2:0:0:
272,371,227781,5,10,0:2:0:0:
249,177,227968,1,0,1:2:0:0:
191,372,228156,5,8,0:2:0:0:
168,178,228343,1,2,1:2:0:0:
108,379,228531,5,8,0:2:0:0:
85,185,228718,1,0,1:2:0:0:
244,276,228906,5,10,0:0:0:0:
31,239,229093,1,0,1:0:0:0:
134,62,229281,5,8,0:0:0:0:
170,280,229468,1,0,1:0:0:0:
270,72,229656,5,8,0:0:0:0:
251,283,229843,1,0,1:0:0:0:
183,129,230031,5,8,0:0:0:0:
362,181,230218,1,0,1:0:0:0:
149,198,230406,5,8,0:0:0:0:
381,97,230593,1,0,1:0:0:0:
185,108,230781,6,0,L|91:117,1,74.7500014257431,10|0,0:2|1:2,0:2:0:0:
361,170,231156,2,0,L|455:179,1,74.7500014257431,10|0,0:2|1:2,0:2:0:0:
225,320,231531,5,10,0:2:0:0:
267,237,231718,1,0,1:2:0:0:
342,354,231906,2,0,B|269:341|269:341|226:362|226:362|145:346,1,195,10|0,0:2|0:2,0:2:0:0:
88,271,232281,6,0,P|131:216|193:216,1,84.4999961318971,10|0,0:2|0:2,0:2:0:0:
31,343,232468,2,0,P|-2:237|6:220,1,84.4999961318971,8|8,0:2|0:2,0:2:0:0:
27,122,232656,1,2,0:2:0:0:
27,122,232749,2,0,L|41:240,2,84.4999961318971,8|0|0,0:2|0:2|1:2,0:2:0:0:
225,129,233031,5,8,1:2:0:0:
219,138,233124,2,0,B|165:205|165:205|82:125,1,168.999992263794,8|8,0:0|0:0,0:0:0:0:
191,39,233406,2,0,L|339:56,1,84.4999961318971,8|0,0:0|0:0,0:0:0:0:
474,31,233593,1,8,0:0:0:0:
407,63,233687,1,8,0:0:0:0:
385,135,233781,6,0,B|398:182|398:182|390:244|390:244|408:319,1,162.5,4|2,1:2|0:0,0:0:0:0:
472,242,234343,1,0,0:0:0:0:
468,339,234531,2,0,P|386:372|328:297,1,162.5,2|0,0:0|0:0,0:0:0:0:
260,73,235281,2,0,P|306:145|280:189,1,121.875,2|0,0:0|0:0,0:0:0:0:
224,197,235656,2,0,P|178:125|204:81,1,121.875,2|0,0:0|0:0,0:0:0:0:
295,171,236031,2,0,L|290:304,1,121.875,2|0,0:0|0:0,0:0:0:0:
288,373,236406,1,2,0:0:0:0:
107,367,236781,5,2,0:2:0:0:
106,367,237343,1,2,0:2:0:0:
80,203,237531,2,0,L|93:299,1,84.4999961318971,2|0,0:2|0:2,0:2:0:0:
91,286,238281,6,0,B|174:300|174:300|239:265|239:265|356:287,1,253.499988395691,2|0,0:2|0:2,0:2:0:0:
304,354,238656,2,0,P|277:231|386:231,1,224.250004277229,2|0,0:2|0:2,0:2:0:0:
311,199,239031,2,0,P|248:261|284:356,1,175.499994644165,2|0,0:2|0:2,0:2:0:0:
387,374,239406,2,0,L|389:341,1,29.2499991073609,2|0,0:2|0:2,0:2:0:0:
393,267,239781,5,2,1:2:0:0:
398,98,239968,2,0,L|393:267,1,168.999992263794,8|0,0:2|0:2,0:2:0:0:
229,216,240249,1,0,1:2:0:0:
229,216,240343,2,0,P|278:200|325:200,1,84.4999961318971,10|0,0:2|0:2,0:2:0:0:
219,63,240531,2,0,P|132:112|50:65,1,168.999992263794,2|8,1:2|0:2,0:2:0:0:
16,180,240812,1,0,0:2:0:0:
25,184,240906,2,0,P|63:262|58:290,1,84.4999961318971,0|0,0:2|1:2,0:2:0:0:
46,368,241093,1,8,0:2:0:0:
46,368,241281,6,0,B|170:375|170:375|112:311,1,168.999992263794,2|8,1:2|0:2,0:2:0:0:
243,280,241562,1,0,0:2:0:0:
243,280,241656,2,0,P|195:270|139:258,1,84.4999961318971,2|0,0:2|1:2,0:2:0:0:
323,177,241843,1,8,0:2:0:0:
323,177,242031,2,0,P|338:267|350:374,1,168.999992263794,2|8,1:2|0:2,0:2:0:0:
405,179,242312,1,0,0:2:0:0:
405,179,242406,2,0,P|442:108|479:93,1,84.4999961318971,2|0,0:2|1:2,0:2:0:0:
508,275,242593,2,0,P|486:169|475:140,1,84.4999961318971,8|0,0:2|0:2,0:2:0:0:
340,78,242781,6,0,B|238:50|265:111|164:76,1,168.999992263794,2|8,1:2|0:2,0:2:0:0:
72,51,243062,1,0,0:2:0:0:
72,51,243156,2,0,P|93:148|98:184,1,84.4999961318971,0|0,0:2|1:2,0:2:0:0:
274,22,243343,2,0,P|253:119|248:155,1,84.4999961318971,10|0,0:2|0:2,0:2:0:0:
314,298,243531,2,0,P|254:229|144:289,1,168.999992263794,2|8,1:2|0:2,0:2:0:0:
0,320,243812,5,0,0:2:0:0:
5,330,243906,5,2,3:2:0:0:
36,347,243999,5,2,3:2:0:0:
83,334,244093,5,10,3:2:0:0:
118,283,244187,5,2,3:2:0:0:
183,237,244281,6,0,P|264:233|314:298,1,168.999992263794,2|8,1:2|0:2,0:2:0:0:
291,384,244562,1,0,0:2:0:0:
291,384,244656,2,0,B|394:390|335:330|480:349,1,168.999992263794,2|8,0:2|0:2,0:2:0:0:
469,266,244937,1,0,0:2:0:0:
456,273,245030,2,0,B|396:255|406:129|467:136,1,168.999992263794,2|8,1:2|0:2,0:2:0:0:
439,7,245312,1,0,0:2:0:0:
452,0,245405,2,0,B|512:18|502:144|441:137,1,168.999992263794,2|8,0:2|0:2,0:2:0:0:
149,72,245781,6,0,B|150:37|216:20|258:77|186:177,1,168.999992263794,2|8,1:2|0:2,0:2:0:0:
93,152,246062,1,0,0:2:0:0:
83,149,246156,2,0,L|69:49,1,84.4999961318971,0|0,0:2|1:2,0:2:0:0:
142,214,246343,2,0,L|136:320,1,84.4999961318971,10|0,0:2|0:2,0:2:0:0:
181,367,246531,2,0,B|259:373|259:373|267:362|267:362|394:372,1,168.999992263794,2|8,1:2|0:2,0:2:0:0:
336,224,246812,1,0,0:2:0:0:
284,283,246906,1,0,0:2:0:0:
362,299,246999,1,0,1:2:0:0:
370,298,247093,2,0,L|463:282,1,84.4999961318971,10|0,0:2|0:2,0:2:0:0:
379,159,247281,6,0,B|329:137|272:137|307:192|234:190|170:135,1,168.999992263794,2|8,1:2|0:2,0:2:0:0:
157,46,247562,1,0,0:2:0:0:
157,46,247656,2,0,B|59:65|59:65|97:128,1,168.999992263794,2|8,0:2|0:2,0:2:0:0:
139,267,247937,1,0,0:2:0:0:
84,214,248031,2,0,P|38:207|-29:205,1,84.4999961318971,2|0,1:2|0:2,0:2:0:0:
163,195,248218,2,0,P|209:188|276:186,1,84.4999961318971,8|0,0:2|0:2,0:2:0:0:
88,380,248406,1,2,0:2:0:0:
83,374,248499,1,0,1:2:0:0:
78,368,248593,2,0,P|67:277|62:226,1,84.4999961318971,8|0,0:2|0:2,0:2:0:0:
197,111,248781,6,0,B|270:105|270:105|313:127|313:127|420:119,1,195.00000743866,2|8,1:2|0:2,0:2:0:0:
470,121,249343,1,0,1:2:0:0:
470,121,249531,2,0,B|519:149|519:149|503:297,1,195.00000743866,2|8,1:2|0:2,0:2:0:0:
490,373,250093,1,0,1:2:0:0:
288,343,250281,2,0,B|327:313|327:258|327:258|351:304|431:306,1,195.00000743866,6|8,1:2|0:2,0:2:0:0:
239,274,250843,1,0,1:2:0:0:
239,274,251031,2,0,L|141:266,1,97.50000371933,6|0,1:2|0:2,0:2:0:0:
141,83,251406,1,8,0:2:0:0:
141,83,251781,6,0,L|271:72,1,84.4999961318971,2|8,1:2|0:0,0:0:0:0:
406,56,251968,1,0,1:0:0:0:
397,58,252062,1,0,0:0:0:0:
388,59,252156,2,0,L|303:66,1,84.4999961318971,0|8,1:0|0:0,0:0:0:0:
91,141,252343,2,0,P|65:75|75:52,1,84.4999961318971,0|8,1:2|0:0,0:0:0:0:
165,158,252531,1,0,1:2:0:0:
164,166,252624,1,8,0:0:0:0:
163,173,252718,2,0,L|155:267,1,84.4999961318971,0|8,1:2|0:0,0:0:0:0:
52,312,252906,2,0,L|45:228,1,84.4999961318971,0|8,1:2|0:0,0:0:0:0:
212,316,253093,2,0,B|149:337|149:337|107:323,1,84.4999961318971,0|8,1:2|0:0,0:0:0:0:
234,242,253281,2,0,P|284:296|280:333,1,84.4999961318971,0|8,1:2|0:0,0:0:0:0:
155,257,253468,2,0,L|163:173,1,84.4999961318971,0|8,1:2|0:0,0:0:0:0:
334,198,253656,2,0,L|326:114,1,84.4999961318971,0|8,1:2|0:0,0:0:0:0:
79,160,253843,2,0,L|87:76,1,84.4999961318971,0|8,1:2|0:0,0:0:0:0:
258,101,254031,2,0,L|250:17,1,84.4999961318971,0|8,1:2|0:0,0:0:0:0:
171,88,254218,2,0,L|163:172,1,84.4999961318971,0|8,1:2|0:0,0:0:0:0:
344,203,254406,2,0,L|336:119,1,84.4999961318971,0|8,1:2|0:0,0:0:0:0:
263,204,254593,2,0,L|271:288,1,84.4999961318971,0|8,1:2|0:0,0:0:0:0:
435,314,254781,5,2,1:2:0:0:
433,305,254874,1,8,0:0:0:0:
432,296,254968,2,0,L|424:212,1,84.4999961318971,0|8,1:2|0:0,0:0:0:0:
158,354,255156,1,2,1:2:0:0:
160,345,255249,1,8,0:0:0:0:
161,336,255343,2,0,L|169:252,1,84.4999961318971,0|8,1:2|0:0,0:0:0:0:
341,185,255531,1,2,1:2:0:0:
343,194,255624,1,8,0:0:0:0:
344,203,255718,2,0,L|352:287,1,84.4999961318971,0|8,1:2|0:0,0:0:0:0:
78,320,255906,1,2,1:2:0:0:
80,311,255999,1,8,0:0:0:0:
81,302,256093,2,0,L|89:218,1,84.4999961318971,0|8,1:2|0:0,0:0:0:0:
111,69,256281,5,4,1:2:0:0:
202,152,256531,1,8,0:0:0:0:
343,107,256781,1,8,0:0:0:0:
379,19,257031,5,2,1:2:0:0:
480,118,257281,1,8,0:0:0:0:
474,243,257531,1,8,0:0:0:0:
398,191,257779,5,2,1:2:0:0:
307,212,258045,1,8,0:0:0:0:
218,238,258312,1,8,0:0:0:0:
89,169,258579,5,2,1:2:0:0:
212,83,258845,1,8,0:0:0:0:
285,289,259112,1,8,0:0:0:0:
138,338,259379,6,0,B|88:328|88:328|70:338|70:338|11:327,2,116.999996429443,2|0|2,1:2|1:0|1:2,0:0:0:0:
215,382,259979,1,0,1:0:0:0:
262,157,260179,2,0,B|214:115|146:156|167:267|211:305,1,233.999992858887,10|0,0:0|1:2,0:0:0:0:
325,357,260779,1,0,1:0:0:0:
250,228,260979,2,0,B|151:192|183:252|79:214|79:214|105:237|126:305,1,233.999992858887,2|0,1:2|1:0,0:0:0:0:
1,217,261579,1,0,1:0:0:0:
1,217,261779,2,0,P|39:143|83:136,1,116.999996429443,10|0,0:0|1:0,0:0:0:0:
166,151,262179,1,0,1:0:0:0:
159,149,262279,1,0,0:0:0:0:
152,147,262379,1,0,1:0:0:0:
113,76,262579,6,0,B|151:24|151:24|310:53,1,195.00000743866,2|0,1:2|1:0,0:0:0:0:
357,67,263179,1,0,1:0:0:0:
357,67,263379,2,0,L|473:57,1,97.50000371933,10|0,0:0|1:0,0:0:0:0:
298,124,263779,2,0,L|287:300,1,168.999992263794,2|0,1:2|1:0,0:0:0:0:
359,333,264379,1,0,1:0:0:0:
359,333,264579,2,0,L|482:349,1,84.4999961318971,2|0,1:2|1:0,0:0:0:0:
457,214,264979,2,0,B|355:181|387:246|292:214,1,168.999992263794,10|0,0:0|1:0,0:0:0:0:
207,172,265579,1,0,1:0:0:0:
113,195,265779,5,0,1:0:0:0:
113,195,265979,1,0,1:0:0:0:
187,250,266179,1,0,1:0:0:0:
187,250,266379,1,0,1:0:0:0:
106,301,266579,2,0,P|142:340|261:304,1,168.999992263794,10|0,0:0|1:0,0:0:0:0:
268,247,267179,1,0,1:0:0:0:
409,224,267379,2,0,P|373:263|254:227,1,168.999992263794,2|0,1:2|1:2,0:0:0:0:
233,168,267979,1,0,1:0:0:0:
91,145,268179,2,0,P|127:184|246:148,1,168.999992263794,10|0,0:0|1:0,0:0:0:0:
170,103,268779,1,0,1:0:0:0:
62,234,268979,6,0,B|55:343|55:343|122:372,1,168.999992263794,2|0,1:2|1:0,0:0:0:0:
240,271,269579,1,0,1:0:0:0:
157,247,269779,1,10,0:0:0:0:
176,325,269979,1,0,1:0:0:0:
305,316,270179,2,0,P|316:250|297:221,1,84.4999961318971,2|0,1:2|1:0,0:0:0:0:
251,114,270579,2,0,P|240:180|259:209,1,84.4999961318971,0|0,1:0|1:0,0:0:0:0:
397,162,270979,2,0,L|281:153,1,84.4999961318971,2|0,1:2|1:1,0:0:0:0:
78,209,271379,2,0,L|264:191,1,168.999992263794,10|0,0:2|1:0,0:0:0:0:
390,85,271979,1,0,1:0:0:0:
390,85,272179,6,0,B|445:100|445:100|467:134,1,84.4999961318971,0|0,1:0|1:0,0:0:0:0:
391,246,272579,2,0,L|397:157,1,84.4999961318971,0|0,1:0|1:0,0:0:0:0:
461,287,272979,2,0,P|407:333|317:276,1,168.999992263794,10|0,0:0|1:0,0:0:0:0:
291,227,273579,1,0,1:0:0:0:
267,24,273779,2,0,B|319:36|319:36|311:162,1,168.999992263794,2|0,1:2|1:0,0:0:0:0:
159,103,274379,1,0,1:0:0:0:
159,103,274579,2,0,L|268:95,1,84.4999961318971,10|0,0:0|1:0,0:0:0:0:
395,157,274979,2,0,L|310:150,1,84.4999961318971,0|0,1:0|1:0,0:0:0:0:
103,168,275379,6,0,P|70:84|138:26,1,168.999992263794,2|0,1:2|1:0,0:0:0:0:
177,197,275979,1,0,1:0:0:0:
177,197,276179,2,0,L|184:299,1,84.4999961318971,10|0,0:0|1:0,0:0:0:0:
43,308,276579,2,0,L|122:243,1,84.4999961318971,2|0,1:2|1:0,0:0:0:0:
206,374,276979,2,0,L|107:345,1,84.4999961318971,0|0,1:0|1:0,0:0:0:0:
184,194,277379,2,0,L|191:296,1,84.4999961318971,2|0,1:2|1:0,0:0:0:0:
207,382,277779,2,0,P|301:378|409:385,1,168.999992263794,10|0,0:2|1:3,0:0:0:0:
462,174,278579,6,0,P|387:146|370:151,1,84.4999961318971,4|0,1:2|1:0,0:0:0:0:
321,246,278979,2,0,B|385:239|385:239|417:200,1,84.4999961318971,8|0,0:0|0:0,0:0:0:0:
247,198,279379,2,0,L|242:294,1,84.4999961318971,4|0,1:2|1:0,0:0:0:0:
313,167,279779,2,0,L|308:71,1,84.4999961318971,8|0,0:0|1:0,0:0:0:0:
146,111,280179,6,0,L|243:119,1,84.4999961318971,4|0,1:2|1:0,0:0:0:0:
392,76,280579,2,0,L|307:82,1,84.4999961318971,8|0,0:2|1:0,0:0:0:0:
31,224,280979,1,4,1:2:0:0:
181,194,281179,1,0,1:0:0:0:
41,102,281379,1,12,0:0:0:0:
5,330,281579,1,0,1:0:0:0:
269,218,281779,5,12,0:0:0:0:
35,93,281979,1,0,1:0:0:0:
201,336,282179,1,12,0:0:0:0:
147,63,282379,1,0,1:0:0:0:
104,299,282579,1,12,0:0:0:0:
290,93,282779,1,0,1:0:0:0:
294,344,282979,1,12,0:0:0:0:
143,52,283179,1,0,1:0:0:0:
99,302,283379,6,0,P|177:327|233:233,1,168.999992263794,12|8,0:0|0:0,0:0:0:0:
197,182,283679,1,8,0:0:0:0:
189,178,283779,2,0,P|153:216|162:258,1,84.4999961318971,0|8,1:0|0:0,0:0:0:0:
280,209,283979,2,0,L|271:80,1,84.4999961318971,8|8,0:0|0:0,0:0:0:0:
297,340,284179,6,2,B|475:373|475:373|472:293|472:293|258:255|258:255|201:355|201:355|1:373|1:373|32:293|32:293|150:284|150:284|180:225|180:225|190:223|190:223|224:153|224:153|227:-7|28:-57|-63:132|52:218|117:192|117:192|162:171|304:89|257:196|416:235|466:171|466:171|373:92|394:2|394:2|497:0|515:114,1,2340,6|4,1:2|0:3,0:0:0:0:
216,64,288557,6,2,B|132:127|134:238|193:327|334:320|408:219|367:134|367:134|264:173|264:173|8:124|8:124|71:249|71:249|44:372|44:372|141:311|141:311|205:384|205:384|437:364|437:364|456:205|456:205|469:205|469:205|481:6,1,1934.01002264942,6|4,1:2|0:3,0:0:0:0:
473,181,292467,6,2,B|82:321|82:321|306:-21|306:-21|334:386|334:386|62:80|62:80|479:170,1,2063.10005745175,6|2,1:2|1:2,0:0:0:0:
416,283,295506,5,0,1:0:0:0:
422,295,295604,5,8,0:0:0:0:
362,344,295900,5,0,1:0:0:0:
283,302,296118,5,8,0:0:0:0:
200,345,296395,5,0,1:0:0:0:
116,202,296689,5,8,0:0:0:0:
64,367,297033,5,0,1:0:0:0:
5,161,297348,5,8,0:0:0:0:
5,161,298434,6,0,B|33:95|178:127|102:167|178:218|281:167|281:167|230:210|231:268,1,409.499987503052,4|0,1:2|0:0,0:0:0:0:
