osu file format v14

[General]
AudioFilename: audio.mp3
AudioLeadIn: 0
PreviewTime: 250172
Countdown: 0
SampleSet: Soft
StackLeniency: 0.5
Mode: 0
LetterboxInBreaks: 0
WidescreenStoryboard: 0

[Editor]
Bookmarks: 103617,116061,204956,207178,218728
DistanceSpacing: 3.3
BeatDivisor: 8
GridSize: 16
TimelineZoom: 3.499999

[Metadata]
Title:bedroom community
TitleUnicode:bedroom community
Artist:glass beach
ArtistUnicode:glass beach
Creator:Shii
Version:melancholia
Source:
Tags:english rock mappers guild mpg mg featured artist fa punk emo the first album ShiiTsuin indie osu!
BeatmapID:2635006
BeatmapSetID:1267915

[Difficulty]
HPDrainRate:5
CircleSize:4.8
OverallDifficulty:9.5
ApproachRate:9.5
SliderMultiplier:2
SliderTickRate:1

[Events]
//Background and Video events
0,0,"bedroom community.jpg",0,0
//Break Periods
2,103825,115544
//Storyboard Layer 0 (Background)
//Storyboard Layer 1 (Fail)
//Storyboard Layer 2 (Pass)
//Storyboard Layer 3 (Foreground)
//Storyboard Layer 4 (Overlay)
//Storyboard Sound Samples

[TimingPoints]
1512,468.75,4,2,1,40,1,0
2918,-200,4,2,1,40,0,0
3387,-166.666666666667,4,2,1,40,0,0
16514,444.444444444444,4,2,1,40,1,0
17847,-100,4,2,1,55,0,0
18291,-100,4,2,1,70,0,0
32513,-117.647058823529,4,2,1,60,0,0
59180,-117.647058823529,4,2,1,67,0,0
59625,-117.647058823529,4,2,1,75,0,0
60069,-117.647058823529,4,2,1,80,0,0
60958,-117.647058823529,4,2,1,48,0,0
66291,-117.647058823529,4,2,1,80,0,1
66513,-117.647058823529,4,2,1,60,0,0
67180,-100,4,2,1,70,0,0
67625,-83.3333333333333,4,2,1,70,0,0
68069,-57.1428571428571,4,2,1,78,0,1
85847,-57.1428571428571,4,2,1,85,0,1
87625,-100,4,2,1,74,0,1
88736,-100,4,2,1,80,0,1
89402,-133.333333333333,4,2,1,70,0,0
116069,434.782608695652,4,2,1,70,1,0
116069,-166.666666666667,4,2,1,70,0,0
117846,444.444444444444,4,2,1,67,1,0
117847,-100,4,2,1,67,0,0
132069,-80,4,2,1,70,0,0
139179,-71.4285714285714,4,2,1,75,0,0
142734,-62.5,4,2,1,80,0,0
144513,-62.5,4,2,1,85,0,0
146291,-100,4,2,1,45,0,0
158975,444.444444444444,4,2,1,45,1,0
159401,444.444444444444,4,2,1,45,1,0
160512,444.444444444444,4,2,1,45,1,0
167625,-80,4,2,1,55,0,0
170289,-66.6666666666667,4,2,1,65,0,0
171178,-57.1428571428571,4,2,1,80,0,1
171847,-50,4,2,1,80,0,1
172958,-50,4,2,1,85,0,1
173401,-41.6666666666667,4,2,1,85,0,1
174736,-41.6666666666667,4,2,1,70,0,1
176067,-62.5,4,2,1,70,0,0
176511,-83.3333333333333,4,2,1,65,0,0
187178,-62.5,4,2,1,84,0,0
190736,-66.6666666666667,4,2,1,78,0,0
201400,-55.5555555555556,4,2,1,88,0,0
204956,408.163265306122,4,2,1,88,1,0
204956,-250,4,2,1,42,0,0
205810,441.176470588235,4,2,1,42,1,0
205810,-250,4,2,1,42,0,0
206104,441.176470588235,4,2,1,42,1,0
207177,-250,4,2,1,52,0,0
207179,444.444444444444,4,2,1,52,1,0
215178,-66.6666666666667,4,2,1,65,0,0
222736,-66.6666666666667,4,2,1,70,0,0
228288,-100,4,2,1,70,0,0
228345,-100,4,2,1,5,0,0
228513,-66.6666666666667,4,2,1,70,0,0
236958,-66.6666666666667,4,2,1,70,0,0
249399,-66.6666666666667,4,2,1,80,0,0
250734,-83.3333333333333,4,2,1,70,0,0
251178,-41.6666666666667,4,2,1,80,0,1
276069,-41.6666666666667,4,2,1,90,0,1
279623,-133.333333333333,4,2,1,70,0,0
292043,697.674418604651,4,2,1,75,1,0
292392,582.52427184466,4,2,1,75,1,0
292683,638.297872340426,4,2,1,70,1,0
293002,666.666666666667,4,2,1,70,1,0
293330,714.285714285714,4,2,1,65,1,0
293687,759.493670886076,4,2,1,65,1,0
294066,722.89156626506,4,2,1,60,1,0
294427,769.230769230769,4,2,1,60,1,0
294811,857.142857142857,4,2,1,60,1,0
294811,-142.857142857143,4,2,1,65,0,0
322239,849.377123442809,4,2,1,65,1,0
325424,-142.857142857143,4,2,1,40,0,0

[Colours]
Combo1 : 32,156,223
Combo2 : 226,50,68
Combo3 : 128,43,64
Combo4 : 111,23,189

[HitObjects]
11,55,2918,6,0,L|18:111,1,50,2|2,0:2|0:2,0:2:0:0:
80,139,3387,2,0,P|119:108|201:102,1,119.999996337891,2|2,0:2|0:2,0:2:0:0:
241,145,4324,2,0,P|323:177|406:149,1,179.999994506836,2|2,0:2|0:2,0:2:0:0:
455,96,5262,6,0,P|457:51|470:8,2,89.9999972534181,2|2|2,0:2|0:2|0:2,0:2:0:0:
473,164,6199,2,0,P|485:196|515:241,1,79.9999975585938,2|0,0:2|0:2,0:2:0:0:
503,306,6668,2,0,L|459:313,2,39.9999987792969,2|0|0,0:2|0:2|0:2,0:2:0:0:
509,234,7137,6,0,L|416:220,2,89.9999972534181,2|2|2,0:2|0:2|0:2,0:2:0:0:
512,158,8074,2,0,L|383:139,1,119.999996337891,2|2,0:2|0:2,0:2:0:0:
355,79,9012,6,0,L|226:98,1,119.999996337891,2|2,0:2|0:2,0:2:0:0:
179,58,9949,1,2,0:2:0:0:
126,110,10418,2,0,L|123:176,1,59.9999981689454,2|2,0:2|0:2,0:2:0:0:
119,243,10887,6,0,P|71:239|44:309,1,119.999996337891,2|2,0:2|0:2,0:2:0:0:
65,364,11824,1,2,0:2:0:0:
131,332,12293,2,0,L|194:345,1,59.9999981689454,2|2,0:2|0:2,0:2:0:0:
264,364,12762,6,0,L|253:234,1,119.999996337891,2|0,0:2|0:2,0:2:0:0:
332,221,13465,2,0,L|334:261,1,29.9999990844727,2|2,0:2|0:2,0:2:0:0:
347,264,13699,2,0,L|336:383,1,119.999996337891,2|2,0:2|0:2,0:2:0:0:
438,339,14637,6,0,P|468:320|526:305,2,89.9999972534181,2|2|2,0:2|0:2|0:2,0:2:0:0:
375,375,15574,2,0,P|332:344|257:323,1,119.999996337891,2|2,0:2|0:2,0:2:0:0:
204,355,16514,5,2,0:2:0:0:
144,317,16958,1,2,0:2:0:0:
86,359,17402,1,2,0:2:0:0:
11,251,17847,6,0,L|13:194,1,50,2|0,0:2|0:2,0:2:0:0:
108,53,18069,2,0,L|114:103,1,50,2|0,0:2|0:2,0:2:0:0:
78,287,18292,6,0,L|84:153,1,100,6|0,3:2|0:2,0:2:0:0:
183,129,18625,1,0,3:2:0:0:
183,129,18736,2,0,P|230:154|297:135,1,100,6|0,0:2|3:2,0:2:0:0:
465,5,19180,2,0,P|399:13|362:133,1,200,6|0,1:2|0:2,0:2:0:0:
333,195,19847,1,0,1:2:0:0:
512,311,20069,6,0,P|467:289|399:295,1,100,2|0,3:2|0:2,0:2:0:0:
377,351,20403,2,0,P|332:373|264:367,1,100,2|0,3:2|0:2,0:2:0:0:
219,338,20736,2,0,P|201:311|196:279,1,50,2|0,3:2|0:2,0:2:0:0:
136,132,20958,2,0,L|128:291,1,150,2|0,1:2|0:2,0:2:0:0:
53,384,21403,2,0,L|48:314,1,50,2|0,0:2|0:2,0:2:0:0:
0,254,21625,1,0,1:2:0:0:
255,372,21847,6,0,P|318:364|354:301,1,100,2|0,3:2|0:2,0:2:0:0:
353,269,22180,2,0,P|314:218|242:218,1,100,2|0,3:2|0:2,0:2:0:0:
213,229,22514,2,0,P|196:250|189:277,1,50,2|0,3:2|0:2,0:2:0:0:
344,350,22736,2,0,L|503:326,1,150,2|0,1:2|0:2,0:2:0:0:
509,226,23180,2,0,L|451:210,1,50,2|0,0:2|0:2,0:2:0:0:
445,107,23403,1,0,1:2:0:0:
214,228,23625,6,0,L|195:88,1,100,2|0,3:2|0:2,0:2:0:0:
182,0,23958,1,0,3:2:0:0:
182,0,24069,2,0,P|228:34|304:13,1,100,2|0,0:2|3:2,0:2:0:0:
499,18,24514,2,0,P|417:20|375:94,1,150,2|0,1:2|0:2,0:2:0:0:
462,209,24958,6,0,L|541:197,1,50,2|0,3:2|0:2,0:2:0:0:
394,360,25180,2,0,L|315:348,1,50,2|0,1:2|0:2,0:2:0:0:
218,246,25403,6,0,P|268:252|305:295,1,100,6|0,3:2|0:2,0:2:0:0:
155,373,25736,1,0,3:2:0:0:
155,373,25847,2,2,L|134:258,1,100,6|2,0:2|3:2,0:2:0:0:
37,3,26291,2,0,L|22:187,1,150,6|0,1:2|0:2,0:2:0:0:
11,274,26736,2,0,L|16:217,1,50,2|0,3:2|0:2,0:2:0:0:
108,25,26958,2,0,L|112:74,1,50,0|0,1:2|0:2,0:2:0:0:
227,194,27180,6,0,P|282:199|345:156,1,100,2|0,3:2|0:2,0:2:0:0:
379,137,27514,2,0,P|434:131|497:174,1,100,0|0,3:2|0:2,0:2:0:0:
304,384,27847,1,2,3:2:0:0:
413,329,27958,1,0,0:2:0:0:
324,177,28069,2,0,L|344:325,1,150,2|0,1:2|0:2,0:2:0:0:
250,167,28514,2,0,L|247:231,1,50,2|0,3:2|0:2,0:2:0:0:
163,271,28736,1,0,1:2:0:0:
312,5,28958,6,0,P|389:-1|433:34,1,100,2|0,3:2|0:2,0:2:0:0:
445,76,29291,2,0,P|411:145|359:166,1,100,2|0,3:2|0:2,0:2:0:0:
325,178,29625,2,0,L|252:164,1,50,2|0,3:2|0:2,0:2:0:0:
490,233,29847,2,0,L|322:256,1,150,2|0,1:2|0:2,0:2:0:0:
219,274,30291,2,0,L|268:267,1,50,2|0,0:2|0:2,0:2:0:0:
355,326,30514,1,0,1:2:0:0:
111,358,30736,6,0,L|174:366,1,50,2|0,3:2|0:2,0:2:0:0:
268,266,30958,1,0,1:2:0:0:
167,359,31069,1,0,1:2:0:0:
293,384,31180,1,2,3:2:0:0:
293,384,31291,1,0,3:2:0:0:
381,240,31403,2,0,L|393:293,1,50,0|0,1:2|0:2,0:2:0:0:
482,384,31625,2,0,L|498:222,1,150,4|0,3:2|0:2,0:2:0:0:
505,165,32069,1,2,0:2:0:0:
505,165,32291,1,2,0:2:0:0:
378,72,32514,6,0,P|437:53|493:80,1,127.50000243187,6|0,3:2|0:2,0:2:0:0:
493,80,32958,2,0,L|505:167,1,85.0000016212464,2|0,1:2|0:2,0:2:0:0:
321,27,33403,2,0,P|261:8|205:35,1,127.50000243187,2|0,3:2|0:2,0:2:0:0:
205,35,33847,1,0,1:2:0:0:
200,114,34069,1,2,0:2:0:0:
62,23,34291,5,2,3:2:0:0:
62,23,34403,2,0,L|73:82,1,42.5000008106232,2|0,0:2|0:2,0:2:0:0:
128,111,34625,1,2,0:2:0:0:
128,111,34736,2,0,L|116:170,1,42.5000008106232,0|0,1:2|0:2,0:2:0:0:
59,195,34958,2,0,L|70:254,1,42.5000008106232,2|0,0:2|0:2,0:2:0:0:
195,384,35180,2,0,P|257:374|302:331,1,127.50000243187,2|0,3:2|0:2,0:2:0:0:
244,210,35625,2,0,P|181:219|136:262,1,127.50000243187,2|0,1:2|0:2,0:2:0:0:
87,384,36069,6,0,L|71:267,1,85.0000016212464,2|0,3:2|0:2,0:2:0:0:
14,256,36403,2,0,L|30:139,1,85.0000016212464,2|0,0:2|0:2,0:2:0:0:
78,120,36736,2,0,L|66:51,1,42.5000008106232,2|0,0:2|0:2,0:2:0:0:
177,182,36958,6,0,L|185:118,1,42.5000008106232,2|0,3:2|0:2,0:2:0:0:
322,304,37403,6,0,L|305:190,1,85.0000016212464,2|0,1:2|0:2,0:2:0:0:
386,8,37847,6,0,P|446:15|492:92,1,127.50000243187,2|0,3:2|0:2,0:2:0:0:
487,63,38291,2,0,L|480:151,1,85.0000016212464,2|0,1:2|0:2,0:2:0:0:
463,307,38736,2,0,L|469:222,1,85.0000016212464,2|0,3:2|0:2,0:2:0:0:
409,87,39180,1,2,1:2:0:0:
404,158,39403,1,2,0:2:0:0:
321,283,39625,6,0,P|251:293|193:342,1,127.50000243187,2|0,3:2|0:2,0:2:0:0:
161,383,40069,2,0,P|91:373|33:324,1,127.50000243187,2|0,1:2|0:2,0:2:0:0:
14,277,40514,2,0,L|8:176,1,85.0000016212464,2|0,3:2|0:2,0:2:0:0:
82,0,40958,1,2,1:2:0:0:
100,68,41180,1,2,0:2:0:0:
303,12,41402,6,0,P|326:51|338:93,1,85.0000016212464,2|0,3:2|0:2,0:2:0:0:
344,160,41847,1,0,1:2:0:0:
505,10,42069,1,2,0:2:0:0:
505,10,42180,1,2,0:2:0:0:
505,10,42291,2,0,P|492:73|485:155,1,127.50000243187,2|0,3:2|0:2,0:2:0:0:
485,135,42736,1,2,1:2:0:0:
417,128,42958,1,2,0:2:0:0:
296,198,43180,6,0,L|410:188,1,85.0000016212464,2|0,3:2|0:2,0:2:0:0:
387,259,43514,2,0,L|302:266,1,85.0000016212464,2|0,0:2|0:2,0:2:0:0:
308,336,43847,2,0,L|355:333,1,42.5000008106232,2|0,0:2|0:2,0:2:0:0:
228,208,44069,2,0,P|182:204|117:261,1,127.50000243187,2|0,3:2|0:2,0:2:0:0:
120,253,44514,2,0,L|129:341,1,85.0000016212464,2|0,1:2|0:2,0:2:0:0:
396,341,44958,5,6,1:2:0:0:
431,125,45180,1,2,3:2:0:0:
293,71,45403,5,6,1:2:0:0:
314,336,45625,1,2,3:2:0:0:
134,321,45847,5,6,1:2:0:0:
204,106,46069,1,2,3:2:0:0:
123,68,46291,5,6,1:2:0:0:
219,328,46514,1,2,3:2:0:0:
501,32,46736,6,0,P|438:55|426:135,1,127.50000243187,6|0,3:2|0:2,0:2:0:0:
419,108,47180,2,0,L|320:98,1,85.0000016212464,2|0,1:2|0:2,0:2:0:0:
93,3,47625,6,0,P|155:26|167:106,1,127.50000243187,2|0,3:2|0:2,0:2:0:0:
174,79,48069,1,0,1:2:0:0:
42,157,48291,1,2,0:2:0:0:
42,157,48402,1,2,0:2:0:0:
42,157,48513,6,0,P|94:145|132:163,1,85.0000016212464,2|0,3:2|0:2,0:2:0:0:
170,211,48847,2,0,P|222:223|260:205,1,85.0000016212464,2|0,0:2|0:2,0:2:0:0:
291,153,49180,2,0,L|296:97,1,42.5000008106232,2|0,0:2|0:2,0:2:0:0:
448,35,49402,2,0,P|477:92|449:166,1,127.50000243187,2|0,3:2|0:2,0:2:0:0:
354,194,49847,2,0,L|413:188,1,42.5000008106232,2|0,1:2|0:2,0:2:0:0:
506,235,50069,2,0,L|463:230,1,42.5000008106232,2|0,0:2|0:2,0:2:0:0:
285,208,50291,6,0,P|240:230|218:286,1,85.0000016212464,2|0,3:2|0:2,0:2:0:0:
233,334,50625,2,0,P|274:361|334:353,1,85.0000016212464,2|0,0:2|0:2,0:2:0:0:
364,313,50958,2,0,P|369:282|359:245,1,42.5000008106232,2|0,0:2|0:2,0:2:0:0:
302,157,51180,2,0,L|294:304,1,127.50000243187,2|0,3:2|0:2,0:2:0:0:
295,284,51625,2,0,P|248:261|199:264,1,85.0000016212464,2|0,1:2|0:2,0:2:0:0:
85,384,52069,6,0,L|77:237,1,127.50000243187,2|0,3:2|0:2,0:2:0:0:
78,256,52514,2,0,P|30:279|-18:276,1,85.0000016212464,2|0,1:2|0:2,0:2:0:0:
36,98,52958,1,2,3:2:0:0:
105,120,53181,1,2,0:2:0:0:
194,94,53403,1,2,1:2:0:0:
298,126,53625,1,2,0:2:0:0:
129,41,53847,6,0,L|204:23,1,42.5000008106232,2|0,3:2|0:2,0:2:0:0:
22,173,54291,6,0,L|143:194,1,85.0000016212464,2|0,1:2|0:2,0:2:0:0:
269,120,54736,6,0,P|209:141|178:228,1,127.50000243187,2|0,3:2|0:2,0:2:0:0:
178,194,55180,1,2,1:2:0:0:
195,274,55402,1,2,0:2:0:0:
306,377,55625,2,0,P|383:355|484:345,1,170.000003242493,2|0,3:2|1:2,0:2:0:0:
261,321,56291,1,2,0:2:0:0:
261,321,56402,1,2,0:2:0:0:
261,321,56513,2,0,P|209:300|130:289,1,127.50000243187,2|0,3:2|0:2,0:2:0:0:
138,289,56958,1,2,1:2:0:0:
109,357,57180,1,2,0:2:0:0:
13,252,57402,5,2,3:2:0:0:
13,252,57513,1,2,0:2:0:0:
13,252,57625,2,0,P|13:199|5:127,1,85.0000016212464,2|0,0:2|1:2,0:2:0:0:
0,89,58069,1,2,0:2:0:0:
95,178,58291,2,0,P|135:196|211:166,1,127.50000243187,2|0,3:2|0:2,0:2:0:0:
209,167,58736,2,0,L|227:71,1,85.0000016212464,2|0,1:2|0:2,0:2:0:0:
387,15,59180,5,6,1:2:0:0:
422,231,59402,1,2,3:2:0:0:
228,272,59625,5,6,1:2:0:0:
249,7,59847,1,2,3:2:0:0:
64,49,60069,5,6,1:2:0:0:
427,264,60513,5,2,1:2:0:0:
65,183,60736,1,2,1:2:0:0:
477,94,60958,5,2,0:2:0:0:
431,145,61180,1,2,0:2:0:0:
362,129,61402,1,2,0:2:0:0:
299,166,61625,1,2,0:2:0:0:
228,170,61847,1,2,0:2:0:0:
176,216,62069,1,2,0:2:0:0:
110,203,62292,1,2,0:2:0:0:
84,137,62514,1,2,0:2:0:0:
262,105,62736,5,2,0:2:0:0:
262,105,63180,5,2,0:2:0:0:
218,348,63625,5,2,0:2:0:0:
262,105,64069,5,2,0:2:0:0:
63,320,64514,5,2,0:2:0:0:
89,231,64847,5,2,0:2:0:0:
153,298,65180,5,2,0:2:0:0:
20,257,65402,1,2,0:2:0:0:
71,166,65847,5,2,0:2:0:0:
92,233,66069,1,2,0:2:0:0:
211,11,66291,5,2,1:2:0:0:
370,65,66402,1,2,1:2:0:0:
209,91,66513,1,2,1:2:0:0:
146,48,66958,5,2,3:2:0:0:
290,17,67180,6,0,L|298:76,1,50,2|0,1:2|0:2,0:2:0:0:
374,253,67402,1,0,3:2:0:0:
374,253,67513,1,0,3:2:0:0:
374,253,67625,2,0,L|380:169,1,59.9999981689454,2|0,1:2|0:2,0:2:0:0:
512,110,67847,1,0,3:2:0:0:
512,110,67958,1,0,3:2:0:0:
512,110,68069,6,0,L|314:129,1,175.00000166893,6|0,3:2|1:2,1:2:0:0:
213,40,68402,1,0,0:2:0:0:
213,40,68513,2,0,P|247:44|273:91,1,87.500000834465,2|0,3:2|3:2,0:2:0:0:
119,113,68736,2,0,P|105:81|133:35,1,87.500000834465,2|0,1:2|0:2,0:2:0:0:
262,176,68958,6,0,L|141:184,1,87.500000834465,2|0,3:2|0:2,0:2:0:0:
0,196,69180,2,0,L|87:190,1,87.500000834465,2|0,1:2|0:2,0:2:0:0:
245,258,69402,2,0,P|310:251|342:202,1,87.500000834465,2|0,3:2|3:2,0:2:0:0:
361,78,69625,2,0,P|334:137|360:190,1,87.500000834465,2|0,1:2|0:2,0:2:0:0:
490,343,69847,6,0,B|411:340|466:216|382:210,1,175.00000166893,2|0,3:2|1:2,0:2:0:0:
239,258,70180,1,0,0:2:0:0:
220,334,70291,1,2,3:2:0:0:
173,236,70402,1,0,3:2:0:0:
287,362,70513,2,0,P|334:354|377:352,1,87.500000834465,0|0,1:2|0:2,0:2:0:0:
512,228,70736,6,0,P|425:221|322:198,1,175.00000166893,2|0,3:2|1:2,0:2:0:0:
269,70,71069,1,0,0:2:0:0:
288,146,71180,1,2,3:2:0:0:
335,48,71291,1,0,3:2:0:0:
221,174,71402,2,0,P|174:166|131:164,1,87.500000834465,0|0,1:2|0:2,0:2:0:0:
9,351,71625,6,0,L|231:310,1,175.00000166893,2|0,3:2|1:2,0:2:0:0:
254,384,71958,1,0,0:2:0:0:
292,319,72069,1,2,3:2:0:0:
239,219,72180,1,0,3:2:0:0:
357,346,72291,2,0,L|447:362,1,87.500000834465,0|0,1:2|0:2,0:2:0:0:
491,164,72513,6,0,L|298:190,1,175.00000166893,2|0,3:2|1:2,0:2:0:0:
173,61,72847,1,0,0:2:0:0:
231,109,72958,2,0,L|248:214,1,87.500000834465,2|0,3:2|3:2,0:2:0:0:
163,374,73180,1,2,1:2:0:0:
97,346,73291,1,2,0:2:0:0:
31,372,73402,6,0,P|18:268|0:184,1,175.00000166893,2|0,3:2|1:2,0:2:0:0:
87,94,73736,2,0,P|75:143|74:202,1,87.500000834465,2|0,0:2|3:2,0:2:0:0:
108,250,73958,1,0,3:2:0:0:
186,125,74069,2,0,L|289:99,1,87.500000834465,2|0,1:2|0:2,0:2:0:0:
512,98,74291,6,0,L|286:76,1,175.00000166893,2|0,3:2|1:2,0:2:0:0:
208,196,74625,1,0,0:2:0:0:
208,196,74736,6,0,L|434:174,1,175.00000166893,2|0,3:2|1:2,0:2:0:0:
498,356,75069,1,0,0:2:0:0:
498,356,75180,6,0,P|493:321|394:278,1,87.500000834465,2|0,3:2|0:2,0:2:0:0:
300,367,75402,2,0,P|332:380|419:315,1,87.500000834465,2|0,1:2|0:2,0:2:0:0:
374,205,75625,2,0,L|267:217,1,87.500000834465,2|0,3:2|3:2,0:2:0:0:
178,377,75847,2,0,L|71:365,1,87.500000834465,2|0,1:2|0:2,0:2:0:0:
278,142,76069,6,0,L|171:154,1,87.500000834465,2|0,3:2|0:2,0:2:0:0:
100,295,76291,2,0,L|-7:283,1,87.500000834465,2|0,1:2|0:2,0:2:0:0:
75,58,76513,2,0,P|116:63|134:114,1,87.500000834465,2|0,3:2|3:2,0:2:0:0:
37,220,76736,2,0,P|20:181|55:140,1,87.500000834465,2|0,1:2|0:2,0:2:0:0:
188,23,76958,6,0,B|220:29|220:29|260:131|260:131|295:143,1,175.00000166893,2|0,3:2|1:2,0:2:0:0:
458,126,77291,1,0,0:2:0:0:
385,114,77403,1,2,3:2:0:0:
441,191,77513,1,0,3:2:0:0:
401,45,77625,2,0,L|300:34,1,87.500000834465,0|0,1:2|0:2,0:2:0:0:
98,0,77847,6,0,P|80:95|45:218,1,175.00000166893,2|0,3:2|1:2,0:2:0:0:
16,319,78180,1,0,0:2:0:0:
89,307,78292,1,2,3:2:0:0:
33,384,78402,1,0,3:2:0:0:
73,238,78514,2,0,L|174:227,1,87.500000834465,0|0,1:2|0:2,0:2:0:0:
270,367,78736,6,0,L|487:342,1,175.00000166893,2|0,3:2|1:2,0:2:0:0:
512,221,79069,1,0,0:2:0:0:
496,296,79180,1,2,3:2:0:0:
449,182,79291,1,0,3:2:0:0:
350,272,79402,2,0,L|249:269,1,87.500000834465,0|0,1:2|0:2,0:2:0:0:
20,206,79625,6,0,L|213:192,1,175.00000166893,2|0,3:2|1:2,0:2:0:0:
313,94,79958,1,0,0:2:0:0:
378,134,80069,2,0,P|357:175|295:181,1,87.500000834465,2|0,3:2|3:2,0:2:0:0:
179,124,80291,2,0,P|225:121|261:172,1,87.500000834465,2|0,1:2|0:2,0:2:0:0:
371,350,80513,5,2,3:2:0:0:
441,366,80625,1,2,0:2:0:0:
497,319,80736,2,0,L|507:128,1,175.00000166893,2|0,1:2|3:2,0:2:0:0:
443,12,81069,1,0,3:2:0:0:
391,63,81180,2,0,L|402:164,1,87.500000834465,2|0,1:2|0:2,0:2:0:0:
405,350,81402,6,0,B|337:365|360:231|288:231,1,175.00000166893,2|0,3:2|1:2,0:2:0:0:
152,279,81736,1,0,0:2:0:0:
152,279,81847,2,0,B|219:294|196:160|268:160,1,175.00000166893,2|0,3:2|1:2,0:2:0:0:
484,200,82180,1,0,0:2:0:0:
484,200,82291,6,0,L|471:385,1,175.00000166893,2|0,3:2|1:2,0:2:0:0:
293,307,82625,1,0,0:2:0:0:
293,307,82736,2,0,L|284:195,1,87.500000834465,2|0,3:2|3:2,0:2:0:0:
423,97,82958,2,0,L|415:184,1,87.500000834465,2|0,1:2|0:2,0:2:0:0:
223,300,83180,6,0,L|214:188,1,87.500000834465,2|0,3:2|0:2,0:2:0:0:
353,90,83402,2,0,L|345:177,1,87.500000834465,2|0,1:2|0:2,0:2:0:0:
145,188,83625,2,0,P|167:155|225:140,1,87.500000834465,2|0,3:2|3:2,0:2:0:0:
361,251,83847,2,0,P|321:248|279:205,1,87.500000834465,2|0,1:2|0:2,0:2:0:0:
262,23,84069,6,0,L|500:2,1,175.00000166893,2|0,3:2|1:2,0:2:0:0:
509,177,84402,1,0,0:2:0:0:
509,177,84513,2,0,L|271:156,1,175.00000166893,2|0,3:2|1:2,0:2:0:0:
182,32,84847,1,0,0:2:0:0:
182,32,84958,6,0,P|82:66|62:146,1,175.00000166893,2|0,3:2|1:2,0:2:0:0:
148,225,85291,1,0,0:2:0:0:
148,225,85402,2,0,P|248:191|268:111,1,175.00000166893,2|0,3:2|1:2,0:2:0:0:
323,83,85736,1,0,0:2:0:0:
403,223,85847,5,2,1:2:0:0:
465,65,85958,1,0,3:2:0:0:
474,220,86069,5,2,1:2:0:0:
397,81,86180,1,0,3:2:0:0:
375,149,86291,1,0,3:2:0:0:
255,302,86513,5,2,1:2:0:0:
193,145,86624,1,0,3:2:0:0:
184,299,86735,5,2,1:2:0:0:
261,160,86846,1,0,3:2:0:0:
283,228,86957,1,0,3:2:0:0:
420,244,87180,5,2,1:2:0:0:
441,98,87291,1,0,3:2:0:0:
283,228,87402,5,0,1:2:0:0:
266,72,87513,1,0,3:2:0:0:
353,232,87625,6,0,L|348:157,1,50,2|0,1:2|0:2,0:2:0:0:
284,35,87847,2,0,L|272:84,1,50,0|0,3:2|0:2,0:2:0:0:
203,214,88069,6,0,L|182:169,1,50,0|0,1:2|0:2,0:2:0:0:
120,67,88291,2,0,L|92:109,1,50,0|0,3:2|0:2,0:2:0:0:
6,223,88513,1,2,1:2:0:0:
183,101,88736,5,0,1:2:0:0:
240,285,88847,1,0,1:2:0:0:
247,127,88958,5,0,3:2:0:0:
186,244,89069,1,0,3:2:0:0:
279,189,89180,5,0,3:2:0:0:
350,200,89291,1,0,3:2:0:0:
425,288,89403,6,0,L|534:277,1,75.0000028610231,2|0,3:2|3:2,0:2:0:0:
512,354,89847,2,0,L|437:361,1,75.0000028610231,2|0,3:2|3:2,0:2:0:0:
328,290,90291,6,0,L|219:279,1,75.0000028610231,2|0,1:2|0:2,0:2:0:0:
241,356,90736,2,0,L|315:363,1,75.0000028610231,2|0,0:2|1:2,0:2:0:0:
391,182,91180,5,2,3:2:0:0:
462,217,91291,1,2,0:2:0:0:
481,290,91402,1,2,0:2:0:0:
448,355,91513,1,2,3:2:0:0:
383,384,91624,1,2,0:2:0:0:
319,360,91735,1,2,0:2:0:0:
273,311,91846,1,2,3:2:0:0:
234,261,91957,1,2,0:2:0:0:
196,234,92069,2,0,P|149:227|98:242,1,75.0000028610231,2|0,1:2|0:2,0:2:0:0:
24,373,92513,6,0,L|71:367,1,37.5000014305115,2|0,0:2|0:2,0:2:0:0:
113,319,92736,2,0,L|170:329,1,37.5000014305115,2|2,1:2|0:2,0:2:0:0:
216,376,92958,5,2,3:2:0:0:
216,376,93069,2,0,L|237:275,1,75.0000028610231,2|0,0:2|3:2,0:2:0:0:
283,261,93402,2,0,L|275:222,1,37.5000014305115,2|0,0:2|0:2,0:2:0:0:
218,188,93625,2,0,L|226:132,1,37.5000014305115,2|0,3:2|0:2,0:2:0:0:
275,98,93847,2,0,P|333:94|386:98,1,75.0000028610231,2|0,1:2|0:2,0:2:0:0:
360,21,94291,2,0,P|302:17|249:21,1,75.0000028610231,2|0,0:2|1:2,0:2:0:0:
199,102,94736,6,0,P|141:98|88:102,1,75.0000028610231,2|0,3:2|0:2,0:2:0:0:
114,25,95180,2,0,P|172:21|225:25,1,75.0000028610231,2|0,1:2|0:2,0:2:0:0:
280,93,95625,6,0,P|300:93|327:98,1,37.5000014305115,2|0,3:2|0:2,0:2:0:0:
380,63,95847,2,0,P|394:77|409:99,1,37.5000014305115,2|0,3:2|0:2,0:2:0:0:
472,119,96069,6,0,P|472:139|467:166,1,37.5000014305115,2|0,1:2|0:2,0:2:0:0:
497,224,96291,2,0,P|482:238|460:253,1,37.5000014305115,2|0,3:2|0:2,0:2:0:0:
399,275,96513,6,0,L|321:266,1,75.0000028610231,2|0,3:2|0:2,0:2:0:0:
330,195,96958,2,0,L|404:203,1,75.0000028610231,2|0,0:2|3:2,0:2:0:0:
268,148,97402,6,0,L|193:139,1,75.0000028610231,2|0,1:2|0:2,0:2:0:0:
187,210,97847,2,0,L|261:218,1,75.0000028610231,2|0,0:2|1:2,0:2:0:0:
443,2,98291,5,2,3:2:0:0:
365,57,98402,1,2,3:2:0:0:
433,113,98513,1,2,3:2:0:0:
387,187,98625,1,2,3:2:0:0:
438,239,98736,1,2,3:2:0:0:
400,303,98847,1,2,3:2:0:0:
437,349,98958,1,2,3:2:0:0:
419,373,99069,1,2,3:2:0:0:
426,384,99180,2,0,L|413:288,1,75.0000028610231,2|0,3:2|3:2,0:2:0:0:
510,155,99625,6,0,P|502:185|477:203,1,37.5000014305115,2|0,1:2|0:2,0:2:0:0:
432,217,99847,2,0,P|402:209|384:184,1,37.5000014305115,2|2,3:2|0:2,0:2:0:0:
357,145,100069,6,0,L|363:43,1,75.0000028610231,2|0,3:2|0:2,0:2:0:0:
235,62,100513,2,0,P|205:70|187:95,1,37.5000014305115,2|0,0:2|0:2,0:2:0:0:
173,140,100735,2,0,P|181:170|206:188,1,37.5000014305115,2|0,3:2|0:2,0:2:0:0:
245,215,100957,2,0,L|347:209,1,75.0000028610231,2|0,1:2|0:2,0:2:0:0:
327,286,101402,2,0,L|252:290,1,75.0000028610231,2|0,0:2|1:2,0:2:0:0:
52,293,101847,6,0,L|45:379,1,75.0000028610231,2|0,3:2|0:2,0:2:0:0:
125,291,102291,2,0,L|118:377,1,75.0000028610231,2|0,1:2|0:2,0:2:0:0:
299,220,102736,6,0,L|303:265,1,37.5000014305115,2|0,3:2|0:2,0:2:0:0:
270,328,102958,2,0,L|274:373,1,37.5000014305115,2|0,3:2|0:2,0:2:0:0:
225,221,103180,6,0,L|229:266,1,37.5000014305115,2|0,1:2|0:2,0:2:0:0:
196,329,103402,2,0,L|200:374,1,37.5000014305115,2|0,3:2|0:2,0:2:0:0:
89,233,103625,5,6,0:2:0:0:
24,26,116069,5,0,3:2:0:0:
9,153,116503,6,0,L|0:94,1,59.9999981689454,2|0,1:2|0:2,0:2:0:0:
135,189,116938,1,2,1:2:0:0:
147,196,117155,1,2,0:2:0:0:
210,175,117373,1,2,0:2:0:0:
246,103,117590,1,2,0:2:0:0:
329,203,117847,6,0,L|481:182,1,150,2|0,3:2|0:2,0:2:0:0:
477,182,118291,2,0,P|435:145|425:84,1,100,2|0,1:2|0:2,0:2:0:0:
356,278,118734,2,0,L|204:257,1,150,2|0,3:2|0:2,0:2:0:0:
207,257,119180,2,0,P|249:219|259:158,1,100,2|2,1:2|0:2,0:2:0:0:
215,118,119513,1,2,0:2:0:0:
215,118,119623,6,0,L|101:110,1,100,2|0,3:2|0:2,0:2:0:0:
143,40,119957,2,0,L|198:43,1,50,2|0,0:2|1:2,0:2:0:0:
250,0,120179,1,2,0:2:0:0:
250,0,120290,2,0,L|305:3,1,50,2|0,0:2|0:2,0:2:0:0:
353,63,120512,2,0,P|411:39|488:80,1,150,2|0,3:2|0:2,0:2:0:0:
484,75,120957,1,2,1:2:0:0:
459,148,121179,1,2,0:2:0:0:
512,283,121401,5,2,3:2:0:0:
485,351,121846,5,2,1:2:0:0:
369,194,122068,1,2,0:2:0:0:
186,353,122290,2,0,P|85:379|21:324,1,150,2|0,3:2|0:2,0:2:0:0:
49,360,122734,2,0,L|30:252,1,100,2|0,1:2|0:2,0:2:0:0:
8,90,123179,6,0,P|109:64|173:119,1,150,2|0,3:2|0:2,0:2:0:0:
144,82,123623,1,2,1:2:0:0:
235,64,123846,1,2,0:2:0:0:
336,194,124068,2,0,L|343:91,1,100,2|0,3:2|0:2,0:2:0:0:
199,319,124512,1,0,1:2:0:0:
181,211,124734,1,0,0:2:0:0:
391,376,124957,6,0,B|445:376|414:271|475:264,1,150,2|0,3:2|0:2,0:2:0:0:
473,264,125401,2,0,L|486:160,1,100,2|0,1:2|0:2,0:2:0:0:
360,309,125845,2,0,B|305:309|336:204|275:197,1,150,2|0,3:2|0:2,0:2:0:0:
277,197,126290,2,0,L|264:92,1,100,2|0,1:2|0:2,0:2:0:0:
396,240,126734,6,0,L|409:72,1,150,2|0,3:2|0:2,0:2:0:0:
407,90,127179,1,0,1:2:0:0:
199,212,127401,1,2,0:2:0:0:
199,212,127512,1,2,0:2:0:0:
199,212,127623,2,0,L|188:63,1,150,2|0,3:2|0:2,0:2:0:0:
100,156,128068,1,2,1:2:0:0:
33,133,128290,1,2,0:2:0:0:
22,288,128512,6,0,L|89:272,1,50,2|0,3:2|0:2,0:2:0:0:
133,314,128734,1,2,0:2:0:0:
133,314,128845,2,0,L|237:301,1,100,2|0,0:2|0:2,0:2:0:0:
285,254,129178,2,0,L|341:263,1,50,2|0,0:2|0:2,0:2:0:0:
385,319,129400,2,0,P|411:255|359:191,1,150,2|0,3:2|0:2,0:2:0:0:
367,194,129845,2,0,L|466:174,1,100,2|0,1:2|0:2,0:2:0:0:
299,153,130290,5,2,1:2:0:0:
119,200,130512,1,2,3:2:0:0:
97,130,130734,5,2,1:2:0:0:
363,201,130957,1,0,3:2:0:0:
336,91,131180,5,2,1:2:0:0:
53,224,131402,1,0,3:2:0:0:
80,299,131513,1,2,0:2:0:0:
80,299,131623,2,0,L|25:293,1,50,2|0,1:2|0:2,0:2:0:0:
17,155,131847,2,0,L|75:143,1,50,2|0,0:2|0:2,0:2:0:0:
170,21,132069,6,0,L|194:146,1,125,2|0,3:2|0:2,0:2:0:0:
193,143,132513,2,0,B|286:125|233:274|357:250,1,187.5,2|0,1:2|0:2,0:2:0:0:
376,203,132958,1,2,3:2:0:0:
444,216,133180,1,0,0:2:0:0:
485,273,133402,1,0,1:2:0:0:
486,345,133623,1,2,0:2:0:0:
486,345,133734,1,2,0:2:0:0:
486,345,133845,6,0,L|426:359,1,62.5,2|0,3:2|0:2,0:2:0:0:
109,320,134179,6,0,L|169:334,1,62.5,2|0,0:2|1:2,0:2:0:0:
230,381,134401,1,2,0:2:0:0:
230,381,134512,2,0,L|244:321,1,62.5,2|0,0:2|0:2,0:2:0:0:
307,281,134734,2,0,L|282:67,1,187.5,2|0,3:2|0:2,0:2:0:0:
327,33,135179,2,0,P|354:18|396:17,1,62.5,2|0,1:2|0:2,0:2:0:0:
458,50,135401,1,2,0:2:0:0:
458,50,135512,1,2,0:2:0:0:
458,50,135623,6,0,L|470:115,1,62.5,2|0,3:2|0:2,0:2:0:0:
388,313,135956,5,2,0:2:0:0:
388,313,136068,2,0,L|399:251,1,62.5,0|0,1:2|0:2,0:2:0:0:
366,187,136290,2,0,L|304:175,1,62.5,2|0,0:2|0:2,0:2:0:0:
228,195,136512,2,0,P|236:128|146:44,1,187.5,2|0,3:2|0:2,0:2:0:0:
32,104,136957,2,0,P|24:171|114:255,1,187.5,2|0,1:2|0:2,0:2:0:0:
214,306,137401,6,0,L|414:286,1,187.5,2|0,3:2|0:2,0:2:0:0:
479,177,137845,2,0,L|292:158,1,187.5,2|0,1:2|0:2,0:2:0:0:
237,49,138290,2,0,L|362:31,1,125,2|0,3:2|0:2,0:2:0:0:
512,113,138734,5,2,1:2:0:0:
490,252,138957,1,2,0:2:0:0:
358,30,139179,6,0,P|288:19|193:134,1,209.999993591309,2|0,3:2|0:2,0:2:0:0:
195,109,139623,2,0,L|218:261,1,139.999995727539,2|0,1:2|0:2,0:2:0:0:
255,362,139957,1,0,0:2:0:0:
255,362,140068,6,0,P|325:373|420:258,1,209.999993591309,2|0,3:2|0:2,0:2:0:0:
418,283,140512,2,0,L|394:130,1,139.999995727539,2|0,1:2|0:2,0:2:0:0:
484,52,140845,1,0,0:2:0:0:
484,52,140957,6,0,B|474:48|474:48|465:50|465:50|263:25,1,209.999993591309,2|0,3:2|0:2,0:2:0:0:
275,26,141401,2,0,P|309:90|294:159,1,139.999995727539,0|2,1:2|0:2,0:2:0:0:
231,288,141734,1,2,0:2:0:0:
231,288,141845,2,0,B|221:280|221:280|218:289|218:289|10:315,1,186.666660970052,2|0,3:2|0:2,0:2:0:0:
22,313,142290,2,0,P|55:249|40:180,1,139.999995727539,2|0,1:2|0:2,0:2:0:0:
0,82,142623,1,2,0:2:0:0:
0,82,142734,6,0,B|4:78|4:78|12:80|12:80|166:62,1,160,2|0,1:2|0:2,0:2:0:0:
276,17,143067,1,2,0:2:0:0:
276,17,143179,5,2,1:2:0:0:
309,214,143401,1,2,3:2:0:0:
235,243,143623,5,2,1:2:0:0:
322,54,143845,1,0,3:2:0:0:
205,12,144068,5,2,1:2:0:0:
320,255,144290,1,0,3:2:0:0:
170,222,144512,5,6,1:2:0:0:
481,189,144734,1,0,3:2:0:0:
150,155,144957,5,6,1:2:0:0:
477,124,145179,1,0,3:2:0:0:
137,86,145401,5,6,1:2:0:0:
468,53,145623,1,0,3:2:0:0:
224,286,145845,5,2,1:2:0:0:
269,8,146068,1,2,1:2:0:0:
424,267,146290,5,2,0:2:0:0:
366,309,146512,1,2,0:2:0:0:
297,296,146734,1,2,0:2:0:0:
253,238,146957,1,2,0:2:0:0:
202,189,147179,1,2,0:2:0:0:
133,172,147401,1,2,0:2:0:0:
63,189,147623,1,2,0:2:0:0:
27,250,147845,1,2,0:2:0:0:
90,283,148068,5,2,0:2:0:0:
90,283,148512,5,2,0:2:0:0:
341,381,148957,5,2,0:2:0:0:
365,315,149401,5,2,0:2:0:0:
409,261,149623,1,2,0:2:0:0:
411,105,149845,5,2,0:2:0:0:
466,316,150290,5,2,0:2:0:0:
55,239,150734,5,2,0:2:0:0:
103,188,151179,5,2,0:2:0:0:
145,245,151401,5,2,0:2:0:0:
149,239,151512,1,2,0:2:0:0:
211,199,151623,1,2,0:2:0:0:
158,148,151734,1,2,0:2:0:0:
103,188,151845,1,2,0:2:0:0:
211,199,152290,5,2,0:2:0:0:
224,129,152512,1,2,0:2:0:0:
188,351,152957,5,2,0:2:0:0:
498,301,153401,5,2,0:2:0:0:
461,245,153734,1,2,0:2:0:0:
461,245,153845,1,2,0:2:0:0:
394,218,154068,1,2,0:2:0:0:
321,209,154290,1,2,0:2:0:0:
255,232,154512,1,2,0:2:0:0:
189,199,154734,1,2,0:2:0:0:
171,134,154957,1,2,0:2:0:0:
250,23,155179,5,2,0:2:0:0:
318,152,155623,5,2,0:2:0:0:
300,280,156068,5,2,0:2:0:0:
337,343,156512,5,2,0:2:0:0:
409,341,156734,1,2,0:2:0:0:
456,289,156957,5,2,0:2:0:0:
462,219,157179,1,2,0:2:0:0:
431,158,157401,1,2,0:2:0:0:
439,91,157623,1,2,0:2:0:0:
256,70,157845,5,2,0:2:0:0:
343,115,158141,5,2,0:2:0:0:
338,17,158437,5,2,0:2:0:0:
480,217,158975,5,2,0:2:0:0:
480,217,159086,1,2,0:2:0:0:
480,217,159197,1,2,0:2:0:0:
410,226,159401,1,2,0:2:0:0:
355,181,159623,1,2,0:2:0:0:
231,156,160067,5,2,0:2:0:0:
105,192,160512,5,2,0:2:0:0:
130,26,160956,2,0,P|54:41|19:99,1,133.333333333333,2|2,0:2|0:2,0:2:0:0:
21,156,161401,2,0,P|71:214|139:215,1,133.333333333333,2|2,0:2|0:2,0:2:0:0:
193,186,161845,2,0,P|218:112|185:53,1,133.333333333333,2|2,0:2|0:2,0:2:0:0:
115,124,162289,6,0,L|101:257,1,133.333333333333,2|2,0:2|0:2,0:2:0:0:
51,309,162734,1,0,0:2:0:0:
237,377,162956,1,2,0:2:0:0:
302,345,163178,2,0,L|470:365,1,150,2|0,0:2|0:2,0:2:0:0:
450,249,163623,2,0,L|301:266,1,150,2|0,0:2|0:2,0:2:0:0:
296,154,164067,6,0,L|464:174,1,150,2|0,0:2|0:2,0:2:0:0:
447,61,164512,2,0,L|298:78,1,150,2|0,0:2|0:2,0:2:0:0:
244,28,164956,2,0,P|172:6|82:26,1,150,2|0,0:2|0:2,0:2:0:0:
42,67,165401,2,0,P|20:139|40:229,1,150,2|0,0:2|0:2,0:2:0:0:
88,269,165845,5,2,0:2:0:0:
88,269,165993,5,2,0:2:0:0:
88,269,166141,6,0,L|257:242,1,166.666666666667,2|2,0:2|0:2,0:2:0:0:
447,381,166734,2,0,P|496:335|477:220,1,150,2|0,0:2|0:2,0:2:0:0:
377,203,167178,2,0,P|328:249|347:364,1,150,2|0,0:2|0:2,0:2:0:0:
274,383,167623,5,2,0:2:0:0:
213,322,168067,2,0,L|130:335,1,62.5,2|0,0:2|0:2,0:2:0:0:
10,217,168289,2,0,L|71:207,1,62.5,2|0,0:2|0:2,0:2:0:0:
220,244,168511,2,0,L|137:257,1,62.5,2|0,0:2|0:2,0:2:0:0:
17,139,168733,2,0,L|78:129,1,62.5,2|0,0:2|0:2,0:2:0:0:
228,170,168956,2,0,L|145:183,1,62.5,2|0,0:2|0:2,0:2:0:0:
25,65,169178,2,0,L|86:55,1,62.5,2|0,0:2|0:2,0:2:0:0:
226,18,169400,6,0,B|302:8|277:151|353:139,1,187.5,2|0,0:2|0:2,0:2:0:0:
512,88,169845,2,0,B|436:78|461:221|385:209,1,187.5,2|0,0:2|0:2,0:2:0:0:
67,49,170289,6,0,B|158:37|128:208|219:194,1,225.000008583069,2|0,0:2|0:2,0:2:0:0:
393,129,170734,2,0,B|289:116|323:308|221:292,1,225.000008583069,2|0,0:2|0:2,0:2:0:0:
98,188,171178,5,2,1:2:0:0:
65,245,171289,1,0,3:2:0:0:
197,245,171400,5,0,3:2:0:0:
164,188,171511,1,0,3:2:0:0:
98,303,171623,5,0,3:2:0:0:
164,303,171734,1,0,3:2:0:0:
73,186,171845,5,2,1:2:0:0:
51,266,171956,1,0,3:2:0:0:
211,224,172067,5,0,3:2:0:0:
152,165,172178,1,0,3:2:0:0:
110,325,172290,5,0,3:2:0:0:
189,304,172401,1,0,3:2:0:0:
277,177,172511,5,2,1:2:0:0:
259,290,172622,1,0,3:2:0:0:
340,83,172734,5,0,1:2:0:0:
374,207,172845,1,0,3:2:0:0:
158,234,172956,6,0,B|101:222|101:222|86:226|86:226|25:212,1,100,2|0,3:2|0:2,0:2:0:0:
349,283,173178,6,0,B|406:271|406:271|421:275|421:275|482:261,1,100,2|0,3:2|0:2,0:2:0:0:
137,307,173401,6,0,L|4:285,1,119.999996337891,0|0,1:2|0:2,0:2:0:0:
376,357,173623,6,0,L|494:335,1,119.999996337891,0|0,3:2|0:2,0:2:0:0:
270,167,173845,5,2,1:2:0:0:
207,303,173956,1,0,3:2:0:0:
197,170,174067,5,0,1:2:0:0:
279,302,174178,1,0,3:2:0:0:
340,99,174289,5,0,1:2:0:0:
279,302,174400,1,0,1:2:0:0:
267,97,174512,5,0,1:2:0:0:
349,298,174623,1,0,1:2:0:0:
413,101,174734,5,6,0:2:0:0:
511,123,176067,6,0,L|492:396,1,240,2|0,1:2|0:2,0:2:0:0:
422,371,176511,6,0,L|415:300,1,59.9999981689454,6|0,3:2|0:2,0:2:0:0:
351,379,176734,2,0,L|344:308,1,59.9999981689454,0|0,3:2|0:2,0:2:0:0:
305,203,176956,2,0,L|298:274,1,59.9999981689454,4|0,3:2|0:2,0:2:0:0:
234,195,177179,2,0,L|227:266,1,59.9999981689454,0|0,3:2|0:2,0:2:0:0:
179,369,177400,2,0,L|172:298,1,59.9999981689454,4|0,1:2|0:2,0:2:0:0:
108,377,177623,2,0,L|101:306,1,59.9999981689454,0|0,3:2|0:2,0:2:0:0:
47,218,177845,6,0,L|40:289,1,59.9999981689454,2|0,3:2|0:2,0:2:0:0:
109,184,178067,6,0,L|102:113,1,59.9999981689454,2|0,3:2|0:2,0:2:0:0:
19,22,178289,6,0,P|43:13|81:18,1,59.9999981689454,6|0,3:2|0:2,0:2:0:0:
136,59,178511,2,0,P|160:68|198:63,1,59.9999981689454,0|0,3:2|0:2,0:2:0:0:
254,21,178734,2,0,P|278:12|316:17,1,59.9999981689454,4|0,3:2|0:2,0:2:0:0:
320,187,178956,6,0,P|296:196|258:191,1,59.9999981689454,2|0,3:2|0:2,0:2:0:0:
203,150,179178,2,0,P|179:141|141:146,1,59.9999981689454,4|0,1:2|0:2,0:2:0:0:
85,188,179401,2,0,P|61:197|23:192,1,59.9999981689454,0|0,3:2|0:2,0:2:0:0:
18,328,179623,6,0,P|39:312|86:302,1,59.9999981689454,2|0,3:2|0:2,0:2:0:0:
141,310,179845,2,0,P|161:326|183:368,1,59.9999981689454,0|0,3:2|0:2,0:2:0:0:
299,372,180067,6,0,L|360:365,1,59.9999981689454,6|0,3:2|0:2,0:2:0:0:
292,300,180289,2,0,L|353:293,1,59.9999981689454,0|0,3:2|0:2,0:2:0:0:
204,308,180511,2,0,L|143:301,1,59.9999981689454,4|0,3:2|0:2,0:2:0:0:
211,236,180733,2,0,L|150:229,1,59.9999981689454,0|0,3:2|0:2,0:2:0:0:
286,224,180956,2,0,L|347:217,1,59.9999981689454,4|0,1:2|0:2,0:2:0:0:
279,152,181178,2,0,L|340:145,1,59.9999981689454,0|0,3:2|0:2,0:2:0:0:
221,106,181400,6,0,L|160:99,1,59.9999981689454,2|0,3:2|0:2,0:2:0:0:
273,50,181623,6,0,L|334:43,1,59.9999981689454,2|0,3:2|0:2,0:2:0:0:
468,53,181845,6,0,P|440:47|400:58,1,59.9999981689454,6|0,3:2|0:2,0:2:0:0:
369,112,182067,2,0,P|377:139|407:168,1,59.9999981689454,0|0,3:2|0:2,0:2:0:0:
470,168,182289,2,0,P|489:146|499:106,1,59.9999981689454,4|0,3:2|0:2,0:2:0:0:
367,227,182511,6,0,P|339:233|299:222,1,59.9999981689454,2|0,3:2|0:2,0:2:0:0:
268,168,182733,2,0,P|276:140|306:111,1,59.9999981689454,4|0,1:2|0:2,0:2:0:0:
369,112,182955,2,0,P|388:133|398:173,1,59.9999981689454,0|0,3:2|0:2,0:2:0:0:
410,290,183178,6,0,P|359:304|348:301,1,59.9999981689454,0|0,3:2|0:2,0:2:0:0:
290,263,183400,2,0,P|260:262|233:275,1,59.9999981689454,0|0,3:2|0:2,0:2:0:0:
40,332,183623,6,0,L|31:267,1,59.9999981689454,6|0,3:2|0:2,0:2:0:0:
111,316,183845,2,0,L|102:251,1,59.9999981689454,0|0,3:2|0:2,0:2:0:0:
159,140,184067,2,0,L|150:205,1,59.9999981689454,4|0,3:2|0:2,0:2:0:0:
230,156,184289,2,0,L|221:221,1,59.9999981689454,0|0,3:2|0:2,0:2:0:0:
294,312,184511,2,0,L|285:247,1,59.9999981689454,4|0,1:2|0:2,0:2:0:0:
365,296,184733,2,0,L|356:231,1,59.9999981689454,0|0,3:2|0:2,0:2:0:0:
425,134,184956,6,0,L|416:199,1,59.9999981689454,2|0,3:2|0:2,0:2:0:0:
486,95,185178,6,0,L|477:30,1,59.9999981689454,2|0,3:2|0:2,0:2:0:0:
348,152,185400,6,0,P|309:158|278:149,1,59.9999981689454,6|0,3:2|0:2,0:2:0:0:
234,104,185623,2,0,P|195:98|164:107,1,59.9999981689454,0|0,3:2|0:2,0:2:0:0:
129,159,185845,2,0,P|90:165|59:156,1,59.9999981689454,4|0,3:2|0:2,0:2:0:0:
74,276,186067,6,0,P|113:270|144:279,1,59.9999981689454,2|0,3:2|0:2,0:2:0:0:
188,324,186290,2,0,P|227:330|258:321,1,59.9999981689454,4|0,1:2|0:2,0:2:0:0:
293,269,186512,2,0,P|332:263|363:272,1,59.9999981689454,0|0,3:2|0:2,0:2:0:0:
437,375,186734,6,0,P|468:362|487:342,1,59.9999981689454,2|0,3:2|0:2,0:2:0:0:
512,274,186956,2,0,P|507:240|494:217,1,59.9999981689454,0|0,3:2|0:2,0:2:0:0:
356,179,187178,6,0,L|344:382,1,160,4|0,3:2|0:2,0:2:0:0:
287,177,187474,2,0,L|275:380,1,160,4|0,3:2|0:2,0:2:0:0:
218,176,187771,2,0,L|206:379,1,160,4|0,3:2|0:2,0:2:0:0:
41,330,188067,6,0,P|5:258|57:171,1,160,0|0,1:2|0:2,0:2:0:0:
218,176,188363,2,0,P|173:243|72:241,1,160,0|0,1:2|0:2,0:2:0:0:
1,96,188660,2,0,P|81:100|130:189,1,160,0|0,1:2|0:2,0:2:0:0:
331,224,188956,6,0,L|518:212,1,160,4|0,3:2|0:2,0:2:0:0:
329,154,189252,2,0,L|516:142,1,160,4|0,3:2|0:2,0:2:0:0:
329,86,189549,2,0,L|516:74,1,160,4|0,3:2|0:2,0:2:0:0:
253,14,189845,6,0,B|215:78|215:78|242:173,1,160,0|0,1:2|0:2,0:2:0:0:
419,287,190141,2,0,B|382:222|382:222|286:197,1,160,0|0,1:2|0:2,0:2:0:0:
102,298,190437,2,0,B|176:298|176:298|245:228,1,160,0|0,1:2|0:2,0:2:0:0:
26,190,190734,5,6,0:2:0:0:
26,190,190845,1,0,0:2:0:0:
26,190,190956,2,0,L|30:265,1,75.0000028610231,0|0,3:2|0:2,0:2:0:0:
102,377,191178,5,4,1:2:0:0:
102,377,191289,1,0,0:2:0:0:
102,377,191400,2,0,L|106:302,1,75.0000028610231,0|0,3:2|0:2,0:2:0:0:
169,187,191623,5,4,1:2:0:0:
169,187,191734,1,0,0:2:0:0:
169,187,191845,2,0,L|173:262,1,75.0000028610231,0|0,3:2|0:2,0:2:0:0:
262,383,192067,6,0,L|266:308,1,75.0000028610231,2|0,1:2|0:2,0:2:0:0:
336,162,192289,6,0,L|340:237,1,75.0000028610231,2|0,3:2|0:2,0:2:0:0:
491,304,192512,6,0,P|472:259|443:245,1,75.0000028610231,2|0,1:2|0:2,0:2:0:0:
367,357,192734,2,0,P|415:364|442:345,1,75.0000028610231,0|0,3:2|0:2,0:2:0:0:
384,223,192956,2,0,P|354:262|356:295,1,75.0000028610231,0|0,1:2|0:2,0:2:0:0:
220,382,193178,6,0,P|175:363|161:334,1,75.0000028610231,2|0,3:2|0:2,0:2:0:0:
273,258,193401,2,0,P|279:307|260:334,1,75.0000028610231,0|0,1:2|0:2,0:2:0:0:
139,275,193623,2,0,P|177:246|210:248,1,75.0000028610231,0|0,3:2|0:2,0:2:0:0:
444,257,193845,6,0,P|484:211|487:164,1,75.0000028610231,2|0,1:2|0:2,0:2:0:0:
475,96,194067,2,0,P|429:56|382:53,1,75.0000028610231,0|0,3:2|0:2,0:2:0:0:
244,80,194289,5,6,1:2:0:0:
244,80,194400,1,0,0:2:0:0:
244,80,194512,2,0,L|319:84,1,75.0000028610231,0|0,3:2|0:2,0:2:0:0:
431,156,194734,5,4,1:2:0:0:
431,156,194845,1,0,0:2:0:0:
431,156,194956,2,0,L|356:160,1,75.0000028610231,0|0,3:2|0:2,0:2:0:0:
241,223,195178,5,4,1:2:0:0:
241,223,195289,1,0,0:2:0:0:
241,223,195400,2,0,L|316:227,1,75.0000028610231,0|0,3:2|0:2,0:2:0:0:
191,384,195623,6,0,L|103:377,1,75.0000028610231,2|0,1:2|0:2,0:2:0:0:
245,212,195845,6,0,L|319:217,1,75.0000028610231,2|0,3:2|0:2,0:2:0:0:
512,118,196067,6,0,P|470:128|391:108,1,75.0000028610231,2|0,1:2|0:2,0:2:0:0:
362,60,196289,2,0,P|320:50|241:70,1,75.0000028610231,0|0,3:2|0:2,0:2:0:0:
223,128,196511,2,0,P|181:138|102:118,1,75.0000028610231,0|0,1:2|0:2,0:2:0:0:
0,244,196734,6,0,P|42:234|121:254,1,75.0000028610231,2|0,3:2|0:2,0:2:0:0:
150,302,196956,2,0,P|192:312|271:292,1,75.0000028610231,0|0,1:2|0:2,0:2:0:0:
289,234,197178,2,0,P|331:224|410:244,1,75.0000028610231,0|0,3:2|0:2,0:2:0:0:
334,365,197400,2,0,P|304:333|282:255,1,75.0000028610231,0|0,1:2|0:2,0:2:0:0:
425,261,197623,2,0,P|412:302|355:360,1,75.0000028610231,0|0,3:2|0:2,0:2:0:0:
224,384,197845,5,6,1:2:0:0:
224,384,197956,1,0,0:2:0:0:
224,384,198067,2,0,L|214:275,1,75.0000028610231,0|0,3:2|0:2,0:2:0:0:
147,172,198289,5,4,1:2:0:0:
147,172,198400,1,0,0:2:0:0:
147,172,198512,2,0,L|137:281,1,75.0000028610231,0|0,3:2|0:2,0:2:0:0:
69,382,198734,5,4,1:2:0:0:
69,382,198845,1,0,0:2:0:0:
69,382,198956,2,0,L|59:273,1,75.0000028610231,0|0,3:2|0:2,0:2:0:0:
128,165,199178,6,0,L|134:239,1,75.0000028610231,2|0,1:2|0:2,0:2:0:0:
237,383,199400,6,0,L|243:308,1,75.0000028610231,2|0,3:2|0:2,0:2:0:0:
459,135,199623,6,0,P|421:120|378:125,1,75.0000028610231,2|0,1:2|0:2,0:2:0:0:
303,180,199845,2,0,P|265:195|222:190,1,75.0000028610231,0|0,3:2|0:2,0:2:0:0:
157,132,200067,2,0,P|119:117|76:122,1,75.0000028610231,0|0,1:2|0:2,0:2:0:0:
51,324,200289,6,0,P|89:339|132:334,1,75.0000028610231,2|0,3:2|0:2,0:2:0:0:
207,285,200511,2,0,P|245:270|288:275,1,75.0000028610231,0|0,1:2|0:2,0:2:0:0:
353,327,200734,2,0,P|391:342|434:337,1,75.0000028610231,0|0,3:2|0:2,0:2:0:0:
458,146,200956,6,0,P|420:131|377:136,1,75.0000028610231,2|0,1:2|0:2,0:2:0:0:
281,277,201178,2,0,P|246:291|209:290,1,75.0000028610231,0|0,3:2|0:2,0:2:0:0:
310,19,201400,6,0,L|503:41,1,179.999994506836,4|0,3:2|0:2,0:2:0:0:
264,88,201697,2,0,L|457:110,1,179.999994506836,4|0,3:2|0:2,0:2:0:0:
247,164,201993,2,0,L|440:186,1,179.999994506836,4|0,3:2|0:2,0:2:0:0:
264,88,202289,6,0,P|141:86|82:160,1,179.999994506836,0|0,1:2|0:2,0:2:0:0:
262,301,202586,2,0,P|326:195|291:107,1,179.999994506836,0|0,1:2|0:2,0:2:0:0:
78,193,202882,2,0,P|138:300|232:314,1,179.999994506836,0|0,1:2|0:2,0:2:0:0:
465,245,203178,6,0,L|483:52,1,179.999994506836,4|0,3:2|0:2,0:2:0:0:
394,237,203474,2,0,L|412:44,1,179.999994506836,4|0,3:2|0:2,0:2:0:0:
322,229,203771,2,0,L|340:36,1,179.999994506836,4|0,3:2|0:2,0:2:0:0:
166,46,204067,6,0,B|225:107|225:107|216:209,1,179.999994506836,0|0,1:2|0:2,0:2:0:0:
50,369,204363,2,0,B|73:287|73:287|166:244,1,179.999994506836,0|0,1:2|0:2,0:2:0:0:
388,308,204660,2,0,B|305:328|305:328|221:269,1,179.999994506836,0|0,1:2|0:2,0:2:0:0:
159,247,204956,6,0,L|104:259,2,53.3333333333333,0|0|0,3:2|3:2|3:2,0:2:0:0:
216,201,205810,6,0,L|287:217,2,53.3333333333333,0|0|0,3:2|3:2|3:2,0:2:0:0:
140,32,206692,5,0,3:2:0:0:
28,291,207179,5,2,0:2:0:0:
92,324,207623,1,2,0:2:0:0:
161,304,208066,1,2,0:2:0:0:
353,384,208511,5,2,0:2:0:0:
355,314,208956,1,2,0:2:0:0:
385,239,209401,1,2,0:2:0:0:
489,68,210141,5,0,0:2:0:0:
499,139,210289,5,2,0:2:0:0:
334,40,210956,5,0,0:2:0:0:
318,118,211178,1,2,0:2:0:0:
391,114,211623,1,2,0:2:0:0:
243,16,212067,5,2,0:2:0:0:
310,199,212956,5,2,0:2:0:0:
377,159,213400,1,2,0:2:0:0:
216,225,213845,5,2,0:2:0:0:
153,187,214289,1,2,0:2:0:0:
82,214,214733,1,2,0:2:0:0:
433,40,215178,6,0,L|421:146,1,75.0000028610231,0|0,1:2|0:2,0:2:0:0:
360,153,215400,2,0,L|348:259,1,75.0000028610231,0|0,1:2|0:2,0:2:0:0:
305,20,215623,6,0,P|184:16|121:116,1,225.000008583069,6|0,3:2|3:2,0:2:0:0:
179,223,216067,2,0,P|300:227|363:127,1,225.000008583069,6|0,0:2|0:2,0:2:0:0:
501,14,216511,2,0,L|489:140,1,75.0000028610231,6|0,1:2|0:2,0:2:0:0:
512,267,216734,5,0,1:2:0:0:
446,229,216845,1,2,3:2:0:0:
507,194,216956,1,0,1:2:0:0:
451,296,217067,1,0,3:2:0:0:
383,193,217178,1,0,1:2:0:0:
445,158,217289,1,0,3:2:0:0:
326,378,217400,6,0,B|235:383|270:225|165:233,1,225.000008583069,2|0,3:2|0:2,0:2:0:0:
32,189,217845,2,0,P|83:209|136:212,1,75.0000028610231,0|0,1:2|0:2,0:2:0:0:
235,157,218067,1,2,3:2:0:0:
339,213,218178,1,2,1:2:0:0:
512,115,218289,6,0,L|494:368,1,225.000008583069,6|0,3:2|0:2,0:2:0:0:
351,384,218734,2,0,L|335:159,1,225.000008583069,6|0,1:2|0:2,0:2:0:0:
478,51,219178,6,0,P|401:85|298:80,1,150.000005722046,2|0,3:2|0:2,0:2:0:0:
281,37,219511,2,0,P|204:3|101:8,1,150.000005722046,2|0,3:2|0:2,0:2:0:0:
75,40,219845,2,0,P|58:70|57:121,1,75.0000028610231,2|0,3:2|0:2,0:2:0:0:
124,315,220067,6,0,L|135:72,1,225.000008583069,6|0,1:2|0:2,0:2:0:0:
281,37,220511,2,0,L|291:261,1,225.000008583069,6|0,3:2|0:2,0:2:0:0:
411,379,220956,2,0,L|423:238,1,75.0000028610231,6|0,3:2|0:2,0:2:0:0:
435,116,221178,5,0,3:2:0:0:
377,165,221289,1,2,1:2:0:0:
446,190,221400,1,0,3:2:0:0:
461,54,221511,1,0,1:2:0:0:
368,101,221622,1,0,3:2:0:0:
505,150,221733,1,0,1:2:0:0:
327,221,221844,5,4,0:2:0:0:
280,328,222289,5,2,1:2:0:0:
209,345,222511,1,2,0:2:0:0:
49,369,222734,5,2,3:2:0:0:
102,308,222845,1,2,0:2:0:0:
53,248,222956,1,2,3:2:0:0:
87,185,223067,2,0,L|75:87,1,75.0000028610231,2|2,0:2|3:2,0:2:0:0:
56,252,223289,5,2,0:2:0:0:
87,185,223400,1,2,3:2:0:0:
18,71,223511,1,2,0:2:0:0:
149,22,223623,5,2,3:2:0:0:
202,83,223734,1,2,0:2:0:0:
153,143,223845,1,2,3:2:0:0:
187,206,223956,2,0,L|175:304,1,75.0000028610231,2|2,0:2|3:2,0:2:0:0:
156,139,224178,5,2,0:2:0:0:
190,203,224289,1,0,3:2:0:0:
118,313,224400,1,2,0:2:0:0:
255,299,224511,5,2,3:2:0:0:
318,341,224622,1,2,0:2:0:0:
393,325,224733,1,2,3:2:0:0:
429,258,224844,1,2,0:2:0:0:
384,129,224955,5,2,3:2:0:0:
328,157,225066,1,2,0:2:0:0:
307,221,225177,1,2,3:2:0:0:
342,276,225289,1,2,0:2:0:0:
483,317,225400,5,2,3:2:0:0:
485,254,225511,1,2,0:2:0:0:
443,207,225622,1,2,3:2:0:0:
379,209,225733,1,2,0:2:0:0:
250,265,225844,5,2,3:2:0:0:
242,304,225956,1,2,0:2:0:0:
234,345,226066,1,2,3:2:0:0:
226,384,226178,1,2,0:2:0:0:
183,227,226289,5,2,3:2:0:0:
254,93,226511,5,2,3:2:0:0:
326,218,226623,2,0,L|308:126,1,75.0000028610231,2|0,0:2|3:2,0:2:0:0:
190,11,226846,2,0,L|178:110,1,75.0000028610231,2|0,0:2|3:2,0:2:0:0:
119,258,227067,5,2,0:2:0:0:
180,223,227178,1,2,3:2:0:0:
209,154,227289,1,2,0:2:0:0:
183,88,227401,1,2,3:2:0:0:
115,256,227623,5,2,3:2:0:0:
72,196,227845,5,2,3:2:0:0:
116,127,228067,5,2,3:2:0:0:
71,46,228290,6,0,L|66:-1,1,25,2|0,3:2|0:2,0:2:0:0:
39,346,228623,5,2,0:2:0:0:
5,279,228734,1,2,3:2:0:0:
161,161,228956,5,2,3:2:0:0:
223,60,229067,1,2,0:2:0:0:
304,125,229178,1,2,3:2:0:0:
359,81,229289,1,2,0:2:0:0:
152,50,229400,5,2,3:2:0:0:
235,138,229511,1,2,0:2:0:0:
294,54,229622,1,2,3:2:0:0:
362,84,229733,1,2,0:2:0:0:
166,233,229845,5,2,3:2:0:0:
238,249,230067,5,2,3:2:0:0:
265,316,230289,5,2,3:2:0:0:
235,383,230511,5,2,3:2:0:0:
339,164,230734,5,2,3:2:0:0:
265,182,230956,5,2,3:2:0:0:
238,249,231178,5,2,3:2:0:0:
265,316,231400,5,2,3:2:0:0:
354,131,231623,5,2,3:2:0:0:
268,149,231734,1,2,0:2:0:0:
235,229,231845,1,2,3:2:0:0:
271,308,231956,1,2,0:2:0:0:
167,221,232067,5,2,3:2:0:0:
242,238,232178,1,2,0:2:0:0:
271,308,232289,1,2,3:2:0:0:
240,380,232400,1,2,0:2:0:0:
250,246,232511,5,2,3:2:0:0:
317,273,232734,5,2,3:2:0:0:
380,246,232956,5,2,3:2:0:0:
401,179,233178,5,2,3:2:0:0:
490,279,233400,5,0,3:2:0:0:
230,362,234067,5,2,3:2:0:0:
173,318,234178,1,2,0:2:0:0:
103,308,234289,1,2,3:2:0:0:
40,272,234511,5,2,3:2:0:0:
27,205,234734,5,2,3:2:0:0:
69,150,234956,5,2,3:2:0:0:
132,185,235178,5,2,3:2:0:0:
199,166,235289,1,2,0:2:0:0:
265,149,235400,1,2,3:2:0:0:
85,11,235845,5,2,3:2:0:0:
76,80,236067,5,0,3:2:0:0:
69,150,236289,5,2,3:2:0:0:
204,76,236511,5,2,3:2:0:0:
277,62,236623,1,2,0:2:0:0:
199,66,236734,1,2,3:2:0:0:
277,73,236845,1,2,0:2:0:0:
341,1,236956,6,0,P|430:5|494:60,1,150.000005722046,2|0,3:2|3:2,0:2:0:0:
512,99,237289,2,0,P|508:188|453:252,1,150.000005722046,2|0,0:2|0:2,0:2:0:0:
405,251,237623,6,0,L|237:244,1,150.000005722046,2|0,3:2|3:2,0:2:0:0:
210,193,237956,2,0,L|37:206,1,150.000005722046,2|0,0:2|0:2,0:2:0:0:
11,276,238289,6,0,L|92:270,1,75.0000028610231,2|0,3:2|0:2,0:2:0:0:
144,315,238511,2,0,L|225:309,1,75.0000028610231,2|0,3:2|0:2,0:2:0:0:
313,192,238734,6,0,L|299:354,1,150.000005722046,2|0,3:2|3:2,0:2:0:0:
357,376,239067,2,0,L|438:362,1,75.0000028610231,0|0,0:2|3:2,0:2:0:0:
486,250,239289,1,0,0:2:0:0:
486,250,239400,2,0,L|389:237,1,75.0000028610231,0|0,3:2|0:2,0:2:0:0:
267,182,239623,1,2,3:2:0:0:
267,182,239734,2,0,L|364:169,1,75.0000028610231,2|0,0:2|3:2,0:2:0:0:
480,43,239956,1,2,0:2:0:0:
480,43,240067,5,2,3:2:0:0:
458,120,240178,1,2,0:2:0:0:
357,26,240289,1,2,3:2:0:0:
335,103,240400,1,2,0:2:0:0:
239,10,240511,6,0,L|151:25,1,75.0000028610231,2|0,3:2|0:2,0:2:0:0:
45,93,240734,1,2,3:2:0:0:
45,93,240845,2,0,L|133:108,1,75.0000028610231,2|0,0:2|3:2,0:2:0:0:
279,180,241067,1,2,0:2:0:0:
279,180,241178,2,0,L|191:195,1,75.0000028610231,2|0,3:2|0:2,0:2:0:0:
41,185,241400,6,0,L|32:286,1,75.0000028610231,2|0,3:2|0:2,0:2:0:0:
197,127,241623,2,0,L|213:227,1,75.0000028610231,2|0,3:2|0:2,0:2:0:0:
291,21,241845,2,0,L|445:214,1,225.000008583069,2|0,3:2|0:2,0:2:0:0:
512,58,242289,5,2,3:2:0:0:
469,217,242400,2,0,L|363:211,1,75.0000028610231,2|0,0:2|3:2,0:2:0:0:
256,45,242623,2,0,L|362:39,1,75.0000028610231,2|0,0:2|3:2,0:2:0:0:
249,343,242956,1,2,3:2:0:0:
46,39,243178,1,2,3:2:0:0:
18,105,243623,5,2,3:2:0:0:
77,149,244067,6,0,P|250:112|453:89,1,375.000014305115,2|0,3:2|0:2,0:2:0:0:
96,227,244734,1,2,3:2:0:0:
96,227,244845,1,2,0:2:0:0:
96,227,244956,6,0,P|279:188|466:168,1,375.000014305115,2|0,3:2|0:2,0:2:0:0:
115,307,245623,1,2,3:2:0:0:
115,307,245734,1,2,0:2:0:0:
115,307,245845,6,0,P|158:296|209:286,1,75.0000028610231,2|0,3:2|0:2,0:2:0:0:
333,362,246067,2,0,P|290:373|239:383,1,75.0000028610231,2|0,3:2|0:2,0:2:0:0:
364,245,246289,2,0,P|408:241|460:240,1,75.0000028610231,2|0,3:2|0:2,0:2:0:0:
512,380,246511,2,0,P|467:383|415:384,1,75.0000028610231,2|0,3:2|0:2,0:2:0:0:
251,257,246734,6,0,L|223:-6,1,225.000008583069,2|0,3:2|0:2,0:2:0:0:
179,270,247178,2,0,L|153:22,1,225.000008583069,2|0,3:2|0:2,0:2:0:0:
109,283,247623,6,0,L|96:159,1,75.0000028610231,2|0,3:2|0:2,0:2:0:0:
155,46,247845,2,0,L|162:120,1,75.0000028610231,2|0,3:2|0:2,0:2:0:0:
251,257,248067,2,0,L|238:133,1,75.0000028610231,2|0,3:2|0:2,0:2:0:0:
297,20,248289,2,0,L|304:94,1,75.0000028610231,2|0,3:2|0:2,0:2:0:0:
370,248,248511,6,0,L|398:-15,1,225.000008583069,2|0,3:2|0:2,0:2:0:0:
442,261,248956,2,0,L|468:13,1,225.000008583069,2|0,3:2|0:2,0:2:0:0:
301,236,249401,5,0,1:2:0:0:
241,182,249512,1,0,1:2:0:0:
208,255,249623,1,0,3:2:0:0:
263,312,249734,1,0,3:2:0:0:
288,213,249845,5,0,1:2:0:0:
199,168,249956,1,0,1:2:0:0:
182,263,250067,1,0,3:2:0:0:
267,316,250178,1,0,3:2:0:0:
49,76,250289,5,4,1:2:0:0:
87,13,250734,6,0,L|150:19,1,59.9999981689454,2|0,3:2|0:2,0:2:0:0:
217,25,250956,2,0,L|280:31,1,59.9999981689454,2|0,3:2|0:2,0:2:0:0:
220,99,251178,6,0,B|108:88|108:88|92:92|92:92|93:86|93:86|54:82,1,119.999996337891,2|0,3:2|0:2,0:2:0:0:
299,146,251400,2,0,B|305:144|314:146|314:146|426:124,1,119.999996337891,2|0,1:2|0:2,0:2:0:0:
185,204,251623,6,0,B|73:193|73:193|57:197|57:197|58:191|58:191|19:187,1,119.999996337891,2|0,3:2|3:2,0:2:0:0:
338,245,251845,2,0,B|344:243|353:245|353:245|465:223,1,119.999996337891,2|0,1:2|0:2,0:2:0:0:
217,357,252067,6,0,B|144:371|113:366|85:307,1,119.999996337891,2|0,3:2|0:2,0:2:0:0:
149,123,252289,2,0,B|222:109|253:114|281:173,1,119.999996337891,2|0,1:2|0:2,0:2:0:0:
65,274,252511,6,0,B|37:192|42:159|115:142,1,119.999996337891,2|0,3:2|3:2,0:2:0:0:
303,209,252734,2,0,B|327:285|316:314|253:341,1,119.999996337891,2|0,1:2|0:2,0:2:0:0:
174,109,252956,6,0,B|296:93|297:248|407:239,1,239.999992675781,2|0,3:2|1:2,0:2:0:0:
418,286,253290,1,0,0:2:0:0:
512,192,253401,1,2,3:2:0:0:
419,132,253512,1,0,3:2:0:0:
438,225,253623,2,0,B|443:268|464:253|431:323|447:313|456:349,1,119.999996337891,0|0,1:2|0:2,0:2:0:0:
338,129,253845,6,0,B|216:113|215:268|105:259,1,239.999992675781,2|0,3:2|1:2,0:2:0:0:
94,306,254178,1,0,0:2:0:0:
0,212,254289,1,2,3:2:0:0:
90,152,254400,1,0,3:2:0:0:
74,245,254511,2,0,B|69:288|48:273|81:343|65:333|56:369,1,119.999996337891,0|0,1:2|0:2,0:2:0:0:
12,130,254734,6,0,B|22:127|22:127|31:130|31:130|40:124|40:124|221:91|221:91|233:92|233:92|246:88|246:88|296:82,1,239.999992675781,2|0,3:2|1:2,0:2:0:0:
294,31,255067,1,0,0:2:0:0:
453,127,255178,1,2,3:2:0:0:
396,24,255289,1,0,3:2:0:0:
325,110,255400,2,0,B|329:124|329:124|338:215|338:215|347:230,1,119.999996337891,0|0,1:2|0:2,0:2:0:0:
494,287,255623,6,0,B|483:284|483:284|475:287|475:287|466:281|466:281|285:248|285:248|273:249|273:249|260:245|260:245|210:239,1,239.999992675781,2|0,3:2|1:2,0:2:0:0:
215,187,255956,1,0,0:2:0:0:
56,283,256067,1,2,3:2:0:0:
113,180,256178,1,0,3:2:0:0:
184,266,256289,2,0,B|180:280|180:280|171:371|171:371|162:386,1,119.999996337891,0|0,1:2|0:2,0:2:0:0:
407,384,256511,6,0,B|473:373|533:228|483:187,1,239.999992675781,2|0,3:2|1:2,0:2:0:0:
512,125,256845,1,0,0:2:0:0:
456,0,256956,1,2,3:2:0:0:
430,132,257067,1,0,3:2:0:0:
294,12,257178,2,0,B|246:10|198:37|159:32,1,119.999996337891,2|0,1:2|0:2,0:2:0:0:
36,94,257400,6,0,B|53:135|116:152|270:57|348:56|426:101,1,359.999989013672,2|0,3:2|0:2,0:2:0:0:
504,187,257845,2,0,B|449:123|426:168|359:156,1,119.999996337891,2|0,3:2|3:2,0:2:0:0:
428,345,258067,2,0,B|473:336|472:287|527:234,1,119.999996337891,0|0,1:2|0:2,0:2:0:0:
226,128,258289,6,0,B|210:250|365:251|356:361,1,239.999992675781,2|0,3:2|1:2,0:2:0:0:
313,384,258622,1,0,0:2:0:0:
350,206,258734,6,0,B|404:203|404:203|411:197|411:197|485:190,1,119.999996337891,2|0,3:2|3:2,0:2:0:0:
206,271,258956,2,0,B|152:268|152:268|145:263|145:263|71:255,1,119.999996337891,2|0,1:2|0:2,0:2:0:0:
357,131,259178,6,0,B|421:126|421:126|429:120|429:120|492:115,1,119.999996337891,2|0,3:2|0:2,0:2:0:0:
195,196,259400,2,0,B|131:191|131:191|123:185|123:185|60:180,1,119.999996337891,2|0,1:2|0:2,0:2:0:0:
365,58,259623,6,0,B|451:49|451:49|459:44|459:44|498:39,1,119.999996337891,2|0,3:2|3:2,0:2:0:0:
184,118,259845,2,0,B|98:109|98:109|90:104|90:104|51:99,1,119.999996337891,2|0,1:2|0:2,0:2:0:0:
298,0,260067,6,0,B|295:15|295:15|272:275,1,239.999992675781,2|0,3:2|1:2,0:2:0:0:
222,290,260400,1,0,0:2:0:0:
80,28,260511,6,0,B|87:62|87:62|106:303,1,239.999992675781,2|0,3:2|1:2,0:2:0:0:
156,318,260845,1,0,0:2:0:0:
297,66,260956,6,0,B|287:118|287:118|271:341,1,239.999992675781,2|0,3:2|1:2,0:2:0:0:
222,356,261289,1,0,0:2:0:0:
80,94,261400,6,0,B|92:155|92:155|106:369,1,239.999992675781,2|0,3:2|1:2,0:2:0:0:
156,384,261734,1,0,0:2:0:0:
351,186,261845,6,0,B|476:169|516:300|475:329,1,239.999992675781,2|0,3:2|1:2,0:2:0:0:
512,384,262178,1,0,0:2:0:0:
281,223,262289,6,0,B|276:157|276:157|261:69,1,119.999996337891,2|0,3:2|3:2,0:2:0:0:
474,20,262511,2,0,B|479:81|479:81|491:171,1,119.999996337891,2|0,1:2|0:2,0:2:0:0:
226,343,262734,6,0,B|198:220|221:203|125:42,1,239.999992675781,2|0,3:2|1:2,0:2:0:0:
181,44,263067,1,0,0:2:0:0:
327,311,263178,6,0,B|356:192|328:172|428:10,1,239.999992675781,2|0,3:2|1:2,0:2:0:0:
372,12,263511,1,0,0:2:0:0:
491,200,263623,6,0,B|451:202|451:202|416:210|416:210|356:211,1,119.999996337891,2|0,3:2|0:2,0:2:0:0:
127,116,263845,2,0,B|252:125|252:125|387:139,1,239.999992675781,2|0,1:2|3:2,0:2:0:0:
423,90,264178,1,0,3:2:0:0:
504,272,264289,6,0,B|465:272|465:272|430:283|430:283|369:283,1,119.999996337891,2|0,1:2|0:2,0:2:0:0:
132,188,264511,2,0,B|249:194|249:194|392:211,1,239.999992675781,2|0,3:2|1:2,0:2:0:0:
431,166,264845,1,0,0:2:0:0:
213,298,264956,6,0,B|337:278|337:278|473:275,1,239.999992675781,2|0,3:2|1:2,0:2:0:0:
512,320,265289,1,0,0:2:0:0:
283,216,265400,6,0,B|296:210|296:210|391:202|391:202|405:195,1,119.999996337891,2|0,3:2|0:2,0:2:0:0:
209,170,265623,2,0,B|196:164|196:164|101:156|101:156|87:149,1,119.999996337891,2|0,1:2|0:2,0:2:0:0:
322,114,265845,6,0,B|347:105|347:105|411:103|411:103|446:96,1,119.999996337891,2|0,3:2|3:2,0:2:0:0:
179,68,266067,2,0,B|154:59|154:59|90:57|90:57|55:50,1,119.999996337891,2|0,1:2|0:2,0:2:0:0:
297,282,266289,6,0,B|314:303|354:298|429:232,1,119.999996337891,2|0,3:2|0:2,0:2:0:0:
364,46,266511,2,0,B|341:30|300:31|232:96,1,119.999996337891,2|0,1:2|0:2,0:2:0:0:
449,199,266734,6,0,B|470:178|461:139|399:67,1,119.999996337891,2|0,3:2|3:2,0:2:0:0:
211,134,266956,2,0,B|191:161|196:191|261:266,1,119.999996337891,2|0,1:2|0:2,0:2:0:0:
405,383,267178,6,0,B|401:348|401:348|424:298|390:276|415:253,1,119.999996337891,2|0,3:2|0:2,0:2:0:0:
422,93,267400,1,0,1:2:0:0:
422,93,267623,5,2,3:2:0:0:
427,7,267734,1,2,3:2:0:0:
351,119,267845,2,0,B|310:101|265:119|231:105,1,119.999996337891,0|0,1:2|0:2,0:2:0:0:
0,151,268067,6,0,B|15:150|15:150|31:140|31:140|46:144|46:144|284:103,1,239.999992675781,2|0,3:2|1:2,0:2:0:0:
282,52,268400,1,0,0:2:0:0:
441,148,268511,1,2,3:2:0:0:
384,45,268622,1,0,3:2:0:0:
313,131,268734,2,0,B|318:158|318:158|315:195|315:195|326:219|326:219|331:255,1,119.999996337891,0|0,1:2|0:2,0:2:0:0:
218,384,268956,6,0,B|221:360|221:360|192:109,1,239.999992675781,2|0,3:2|1:2,0:2:0:0:
142,94,269289,1,0,0:2:0:0:
0,356,269400,6,0,B|-3:314|-3:314|26:81,1,239.999992675781,2|0,3:2|1:2,0:2:0:0:
76,66,269733,1,0,0:2:0:0:
218,318,269845,6,0,B|220:262|220:262|192:43,1,239.999992675781,2|0,3:2|1:2,0:2:0:0:
142,28,270178,1,0,0:2:0:0:
0,290,270289,6,0,B|-3:215|-3:215|26:15,1,239.999992675781,2|0,3:2|1:2,0:2:0:0:
76,0,270622,1,0,0:2:0:0:
207,163,270734,6,0,B|271:180|387:74|359:16,1,239.999992675781,2|0,3:2|1:2,0:2:0:0:
431,0,271067,1,0,0:2:0:0:
507,57,271178,1,2,3:2:0:0:
411,117,271289,1,0,3:2:0:0:
504,216,271400,2,0,B|505:248|505:248|490:345,1,119.999996337891,2|0,1:2|0:2,0:2:0:0:
292,362,271623,6,0,B|285:340|285:340|255:92,1,239.999992675781,2|0,3:2|1:2,0:2:0:0:
308,67,271956,1,0,0:2:0:0:
164,312,272067,6,0,B|172:282|172:282|198:40,1,239.999992675781,2|0,3:2|1:2,0:2:0:0:
148,17,272400,1,0,0:2:0:0:
11,102,272511,6,0,B|133:86|134:241|244:232,1,239.999992675781,2|0,3:2|1:2,0:2:0:0:
255,279,272844,1,0,0:2:0:0:
349,185,272956,6,0,B|407:176|407:176|407:179|407:179|501:164,1,119.999996337891,2|0,3:2|3:2,0:2:0:0:
249,134,273178,2,0,B|191:125|191:125|191:128|191:128|97:113,1,119.999996337891,2|0,1:2|0:2,0:2:0:0:
368,85,273401,6,0,B|426:75|426:75|429:82|429:82|520:64,1,119.999996337891,2|0,3:2|0:2,0:2:0:0:
225,39,273623,2,0,B|167:29|167:29|164:36|164:36|73:18,1,119.999996337891,2|0,1:2|0:2,0:2:0:0:
381,234,273845,6,0,B|434:253|452:247|513:184,1,119.999996337891,2|0,3:2|3:2,0:2:0:0:
449,0,274067,2,0,B|392:-17|368:-12|317:50,1,119.999996337891,2|0,1:2|0:2,0:2:0:0:
302,318,274289,6,0,B|293:296|293:296|272:87|272:87|263:62,1,239.999992675781,2|0,3:2|1:2,0:2:0:0:
213,32,274623,1,0,0:2:0:0:
61,294,274733,6,0,B|76:237|76:237|82:94|82:94|100:38,1,239.999992675781,2|0,3:2|1:2,0:2:0:0:
150,8,275067,1,0,0:2:0:0:
236,289,275178,6,0,B|414:272|414:272|426:261|426:261|436:270|436:270|492:264,1,239.999992675781,2|0,3:2|1:2,0:2:0:0:
512,204,275512,1,0,0:2:0:0:
202,219,275623,6,0,B|389:198|389:198|415:184|415:184|443:194|443:194|458:194,1,239.999992675781,2|0,3:2|1:2,0:2:0:0:
478,134,275956,1,0,0:2:0:0:
237,67,276067,5,2,1:2:0:0:
257,141,276178,1,0,3:2:0:0:
366,32,276290,5,0,3:2:0:0:
292,12,276401,1,0,3:2:0:0:
330,161,276512,5,0,3:2:0:0:
386,105,276623,1,0,3:2:0:0:
216,87,276734,5,2,1:2:0:0:
263,168,276845,1,0,3:2:0:0:
358,4,276956,5,0,3:2:0:0:
263,4,277067,1,0,3:2:0:0:
358,168,277178,5,0,3:2:0:0:
406,87,277290,1,0,3:2:0:0:
173,14,277401,5,2,1:2:0:0:
194,163,277512,1,0,3:2:0:0:
98,16,277623,5,0,1:2:0:0:
88,192,277734,1,0,3:2:0:0:
326,34,277845,6,0,B|350:40|350:40|360:37|360:37|371:41|371:41|384:33|392:42|392:42|403:39|414:46|414:46|424:44|433:39|435:39|441:39|441:39|452:35|460:48,1,119.999996337891,0|0,3:2|0:2,0:2:0:0:
136,92,278067,6,0,B|112:98|112:98|102:95|102:95|91:99|91:99|77:91|70:100|70:100|59:97|48:104|48:104|38:102|29:97|27:97|21:97|21:97|10:93|2:106,1,119.999996337891,0|0,1:2|0:2,0:2:0:0:
288,235,278290,5,0,1:2:0:0:
218,114,278401,1,0,3:2:0:0:
214,248,278512,5,0,1:2:0:0:
301,102,278623,1,0,3:2:0:0:
431,217,278734,5,2,1:2:0:0:
442,43,278845,1,0,1:2:0:0:
360,217,278956,5,0,1:2:0:0:
367,40,279067,1,0,1:2:0:0:
291,250,279178,5,0,1:2:0:0:
269,40,279290,1,0,1:2:0:0:
219,258,279401,5,0,1:2:0:0:
197,48,279513,1,0,1:2:0:0:
60,295,279623,6,0,L|200:322,1,112.500004291535,6|0,1:2|0:2,0:2:0:0:
222,372,280067,2,0,L|308:351,1,75.0000028610231,6|0,0:2|3:2,0:2:0:0:
493,362,280512,2,0,B|441:361|451:178|392:172,1,225.000008583069,6|0,1:2|1:2,0:2:0:0:
294,245,281401,6,0,P|247:214|238:169,1,75.0000028610231,2|0,3:2|0:2,0:2:0:0:
253,127,281734,2,0,P|303:101|346:116,1,75.0000028610231,2|0,3:2|0:2,0:2:0:0:
381,139,282067,2,0,L|392:188,1,37.5000014305115,2|0,3:2|0:2,0:2:0:0:
391,292,282290,2,0,L|396:162,1,112.500004291535,2|0,1:2|0:2,0:2:0:0:
459,136,282734,2,0,L|449:49,1,75.0000028610231,2|0,3:2|3:2,0:2:0:0:
294,106,283178,6,0,P|247:137|238:182,1,75.0000028610231,4|0,3:2|0:2,0:2:0:0:
253,224,283512,2,0,P|303:249|346:234,1,75.0000028610231,2|0,3:2|0:2,0:2:0:0:
381,212,283845,2,0,L|392:163,1,37.5000014305115,2|0,3:2|0:2,0:2:0:0:
391,59,284067,2,0,L|396:189,1,112.500004291535,4|0,1:2|0:2,0:2:0:0:
450,283,284512,2,0,L|458:208,1,75.0000028610231,2|0,3:2|1:2,0:2:0:0:
285,165,284956,6,0,L|292:282,1,112.500004291535,2|0,0:2|3:2,0:2:0:0:
246,383,285401,2,0,L|232:305,1,75.0000028610231,2|0,0:2|0:2,0:2:0:0:
11,256,285845,1,0,1:2:0:0:
46,320,286290,6,0,L|123:307,1,75.0000028610231,2|2,0:2|1:2,0:2:0:0:
198,235,286734,6,0,P|218:270|297:279,1,112.500004291535,6|0,3:2|3:2,0:2:0:0:
332,229,287178,2,0,L|335:117,1,112.500004291535,6|0,3:2|0:2,0:2:0:0:
390,68,287623,2,0,P|444:73|476:117,1,112.500004291535,6|0,1:2|0:2,0:2:0:0:
484,191,288067,2,0,L|393:181,1,75.0000028610231,2|0,0:2|1:2,0:2:0:0:
266,58,288512,6,0,B|209:52|217:209|163:207,1,187.500007152558,2|0,3:2|0:2,0:2:0:0:
132,199,289178,2,0,L|183:210,1,37.5000014305115,2|2,3:2|0:2,0:2:0:0:
245,277,289401,2,0,L|357:260,1,112.500004291535,2|2,1:2|0:2,0:2:0:0:
399,202,289845,2,0,L|478:216,1,75.0000028610231,0|0,0:2|0:2,0:2:0:0:
305,324,290290,6,0,L|277:216,2,112.500004291535,6|2|2,3:2|3:2|3:2,0:2:0:0:
193,181,291178,2,0,L|114:269,1,112.500004291535,6|0,1:2|0:2,0:2:0:0:
50,233,291623,2,0,L|33:152,1,75.0000028610231,2|0,3:2|1:2,0:2:0:0:
204,17,292043,5,2,0:2:0:0:
135,27,292392,5,2,0:2:0:0:
104,94,292683,5,2,0:2:0:0:
118,168,293002,5,2,0:2:0:0:
231,185,293330,5,6,0:2:0:0:
167,228,293687,5,2,0:2:0:0:
213,290,294066,5,2,0:2:0:0:
173,351,294427,5,2,0:2:0:0:
0,212,294811,6,0,B|40:224|77:207|77:207|102:219|102:219|126:210|126:210|142:219|142:219|177:205|213:218|213:218|236:274,1,279.999991455078,6|4,0:2|3:2,0:2:0:0:
129,105,298239,6,0,B|120:147|120:147|86:154|86:154|74:202|95:242|95:242|119:250|119:250|128:306|94:327,1,279.999991455078,6|4,0:2|3:2,0:2:0:0:
42,88,301668,6,0,B|92:129|92:129|124:104|124:104|129:119|129:119|145:122|152:123|165:122|165:122|172:123|180:123|189:151|203:148|203:148|231:133|243:141|256:151|275:150,1,279.999991455078,6|4,0:2|3:2,0:2:0:0:
339,327,304239,5,4,3:2:0:0:
394,88,305096,6,0,B|351:92|328:51|330:74|284:85|314:115|336:127|301:144|301:144|286:170|307:188|316:193|316:195|315:195|312:195|307:197|307:197|309:198|310:203|310:208|311:233|319:239|302:245|300:249|312:260|312:261,1,279.999991455078,6|4,0:2|3:2,0:2:0:0:
35,135,308525,6,0,B|44:109|61:103|80:104|105:149|83:98|112:62|160:68|175:91|162:139|228:114|273:134|224:157|219:180|210:192|214:203|210:210,1,279.999991455078,6|4,0:2|3:2,0:2:0:0:
343,29,311953,2,0,B|325:66|337:69|348:63|350:63|350:63|357:63|380:68|381:72|378:75|378:75|381:75|382:75|400:74|402:75|403:76|402:77|400:81|400:87|402:91|407:95|410:97|410:102|411:109|417:120|422:123|424:133|423:136|420:146|419:151|417:156|415:173|424:178|432:189|425:200|420:208|435:218|469:214|463:183|458:185|458:189|458:178|461:168,1,279.999991455078,6|4,0:2|3:2,0:2:0:0:
348,144,314525,5,4,3:2:0:0:
241,332,315382,2,0,B|270:314|291:309|306:318|311:328|311:328|333:336|367:313|375:304|392:329|396:337|422:325|426:318|426:318|466:324|466:324|457:305|457:302|471:286,1,279.999991455078,6|4,0:2|3:2,0:2:0:0:
121,173,318811,2,0,B|129:175|135:170|134:162|125:150|111:142|99:142|83:152|77:167|76:178|81:192|97:208|94:212|79:218|71:224|71:224|76:226|86:227|98:229|102:230|103:231|102:233|98:241|88:252|86:259|86:264|86:269|88:272|89:273|92:278|93:279|91:284|88:288|87:291|87:296|91:301|94:303|99:305|100:310|92:328|90:333|94:340|102:341|106:351|110:355|111:358|114:363|122:361|132:357|138:356,1,279.999991455078,6|4,0:2|3:2,0:2:0:0:
255,36,322239,5,6,0:2:0:0:
256,192,322292,12,0,325424,0:2:0:0:
