osu file format v14

[General]
AudioFilename: audio.mp3
AudioLeadIn: 0
PreviewTime: 48062
Countdown: 0
SampleSet: Soft
StackLeniency: 0.5
Mode: 0
LetterboxInBreaks: 0
WidescreenStoryboard: 1

[Editor]
Bookmarks: 8800,9700,28900,48700,48775,48850,48925,49000,49075,49150,49225,49300,49375,49450,49525,49600,49675,49750,49825,49900,49975,50050,50125,50200,50275,50350,50425,50500,50575,50650,50725,50800,52000,52900,72100,91300
DistanceSpacing: 1
BeatDivisor: 4
GridSize: 32
TimelineZoom: 2.799999

[Metadata]
Title:heather
TitleUnicode:heather
Artist:glaive, ericdoa
ArtistUnicode:glaive, ericdoa
Creator:Parad0xa
Version:normal
Source:
Tags:and & then i'll ill i will be happy english hip hop hip-hop rap hyperpop hyper pop trap shime paradoxa
BeatmapID:3395912
BeatmapSetID:1663536

[Difficulty]
HPDrainRate:3.5
CircleSize:3
OverallDifficulty:5
ApproachRate:5.5
SliderMultiplier:2
SliderTickRate:1

[Events]
//Background and Video events
0,0,"bg.jpg",0,0
//Break Periods
2,48700,50800
//Storyboard Layer 0 (Background)
//Storyboard Layer 1 (Fail)
//Storyboard Layer 2 (Pass)
//Storyboard Layer 3 (Foreground)
//Storyboard Layer 4 (Overlay)
//Storyboard Sound Samples

[TimingPoints]
100,600,4,2,27,60,1,0
9700,-100,4,2,27,70,0,0
28900,-90.9090909090909,4,2,72,90,0,0
48100,-90.9090909090909,4,2,27,60,0,0
52900,-100,4,2,27,70,0,0
72100,-95.2380952380952,4,2,72,80,0,0
91300,-90.9090909090909,4,2,72,90,0,0
110500,-90.9090909090909,4,2,72,5,0,0

[Colours]
Combo1 : 185,191,253
Combo2 : 250,226,234
Combo3 : 195,145,170

[HitObjects]
45,245,8800,6,0,P|82:213|129:223,2,99.9999999999999,2|2|2,3:2|3:2|3:2,0:0:0:0:
9,337,9700,6,0,B|49:308|88:339|76:346|110:372|153:350,1,150,2|2,1:2|1:2,0:0:0:0:
184,318,10300,1,2,0:3:0:0:
274,359,10600,1,10,0:0:0:0:
369,328,10900,2,0,P|382:275|401:224,1,99.9999999999999,2|8,1:2|0:0,0:0:0:0:
426,191,11350,2,0,P|412:138|393:87,1,99.9999999999999,2|0,1:2|1:2,0:0:0:0:
412,47,11800,1,10,0:0:0:0:
322,2,12100,6,0,P|269:15|218:34,1,99.9999999999999,2|10,1:2|0:0,0:0:0:0:
176,34,12550,1,0,1:2:0:0:
176,34,12700,2,0,P|166:79|208:122,1,99.9999999999999,2|10,0:3|0:0,0:0:0:0:
280,174,13300,1,2,1:2:0:0:
368,220,13600,2,0,P|415:203|463:191,2,99.9999999999999,10|2|10,0:0|0:3|0:0,0:0:0:0:
321,309,14500,6,0,B|293:313|267:318|267:318|228:351|228:351|205:356|177:358,1,150,2|2,1:2|1:2,0:0:0:0:
138,338,15100,1,2,0:3:0:0:
57,278,15400,1,10,0:0:0:0:
52,178,15700,2,0,P|63:129|80:82,1,99.9999999999999,2|10,1:2|0:0,0:0:0:0:
111,42,16150,2,0,P|158:32|195:63,1,99.9999999999999,0|2,1:2|1:2,0:0:0:0:
236,93,16600,1,10,0:0:0:0:
326,49,16900,6,0,P|399:64|468:93,1,150,0|2,1:2|1:2,0:0:0:0:
490,138,17500,1,2,0:3:0:0:
445,227,17800,1,10,0:0:0:0:
347,250,18100,1,2,1:2:0:0:
264,188,18400,2,0,P|252:139|235:92,2,99.9999999999999,10|2|10,0:0|0:3|0:0,0:0:0:0:
196,261,19300,6,0,B|156:232|117:263|129:270|95:296|52:274,2,150,2|2|10,1:2|1:2|0:0,0:0:0:0:
250,345,20500,2,0,P|298:356|345:373,1,99.9999999999999,2|10,1:2|0:0,0:0:0:0:
391,354,20950,2,0,P|422:317|412:269,1,99.9999999999999,2|0,1:2|1:2,0:0:0:0:
397,222,21400,1,10,0:0:0:0:
481,168,21700,6,0,P|494:115|513:64,1,99.9999999999999,2|10,1:2|0:0,0:0:0:0:
432,7,22300,2,0,P|379:20|328:39,1,99.9999999999999,2|10,0:3|0:0,0:0:0:0:
264,105,22900,1,2,1:2:0:0:
187,41,23200,2,0,P|139:24|91:12,2,99.9999999999999,10|2|10,0:0|0:3|0:0,0:0:0:0:
253,115,24100,6,0,P|227:185|210:258,1,150,2|2,1:2|1:2,0:0:0:0:
234,302,24700,1,2,0:3:0:0:
157,366,25000,1,8,0:0:0:0:
69,316,25300,2,0,P|37:278|47:231,1,99.9999999999999,2|10,1:2|0:0,0:0:0:0:
73,188,25750,2,0,P|104:150|94:103,1,99.9999999999999,2|2,1:2|1:2,0:0:0:0:
89,53,26200,1,10,0:0:0:0:
175,2,26500,6,0,P|223:14|270:30,1,99.9999999999999,2|10,1:2|0:0,0:0:0:0:
318,119,27100,2,0,P|365:102|413:90,1,99.9999999999999,2|10,0:3|0:0,0:0:0:0:
502,136,27700,1,2,1:2:0:0:
476,232,28000,2,0,P|492:279|504:327,2,99.9999999999999,10|2|8,0:0|0:3|0:0,0:0:0:0:
383,171,28900,6,0,B|326:150|341:206|264:179,1,110.000003356934,4|2,1:2|0:0,0:0:0:0:
233,152,29350,1,2,0:0:0:0:
233,152,29500,2,0,P|179:166|128:184,1,110.000003356934,10|2,0:0|0:0,0:0:0:0:
33,241,30100,2,0,P|33:302|76:330,1,110.000003356934,0|2,1:2|0:0,0:0:0:0:
112,362,30550,2,0,P|170:377|209:343,1,110.000003356934,2|0,1:2|0:0,0:0:0:0:
241,307,31000,1,2,1:2:0:0:
331,244,31300,6,0,P|384:258|435:276,1,110.000003356934,2|2,0:0|0:0,0:0:0:0:
511,197,31900,2,0,P|496:143|478:92,1,110.000003356934,10|2,0:0|0:0,0:0:0:0:
398,16,32500,1,2,1:2:0:0:
302,70,32800,2,0,P|243:85|204:51,2,110.000003356934,2|10|2,0:0|0:0|1:2,0:0:0:0:
373,153,33700,6,0,P|354:204|340:257,1,110.000003356934,0|2,1:2|0:0,0:0:0:0:
297,291,34150,1,0,0:0:0:0:
297,291,34300,2,0,P|236:291|208:248,1,110.000003356934,10|2,0:0|0:0,0:0:0:0:
237,148,34900,2,0,P|222:94|204:43,1,110.000003356934,0|2,1:2|0:0,0:0:0:0:
153,22,35350,2,0,P|92:22|64:65,1,110.000003356934,2|0,1:2|0:0,0:0:0:0:
27,98,35800,1,2,1:2:0:0:
104,176,36100,6,0,P|85:227|71:280,1,110.000003356934,2|2,0:0|0:0,0:0:0:0:
140,366,36700,2,0,P|191:379|232:345,1,110.000003356934,10|2,0:0|0:0,0:0:0:0:
302,260,37300,1,2,1:2:0:0:
386,330,37600,2,0,P|439:344|490:362,2,110.000003356934,2|10|2,0:0|0:0|1:2,0:0:0:0:
293,269,38500,6,0,P|259:227|272:176,1,110.000003356934,0|2,1:2|0:0,0:0:0:0:
325,161,38950,1,2,0:0:0:0:
325,161,39100,2,0,B|343:165|361:170|361:170|387:196|387:196|415:200|443:207,1,110.000003356934,10|2,0:0|0:0,0:0:0:0:
511,137,39700,2,0,P|496:83|478:32,1,110.000003356934,2|2,1:2|0:0,0:0:0:0:
428,8,40150,2,0,P|376:-5|335:28,1,110.000003356934,0|2,1:2|0:0,0:0:0:0:
294,66,40600,1,0,1:2:0:0:
194,18,40900,6,0,B|137:-2|152:53|75:26,1,110.000003356934,2|2,0:0|0:0,0:0:0:0:
32,124,41500,2,0,P|50:175|64:228,1,110.000003356934,10|2,0:0|0:0,0:0:0:0:
110,258,41950,1,2,0:0:0:0:
110,258,42100,1,2,1:2:0:0:
211,224,42400,2,0,P|225:170|243:119,2,110.000003356934,2|10|0,0:0|0:0|1:2,0:0:0:0:
282,307,43300,6,0,P|334:311|369:270,1,110.000003356934,2|2,1:2|0:0,0:0:0:0:
376,216,43750,1,0,0:0:0:0:
376,216,43900,2,0,P|410:175|463:179,1,110.000003356934,10|2,0:0|0:0,0:0:0:0:
511,80,44500,2,0,P|459:61|406:47,1,110.000003356934,2|2,1:2|0:0,0:0:0:0:
364,11,44950,2,0,P|310:25|259:43,1,110.000003356934,2|2,1:2|0:0,0:0:0:0:
217,80,45400,6,0,B|199:76|181:71|181:71|155:45|155:45|127:41|99:34,1,110.000003356934,0|0,1:2|0:0,0:0:0:0:
30,103,46000,1,2,0:0:0:0:
31,212,46300,2,0,P|49:263|63:316,1,110.000003356934,8|0,0:0|0:0,0:0:0:0:
114,337,46750,1,2,0:0:0:0:
114,337,46900,1,2,1:2:0:0:
196,263,47200,2,0,P|230:222|283:226,2,110.000003356934,2|10|0,0:0|0:0|0:0,0:0:0:0:
238,364,48100,5,0,0:0:0:0:
283,226,52000,6,0,P|230:222|196:263,2,110.000003356934,0|0|2,3:2|3:2|3:2,0:0:0:0:
348,301,52900,6,0,P|417:271|490:256,1,150,0|2,1:2|1:2,0:0:0:0:
508,210,53500,1,2,0:3:0:0:
476,115,53800,2,0,P|452:104|427:99,1,50,10|0,0:0|0:0,0:0:0:0:
393,63,54100,2,0,P|348:53|305:95,1,99.9999999999999,2|8,1:2|0:0,0:0:0:0:
274,121,54550,2,0,P|229:131|186:89,1,99.9999999999999,2|2,1:2|1:2,0:0:0:0:
164,56,55000,1,10,0:0:0:0:
66,76,55300,6,0,P|85:122|95:171,1,99.9999999999999,2|8,1:2|0:0,0:0:0:0:
120,214,55750,1,0,1:2:0:0:
120,214,55900,2,0,P|168:224|214:243,1,99.9999999999999,2|10,0:3|0:0,0:0:0:0:
310,273,56500,1,2,1:2:0:0:
383,340,56800,2,0,P|428:320|477:310,2,99.9999999999999,10|2|10,0:0|0:3|0:0,0:0:0:0:
320,261,57700,6,0,B|324:233|329:207|329:207|362:168|362:168|367:145|369:117,1,150,0|0,1:2|1:2,0:0:0:0:
335,86,58300,1,2,0:3:0:0:
248,35,58600,1,10,0:0:0:0:
174,102,58900,2,0,P|119:79|61:67,1,99.9999999999999,2|10,1:2|0:0,0:0:0:0:
33,88,59350,2,0,P|1:125|11:172,1,99.9999999999999,2|0,1:2|1:2,0:0:0:0:
46,208,59800,1,10,0:0:0:0:
133,255,60100,6,0,P|181:267|227:287,1,99.9999999999999,0|10,1:2|0:0,0:0:0:0:
275,298,60550,1,2,1:2:0:0:
275,298,60700,2,0,P|320:277|369:265,1,99.9999999999999,2|10,0:3|0:0,0:0:0:0:
453,210,61300,1,0,1:2:0:0:
424,116,61600,2,0,P|435:67|456:22,2,99.9999999999999,8|2|10,0:0|0:3|0:0,0:0:0:0:
326,137,62500,6,0,B|286:108|247:139|259:146|225:172|182:150,1,150,0|0,1:2|1:2,0:0:0:0:
160,109,63100,1,2,0:3:0:0:
60,96,63400,1,10,0:0:0:0:
12,184,63700,2,0,P|2:229|44:272,1,99.9999999999999,2|10,1:2|0:0,0:0:0:0:
61,309,64150,2,0,P|106:288|155:276,1,99.9999999999999,0|2,1:2|1:2,0:0:0:0:
197,249,64600,1,10,0:0:0:0:
280,304,64900,6,0,P|328:315|373:336,1,99.9999999999999,2|10,1:2|0:0,0:0:0:0:
423,341,65350,1,2,1:2:0:0:
423,341,65500,2,0,P|454:303|444:256,1,99.9999999999999,2|10,0:3|0:0,0:0:0:0:
430,157,66100,1,2,1:2:0:0:
504,90,66400,2,0,P|513:42|482:5,2,99.9999999999999,8|2|10,0:0|0:3|0:0,0:0:0:0:
421,147,67300,6,0,B|393:151|367:156|367:156|328:189|328:189|305:194|277:196,1,150,2|2,1:2|1:2,0:0:0:0:
247,161,67900,1,2,0:3:0:0:
158,115,68200,1,10,0:0:0:0:
74,170,68500,2,0,P|95:215|106:263,1,99.9999999999999,2|10,1:2|0:0,0:0:0:0:
139,301,68950,2,0,P|187:310|224:279,1,99.9999999999999,2|2,1:2|1:2,0:0:0:0:
268,256,69400,1,10,0:0:0:0:
348,315,69700,6,0,P|385:345|432:336,1,99.9999999999999,2|10,1:2|0:0,0:0:0:0:
469,302,70150,1,2,1:2:0:0:
469,302,70300,2,0,P|480:253|501:208,1,99.9999999999999,2|10,0:3|0:0,0:0:0:0:
446,124,70900,1,0,1:2:0:0:
368,60,71200,2,0,P|322:38|274:27,2,99.9999999999999,10|2|10,0:0|0:3|0:0,0:0:0:0:
442,134,72100,6,0,B|412:174|444:213|451:201|477:236|455:279,1,157.499995193481,2|0,1:2|0:0,0:0:0:0:
416,316,72700,1,10,0:0:0:0:
316,349,73000,1,2,0:0:0:0:
238,278,73300,2,0,P|249:227|272:180,1,104.999996795654,2|2,1:2|0:0,0:0:0:0:
241,137,73750,1,0,1:2:0:0:
241,137,73900,2,0,P|229:86|206:39,1,104.999996795654,10|2,0:0|1:2,0:0:0:0:
102,18,74500,6,0,B|70:44|40:68|40:68|66:103|94:148,1,157.499995193481,2|2,0:0|0:0,0:0:0:0:
108,179,75100,1,10,0:0:0:0:
198,232,75400,1,2,0:0:0:0:
297,199,75700,1,2,1:2:0:0:
385,254,76000,2,0,P|432:231|483:219,2,104.999996795654,2|10|2,0:0|0:0|1:2,0:0:0:0:
315,332,76900,6,0,B|286:336|260:341|260:341|221:374|221:374|197:379|169:381,1,157.499995193481,2|0,1:2|0:0,0:0:0:0:
130,347,77500,1,10,0:0:0:0:
66,263,77800,1,2,0:0:0:0:
112,168,78100,2,0,P|100:116|76:69,1,104.999996795654,2|2,1:2|0:0,0:0:0:0:
109,28,78550,1,0,1:2:0:0:
109,28,78700,2,0,P|147:-4|197:5,1,104.999996795654,10|2,0:0|1:2,0:0:0:0:
301,26,79300,6,0,B|346:4|377:44|364:48|393:81|440:68,1,157.499995193481,2|2,0:0|0:0,0:0:0:0:
493,66,79900,1,10,0:0:0:0:
468,168,80200,1,2,0:0:0:0:
368,202,80500,1,2,1:2:0:0:
292,128,80800,2,0,P|280:76|256:29,2,104.999996795654,2|10|2,0:0|0:0|1:2,0:0:0:0:
214,198,81700,6,0,P|182:270|166:347,1,157.499995193481,2|0,1:2|0:0,0:0:0:0:
122,375,82300,1,10,0:0:0:0:
34,317,82600,1,2,0:0:0:0:
66,217,82900,2,0,P|117:194|171:183,1,104.999996795654,2|2,1:2|0:0,0:0:0:0:
214,198,83350,1,0,1:2:0:0:
214,198,83500,2,0,P|265:209|313:230,1,104.999996795654,10|2,0:0|1:2,0:0:0:0:
375,314,84100,6,0,P|424:324|464:291,1,104.999996795654,2|2,0:0|0:0,0:0:0:0:
509,196,84700,2,0,P|498:145|477:97,1,104.999996795654,10|2,0:0|0:0,0:0:0:0:
395,29,85300,2,0,B|332:9|314:72|335:40|315:99|264:92,1,157.499995193481,2|0,1:2|1:2,0:0:0:0:
225,58,85900,1,8,0:0:0:0:
125,23,86200,2,0,P|96:23|56:45,1,52.4999983978271,2|2,1:2|0:0,0:0:0:0:
39,70,86500,6,0,P|74:143|93:222,1,157.499995193481,2|0,1:2|0:0,0:0:0:0:
140,239,87100,1,10,0:0:0:0:
236,280,87400,1,2,0:0:0:0:
301,198,87700,2,0,P|340:165|390:175,1,104.999996795654,2|2,1:2|0:0,0:0:0:0:
433,205,88150,1,0,1:2:0:0:
433,205,88300,2,0,P|407:256|394:312,1,104.999996795654,10|2,0:0|1:2,0:0:0:0:
300,347,88900,6,0,P|260:379|210:369,1,104.999996795654,2|2,0:0|0:0,0:0:0:0:
137,293,89500,2,0,P|123:242|100:195,1,104.999996795654,10|2,0:0|0:0,0:0:0:0:
172,119,90100,1,2,1:2:0:0:
100,41,90400,2,0,P|46:32|3:58,2,104.999996795654,0|8|0,0:0|0:0|1:2,0:0:0:0:
183,112,91300,6,0,B|201:116|219:121|219:121|245:147|245:147|273:151|301:158,1,110.000003356934,4|2,1:2|0:0,0:0:0:0:
334,142,91750,1,2,0:0:0:0:
334,142,91900,2,0,B|352:138|370:133|370:133|396:107|396:107|424:103|452:96,1,110.000003356934,10|2,0:0|0:0,0:0:0:0:
508,179,92500,2,0,P|489:230|475:284,1,110.000003356934,0|2,1:2|0:0,0:0:0:0:
429,314,92950,2,0,P|394:354|341:350,1,110.000003356934,2|0,1:2|0:0,0:0:0:0:
313,302,93400,1,2,1:2:0:0:
222,364,93700,6,0,P|169:368|134:327,1,110.000003356934,2|2,0:0|0:0,0:0:0:0:
152,219,94300,2,0,P|202:198|256:185,1,110.000003356934,10|2,0:0|0:0,0:0:0:0:
362,155,94900,1,2,1:2:0:0:
448,210,95200,2,0,P|467:261|481:314,2,110.000003356934,2|10|2,0:0|0:0|1:2,0:0:0:0:
365,137,96100,6,0,B|386:80|330:95|357:18,1,110.000003356934,0|2,1:2|0:0,0:0:0:0:
305,3,96550,1,0,0:0:0:0:
305,3,96700,2,0,P|252:-1|217:39,1,110.000003356934,10|2,0:0|0:0,0:0:0:0:
155,130,97300,2,0,P|174:181|188:234,1,110.000003356934,0|2,1:2|0:0,0:0:0:0:
221,278,97750,2,0,P|274:291|325:311,1,110.000003356934,2|0,1:2|0:0,0:0:0:0:
377,291,98200,1,2,1:2:0:0:
460,219,98500,6,0,P|464:166|423:131,1,110.000003356934,2|2,0:0|0:0,0:0:0:0:
317,157,99100,2,0,P|263:170|212:190,1,110.000003356934,10|2,0:0|0:0,0:0:0:0:
112,143,99700,1,2,1:2:0:0:
42,227,100000,2,0,P|61:278|75:331,2,110.000003356934,2|10|2,0:0|0:0|1:2,0:0:0:0:
100,133,100900,6,0,P|113:79|132:27,1,110.000003356934,0|2,1:2|0:0,0:0:0:0:
185,13,101350,1,2,0:0:0:0:
185,13,101500,2,0,B|203:17|221:22|221:22|247:48|247:48|275:52|303:59,1,110.000003356934,10|2,0:0|0:0,0:0:0:0:
357,134,102100,2,0,P|408:115|462:101,1,110.000003356934,2|2,1:2|0:0,0:0:0:0:
504,137,102550,2,0,P|508:189|467:224,1,110.000003356934,0|2,1:2|0:0,0:0:0:0:
424,258,103000,1,0,1:2:0:0:
347,337,103300,6,0,P|295:318|241:304,1,110.000003356934,2|2,0:0|0:0,0:0:0:0:
145,250,103900,2,0,P|104:215|108:162,1,110.000003356934,10|2,0:0|0:0,0:0:0:0:
140,117,104350,1,2,0:0:0:0:
140,117,104500,1,2,1:2:0:0:
249,104,104800,2,0,P|262:50|281:-1,2,110.000003356934,2|10|0,0:0|0:0|1:2,0:0:0:0:
317,190,105700,6,0,P|351:230|404:226,1,110.000003356934,2|2,1:2|0:0,0:0:0:0:
453,200,106150,1,0,0:0:0:0:
453,200,106300,2,0,P|500:222|510:275,1,110.000003356934,10|2,0:0|0:0,0:0:0:0:
420,338,106900,2,0,B|402:342|384:347|384:347|358:373|358:373|330:377|302:384,1,110.000003356934,2|2,1:2|0:0,0:0:0:0:
282,341,107350,2,0,B|264:337|246:332|246:332|220:306|220:306|192:302|164:295,1,110.000003356934,2|2,1:2|0:0,0:0:0:0:
133,321,107800,6,0,P|119:267|100:215,1,110.000003356934,0|0,1:2|0:0,0:0:0:0:
21,139,108400,1,2,0:0:0:0:
90,53,108700,2,0,P|124:12|177:16,1,110.000003356934,8|0,0:0|0:0,0:0:0:0:
222,46,109150,1,2,0:0:0:0:
222,46,109300,1,2,1:2:0:0:
294,129,109600,2,0,P|275:180|261:234,2,110.000003356934,2|10|0,0:0|0:0|0:0,0:0:0:0:
