osu file format v14

[General]
AudioFilename: audio.mp3
AudioLeadIn: 0
PreviewTime: 48062
Countdown: 0
SampleSet: Soft
StackLeniency: 0.5
Mode: 0
LetterboxInBreaks: 0
WidescreenStoryboard: 1

[Editor]
Bookmarks: 8800,19300,28900,38500,48400,48475,48550,48625,48700,48775,48850,48925,49000,49075,49150,49225,49300,49375,49450,49525,49600,49675,49750,49825,49900,49975,50050,50125,50200,50275,50350,50425,50500,50575,50650,50725,50800,50875,50950,51025,51100,52000,62500,72100,81700,91300,100900
DistanceSpacing: 1.3
BeatDivisor: 8
GridSize: 4
TimelineZoom: 2.799999

[Metadata]
Title:heather
TitleUnicode:heather
Artist:glaive, ericdoa
ArtistUnicode:glaive, ericdoa
Creator:Parad0xa
Version:insane w/ shime
Source:
Tags:and & then i'll ill i will be happy english hip hop hip-hop rap hyperpop hyper pop trap shime paradoxa
BeatmapID:3395911
BeatmapSetID:1663536

[Difficulty]
HPDrainRate:5
CircleSize:4
OverallDifficulty:8
ApproachRate:9
SliderMultiplier:3.4
SliderTickRate:1

[Events]
//Background and Video events
0,0,"bg.jpg",0,0
//Break Periods
2,48400,51100
//Storyboard Layer 0 (Background)
//Storyboard Layer 1 (Fail)
//Storyboard Layer 2 (Pass)
//Storyboard Layer 3 (Foreground)
//Storyboard Layer 4 (Overlay)
//Storyboard Sound Samples

[TimingPoints]
100,600,4,2,27,60,1,0
100,-166.666666666667,4,2,27,60,0,0
9700,-100,4,2,27,70,0,0
10825,-13.7551581843191,4,2,27,5,0,0
10900,-100,4,2,27,70,0,0
12025,-13.7551581843191,4,2,27,5,0,0
12100,-100,4,2,27,70,0,0
13375,-13.7551581843191,4,2,27,5,0,0
13450,-100,4,2,27,70,0,0
13600,-142.857142857143,4,2,27,70,0,0
13825,-13.7551581843191,4,2,27,5,0,0
13900,-125,4,2,27,70,0,0
14200,-111.111111111111,4,2,27,70,0,0
14425,-13.7551581843191,4,2,27,5,0,0
14500,-100,4,2,27,70,0,0
15625,-13.7551581843191,4,2,27,5,0,0
15700,-100,4,2,27,70,0,0
15925,-13.7551581843191,4,2,27,5,0,0
16000,-100,4,2,27,70,0,0
16825,-13.7551581843191,4,2,27,5,0,0
16900,-100,4,2,27,70,0,0
17125,-13.7551581843191,4,2,27,5,0,0
17200,-100,4,2,27,70,0,0
18175,-13.7551581843191,4,2,27,5,0,0
18250,-100,4,2,27,70,0,0
18400,-111.111111111111,4,2,27,70,0,0
18625,-13.7551581843191,4,2,27,5,0,0
18700,-125,4,2,27,70,0,0
18925,-13.7551581843191,4,2,27,5,0,0
19000,-142.857142857143,4,2,27,70,0,0
19225,-13.7551581843191,4,2,27,5,0,0
19300,-100,4,2,27,70,0,0
23200,-142.857142857143,4,2,27,70,0,0
23425,-13.7551581843191,4,2,27,5,0,0
23500,-125,4,2,27,70,0,0
23725,-13.7551581843191,4,2,27,5,0,0
23800,-111.111111111111,4,2,27,70,0,0
24025,-13.7551581843191,4,2,27,5,0,0
24100,-100,4,2,27,70,0,0
28000,-111.111111111111,4,2,27,70,0,0
28225,-13.7551581843191,4,2,27,5,0,0
28300,-125,4,2,27,70,0,0
28600,-142.857142857143,4,2,27,70,0,0
28825,-13.7551581843191,4,2,27,5,0,0
28900,-90.9090909090909,4,2,72,90,0,0
32800,-125,4,2,72,90,0,0
33025,-13.7551581843191,4,2,72,5,0,0
33100,-111.111111111111,4,2,72,90,0,0
33325,-13.7551581843191,4,2,72,5,0,0
33400,-100,4,2,72,90,0,0
33625,-13.7551581843191,4,2,72,5,0,0
33700,-90.9090909090909,4,2,72,90,0,0
37525,-13.7551581843191,4,2,72,5,0,0
37600,-100,4,2,72,90,0,0
37825,-13.7551581843191,4,2,72,5,0,0
37900,-111.111111111111,4,2,72,90,0,0
38125,-13.7551581843191,4,2,72,5,0,0
38200,-125,4,2,72,90,0,0
38425,-13.7551581843191,4,2,72,5,0,0
38500,-90.9090909090909,4,2,72,90,0,0
41125,-13.7551581843191,4,2,72,5,0,0
41200,-90.9090909090909,4,2,72,90,0,0
41425,-13.7551581843191,4,2,72,5,0,0
41500,-90.9090909090909,4,2,72,90,0,0
41575,-13.7551581843191,4,2,72,5,0,0
41650,-90.9090909090909,4,2,72,90,0,0
42400,-111.111111111111,4,2,72,90,0,0
42625,-13.7551581843191,4,2,72,5,0,0
42700,-125,4,2,72,90,0,0
42925,-13.7551581843191,4,2,72,5,0,0
43000,-142.857142857143,4,2,72,90,0,0
43225,-13.7551581843191,4,2,72,5,0,0
43300,-90.9090909090909,4,2,72,90,0,0
44125,-13.7551581843191,4,2,72,5,0,0
44200,-90.9090909090909,4,2,72,90,0,0
46375,-13.7551581843191,4,2,72,5,0,0
46450,-90.9090909090909,4,2,72,90,0,0
47200,-111.111111111111,4,2,72,90,0,0
47425,-13.7551581843191,4,2,72,5,0,0
47500,-125,4,2,72,90,0,0
47725,-13.7551581843191,4,2,72,5,0,0
47800,-142.857142857143,4,2,72,90,0,0
48025,-13.7551581843191,4,2,72,5,0,0
48100,-100,4,2,27,60,0,0
52000,-142.857142857143,4,2,27,60,0,0
52225,-13.7551581843191,4,2,27,5,0,0
52300,-125,4,2,27,60,0,0
52525,-13.7551581843191,4,2,27,5,0,0
52600,-111.111111111111,4,2,27,60,0,0
52825,-13.7551581843191,4,2,27,5,0,0
52900,-100,4,2,27,70,0,0
54775,-13.7551581843191,4,2,27,5,0,0
54850,-100,4,2,27,70,0,0
56425,-13.7551581843191,4,2,27,5,0,0
56500,-100,4,2,27,70,0,0
56800,-142.857142857143,4,2,27,70,0,0
57025,-13.7551581843191,4,2,27,5,0,0
57100,-125,4,2,27,70,0,0
57325,-125,4,2,27,5,0,0
57400,-111.111111111111,4,2,27,70,0,0
57625,-13.7551581843191,4,2,27,5,0,0
57700,-100,4,2,27,70,0,0
57925,-13.7551581843191,4,2,27,5,0,0
58000,-100,4,2,27,70,0,0
60025,-13.7551581843191,4,2,27,5,0,0
60100,-100,4,2,27,70,0,0
61375,-13.7551581843191,4,2,27,5,0,0
61450,-100,4,2,27,70,0,0
61600,-111.111111111111,4,2,27,70,0,0
61825,-13.7551581843191,4,2,27,5,0,0
61900,-125,4,2,27,70,0,0
62125,-13.7551581843191,4,2,27,5,0,0
62200,-142.857142857143,4,2,27,70,0,0
62425,-13.7551581843191,4,2,27,5,0,0
62500,-100,4,2,27,70,0,0
64825,-13.7551581843191,4,2,27,5,0,0
64900,-100,4,2,27,70,0,0
66400,-142.857142857143,4,2,27,70,0,0
66625,-13.7551581843191,4,2,27,5,0,0
66700,-125,4,2,27,70,0,0
66925,-13.7551581843191,4,2,27,5,0,0
67000,-111.111111111111,4,2,27,70,0,0
67225,-13.7551581843191,4,2,27,5,0,0
67300,-100,4,2,27,70,0,0
69625,-13.7551581843191,4,2,27,5,0,0
69700,-100,4,2,27,70,0,0
71200,-111.111111111111,4,2,27,70,0,0
71425,-13.7551581843191,4,2,27,5,0,0
71500,-125,4,2,27,70,0,0
71725,-13.7551581843191,4,2,27,5,0,0
71800,-142.857142857143,4,2,27,70,0,0
72025,-13.7551581843191,4,2,27,5,0,0
72100,-95.2380952380952,4,2,72,80,0,0
76000,-133.333333333333,4,2,72,80,0,0
76225,-13.7551581843191,4,2,72,5,0,0
76300,-117.647058823529,4,2,72,80,0,0
76525,-13.7551581843191,4,2,72,5,0,0
76600,-105.263157894737,4,2,72,80,0,0
76825,-13.7551581843191,4,2,72,5,0,0
76900,-95.2380952380952,4,2,72,80,0,0
80725,-13.7551581843191,4,2,72,5,0,0
80800,-117.647058823529,4,2,72,80,0,0
81025,-13.7551581843191,4,2,72,5,0,0
81100,-117.647058823529,4,2,72,80,0,0
81325,-13.7551581843191,4,2,72,5,0,0
81400,-117.647058823529,4,2,72,80,0,0
81625,-13.7551581843191,4,2,72,5,0,0
81700,-95.2380952380952,4,2,72,80,0,0
85525,-13.7551581843191,4,2,72,5,0,0
85600,-133.333333333333,4,2,72,80,0,0
85825,-13.7551581843191,4,2,72,5,0,0
85900,-117.647058823529,4,2,72,80,0,0
86125,-13.7551581843191,4,2,72,5,0,0
86200,-105.263157894737,4,2,72,80,0,0
86500,-95.2380952380952,4,2,72,80,0,0
90325,-13.7551581843191,4,2,72,5,0,0
90400,-105.263157894737,4,2,72,80,0,0
90625,-13.7551581843191,4,2,72,5,0,0
90700,-117.647058823529,4,2,72,80,0,0
90925,-13.7551581843191,4,2,72,5,0,0
91000,-133.333333333333,4,2,72,80,0,0
91225,-13.7551581843191,4,2,72,5,0,0
91300,-90.9090909090909,4,2,72,90,0,0
95200,-125,4,2,72,90,0,0
95425,-13.7551581843191,4,2,72,5,0,0
95500,-111.111111111111,4,2,72,90,0,0
95725,-13.7551581843191,4,2,72,5,0,0
95800,-100,4,2,72,90,0,0
96025,-13.7551581843191,4,2,72,5,0,0
96100,-90.9090909090909,4,2,72,90,0,0
99925,-13.7551581843191,4,2,72,5,0,0
100000,-100,4,2,72,90,0,0
100225,-13.7551581843191,4,2,72,5,0,0
100300,-111.111111111111,4,2,72,90,0,0
100525,-13.7551581843191,4,2,72,5,0,0
100600,-125,4,2,72,90,0,0
100825,-13.7551581843191,4,2,72,5,0,0
100900,-90.9090909090909,4,2,72,90,0,0
103525,-13.7551581843191,4,2,72,5,0,0
103600,-90.9090909090909,4,2,72,90,0,0
103825,-13.7551581843191,4,2,72,5,0,0
103900,-90.9090909090909,4,2,72,90,0,0
103975,-13.7551581843191,4,2,72,5,0,0
104050,-90.9090909090909,4,2,72,90,0,0
104800,-142.857142857143,4,2,72,90,0,0
105025,-13.7551581843191,4,2,72,5,0,0
105100,-125,4,2,72,90,0,0
105325,-13.7551581843191,4,2,72,5,0,0
105400,-111.111111111111,4,2,72,90,0,0
105625,-13.7551581843191,4,2,72,5,0,0
105700,-90.9090909090909,4,2,72,90,0,0
106525,-13.7551581843191,4,2,72,5,0,0
106600,-90.9090909090909,4,2,72,90,0,0
108775,-13.7551581843191,4,2,72,5,0,0
108850,-90.9090909090909,4,2,72,90,0,0
109600,-111.111111111111,4,2,72,90,0,0
109825,-13.7551581843191,4,2,72,5,0,0
109900,-125,4,2,72,90,0,0
110125,-13.7551581843191,4,2,72,5,0,0
110200,-142.857142857143,4,2,72,90,0,0
110425,-13.7551581843191,4,2,72,5,0,0
110500,-13.7551581843191,4,2,72,5,0,0

[Colours]
Combo1 : 185,191,253
Combo2 : 250,226,234
Combo3 : 195,145,170

[HitObjects]
69,14,8800,5,2,3:2:0:0:
69,14,8950,1,2,0:0:0:0:
25,81,9100,2,0,P|35:108|43:143,2,50.9999984436036,2|2|2,3:2|0:0|3:2,0:0:0:0:
206,29,9700,6,0,B|247:1|290:46|274:54|305:98|362:79,1,170,2|8,1:2|0:2,0:0:0:0:
461,15,10150,1,2,1:2:0:0:
461,15,10300,2,0,P|443:48|426:106,1,85,2|0,0:3|0:0,0:0:0:0:
392,175,10600,2,0,P|437:133|512:151,1,127.5,10|0,0:0|0:0,0:0:0:0:
512,148,10900,6,0,P|479:208|447:314,1,170,2|8,1:2|0:0,0:0:0:0:
316,203,11350,1,2,1:2:0:0:
316,203,11500,2,0,P|351:177|399:177,1,85,2|0,0:3|1:2,0:0:0:0:
351,332,11800,2,0,P|306:307|227:284,1,127.5,10|0,0:0|0:0,0:0:0:0:
219,295,12100,6,0,P|202:324|187:377,1,85,2|0,1:2|0:0,0:0:0:0:
92,306,12400,2,0,P|80:265|60:227,1,85,10|0,0:0|1:2,0:0:0:0:
20,114,12700,2,0,B|74:87|115:160|76:130|107:195|170:175,1,170,2|10,0:3|0:0,0:0:0:0:
278,61,13300,6,0,P|259:53|226:48,1,42.5,2|0,1:2|0:0,0:0:0:0:
219,49,13450,1,0,0:0:0:0:
160,176,13600,2,0,P|187:143|230:137,1,89.2499972763062,10|0,0:0|0:0,0:0:0:0:
230,130,13900,2,0,P|181:135|149:173,1,102,2|2,0:3|0:0,0:0:0:0:
136,172,14200,2,0,P|172:129|228:122,1,114.749996498108,10|0,0:0|0:0,0:0:0:0:
308,154,14500,6,0,B|311:181|318:210|318:210|290:247|290:247|296:277|302:326,1,170,2|8,1:2|0:2,0:0:0:0:
456,307,14950,1,2,1:2:0:0:
456,307,15100,2,0,P|423:289|365:272,1,85,2|0,0:3|0:0,0:0:0:0:
177,373,15400,2,0,P|219:349|295:327,1,127.5,10|0,0:0|0:0,0:0:0:0:
300,312,15700,6,0,P|278:264|195:264,1,127.5,2|0,1:2|0:0,0:0:0:0:
198,266,16000,1,10,0:0:0:0:
113,125,16150,2,0,B|157:95|201:140|185:148|217:189|273:167,1,170,0|2,1:2|1:2,0:0:0:0:
416,53,16600,2,0,P|354:52|313:99,1,127.5,10|0,0:0|0:0,0:0:0:0:
320,112,16900,6,0,P|343:154|365:230,1,127.5,0|0,1:2|0:0,0:0:0:0:
362,244,17200,1,8,0:0:0:0:
477,317,17350,1,2,1:2:0:0:
477,317,17500,2,0,B|450:314|421:307|421:307|384:335|384:335|354:329|305:323,1,170,2|10,0:3|0:0,0:0:0:0:
222,210,18100,6,0,P|230:229|235:262,1,42.5,2|0,1:2|0:0,0:0:0:0:
237,267,18250,1,0,0:0:0:0:
177,376,18400,2,0,P|135:339|79:341,1,114.749996498108,10|0,0:0|0:0,0:0:0:0:
81,349,18700,2,0,P|130:348|167:381,1,102,2|0,0:3|0:0,0:0:0:0:
158,384,19000,2,0,P|125:355|82:357,1,89.2499972763062,10|0,0:0|0:0,0:0:0:0:
59,263,19300,5,2,1:2:0:0:
168,193,19450,1,2,0:0:0:0:
79,173,19600,1,10,0:2:0:0:
172,294,19750,2,0,P|251:262|337:237,1,170,2|0,1:2|0:0,0:0:0:0:
268,97,20200,2,0,P|244:132|256:183,1,85,10|2,0:0|0:0,0:0:0:0:
439,227,20500,5,2,1:2:0:0:
336,151,20650,1,2,0:0:0:0:
441,126,20800,1,10,0:0:0:0:
332,238,20950,2,0,P|250:261|171:293,1,170,2|0,1:2|1:2,0:0:0:0:
96,151,21400,2,0,P|136:176|175:199,1,85,10|2,0:0|0:0,0:0:0:0:
77,320,21700,6,0,P|53:278|69:227,1,85,2|0,1:2|0:0,0:0:0:0:
168,195,22000,2,0,P|192:153|176:102,1,85,10|0,0:0|1:2,0:0:0:0:
38,26,22300,1,2,0:3:0:0:
96,151,22450,1,2,0:0:0:0:
96,151,22525,1,2,0:0:0:0:
96,151,22600,1,10,0:0:0:0:
7,106,22750,1,0,0:0:0:0:
139,0,22900,6,0,P|193:24|238:42,1,85,2|0,1:2|0:0,0:0:0:0:
368,19,23200,2,0,P|331:57|333:113,1,89.2499972763062,10|0,0:0|0:0,0:0:0:0:
336,104,23500,2,0,P|344:55|398:18,1,102,2|0,0:3|0:0,0:0:0:0:
392,26,23800,2,0,P|353:57|349:121,1,114.749996498108,10|0,0:0|0:0,0:0:0:0:
391,213,24100,6,0,P|428:199|526:172,2,127.5,2|2|2,1:2|0:0|1:2,0:0:0:0:
312,290,24700,2,0,P|275:276|177:249,2,127.5,2|2|2,0:3|0:0|0:0,0:0:0:0:
504,344,25300,6,0,P|479:321|478:260,1,85,2|2,1:2|0:0,0:0:0:0:
487,257,25525,1,2,0:0:0:0:
487,257,25600,2,0,P|504:197|528:141,1,85,10|2,0:0|1:2,0:0:0:0:
418,87,25900,2,0,P|377:88|339:132,1,85,2|2,0:3|1:2,0:0:0:0:
336,133,26125,1,2,0:0:0:0:
336,133,26200,2,0,P|320:77|302:14,1,85,10|0,0:0|0:0,0:0:0:0:
178,23,26500,6,0,P|118:28|73:115,2,127.5,2|0|2,1:2|0:0|1:2,0:0:0:0:
104,160,27100,2,0,P|63:112|2:107,2,127.5,2|2|2,0:3|0:0|0:0,0:0:0:0:
170,225,27700,6,0,P|155:270|142:327,1,85,2|2,1:2|0:0,0:0:0:0:
236,376,28000,2,0,P|289:378|334:314,1,114.749996498108,10|0,0:0|0:0,0:0:0:0:
346,348,28300,2,0,P|374:303|348:238,1,102,2|2,0:3|0:0,0:0:0:0:
386,253,28600,2,0,P|361:206|305:197,1,89.2499972763062,8|0,0:0|0:0,0:0:0:0:
306,170,28900,6,0,B|248:141|205:218|246:186|213:255|150:235,1,187.000005706787,4|2,1:2|0:0,0:0:0:0:
129,69,29350,1,2,0:0:0:0:
129,69,29500,2,0,P|147:102|164:160,1,93.5000028533936,10|2,0:0|0:0,0:0:0:0:
294,0,29800,1,2,0:0:0:0:
227,63,29950,1,2,0:0:0:0:
306,170,30100,6,0,P|388:126|478:99,1,187.000005706787,0|2,1:2|0:0,0:0:0:0:
474,90,30550,2,0,P|384:116|301:160,1,187.000005706787,2|0,1:2|0:0,0:0:0:0:
386,217,31000,2,0,P|427:195|472:181,1,93.5000028533936,2|0,1:2|0:0,0:0:0:0:
443,308,31300,6,0,B|399:278|353:327|370:335|337:383|282:364,1,187.000005706787,2|2,0:0|0:0,0:0:0:0:
282,364,31750,1,0,0:0:0:0:
203,300,31900,1,10,0:0:0:0:
203,300,32050,2,0,P|244:278|288:265,1,93.5000028533936,2|2,0:0|0:0,0:0:0:0:
178,181,32350,5,2,0:0:0:0:
131,250,32500,1,2,1:2:0:0:
189,175,32650,1,2,0:0:0:0:
65,79,32800,2,0,P|81:124|91:183,1,102,2|0,0:0|0:0,0:0:0:0:
82,188,33100,2,0,P|72:131|53:77,1,114.749996498108,10|0,0:0|0:0,0:0:0:0:
42,75,33400,2,0,P|63:135|73:197,1,127.5,2|0,1:2|0:0,0:0:0:0:
0,277,33700,6,0,B|43:247|89:295|72:303|104:350|165:330,1,187.000005706787,0|2,1:2|0:0,0:0:0:0:
161,331,34150,1,0,0:0:0:0:
228,262,34300,1,10,0:0:0:0:
228,262,34450,2,0,P|186:233|140:238,1,93.5000028533936,2|2,0:0|0:0,0:0:0:0:
269,182,34750,1,2,0:0:0:0:
300,377,34900,6,0,P|326:287|370:205,1,187.000005706787,0|2,1:2|0:0,0:0:0:0:
359,200,35350,2,0,P|314:282|288:371,1,187.000005706787,2|0,1:2|0:0,0:0:0:0:
381,367,35800,2,0,P|394:322|416:281,1,93.5000028533936,2|0,1:2|0:0,0:0:0:0:
483,131,36100,6,0,B|452:134|420:142|420:142|378:110|378:110|344:117|308:121,1,187.000005706787,2|2,0:0|0:0,0:0:0:0:
309,122,36550,1,0,0:0:0:0:
231,63,36700,1,10,0:0:0:0:
231,63,36850,2,0,P|271:40|316:27,1,93.5000028533936,2|2,0:0|0:0,0:0:0:0:
228,152,37150,1,2,0:0:0:0:
82,80,37300,6,0,P|72:37|86:80,1,140.25000428009,2|0,1:2|0:0,0:0:0:0:
88,93,37600,2,0,B|80:120|75:152|75:152|77:160|77:160|72:195|63:228,1,127.5,2|0,0:0|0:0,0:0:0:0:
79,215,37900,2,0,B|84:195|89:163|89:163|87:156|87:156|91:127|98:102,1,114.749996498108,10|0,0:0|0:0,0:0:0:0:
111,110,38200,2,0,B|104:131|100:157|100:157|102:163|102:163|98:192|93:209,1,102,2|0,1:2|0:0,0:0:0:0:
136,293,38500,6,0,B|179:323|225:275|208:267|240:220|301:240,1,187.000005706787,0|2,1:2|0:0,0:0:0:0:
334,312,38950,1,2,0:0:0:0:
461,262,39100,2,0,P|445:224|426:163,1,93.5000028533936,10|0,0:0|0:0,0:0:0:0:
455,36,39400,1,2,0:0:0:0:
512,104,39550,1,2,0:0:0:0:
338,136,39700,6,0,P|257:120|125:100,1,187.000005706787,2|2,1:2|0:0,0:0:0:0:
156,115,40150,2,0,P|248:129|340:147,1,187.000005706787,0|2,1:2|0:0,0:0:0:0:
284,19,40600,2,0,P|254:50|258:102,1,93.5000028533936,0|0,1:2|0:0,0:0:0:0:
107,189,40900,6,0,P|123:127|83:64,1,140.25000428009,2|0,0:0|0:0,0:0:0:0:
6,79,41200,2,0,P|-10:141|30:204,1,140.25000428009,2|0,0:0|0:0,0:0:0:0:
79,264,41500,2,0,P|83:306|87:332,1,46.7500014266968,10|0,0:0|0:0,0:0:0:0:
131,369,41650,1,0,0:0:0:0:
224,299,41800,2,0,P|265:300|314:353,1,93.5000028533936,2|2,0:0|0:0,0:0:0:0:
429,383,42100,6,0,P|455:297|468:263,1,93.5000028533936,2|0,1:2|0:0,0:0:0:0:
509,194,42400,2,0,P|461:195|421:143,1,114.749996498108,2|0,0:0|0:0,0:0:0:0:
407,158,42700,2,0,P|395:103|437:64,1,102,10|0,0:0|0:0,0:0:0:0:
405,67,43000,2,0,P|457:42|496:63,1,89.2499972763062,0|0,1:2|0:0,0:0:0:0:
511,119,43300,6,0,P|445:138|410:150,1,93.5000028533936,2|2,1:2|0:0,0:0:0:0:
278,4,43600,1,2,0:0:0:0:
405,67,43750,1,0,0:0:0:0:
273,225,43900,2,0,P|297:143|319:66,1,140.25000428009,10|0,0:0|0:0,0:0:0:0:
317,82,44200,1,2,0:0:0:0:
207,117,44350,1,2,0:0:0:0:
88,24,44500,6,0,P|103:88|125:228,1,187.000005706787,2|2,1:2|0:0,0:0:0:0:
107,222,44950,2,0,P|92:129|72:38,1,187.000005706787,2|2,1:2|0:0,0:0:0:0:
19,206,45400,2,0,P|8:257|-8:333,1,93.5000028533936,0|0,1:2|0:0,0:0:0:0:
69,358,45700,5,0,0:0:0:0:
69,358,46000,2,0,P|102:347|163:333,1,93.5000028533936,2|0,0:0|0:0,0:0:0:0:
279,278,46300,2,0,P|246:264|210:250,1,46.7500014266968,8|0,0:0|0:0,0:0:0:0:
185,206,46450,1,2,0:0:0:0:
337,124,46600,1,0,0:0:0:0:
252,148,46750,1,2,0:0:0:0:
415,195,46900,6,0,P|358:208|311:221,1,93.5000028533936,2|0,1:2|0:0,0:0:0:0:
253,384,47200,2,0,P|197:376|159:334,1,114.749996498108,2|0,0:0|0:0,0:0:0:0:
168,330,47500,2,0,P|200:367|250:376,1,102,10|0,0:0|0:0,0:0:0:0:
250,366,47800,2,0,P|206:361|179:327,1,89.2499972763062
251,287,48100,5,0,0:0:0:0:
250,366,52000,6,0,P|206:361|179:327,1,89.2499972763062,0|0,3:2|0:0,0:0:0:0:
168,330,52300,2,0,P|200:367|250:376,1,102,0|0,3:2|0:0,0:0:0:0:
253,384,52600,2,0,P|197:376|159:334,1,114.749996498108,2|0,3:2|0:0,0:0:0:0:
195,241,52900,6,0,B|236:213|279:258|263:266|294:310|351:291,1,170,0|10,1:2|0:2,0:0:0:0:
418,177,53350,1,2,1:2:0:0:
418,177,53500,2,0,P|375:188|336:208,1,85,2|0,0:3|0:0,0:0:0:0:
187,131,53800,2,0,P|229:142|268:162,1,85,10|0,0:0|0:0,0:0:0:0:
343,76,54100,5,2,1:2:0:0:
343,76,54250,2,0,P|368:42|371:0,1,85,2|8,0:0|0:0,0:0:0:0:
487,54,54550,2,0,P|437:90|437:152,1,127.5,2|0,1:2|0:0,0:0:0:0:
418,177,54850,1,2,1:2:0:0:
459,274,55000,1,10,0:0:0:0:
405,171,55150,1,2,0:0:0:0:
362,263,55300,6,0,P|280:286|205:326,1,170,2|8,1:2|0:0,0:0:0:0:
203,162,55750,1,0,1:2:0:0:
203,162,55900,2,0,P|241:178|265:212,1,85,2|0,0:3|0:0,0:0:0:0:
131,296,56200,2,0,P|115:234|85:178,1,127.5,10|0,0:0|0:0,0:0:0:0:
92,164,56500,6,0,P|103:120|124:81,1,85,2|0,1:2|0:0,0:0:0:0:
235,6,56800,2,0,B|287:17|260:33|313:45,1,89.2499972763062,10|0,0:0|0:0,0:0:0:0:
312,56,57100,2,0,B|252:43|282:24|222:11,1,102,2|0,0:3|0:0,0:0:0:0:
209,16,57400,2,0,B|276:30|241:51|309:65,1,114.749996498108,10|0,0:0|0:0,0:0:0:0:
363,146,57700,6,0,B|329:118|288:156|316:151|279:181|244:160,1,127.5,0|0,1:2|0:0,0:0:0:0:
236,146,58000,2,0,P|254:183|265:225,1,85,10|0,0:2|1:2,0:0:0:0:
390,298,58300,2,0,P|400:256|419:218,1,85,2|0,0:3|0:0,0:0:0:0:
203,290,58600,2,0,P|236:315|277:315,1,85,10|2,0:0|0:0,0:0:0:0:
236,146,58900,5,2,1:2:0:0:
163,216,59050,1,2,0:0:0:0:
243,137,59200,1,10,0:0:0:0:
89,56,59350,2,0,P|128:134|149:219,1,170,2|0,1:2|1:2,0:0:0:0:
85,309,59800,2,0,P|132:268|193:274,1,127.5,10|0,0:0|0:0,0:0:0:0:
203,290,60100,6,0,P|236:315|277:315,1,85,0|2,1:2|0:0,0:0:0:0:
392,186,60400,1,10,0:0:0:0:
344,270,60550,1,2,1:2:0:0:
402,177,60700,2,0,P|463:170|508:257,1,170,2|10,0:3|0:0,0:0:0:0:
290,373,61300,6,0,P|283:348|271:325,1,42.5,0|0,1:2|0:0,0:0:0:0:
278,314,61450,1,2,0:0:0:0:
165,207,61600,2,0,B|194:190|223:221|219:218|219:222|242:241|275:231,1,114.749996498108,8|0,0:0|0:0,0:0:0:0:
264,222,61900,2,0,B|238:229|218:213|218:209|221:212|196:184|170:199,1,102,2|0,0:3|0:0,0:0:0:0:
177,193,62200,2,0,B|199:179|222:203|219:201|219:204|237:219|262:214,1,89.2499972763062,10|0,0:0|0:0,0:0:0:0:
332,193,62500,5,0,1:2:0:0:
406,118,62650,1,0,0:0:0:0:
344,65,62800,1,8,0:2:0:0:
385,2,62950,1,0,1:2:0:0:
260,70,63100,2,0,P|182:48|90:21,1,170,2|10,0:3|0:0,0:0:0:0:
96,22,63700,6,0,P|111:92|120:132,1,85,2|0,1:2|0:0,0:0:0:0:
0,205,64000,1,10,0:0:0:0:
36,121,64150,1,0,1:2:0:0:
160,180,64300,2,0,P|115:198|76:184,1,85,2|2,0:3|1:2,0:0:0:0:
83,332,64600,2,0,P|133:296|193:314,1,127.5,10|0,0:0|0:0,0:0:0:0:
204,327,64900,5,2,1:2:0:0:
204,327,65200,2,0,P|249:344|316:364,1,85,10|2,0:0|1:2,0:0:0:0:
353,219,65500,2,0,P|326:242|323:304,1,85,2|0,0:3|0:0,0:0:0:0:
421,169,65800,2,0,P|399:128|332:111,1,85,10|0,0:0|0:0,0:0:0:0:
435,253,66100,2,0,P|473:257|521:224,1,85,2|0,1:2|0:0,0:0:0:0:
288,163,66400,6,0,P|247:169|193:182,1,89.2499972763062,8|0,0:0|0:0,0:0:0:0:
192,171,66700,2,0,P|241:159|291:150,1,102,2|0,0:3|0:0,0:0:0:0:
296,138,67000,2,0,P|245:146|183:162,1,114.749996498108,10|0,0:0|0:0,0:0:0:0:
163,246,67300,5,2,1:2:0:0:
110,107,67450,1,0,0:0:0:0:
65,192,67600,1,10,0:0:0:0:
0,145,67750,1,2,1:2:0:0:
0,240,67900,6,0,P|28:111|44:40,1,170,2|10,0:3|0:0,0:0:0:0:
36,73,68500,6,0,P|76:32|119:28,1,85,2|0,1:2|0:0,0:0:0:0:
183,161,68800,1,10,0:0:0:0:
110,107,68950,1,2,1:2:0:0:
234,0,69100,2,0,P|212:71|198:113,1,85,2|2,0:3|1:2,0:0:0:0:
348,196,69400,2,0,P|331:125|315:54,1,127.5,10|0,0:0|0:0,0:0:0:0:
317,62,69700,5,2,1:2:0:0:
317,62,70000,2,0,P|358:79|428:109,1,85,10|2,0:0|1:2,0:0:0:0:
500,143,70300,2,0,P|501:184|475:217,1,85,2|0,0:3|0:0,0:0:0:0:
316,265,70600,2,0,P|351:242|392:248,1,85,10|0,0:0|0:0,0:0:0:0:
512,361,70900,2,0,P|475:341|459:302,1,85,0|0,1:2|0:0,0:0:0:0:
284,362,71200,6,0,P|223:348|149:331,1,114.749996498108,10|0,0:0|0:0,0:0:0:0:
180,332,71500,2,0,P|246:347|282:356,1,102,2|0,0:3|0:0,0:0:0:0:
275,348,71800,2,0,P|231:337|188:328,1,89.2499972763062,10|0,0:0|0:0,0:0:0:0:
71,361,72100,6,0,B|44:307|117:266|87:305|152:274|132:211,1,178.499994552612,2|0,1:2|0:0,0:0:0:0:
4,166,72550,1,0,0:0:0:0:
4,166,72700,2,0,P|49:167|84:139,1,89.2499972763062,10|0,0:0|0:0,0:0:0:0:
213,36,73000,2,0,P|176:11|132:11,1,89.2499972763062,2|0,0:0|0:0,0:0:0:0:
205,163,73300,6,0,P|285:130|373:104,1,178.499994552612,2|2,1:2|0:0,0:0:0:0:
368,89,73750,2,0,P|282:113|199:147,1,178.499994552612,0|0,1:2|0:0,0:0:0:0:
336,235,74200,2,0,P|338:189|308:156,1,89.2499972763062,2|0,1:2|0:0,0:0:0:0:
264,302,74500,6,0,P|202:258|213:151,1,178.499994552612,2|0,0:0|0:0,0:0:0:0:
336,235,74950,1,2,0:0:0:0:
336,235,75100,2,0,P|387:250|436:270,1,89.2499972763062,10|0,0:0|0:0,0:0:0:0:
512,122,75400,2,0,P|460:137|411:157,1,89.2499972763062,2|0,0:0|0:0,0:0:0:0:
289,60,75700,6,0,P|333:60|368:89,1,89.2499972763062,2|0,1:2|0:0,0:0:0:0:
252,187,76000,2,0,B|206:204|206:204|179:165,1,95.6250036478044,2|0,0:0|0:0,0:0:0:0:
171,175,76300,2,0,B|201:217|201:217|253:198,1,108.375002067089,10|0,0:0|0:0,0:0:0:0:
254,216,76600,2,0,B|195:237|195:237|161:189,1,121.124996765614,2|0,1:2|0:0,0:0:0:0:
87,63,76900,6,0,B|91:100|97:130|97:130|69:167|69:167|76:196|81:236,1,178.499994552612,2|0,1:2|0:0,0:0:0:0:
0,345,77350,1,0,0:0:0:0:
0,345,77500,2,0,P|36:316|82:316,1,89.2499972763062,10|0,0:0|0:0,0:0:0:0:
230,384,77800,2,0,P|188:369|166:328,1,89.2499972763062,2|0,0:0|0:0,0:0:0:0:
254,216,78100,6,0,B|295:187|340:234|323:242|355:288|406:271,1,178.499994552612,2|2,1:2|0:0,0:0:0:0:
404,281,78550,2,0,B|352:298|320:252|337:244|292:197|251:225,1,178.499994552612,0|0,1:2|0:0,0:0:0:0:
427,107,79000,2,0,P|411:148|398:191,1,89.2499972763062,2|0,1:2|0:0,0:0:0:0:
197,46,79300,6,0,P|229:130|254:218,1,178.499994552612,2|0,0:0|0:0,0:0:0:0:
190,283,79750,1,2,0:0:0:0:
190,283,79900,2,0,P|161:247|161:201,1,89.2499972763062,10|0,0:0|0:0,0:0:0:0:
317,148,80200,2,0,P|345:183|345:229,1,89.2499972763062,2|0,0:0|0:0,0:0:0:0:
288,354,80500,6,0,B|327:373|358:319|329:342|352:294|399:308,1,133.874995914459,2|0,1:2|0:0,0:0:0:0:
463,379,80800,2,0,P|473:340|500:260,1,108.375002067089,2|0,0:0|0:0,0:0:0:0:
485,269,81100,2,0,P|468:320|453:372,1,108.375002067089,10|0,0:0|0:0,0:0:0:0:
440,367,81400,2,0,P|454:314|471:263,1,108.375002067089,2|0,1:2|0:0,0:0:0:0:
510,191,81700,6,0,P|499:149|461:12,1,178.499994552612,2|2,1:2|0:0,0:0:0:0:
395,173,82150,1,0,0:0:0:0:
395,173,82300,2,0,P|350:174|315:146,1,89.2499972763062,10|0,0:0|0:0,0:0:0:0:
218,35,82600,2,0,P|255:10|299:10,1,89.2499972763062,2|0,0:0|0:0,0:0:0:0:
178,173,82900,6,0,P|100:157|-27:140,1,178.499994552612,2|2,1:2|0:0,0:0:0:0:
0,159,83350,2,0,P|88:171|175:189,1,178.499994552612,0|0,1:2|0:0,0:0:0:0:
275,256,83800,2,0,P|232:265|160:286,1,89.2499972763062,2|0,1:2|0:0,0:0:0:0:
74,334,84100,6,0,P|101:270|111:244,1,89.2499972763062,2|0,0:0|0:0,0:0:0:0:
188,276,84400,2,0,P|171:317|153:358,1,89.2499972763062,2|0,0:0|0:0,0:0:0:0:
309,338,84700,2,0,P|291:297|274:255,1,89.2499972763062,10|0,0:0|0:0,0:0:0:0:
413,305,85000,2,0,P|395:264|378:222,1,89.2499972763062,2|0,0:0|0:0,0:0:0:0:
512,66,85300,6,0,P|488:131|462:201,1,133.874995914459,2|0,1:2|0:0,0:0:0:0:
456,202,85600,2,0,P|407:182|388:127,1,95.6250036478044
373,149,85900,2,0,P|372:103|434:70,1,108.375002067089,8|0,0:0|0:0,0:0:0:0:
512,65,86200,1,2,1:2:0:0:
460,0,86350,1,2,0:0:0:0:
322,81,86500,6,0,P|254:68|216:61,1,89.2499972763062,2|0,1:2|0:0,0:0:0:0:
123,16,86800,1,2,0:0:0:0:
162,105,86950,1,0,0:0:0:0:
37,170,87100,2,0,P|16:258|5:295,1,89.2499972763062,10|0,0:0|0:0,0:0:0:0:
113,384,87400,2,0,P|92:296|81:259,1,89.2499972763062,2|0,0:0|0:0,0:0:0:0:
280,232,87700,6,0,P|358:216|485:199,1,178.499994552612,2|2,1:2|0:0,0:0:0:0:
458,218,88150,2,0,P|369:230|282:248,1,178.499994552612,0|0,1:2|0:0,0:0:0:0:
359,346,88600,2,0,P|384:305|368:250,1,89.2499972763062,2|0,1:2|0:0,0:0:0:0:
198,213,88900,6,0,P|215:286|225:336,1,89.2499972763062,2|0,0:0|0:0,0:0:0:0:
139,334,89200,2,0,P|130:291|120:248,1,89.2499972763062,2|0,0:0|0:0,0:0:0:0:
55,34,89500,2,0,P|38:107|28:157,1,89.2499972763062,10|0,0:0|0:0,0:0:0:0:
131,165,89800,2,0,P|140:122|152:79,1,89.2499972763062,2|0,0:0|0:0,0:0:0:0:
280,23,90100,6,0,B|310:1|344:36|331:42|355:76|393:64,1,133.874995914459,2|0,1:2|0:0,0:0:0:0:
479,83,90400,2,0,P|428:89|400:166,1,121.124996765614
384,143,90700,2,0,P|383:189|441:228,1,108.375002067089,8|0,0:0|0:0,0:0:0:0:
418,237,91000,2,0,P|466:247|510:208,1,95.6250036478044,0|0,1:2|0:0,0:0:0:0:
471,155,91300,6,0,B|413:126|370:203|411:171|378:240|315:220,1,187.000005706787,4|2,1:2|0:0,0:0:0:0:
226,111,91750,1,2,0:0:0:0:
226,111,91900,2,0,P|268:82|314:87,1,93.5000028533936,10|2,0:0|0:0,0:0:0:0:
193,23,92200,1,2,0:0:0:0:
137,88,92350,1,2,0:0:0:0:
10,0,92500,6,0,B|13:31|21:63|21:63|-11:105|-11:105|-4:139|0:175,1,187.000005706787,0|2,1:2|0:0,0:0:0:0:
15,182,92950,2,0,B|11:146|4:112|4:112|36:70|36:70|28:38|25:7,1,187.000005706787,2|0,1:2|0:0,0:0:0:0:
137,88,93400,2,0,P|115:129|101:174,1,93.5000028533936,2|0,1:2|0:0,0:0:0:0:
37,279,93700,6,0,P|83:227|207:248,1,187.000005706787,2|2,0:0|0:0,0:0:0:0:
192,235,94150,1,0,0:0:0:0:
163,384,94300,1,10,0:0:0:0:
163,384,94450,2,0,P|149:339|127:298,1,93.5000028533936,2|2,0:0|0:0,0:0:0:0:
294,198,94750,5,2,0:0:0:0:
250,296,94900,1,2,1:2:0:0:
302,187,95050,1,2,0:0:0:0:
364,300,95200,2,0,P|413:304|454:275,1,102,2|0,0:0|0:0,0:0:0:0:
466,284,95500,2,0,P|420:316|364:311,1,114.749996498108,10|0,0:0|0:0,0:0:0:0:
361,325,95800,2,0,P|423:330|473:294,1,127.5,2|0,1:2|0:0,0:0:0:0:
512,183,96100,6,0,B|468:212|422:164|439:156|406:108|352:127,1,187.000005706787,0|2,1:2|0:0,0:0:0:0:
351,127,96550,1,0,0:0:0:0:
476,20,96700,1,10,0:0:0:0:
476,20,96850,2,0,P|458:53|441:111,1,93.5000028533936,2|2,0:0|0:0,0:0:0:0:
378,33,97150,1,2,0:0:0:0:
338,249,97300,6,0,P|421:206|511:182,1,187.000005706787,0|2,1:2|0:0,0:0:0:0:
512,196,97750,2,0,P|421:219|338:262,1,187.000005706787,2|0,1:2|0:0,0:0:0:0:
403,336,98200,2,0,P|432:294|427:248,1,93.5000028533936,2|0,1:2|0:0,0:0:0:0:
267,136,98500,6,0,B|270:167|278:199|278:199|246:241|246:241|253:275|257:311,1,187.000005706787,2|2,0:0|0:0,0:0:0:0:
256,310,98950,1,0,0:0:0:0:
372,176,99100,1,10,0:0:0:0:
372,176,99250,2,0,P|354:209|337:267,1,93.5000028533936,2|2,0:0|0:0,0:0:0:0:
267,136,99550,1,2,0:0:0:0:
140,251,99700,6,0,P|134:296|143:251,1,140.25000428009,2|0,1:2|0:0,0:0:0:0:
143,239,100000,2,0,B|149:161|115:192|121:112,1,127.5,2|0,0:0|0:0,0:0:0:0:
131,117,100300,2,0,B|125:185|156:157|150:227,1,114.749996498108,10|0,0:0|0:0,0:0:0:0:
157,216,100600,2,0,B|162:154|135:178|139:118,1,102,2|0,1:2|0:0,0:0:0:0:
137,38,100900,6,0,B|169:21|197:27|218:88|220:49|178:71|219:122|242:131|297:109,1,187.000005706787,0|2,1:2|0:0,0:0:0:0:
334,52,101350,1,2,0:0:0:0:
460,122,101500,2,0,B|448:134|430:152|430:152|431:177|435:221,1,93.5000028533936,10|0,0:0|0:0,0:0:0:0:
448,328,101800,1,2,0:0:0:0:
502,264,101950,1,2,0:0:0:0:
340,243,102100,6,0,B|226:256|267:269|130:287,1,187.000005706787,2|2,1:2|0:0,0:0:0:0:
153,269,102550,2,0,B|262:254|221:241|335:228,1,187.000005706787,0|2,1:2|0:0,0:0:0:0:
284,365,103000,2,0,P|254:334|258:282,1,93.5000028533936,0|0,1:2|0:0,0:0:0:0:
107,195,103300,6,0,B|115:231|124:258|124:258|103:288|83:320,1,140.25000428009,2|0,0:0|0:0,0:0:0:0:
0,305,103600,2,0,B|-8:269|-17:242|-17:242|4:212|24:180,1,140.25000428009,2|0,0:0|0:0,0:0:0:0:
75,124,103900,2,0,P|79:101|83:78,1,46.7500014266968,10|0,0:0|0:0,0:0:0:0:
131,4,104050,1,0,0:0:0:0:
265,110,104200,2,0,P|229:80|184:78,1,93.5000028533936,2|2,0:0|0:0,0:0:0:0:
429,1,104500,6,0,P|455:87|468:121,1,93.5000028533936,2|0,1:2|0:0,0:0:0:0:
509,190,104800,2,0,P|461:189|426:231,1,89.2499972763062,2|0,0:0|0:0,0:0:0:0:
409,205,105100,2,0,P|397:260|424:297,1,102,10|0,0:0|0:0,0:0:0:0:
402,325,105400,2,0,P|456:348|505:319,1,114.749996498108,0|0,1:2|0:0,0:0:0:0:
512,279,105700,6,0,P|448:260|411:248,1,93.5000028533936,2|2,1:2|0:0,0:0:0:0:
276,380,106000,1,2,0:0:0:0:
402,325,106150,1,0,0:0:0:0:
258,146,106300,2,0,P|282:228|304:305,1,140.25000428009,10|0,0:0|0:0,0:0:0:0:
299,294,106600,1,2,0:0:0:0:
197,266,106750,1,2,0:0:0:0:
96,375,106900,6,0,B|125:292|95:308|133:171,1,187.000005706787,2|2,1:2|0:0,0:0:0:0:
118,186,107350,2,0,B|85:302|115:286|86:369,1,187.000005706787,2|2,1:2|0:0,0:0:0:0:
21,234,107800,2,0,P|10:183|-6:107,1,93.5000028533936,0|0,1:2|0:0,0:0:0:0:
79,54,108100,5,0,0:0:0:0:
79,54,108400,2,0,B|126:63|166:71|166:71|173:79,1,93.5000028533936,2|0,0:0|0:0,0:0:0:0:
290,82,108700,2,0,P|257:96|221:110,1,46.7500014266968,8|0,0:0|0:0,0:0:0:0:
206,165,108850,1,2,0:0:0:0:
344,247,109000,1,0,0:0:0:0:
312,168,109150,1,2,0:0:0:0:
461,114,109300,6,0,B|404:101|374:94|370:89|370:89|357:88,1,93.5000028533936,2|0,1:2|0:0,0:0:0:0:
253,0,109600,2,0,P|197:8|159:50,1,114.749996498108,2|0,0:0|0:0,0:0:0:0:
168,54,109900,2,0,P|200:17|250:8,1,102,10|0,0:0|0:0,0:0:0:0:
250,18,110200,2,0,P|206:23|179:57,1,89.2499972763062
