osu file format v14

[General]
AudioFilename: audio.mp3
AudioLeadIn: 0
PreviewTime: 82
Countdown: 0
SampleSet: Soft
StackLeniency: 0.7
Mode: 0
LetterboxInBreaks: 0
WidescreenStoryboard: 1

[Editor]
Bookmarks: 1891,25562,36069,57110,63685,74205,87346,97842,118883
DistanceSpacing: 4.7
BeatDivisor: 4
GridSize: 4
TimelineZoom: 1.2

[Metadata]
Title:the prom
TitleUnicode:the prom
Artist:glaive
ArtistUnicode:glaive
Creator:Mimari
Version:insane
Source:
Tags:i love ganyu english pop rock alternative i care so much that i dont care at all don't visionary
BeatmapID:4240222
BeatmapSetID:2029582

[Difficulty]
HPDrainRate:5
CircleSize:3.8
OverallDifficulty:8
ApproachRate:9
SliderMultiplier:1.8
SliderTickRate:1

[Events]
//Background and Video events
0,0,"Untitled.png",0,0
//Break Periods
2,58260,63080
//Storyboard Layer 0 (Background)
//Storyboard Layer 1 (Fail)
//Storyboard Layer 2 (Pass)
//Storyboard Layer 3 (Foreground)
//Storyboard Layer 4 (Overlay)
//Storyboard Sound Samples
Sample,22399,0,"tag.wav",40
Sample,24080,0,"we love u mimari.wav",30

[TimingPoints]
600,328.542094455852,4,2,22,66,1,0
1913,-125,4,2,22,66,0,0
15863,-200,4,2,22,66,0,0
16192,-125,4,2,22,66,0,0
22932,-125,4,2,22,55,0,0
25562,-142.857142857143,4,2,22,66,0,0
35425,-142.857142857143,4,2,22,88,0,0
36082,-100,4,2,22,88,0,1
41339,-100,4,2,22,88,0,0
46595,-100,4,2,22,88,0,1
51852,-100,4,2,22,88,0,0
63679,-125,4,2,22,66,0,0
74193,-117.647058823529,4,2,22,66,0,0
87330,328.542094455852,4,2,22,66,1,0
87346,-142.857142857143,4,2,22,77,0,0
97850,328.542094455852,4,2,22,66,1,0
97850,-95.2380952380952,4,2,22,88,0,1
103106,-100,4,2,22,88,0,0
108363,-100,4,2,22,88,0,1
113620,-100,4,2,22,88,0,0

[Colours]
Combo1 : 209,209,209
Combo2 : 132,184,223
Combo3 : 167,157,148
Combo4 : 137,155,218

[HitObjects]
107,271,1914,6,0,P|145:267|195:256,1,72,2|0,1:2|0:0,0:0:0:0:
194,341,2242,2,0,P|156:345|106:356,1,72,0|0,1:2|0:0,0:0:0:0:
97,190,2735,6,0,P|135:186|185:175,1,72,0|0,0:0|1:2,0:0:0:0:
237,213,3064,2,0,P|279:174|279:83,1,144
236,18,3556,5,2,1:2:0:0:
194,91,3721,1,2,0:0:0:0:
324,20,3885,2,0,P|362:24|412:35,1,72,2|2,1:2|0:0,0:0:0:0:
188,83,4213,2,0,P|150:79|100:68,1,72,2|0,1:2|0:0,0:0:0:0:
285,195,4542,6,0,P|291:159|295:123,1,72,2|0,1:2|0:0,0:0:0:0:
205,176,4871,2,0,P|198:211|194:247,1,72,0|0,1:2|0:0,0:0:0:0:
371,184,5363,6,0,P|377:148|381:112,1,72,0|0,0:0|1:2,0:0:0:0:
347,43,5692,2,0,B|251:63|317:70|211:94,1,144,0|2,0:0|0:0,0:0:0:0:
141,62,6185,5,2,1:2:0:0:
203,11,6349,1,2,0:0:0:0:
260,126,6513,2,0,P|252:163|249:214,1,72,2|2,1:2|0:0,0:0:0:0:
112,128,6842,2,0,P|120:91|123:40,1,72,2|0,1:2|0:0,0:0:0:0:
103,39,7088,5,0,0:0:0:0:
103,39,7170,2,0,P|68:51|8:60,1,72,2|0,1:2|0:0,0:0:0:0:
27,154,7499,2,0,P|62:142|122:133,1,72,0|0,1:2|0:0,0:0:0:0:
91,316,7992,6,0,P|56:327|21:334,1,72,0|0,0:0|1:2,0:0:0:0:
7,256,8320,2,0,P|42:243|151:232,1,144
195,293,8813,5,2,1:2:0:0:
167,155,8977,2,0,P|202:168|311:179,1,144,2|0,0:0|0:0,0:0:0:0:
367,236,9470,5,2,1:2:0:0:
342,109,9634,1,2,0:0:0:0:
415,163,9799,6,0,P|433:111|433:72,1,72,0|0,1:2|0:0,0:0:0:0:
362,28,10127,2,0,P|344:80|344:119,1,72,0|0,1:2|0:0,0:0:0:0:
483,229,10620,6,0,P|501:177|501:138,1,72,0|2,0:0|1:2,0:0:0:0:
436,123,10949,2,0,P|376:132|320:198,1,144,2|2,0:0|0:0,0:0:0:0:
348,265,11441,5,2,1:2:0:0:
348,265,11770,5,2,1:2:0:0:
425,297,11934,1,2,0:0:0:0:
334,178,12098,2,0,P|293:190|251:194,1,72,2|0,1:2|0:0,0:0:0:0:
232,384,12427,6,0,P|226:348|215:306,1,72,2|0,1:2|0:0,0:0:0:0:
137,298,12756,2,0,P|143:334|154:376,1,72,0|0,1:2|0:0,0:0:0:0:
304,336,13248,6,0,P|298:300|287:258,1,72,2|0,0:0|1:2,0:0:0:0:
198,163,13577,2,0,P|120:179|56:232,1,144,2|2,0:0|0:0,0:0:0:0:
6,171,14070,2,0,P|12:135|23:93,1,72,2|0,1:2|0:0,0:0:0:0:
129,25,14398,6,0,P|120:59|108:141,1,108,2|0,1:2|0:0,0:0:0:0:
108,130,14727,1,2,1:2:0:0:
253,82,14891,6,0,P|289:93|336:99,1,72,2|0,0:0|1:2,0:0:0:0:
212,13,15220,5,2,0:0:0:0:
108,130,15384,2,0,P|71:118|25:113,1,72,2|0,1:2|0:0,0:0:0:0:
150,203,15712,5,2,1:2:0:0:
221,162,15877,2,0,L|227:184,2,22.5,2|2|2,0:2|0:0|1:2,1:2:0:0:
278,309,16205,6,0,P|283:273|294:239,1,72,2|0,0:0|1:2,0:0:0:0:
369,212,16534,5,2,0:0:0:0:
198,346,16698,2,0,P|192:310|181:276,1,72,2|0,1:2|0:0,0:0:0:0:
86,159,17027,6,0,P|7:199|13:279,1,144,2|2,1:2|1:2,0:0:0:0:
44,314,17519,1,2,0:0:0:0:
176,254,17684,6,0,P|128:246|93:234,1,72,0|2,1:2|0:0,0:0:0:0:
48,79,18012,1,2,1:2:0:0:
48,79,18341,6,0,P|117:107|200:128,1,144,2|2,1:2|1:2,0:0:0:0:
253,90,18834,2,0,P|243:54|247:2,1,72,2|0,0:0|1:2,0:0:0:0:
184,124,19162,5,2,0:0:0:0:
323,162,19326,2,0,P|359:152|411:156,1,72,2|0,1:2|0:0,0:0:0:0:
158,212,19655,6,0,P|103:190|7:180,1,144,2|2,1:2|1:2,0:0:0:0:
122,349,20148,6,0,P|113:309|111:279,1,72,2|0,0:0|1:2,0:0:0:0:
162,221,20476,5,2,0:0:0:0:
291,321,20641,2,0,P|300:281|302:251,1,72,2|0,1:2|0:0,0:0:0:0:
349,121,20969,6,0,P|404:99|500:89,1,144,2|2,1:2|1:2,0:0:0:0:
283,9,21462,6,0,P|267:41|269:82,1,72,2|0,0:0|1:2,0:0:0:0:
342,210,21790,5,2,0:0:0:0:
197,112,21955,1,2,1:2:0:0:
350,103,22119,1,0,0:0:0:0:
247,219,22283,2,0,P|240:286|242:381,2,144,2|2|2,1:2|1:2|0:0,0:0:0:0:
225,251,25569,5,2,0:3:0:0:
196,161,25897,1,2,0:3:0:0:
286,132,26226,1,2,0:3:0:0:
315,222,26390,2,0,L|310:280,1,31.4999990386963
375,301,26554,6,0,P|403:289|448:281,1,62.9999980773926,2|2,0:3|0:0,0:0:0:0:
265,344,26883,5,2,0:3:0:0:
265,344,27047,1,0,0:0:0:0:
256,193,27376,5,2,0:0:0:0:
266,56,27704,5,2,0:3:0:0:
266,56,27868,1,2,0:3:0:0:
286,251,28197,5,2,0:3:0:0:
315,161,28526,1,2,0:3:0:0:
225,132,28854,1,2,0:3:0:0:
196,222,29018,2,0,L|202:280,1,31.4999990386963
137,301,29183,6,0,P|109:289|64:281,1,62.9999980773926,2|2,0:3|0:0,0:0:0:0:
2,192,29511,5,2,0:3:0:0:
2,192,29675,1,2,0:0:0:0:
72,162,29840,1,2,0:3:0:0:
145,190,30004,1,2,0:0:0:0:
332,182,30333,5,2,0:0:0:0:
402,212,30497,1,2,0:3:0:0:
475,184,30661,1,2,0:3:0:0:
253,124,30825,5,2,1:3:0:0:
256,244,31154,1,2,1:3:0:0:
244,113,31482,5,2,1:3:0:0:
263,254,31811,1,2,1:3:0:0:
276,95,32140,5,2,1:3:0:0:
233,284,32468,1,2,1:3:0:0:
230,73,32797,5,2,1:3:0:0:
258,177,32961,5,2,0:3:0:0:
317,267,33125,5,2,1:3:0:0:
393,299,33289,5,0,0:0:0:0:
464,277,33454,5,2,0:0:0:0:
473,287,35425,5,8,0:0:0:0:
329,237,35589,1,0,1:2:0:0:
424,187,35754,5,8,0:0:0:0:
373,328,35918,1,0,1:2:0:0:
257,180,36082,6,0,P|254:121|257:77,1,90,6|0,1:2|1:2,0:0:0:0:
69,224,36411,5,8,0:0:0:0:
176,257,36575,1,0,1:2:0:0:
125,39,36739,5,2,1:2:0:0:
44,115,36903,1,0,1:2:0:0:
257,180,37068,5,8,0:0:0:0:
232,71,37232,1,0,1:2:0:0:
144,147,37396,5,2,1:2:0:0:
380,201,37643,5,2,0:0:0:0:
133,151,37889,5,2,1:2:0:0:
333,102,38053,5,2,1:2:0:0:
195,256,38218,1,0,1:2:0:0:
230,84,38382,5,10,0:0:0:0:
293,273,38546,1,8,0:2:0:0:
136,160,38710,6,0,P|96:162|28:158,1,90,6|0,1:2|1:2,0:0:0:0:
78,366,39039,5,8,0:0:0:0:
221,191,39203,1,0,1:2:0:0:
20,238,39367,5,2,1:2:0:0:
215,346,39532,1,0,1:2:0:0:
210,100,39696,5,8,0:0:0:0:
134,275,39860,1,0,1:2:0:0:
381,224,40025,5,2,1:2:0:0:
130,162,40271,5,2,0:0:0:0:
388,217,40517,5,2,1:2:0:0:
214,111,40682,5,2,1:2:0:0:
342,311,40846,1,0,1:2:0:0:
141,269,41010,1,10,0:0:0:0:
292,186,41174,1,8,0:2:0:0:
275,373,41339,6,0,P|256:338|266:262,1,90,4|2,1:2|1:2,0:0:0:0:
369,156,41667,2,0,P|416:189|507:200,1,135,10|0,0:0|0:0,0:0:0:0:
491,202,41996,2,0,L|481:98,1,90,2|0,1:2|1:2,0:0:0:0:
421,11,42324,5,10,0:0:0:0:
287,113,42489,2,0,P|241:108|183:108,1,90,2|0,1:2|1:2,0:0:0:0:
362,172,42817,5,2,1:2:0:0:
228,25,42981,2,0,P|272:25|317:30,1,90,10|0,0:0|1:2,0:0:0:0:
445,133,43310,6,0,P|450:211|442:329,2,180,2|8|4,1:2|0:0|1:2,0:0:0:0:
490,67,44131,5,2,1:2:0:0:
341,199,44296,2,0,L|353:109,1,90,10|0,0:0|1:2,0:0:0:0:
159,8,44624,6,0,L|173:104,1,90,2|0,1:2|1:2,0:0:0:0:
124,188,44953,5,10,0:0:0:0:
267,77,45117,2,0,L|253:173,1,90,2|0,1:2|1:2,0:0:0:0:
331,280,45445,5,2,1:2:0:0:
158,351,45610,2,0,P|170:315|163:247,1,90,10|0,0:0|1:2,0:0:0:0:
328,151,45938,5,10,0:2:0:0:
255,312,46103,1,0,1:2:0:0:
184,151,46267,5,10,0:0:0:0:
255,327,46431,1,2,1:2:0:0:
255,119,46595,6,0,P|259:71|255:9,1,90,6|0,1:2|1:2,0:0:0:0:
434,190,46924,5,8,0:0:0:0:
330,221,47088,1,0,1:2:0:0:
379,12,47252,5,2,1:2:0:0:
457,85,47417,1,0,1:2:0:0:
252,148,47581,5,8,0:0:0:0:
276,43,47745,1,0,1:2:0:0:
363,118,47910,5,2,1:2:0:0:
155,75,48156,5,2,0:0:0:0:
370,125,48402,5,2,1:2:0:0:
143,187,48567,5,2,1:2:0:0:
273,54,48731,1,0,1:2:0:0:
314,220,48895,5,10,0:0:0:0:
165,85,49059,1,8,0:2:0:0:
140,281,49224,6,0,P|182:278|248:284,1,90,6|0,1:2|1:2,0:0:0:0:
401,325,49552,5,8,0:0:0:0:
277,380,49717,1,0,1:2:0:0:
298,138,49881,5,2,1:2:0:0:
420,241,50045,1,0,1:2:0:0:
195,333,50209,5,8,0:0:0:0:
208,174,50374,1,0,1:2:0:0:
296,265,50538,5,2,1:2:0:0:
70,304,50784,5,2,0:0:0:0:
305,269,51031,5,2,1:2:0:0:
128,124,51195,1,10,0:2:0:0:
194,321,51359,5,0,1:2:0:0:
279,185,51524,1,10,0:0:0:0:
131,246,51688,1,8,0:2:0:0:
255,384,51852,6,0,P|274:349|264:273,1,90,4|0,1:2|1:2,0:0:0:0:
134,135,52181,2,0,P|87:168|-4:179,1,135,10|0,0:0|0:0,0:0:0:0:
11,181,52509,2,0,L|23:270,1,90,2|0,1:2|1:2,0:0:0:0:
39,95,52838,5,10,0:0:0:0:
98,329,53002,2,0,L|110:240,1,90,2|0,1:2|1:2,0:0:0:0:
209,71,53331,2,0,L|221:160,1,90,2|8,1:2|0:0,0:0:0:0:
262,355,53659,6,0,P|328:345|350:223,2,180,2|2|10,1:2|1:2|0:2,0:0:0:0:
208,168,54480,1,4,1:2:0:0:
175,282,54645,5,0,1:2:0:0:
290,179,54809,2,0,L|278:268,1,90,10|0,0:0|1:2,0:0:0:0:
124,198,55137,6,0,P|183:182|213:164,1,90,2|0,1:2|1:2,0:0:0:0:
107,78,55466,5,10,0:0:0:0:
369,105,55630,2,0,P|310:89|280:71,1,90,2|8,1:2|0:0,0:0:0:0:
317,0,55959,5,2,1:2:0:0:
251,156,56123,2,0,L|252:255,1,90,8|2,0:0|1:2,0:0:0:0:
327,379,56452,5,8,0:0:0:0:
348,253,56616,1,2,1:2:0:0:
185,379,56780,5,8,0:0:0:0:
164,253,56944,1,2,1:2:0:0:
405,271,63680,6,0,P|367:267|317:256,1,72,0|0,1:2|0:0,0:0:0:0:
318,341,64008,2,0,P|356:345|406:356,1,72,2|0,1:3|0:0,0:0:0:0:
415,190,64337,5,0,1:2:0:0:
415,190,64501,2,0,P|377:186|327:175,1,72,0|2,0:0|1:3,0:0:0:0:
247,278,64829,6,0,P|205:239|205:148,2,144
257,59,65815,5,0,0:0:0:0:
107,271,66308,6,0,P|145:267|195:256,1,72,0|0,1:2|0:0,0:0:0:0:
194,341,66636,2,0,P|156:345|106:356,1,72,2|0,1:3|0:0,0:0:0:0:
97,190,66965,5,0,1:2:0:0:
97,190,67129,2,0,P|135:186|185:175,1,72,0|2,0:0|1:3,0:0:0:0:
265,278,67458,6,0,P|307:239|307:148,2,144
255,37,68443,5,2,0:3:0:0:
255,37,68526,1,2,0:3:0:0:
255,37,68608,1,2,1:3:0:0:
398,86,68936,6,0,P|433:98|493:107,1,72,0|0,1:2|0:0,0:0:0:0:
475,192,69265,2,0,P|440:180|380:171,1,72,2|0,1:3|0:0,0:0:0:0:
421,316,69593,5,0,1:2:0:0:
421,316,69758,2,0,P|456:327|491:334,1,72,0|2,0:0|1:3,0:0:0:0:
356,244,70086,6,0,P|286:261|235:320,1,144
180,132,70743,2,0,P|250:115|301:56,2,144
44,104,71565,6,0,P|79:97|114:86,1,72,0|0,1:2|0:0,0:0:0:0:
106,173,71893,2,0,P|71:180|36:191,1,72,2|0,1:3|0:0,0:0:0:0:
21,333,72222,5,0,1:2:0:0:
21,333,72386,2,0,P|56:326|91:316,1,72,0|2,0:0|1:3,0:0:0:0:
156,244,72714,6,0,P|226:261|277:320,1,144
359,126,73372,2,0,P|289:109|238:50,1,144,0|2,0:0|0:3,0:0:0:0:
164,79,73864,2,0,P|169:129|167:169,1,72,2|2,1:3|0:3,0:0:0:0:
285,256,74193,6,0,B|391:245|340:291|465:259,2,153.000002918243,2|8|2,1:2|0:2|1:2,0:0:0:0:
285,256,75014,1,0,0:0:0:0:
227,354,75179,2,0,P|211:325|213:271,1,76.5000014591217,8|2,0:2|0:0,0:0:0:0:
294,173,75507,5,2,1:2:0:0:
144,190,75671,2,0,P|181:195|219:203,1,76.5000014591217,2|8,0:0|0:2,0:0:0:0:
342,94,76000,2,0,P|304:88|266:80,1,76.5000014591217,2|0,0:0|1:2,0:0:0:0:
160,5,76328,5,2,0:0:0:0:
189,108,76493,1,10,0:2:0:0:
189,108,76821,6,0,B|90:94|134:143|9:111,2,153.000002918243,2|8|2,1:2|0:2|1:2,0:0:0:0:
189,108,77643,1,0,0:0:0:0:
252,6,77807,2,0,P|268:35|266:89,1,76.5000014591217,8|0,0:2|0:0,0:0:0:0:
343,196,78135,6,0,P|391:158|504:145,2,153.000002918243,2|8|2,1:2|0:2|1:2,0:0:0:0:
138,280,79121,2,0,P|102:263|50:262,1,76.5000014591217,8|0,0:2|0:0,0:0:0:0:
159,360,79450,5,2,1:2:0:0:
217,241,79614,2,0,P|213:195|223:108,1,114.750002188683
218,126,79942,2,0,P|182:143|130:144,1,76.5000014591217,2|0,0:0|1:2,0:0:0:0:
101,82,80271,1,0,0:0:0:0:
146,19,80435,1,10,0:2:0:0:
301,89,80599,6,0,P|304:134|296:193,1,76.5000014591217,2|0,0:0|1:2,0:0:0:0:
215,207,80928,2,0,P|212:168|215:130,1,76.5000014591217,2|8,0:0|0:2,0:0:0:0:
319,242,81257,2,0,P|322:287|314:346,1,76.5000014591217,2|0,0:0|1:2,0:0:0:0:
128,237,81749,6,0,P|125:198|128:160,1,76.5000014591217,8|0,0:2|0:0,0:0:0:0:
75,98,82078,1,2,1:2:0:0:
199,36,82242,6,0,P|248:61|361:60,2,153.000002918243,0|2|2,0:0|0:0|0:0,0:0:0:0:
231,288,83228,2,0,P|268:267|321:265,1,76.5000014591217,2|0,0:0|1:2,0:0:0:0:
408,339,83556,6,0,L|419:251,1,76.5000014591217,2|8,0:0|0:2,0:0:0:0:
371,121,83885,2,0,L|361:196,1,76.5000014591217,2|0,0:0|1:2,0:0:0:0:
141,358,84378,6,0,L|118:206,1,153.000002918243,8|2,0:2|0:0,0:0:0:0:
274,11,87330,5,2,1:3:0:0:
335,111,87658,1,2,1:3:0:0:
173,59,87987,1,2,1:3:0:0:
234,159,88150,2,0,L|242:107,1,31.4999990386963
170,67,88315,6,0,P|142:79|97:87,1,62.9999980773926,2|2,1:3|0:0,0:0:0:0:
155,207,88644,5,2,1:3:0:0:
155,207,88808,1,0,0:0:0:0:
256,7,89136,5,2,0:0:0:0:
357,207,89464,5,2,0:3:0:0:
357,207,89628,1,2,1:3:0:0:
238,373,89958,5,2,1:3:0:0:
177,273,90286,1,2,1:3:0:0:
339,325,90614,1,2,1:3:0:0:
278,225,90778,2,0,L|270:277,1,31.4999990386963
342,317,90943,6,0,P|370:305|415:297,1,62.9999980773926,2|2,1:3|0:0,0:0:0:0:
406,117,91272,5,2,1:3:0:0:
364,180,91436,1,2,0:0:0:0:
297,149,91600,1,2,1:3:0:0:
297,149,91765,1,2,0:0:0:0:
106,117,92093,5,2,0:0:0:0:
148,180,92257,1,2,1:3:0:0:
215,149,92421,1,2,0:3:0:0:
260,82,92586,5,2,1:3:0:0:
256,220,92915,1,2,1:3:0:0:
245,70,93244,5,2,1:3:0:0:
266,234,93572,1,2,1:3:0:0:
275,45,93900,5,2,1:3:0:0:
243,260,94229,1,2,1:3:0:0:
226,16,94558,5,2,1:3:0:0:
255,129,94722,5,2,0:3:0:0:
326,209,94886,5,2,1:3:0:0:
411,225,95051,5,0,0:0:0:0:
255,368,95215,5,2,0:2:0:0:
255,368,97186,5,8,0:0:0:0:
229,191,97350,1,0,1:2:0:0:
336,262,97514,5,8,0:0:0:0:
144,293,97679,1,0,1:2:0:0:
325,152,97850,6,0,P|371:155|419:153,1,94.499997116089,6|0,1:2|1:2,0:0:0:0:
193,90,98177,5,8,0:0:0:0:
231,183,98342,1,0,1:2:0:0:
357,66,98506,5,2,1:2:0:0:
263,26,98670,1,0,1:2:0:0:
299,237,98835,5,8,0:0:0:0:
416,126,98999,1,0,1:2:0:0:
283,117,99164,5,2,1:2:0:0:
365,319,99410,5,2,0:0:0:0:
276,111,99656,5,2,1:2:0:0:
202,298,99820,5,2,1:2:0:0:
405,223,99984,1,0,1:2:0:0:
239,209,100149,5,10,0:0:0:0:
356,309,100313,1,8,0:2:0:0:
196,384,100478,6,0,P|190:336|195:280,1,94.499997116089,6|0,1:2|1:2,0:0:0:0:
269,117,100806,5,8,0:0:0:0:
92,194,100971,1,0,1:2:0:0:
119,109,101134,5,2,1:2:0:0:
233,202,101298,1,0,1:2:0:0:
151,253,101463,5,8,0:0:0:0:
199,59,101628,1,0,1:2:0:0:
321,229,101792,5,2,1:2:0:0:
110,100,102037,5,2,0:0:0:0:
327,239,102284,5,2,1:2:0:0:
145,261,102448,5,2,1:2:0:0:
269,118,102612,1,0,1:2:0:0:
242,318,102777,5,10,0:0:0:0:
176,157,102941,1,8,0:2:0:0:
333,335,103106,6,0,P|376:327|420:282,1,90,4|2,1:2|1:2,0:0:0:0:
357,89,103435,2,0,P|362:161|358:237,1,135,10|0,0:0|0:0,0:0:0:0:
359,223,103763,6,0,P|416:210|469:212,1,90,2|0,1:2|1:2,0:0:0:0:
462,78,104092,5,10,0:0:0:0:
310,154,104256,2,0,P|252:166|199:164,1,90,2|0,1:2|1:2,0:0:0:0:
112,70,104585,5,2,1:2:0:0:
228,6,104749,2,0,P|206:45|193:88,1,90,10|0,0:0|1:2,0:0:0:0:
160,240,105077,6,0,P|112:178|-4:163,2,180,2|8|4,1:2|0:0|1:2,0:0:0:0:
243,241,105899,5,2,1:2:0:0:
89,340,106064,2,0,P|67:296|74:244,1,90,10|0,0:0|1:2,0:0:0:0:
178,139,106392,6,0,L|160:238,1,90,2|0,1:2|1:2,0:0:0:0:
218,331,106720,5,10,0:0:0:0:
326,193,106884,2,0,L|344:292,1,90,2|0,1:2|1:2,0:0:0:0:
243,231,107212,5,2,1:2:0:0:
412,345,107377,2,0,P|434:301|427:249,1,90,10|0,0:0|1:2,0:0:0:0:
261,127,107706,5,10,0:2:0:0:
342,281,107870,1,0,1:2:0:0:
343,89,108034,5,10,0:0:0:0:
240,242,108198,1,2,1:2:0:0:
173,40,108363,6,0,P|212:32|276:38,1,90,6|0,1:2|1:2,0:0:0:0:
418,180,108691,5,8,0:0:0:0:
315,204,108856,1,0,1:2:0:0:
364,3,109020,5,2,1:2:0:0:
442,76,109184,1,0,1:2:0:0:
237,139,109347,5,8,0:0:0:0:
261,34,109512,1,0,1:2:0:0:
341,106,109677,5,2,1:2:0:0:
142,126,109923,5,2,0:0:0:0:
351,114,110170,5,2,1:2:0:0:
107,46,110334,5,2,1:2:0:0:
256,146,110498,1,0,1:2:0:0:
97,197,110662,5,10,0:0:0:0:
211,56,110826,1,8,0:2:0:0:
338,213,110991,6,0,P|341:255|335:321,1,90,6|0,1:2|1:2,0:0:0:0:
133,384,111319,5,8,0:0:0:0:
191,196,111484,1,0,1:2:0:0:
251,263,111648,5,2,1:2:0:0:
69,313,111813,1,0,1:2:0:0:
91,220,111977,5,8,0:0:0:0:
230,364,112141,1,0,1:2:0:0:
62,322,112305,5,2,1:2:0:0:
258,250,112551,5,2,0:0:0:0:
49,317,112798,5,2,1:2:0:0:
239,373,112962,1,10,0:2:0:0:
214,184,113126,5,0,1:2:0:0:
159,354,113291,1,10,0:0:0:0:
338,280,113455,1,8,0:2:0:0:
125,184,113620,6,0,P|130:228|131:296,1,90,4|0,1:2|1:2,0:0:0:0:
303,142,113947,2,0,P|267:99|176:93,1,135,10|0,0:0|0:0,0:0:0:0:
193,88,114276,6,0,P|188:32|191:-11,1,90,2|0,1:2|1:2,0:0:0:0:
228,196,114604,5,10,0:0:0:0:
107,103,114769,2,0,P|51:108|8:105,1,90,2|0,1:2|1:2,0:0:0:0:
131,182,115097,5,2,1:2:0:0:
280,56,115262,2,0,P|336:61|379:58,1,90,8|2,0:0|1:2,0:0:0:0:
459,204,115591,6,0,P|474:120|468:19,2,180,0|8|4,1:2|0:0|1:2,0:0:0:0:
396,90,116411,5,0,1:2:0:0:
399,287,116576,2,0,P|443:285|488:290,1,90,10|0,0:0|1:2,0:0:0:0:
325,141,116905,6,0,P|280:145|235:144,1,90,2|0,1:2|1:2,0:0:0:0:
385,203,117233,5,10,0:0:0:0:
294,332,117397,2,0,P|295:287|290:242,1,90,2|8,1:2|0:0,0:0:0:0:
154,74,117726,5,2,1:2:0:0:
111,227,117890,2,0,P|155:222|200:223,1,90,8|2,0:0|1:2,0:0:0:0:
344,80,118219,5,8,0:0:0:0:
344,80,118301,1,8,0:0:0:0:
344,80,118383,2,0,L|337:127,1,45,10|8,0:0|0:0,0:0:0:0:
252,161,118548,5,8,0:0:0:0:
252,161,118630,1,8,0:0:0:0:
252,161,118712,2,0,L|242:112,1,45,10|8,0:0|0:0,0:0:0:0:
255,17,118877,5,0,1:0:0:0:
255,17,119205,1,0,0:0:0:0:
