osu file format v14

[General]
AudioFilename: audio.mp3
AudioLeadIn: 0
PreviewTime: 84134
Countdown: 0
SampleSet: Normal
StackLeniency: 0.7
Mode: 1
LetterboxInBreaks: 0
WidescreenStoryboard: 1

[Editor]
DistanceSpacing: 2.8
BeatDivisor: 4
GridSize: 32
TimelineZoom: 1

[Metadata]
Title:minnesota is a place that exists
TitleUnicode:minnesota is a place that exists
Artist:glaive
ArtistUnicode:glaive
Creator:Cryceptio
Version:tsukani's kantan
Source:
Tags:english hyper pop hyper-pop hyperpop G1* tsukani jeshuan fynbi
BeatmapID:3808538
BeatmapSetID:1798956

[Difficulty]
HPDrainRate:8
CircleSize:2
OverallDifficulty:3
ApproachRate:5
SliderMultiplier:1.4
SliderTickRate:1

[Events]
//Background and Video events
0,0,"mimnesotabg.jpg",0,0
//Break Periods
//Storyboard Layer 0 (Background)
//Storyboard Layer 1 (Fail)
//Storyboard Layer 2 (Pass)
//Storyboard Layer 3 (Foreground)
//Storyboard Layer 4 (Overlay)
//Storyboard Sound Samples

[TimingPoints]
134,375,4,1,0,70,1,0
134,-100,4,1,0,70,0,0
24080,-100,4,1,0,90,0,0
28580,-100,4,1,0,70,0,0
30080,-100,4,1,0,90,0,0
34580,-100,4,1,0,70,0,0
36080,-100,4,1,0,90,0,0
40580,-100,4,1,0,70,0,0
42080,-100,4,1,0,90,0,0
46580,-100,4,1,0,70,0,0
49580,-100,4,1,0,90,0,0
49634,375,4,1,0,90,1,1
61580,-100,4,1,0,50,0,1
61634,-100,4,1,0,50,0,0
73580,-100,4,1,0,70,0,0
85580,-100,4,1,0,90,0,0
90080,-100,4,1,0,70,0,0
91580,-100,4,1,0,90,0,0
96080,-100,4,1,0,70,0,0
97580,-100,4,1,0,90,0,0
102080,-100,4,1,0,70,0,0
103580,-100,4,1,0,90,0,0
108080,-100,4,1,0,70,0,0
109580,-100,4,1,0,90,0,0
109634,-100,4,1,0,90,0,1
126830,-100,4,1,0,70,0,1
126884,-100,4,1,0,70,0,0
127580,-100,4,1,0,90,0,0
127634,-100,4,1,0,90,0,1
133580,-100,4,1,0,50,0,1
133634,-100,4,1,0,50,0,0

[HitObjects]
256,192,12134,5,2,0:0:0:0:
256,192,13634,1,2,0:0:0:0:
256,192,14384,1,0,0:0:0:0:
256,192,15134,1,2,0:0:0:0:
256,192,16634,1,2,0:0:0:0:
256,192,18134,1,2,0:0:0:0:
256,192,19634,1,2,0:0:0:0:
256,192,20384,1,0,0:0:0:0:
256,192,21134,1,2,0:0:0:0:
256,192,22634,1,0,0:0:0:0:
256,192,24134,1,6,0:0:0:0:
256,192,24696,1,2,0:0:0:0:
256,192,25071,1,0,0:0:0:0:
256,192,25446,1,2,0:0:0:0:
256,192,26384,1,2,0:0:0:0:
256,192,26946,1,0,0:0:0:0:
256,192,27321,1,2,0:0:0:0:
256,192,27696,1,2,0:0:0:0:
256,192,28071,1,2,0:0:0:0:
256,192,28446,1,0,0:0:0:0:
256,192,30134,1,6,0:0:0:0:
256,192,30696,1,0,0:0:0:0:
256,192,31071,1,0,0:0:0:0:
256,192,31446,1,2,0:0:0:0:
256,192,32196,1,0,0:0:0:0:
256,192,32571,1,2,0:0:0:0:
256,192,33134,1,2,0:0:0:0:
256,192,33696,1,2,0:0:0:0:
256,192,34071,1,0,0:0:0:0:
256,192,34446,1,2,0:0:0:0:
256,192,36134,1,6,0:0:0:0:
256,192,36696,1,0,0:0:0:0:
256,192,37071,1,0,0:0:0:0:
256,192,37446,1,2,0:0:0:0:
256,192,37821,1,2,0:0:0:0:
256,192,38196,1,0,0:0:0:0:
256,192,39134,1,2,0:0:0:0:
256,192,39696,1,0,0:0:0:0:
256,192,40071,1,2,0:0:0:0:
256,192,40446,1,0,0:0:0:0:
256,192,42134,1,6,0:0:0:0:
256,192,42696,1,0,0:0:0:0:
256,192,43071,1,0,0:0:0:0:
256,192,43446,1,2,0:0:0:0:
256,192,44196,1,0,0:0:0:0:
256,192,44571,1,2,0:0:0:0:
256,192,45134,1,2,0:0:0:0:
256,192,45696,1,2,0:0:0:0:
256,192,46071,1,0,0:0:0:0:
256,192,46446,1,2,0:0:0:0:
256,192,48134,1,2,0:0:0:0:
256,192,48509,1,2,0:0:0:0:
256,192,48884,1,0,0:0:0:0:
256,192,49634,1,6,0:0:0:0:
256,192,50196,1,2,0:0:0:0:
256,192,50571,1,0,0:0:0:0:
256,192,50946,1,0,0:0:0:0:
256,192,51884,1,2,0:0:0:0:
256,192,52259,1,0,0:0:0:0:
256,192,52634,1,2,0:0:0:0:
256,192,53196,1,2,0:0:0:0:
256,192,53571,1,2,0:0:0:0:
256,192,53946,1,0,0:0:0:0:
256,192,55634,1,2,0:0:0:0:
256,192,56196,1,2,0:0:0:0:
256,192,56571,1,2,0:0:0:0:
256,192,56946,1,0,0:0:0:0:
256,192,57884,1,2,0:0:0:0:
256,192,58259,1,0,0:0:0:0:
256,192,58634,1,2,0:0:0:0:
256,192,59196,1,2,0:0:0:0:
256,192,59571,1,0,0:0:0:0:
256,192,59946,1,0,0:0:0:0:
256,192,60321,1,2,0:0:0:0:
256,192,60884,1,2,0:0:0:0:
256,192,61259,1,0,0:0:0:0:
256,192,61634,1,2,0:0:0:0:
256,192,62384,1,0,0:0:0:0:
256,192,63134,1,0,0:0:0:0:
256,192,64634,1,2,0:0:0:0:
256,192,65384,1,2,0:0:0:0:
256,192,66134,1,0,0:0:0:0:
256,192,67634,1,2,0:0:0:0:
256,192,68384,1,0,0:0:0:0:
256,192,69134,1,0,0:0:0:0:
256,192,70634,1,2,0:0:0:0:
256,192,71384,1,2,0:0:0:0:
256,192,72134,1,0,0:0:0:0:
256,192,73634,1,2,0:0:0:0:
256,192,74384,1,0,0:0:0:0:
256,192,74946,1,2,0:0:0:0:
256,192,75884,1,2,0:0:0:0:
256,192,76259,1,0,0:0:0:0:
256,192,76634,1,2,0:0:0:0:
256,192,77384,1,0,0:0:0:0:
256,192,77946,1,2,0:0:0:0:
256,192,79634,1,2,0:0:0:0:
256,192,80384,1,0,0:0:0:0:
256,192,80946,1,2,0:0:0:0:
256,192,81884,1,0,0:0:0:0:
256,192,82259,1,2,0:0:0:0:
256,192,82634,1,2,0:0:0:0:
256,192,83384,1,0,0:0:0:0:
256,192,83946,1,2,0:0:0:0:
256,192,85634,1,6,0:0:0:0:
256,192,86196,1,2,0:0:0:0:
256,192,86571,1,0,0:0:0:0:
256,192,86946,1,2,0:0:0:0:
256,192,87884,1,2,0:0:0:0:
256,192,88446,1,0,0:0:0:0:
256,192,88821,1,2,0:0:0:0:
256,192,89196,1,2,0:0:0:0:
256,192,89571,1,2,0:0:0:0:
256,192,89946,1,0,0:0:0:0:
256,192,91634,1,6,0:0:0:0:
256,192,92196,1,0,0:0:0:0:
256,192,92571,1,0,0:0:0:0:
256,192,92946,1,2,0:0:0:0:
256,192,93696,1,0,0:0:0:0:
256,192,94071,1,2,0:0:0:0:
256,192,94634,1,2,0:0:0:0:
256,192,95196,1,2,0:0:0:0:
256,192,95571,1,0,0:0:0:0:
256,192,95946,1,2,0:0:0:0:
256,192,97634,1,6,0:0:0:0:
256,192,98196,1,0,0:0:0:0:
256,192,98571,1,0,0:0:0:0:
256,192,98946,1,2,0:0:0:0:
256,192,99321,1,2,0:0:0:0:
256,192,99696,1,0,0:0:0:0:
256,192,100634,1,2,0:0:0:0:
256,192,101196,1,0,0:0:0:0:
256,192,101571,1,2,0:0:0:0:
256,192,101946,1,0,0:0:0:0:
256,192,103634,1,6,0:0:0:0:
256,192,104196,1,0,0:0:0:0:
256,192,104571,1,0,0:0:0:0:
256,192,104946,1,2,0:0:0:0:
256,192,105696,1,0,0:0:0:0:
256,192,106071,1,2,0:0:0:0:
256,192,106634,1,2,0:0:0:0:
256,192,107196,1,2,0:0:0:0:
256,192,107571,1,0,0:0:0:0:
256,192,107946,1,2,0:0:0:0:
256,192,108884,1,0,0:0:0:0:
256,192,109634,1,6,0:0:0:0:
256,192,110196,1,2,0:0:0:0:
256,192,110571,1,0,0:0:0:0:
256,192,110946,1,0,0:0:0:0:
256,192,111884,1,2,0:0:0:0:
256,192,112259,1,0,0:0:0:0:
256,192,112634,1,2,0:0:0:0:
256,192,113196,1,2,0:0:0:0:
256,192,113571,1,2,0:0:0:0:
256,192,113946,1,0,0:0:0:0:
256,192,115634,1,2,0:0:0:0:
256,192,116196,1,2,0:0:0:0:
256,192,116571,1,2,0:0:0:0:
256,192,116946,1,0,0:0:0:0:
256,192,117884,1,2,0:0:0:0:
256,192,118259,1,0,0:0:0:0:
256,192,118634,1,2,0:0:0:0:
256,192,119196,1,2,0:0:0:0:
256,192,119571,1,0,0:0:0:0:
256,192,119946,1,0,0:0:0:0:
256,192,120321,1,2,0:0:0:0:
256,192,121634,1,6,0:0:0:0:
256,192,122196,1,2,0:0:0:0:
256,192,122571,1,0,0:0:0:0:
256,192,122946,1,0,0:0:0:0:
256,192,123884,1,2,0:0:0:0:
256,192,124259,1,0,0:0:0:0:
256,192,124634,1,2,0:0:0:0:
256,192,125196,1,2,0:0:0:0:
256,192,125571,1,2,0:0:0:0:
256,192,125946,1,0,0:0:0:0:
256,192,126321,1,2,0:0:0:0:
256,192,127634,1,6,0:0:0:0:
256,192,128196,1,2,0:0:0:0:
256,192,128571,1,0,0:0:0:0:
256,192,128946,1,0,0:0:0:0:
256,192,129884,1,2,0:0:0:0:
256,192,130259,1,0,0:0:0:0:
256,192,130634,1,2,0:0:0:0:
256,192,131196,1,2,0:0:0:0:
256,192,131571,1,2,0:0:0:0:
256,192,131946,1,0,0:0:0:0:
256,192,132884,1,2,0:0:0:0:
256,192,133446,1,2,0:0:0:0:
