osu file format v14

[General]
AudioFilename: audio.mp3
AudioLeadIn: 0
PreviewTime: 84134
Countdown: 0
SampleSet: Normal
StackLeniency: 0.7
Mode: 1
LetterboxInBreaks: 0
WidescreenStoryboard: 1

[Editor]
DistanceSpacing: 2.8
BeatDivisor: 4
GridSize: 32
TimelineZoom: 2

[Metadata]
Title:minnesota is a place that exists
TitleUnicode:minnesota is a place that exists
Artist:glaive
ArtistUnicode:glaive
Creator:Cryceptio
Version:tsukani's inner oni
Source:
Tags:english hyper pop hyper-pop hyperpop G1* tsukani jeshuan fynbi
BeatmapID:3854538
BeatmapSetID:1798956

[Difficulty]
HPDrainRate:5
CircleSize:2
OverallDifficulty:6.5
ApproachRate:5
SliderMultiplier:1.4
SliderTickRate:1

[Events]
//Background and Video events
0,0,"mimnesotabg.jpg",0,0
//Break Periods
//Storyboard Layer 0 (Background)
//Storyboard Layer 1 (Fail)
//Storyboard Layer 2 (Pass)
//Storyboard Layer 3 (Foreground)
//Storyboard Layer 4 (Overlay)
//Storyboard Sound Samples

[TimingPoints]
134,375,4,1,0,70,1,0
134,-90.90909,4,1,0,70,0,0
318,-92.02173,4,1,0,70,0,0
506,-93.16811,4,1,0,70,0,0
693,-94.33709,4,1,0,70,0,0
1068,-96.77197,4,1,0,70,0,0
1443,-99.33588,4,1,0,70,0,0
1631,-100.67306,4,1,0,70,0,0
1818,-102.03934,4,1,0,70,0,0
2193,-104.894066,4,1,0,70,0,0
2381,-106.3862,4,1,0,70,0,0
2568,-107.91312,4,1,0,70,0,0
2756,-109.49303,4,1,0,70,0,0
2943,-111.111115,4,1,0,70,0,0
3131,-90.9473,4,1,0,70,0,0
3318,-92.05828,4,1,0,70,0,0
3506,-93.202896,4,1,0,70,0,0
3693,-94.37001,4,1,0,70,0,0
4068,-96.80084,4,1,0,70,0,0
4443,-99.360214,4,1,0,70,0,0
4631,-100.69492,4,1,0,70,0,0
4818,-102.05859,4,1,0,70,0,0
5193,-104.90762,4,1,0,70,0,0
5381,-106.396645,4,1,0,70,0,0
5568,-107.92029,4,1,0,70,0,0
5756,-109.49672,4,1,0,70,0,0
5943,-111.111115,4,1,0,70,0,0
6131,-90.95604,4,1,0,70,0,0
6318,-92.066635,4,1,0,70,0,0
6506,-93.210846,4,1,0,70,0,0
6693,-94.37754,4,1,0,70,0,0
7068,-96.80744,4,1,0,70,0,0
7443,-99.365776,4,1,0,70,0,0
7631,-100.69992,4,1,0,70,0,0
7818,-102.062996,4,1,0,70,0,0
8193,-104.91072,4,1,0,70,0,0
8381,-106.39904,4,1,0,70,0,0
8568,-107.921936,4,1,0,70,0,0
8756,-109.49756,4,1,0,70,0,0
8943,-111.111115,4,1,0,70,0,0
9131,-90.92672,4,1,0,70,0,0
9318,-91.96881,4,1,0,70,0,0
9506,-93.04084,4,1,0,70,0,0
9693,-94.132256,4,1,0,70,0,0
10068,-96.39994,4,1,0,70,0,0
10443,-98.77957,4,1,0,70,0,0
10631,-100.01733,4,1,0,70,0,0
10818,-101.27966,4,1,0,70,0,0
11193,-103.90959,4,1,0,70,0,0
11381,-105.28014,4,1,0,70,0,0
11568,-106.67974,4,1,0,70,0,0
11756,-108.12485,4,1,0,70,0,0
11943,-109.89010989011,4,1,0,70,0,0
12131,-111.12757,4,1,0,70,0,0
24080,-80,4,1,0,90,0,0
24318,-80.670456,4,1,0,90,0,0
24506,-81.35593,4,1,0,90,0,0
24599,-81.69935,4,1,0,90,0,0
24693,-82.049416,4,1,0,90,0,0
24881,-82.75863,4,1,0,90,0,0
25068,-83.476326,4,1,0,90,0,0
25162,-83.84182,4,1,0,90,0,0
25256,-84.210526,4,1,0,90,0,0
25349,-84.578514,4,1,0,90,0,0
25443,-84.95374,4,1,0,90,0,0
25537,-85.33232,4,1,0,90,0,0
25631,-85.71428,4,1,0,90,0,0
25818,-86.484406,4,1,0,90,0,0
25912,-86.87678,4,1,0,90,0,0
26006,-87.272736,4,1,0,90,0,0
26193,-88.07124,4,1,0,90,0,0
26287,-88.47818,4,1,0,90,0,0
26381,-88.888885,4,1,0,90,0,0
26474,-89.299,4,1,0,90,0,0
26568,-89.717384,4,1,0,90,0,0
26756,-90.56603,4,1,0,90,0,0
26943,-91.42625,4,1,0,90,0,0
27037,-91.86485,4,1,0,90,0,0
27131,-92.3077,4,1,0,90,0,0
27318,-93.20148,4,1,0,90,0,0
27412,-93.65732,4,1,0,90,0,0
27506,-94.117645,4,1,0,90,0,0
27599,-94.57755,4,1,0,90,0,0
27693,-95.047005,4,1,0,90,0,0
27787,-95.52112,4,1,0,90,0,0
27881,-96,4,1,0,90,0,0
28068,-96.96709,4,1,0,90,0,0
28256,-97.95919,4,1,0,90,0,0
28443,-98.966354,4,1,0,90,0,0
28537,-99.48049,4,1,0,90,0,0
28580,-100,4,1,0,70,0,0
28818,-96.97753,4,1,0,70,0,0
29006,-94.117645,4,1,0,70,0,0
29193,-91.43554,4,1,0,70,0,0
29381,-88.888885,4,1,0,70,0,0
29474,-87.68085,4,1,0,70,0,0
29568,-86.49272,4,1,0,70,0,0
29756,-84.210526,4,1,0,70,0,0
29943,-82.05689,4,1,0,70,0,0
30037,-81.015396,4,1,0,70,0,0
30080,-80,4,1,0,90,0,0
30318,-80.670456,4,1,0,90,0,0
30506,-81.35593,4,1,0,90,0,0
30599,-81.69935,4,1,0,90,0,0
30693,-82.049416,4,1,0,90,0,0
30881,-82.75863,4,1,0,90,0,0
31068,-83.476326,4,1,0,90,0,0
31162,-83.84182,4,1,0,90,0,0
31256,-84.210526,4,1,0,90,0,0
31349,-84.578514,4,1,0,90,0,0
31443,-84.95374,4,1,0,90,0,0
31537,-85.33232,4,1,0,90,0,0
31631,-85.71428,4,1,0,90,0,0
31818,-86.484406,4,1,0,90,0,0
31912,-86.87678,4,1,0,90,0,0
32006,-87.272736,4,1,0,90,0,0
32193,-88.07124,4,1,0,90,0,0
32287,-88.47818,4,1,0,90,0,0
32381,-88.888885,4,1,0,90,0,0
32474,-89.299,4,1,0,90,0,0
32568,-89.717384,4,1,0,90,0,0
32756,-90.56603,4,1,0,90,0,0
32943,-91.42625,4,1,0,90,0,0
33037,-91.86485,4,1,0,90,0,0
33131,-92.3077,4,1,0,90,0,0
33318,-93.20148,4,1,0,90,0,0
33412,-93.65732,4,1,0,90,0,0
33506,-94.117645,4,1,0,90,0,0
33599,-94.57755,4,1,0,90,0,0
33693,-95.047005,4,1,0,90,0,0
33787,-95.52112,4,1,0,90,0,0
33881,-96,4,1,0,90,0,0
34068,-96.96709,4,1,0,90,0,0
34256,-97.95919,4,1,0,90,0,0
34443,-98.966354,4,1,0,90,0,0
34537,-99.48049,4,1,0,90,0,0
34580,-99.95013,4,1,0,70,0,0
34818,-96.93647,4,1,0,70,0,0
35006,-94.08451,4,1,0,70,0,0
35193,-91.40946,4,1,0,70,0,0
35381,-88.86918,4,1,0,70,0,0
35474,-87.66404,4,1,0,70,0,0
35568,-86.478714,4,1,0,70,0,0
35756,-84.20168,4,1,0,70,0,0
35943,-82.05268,4,1,0,70,0,0
36037,-81.013336,4,1,0,70,0,0
36080,-80.01066,4,1,0,90,0,0
36318,-80.68085,4,1,0,90,0,0
36506,-81.366035,4,1,0,90,0,0
36599,-81.70931,4,1,0,90,0,0
36693,-82.05923,4,1,0,90,0,0
36881,-82.76813,4,1,0,90,0,0
37068,-83.48552,4,1,0,90,0,0
37162,-83.850845,4,1,0,90,0,0
37256,-84.21938,4,1,0,90,0,0
37349,-84.587204,4,1,0,90,0,0
37443,-84.962265,4,1,0,90,0,0
37537,-85.34066,4,1,0,90,0,0
37631,-85.72244,4,1,0,90,0,0
37818,-86.492195,4,1,0,90,0,0
37912,-86.88438,4,1,0,90,0,0
38006,-87.28013,4,1,0,90,0,0
38193,-88.07823,4,1,0,90,0,0
38287,-88.48497,4,1,0,90,0,0
38381,-88.89546,4,1,0,90,0,0
38474,-89.305374,4,1,0,90,0,0
38568,-89.72354,4,1,0,90,0,0
38756,-90.57173,4,1,0,90,0,0
38943,-91.43147,4,1,0,90,0,0
39037,-91.869835,4,1,0,90,0,0
39131,-92.31242,4,1,0,90,0,0
39318,-93.205696,4,1,0,90,0,0
39412,-93.66127,4,1,0,90,0,0
39506,-94.121346,4,1,0,90,0,0
39599,-94.58098,4,1,0,90,0,0
39693,-95.050125,4,1,0,90,0,0
39787,-95.52398,4,1,0,90,0,0
39881,-96.002556,4,1,0,90,0,0
40068,-96.96905,4,1,0,90,0,0
40256,-97.96052,4,1,0,90,0,0
40443,-98.96703,4,1,0,90,0,0
40537,-99.480835,4,1,0,90,0,0
40580,-99.95013,4,1,0,70,0,0
40818,-96.93647,4,1,0,70,0,0
41006,-94.08451,4,1,0,70,0,0
41193,-91.40946,4,1,0,70,0,0
41381,-88.86918,4,1,0,70,0,0
41474,-87.66404,4,1,0,70,0,0
41568,-86.478714,4,1,0,70,0,0
41756,-84.20168,4,1,0,70,0,0
41943,-82.05268,4,1,0,70,0,0
42037,-81.013336,4,1,0,70,0,0
42080,-80.01066,4,1,0,90,0,0
42318,-80.68085,4,1,0,90,0,0
42506,-81.366035,4,1,0,90,0,0
42599,-81.70931,4,1,0,90,0,0
42693,-82.05923,4,1,0,90,0,0
42881,-82.76813,4,1,0,90,0,0
43068,-83.48552,4,1,0,90,0,0
43162,-83.850845,4,1,0,90,0,0
43256,-84.21938,4,1,0,90,0,0
43349,-84.587204,4,1,0,90,0,0
43443,-84.962265,4,1,0,90,0,0
43537,-85.34066,4,1,0,90,0,0
43631,-85.72244,4,1,0,90,0,0
43818,-86.492195,4,1,0,90,0,0
43912,-86.88438,4,1,0,90,0,0
44006,-87.28013,4,1,0,90,0,0
44193,-88.07823,4,1,0,90,0,0
44287,-88.48497,4,1,0,90,0,0
44381,-88.89546,4,1,0,90,0,0
44474,-89.305374,4,1,0,90,0,0
44568,-89.72354,4,1,0,90,0,0
44756,-90.57173,4,1,0,90,0,0
44943,-91.43147,4,1,0,90,0,0
45037,-91.869835,4,1,0,90,0,0
45131,-92.31242,4,1,0,90,0,0
45318,-93.205696,4,1,0,90,0,0
45412,-93.66127,4,1,0,90,0,0
45506,-94.121346,4,1,0,90,0,0
45599,-94.58098,4,1,0,90,0,0
45693,-95.050125,4,1,0,90,0,0
45787,-95.52398,4,1,0,90,0,0
45881,-96.002556,4,1,0,90,0,0
46068,-96.96905,4,1,0,90,0,0
46256,-97.96052,4,1,0,90,0,0
46443,-98.96703,4,1,0,90,0,0
46537,-99.480835,4,1,0,90,0,0
46580,-100,4,1,0,70,0,0
48080,-90.9090909090909,4,1,0,70,0,0
48879,-83.33333,4,1,0,70,0,0
48972,-81.644516,4,1,0,70,0,0
49066,-80.00569,4,1,0,70,0,0
49160,-78.43137,4,1,0,70,0,0
49254,-76.91781,4,1,0,70,0,0
49347,-75.47677,4,1,0,70,0,0
49441,-74.07407,4,1,0,70,0,0
49580,-66.6666666666667,4,1,0,90,0,0
49634,375,4,1,0,90,1,1
49634,-66.6666666666667,4,1,0,90,0,1
60881,-66.666664,4,1,0,90,0,1
60974,-67.50371,4,1,0,90,0,1
61068,-68.37139,4,1,0,90,0,1
61162,-69.261665,4,1,0,90,0,1
61256,-70.17544,4,1,0,90,0,1
61349,-71.10353,4,1,0,90,0,1
61443,-72.06687,4,1,0,90,0,1
61537,-73.056694,4,1,0,90,0,1
61580,-74.0740740740741,4,1,0,50,0,1
61634,-74.07407,4,1,0,50,0,0
62382,-111.111111111111,4,1,0,50,0,0
73580,-95.2380952380952,4,1,0,70,0,0
85580,-80,4,1,0,90,0,0
85818,-80.670456,4,1,0,90,0,0
86006,-81.35593,4,1,0,90,0,0
86099,-81.69935,4,1,0,90,0,0
86193,-82.049416,4,1,0,90,0,0
86381,-82.75863,4,1,0,90,0,0
86568,-83.476326,4,1,0,90,0,0
86662,-83.84182,4,1,0,90,0,0
86756,-84.210526,4,1,0,90,0,0
86849,-84.578514,4,1,0,90,0,0
86943,-84.95374,4,1,0,90,0,0
87037,-85.33232,4,1,0,90,0,0
87131,-85.71428,4,1,0,90,0,0
87318,-86.484406,4,1,0,90,0,0
87412,-86.87678,4,1,0,90,0,0
87506,-87.272736,4,1,0,90,0,0
87693,-88.07124,4,1,0,90,0,0
87787,-88.47818,4,1,0,90,0,0
87881,-88.888885,4,1,0,90,0,0
87974,-89.299,4,1,0,90,0,0
88068,-89.717384,4,1,0,90,0,0
88256,-90.56603,4,1,0,90,0,0
88443,-91.42625,4,1,0,90,0,0
88537,-91.86485,4,1,0,90,0,0
88631,-92.3077,4,1,0,90,0,0
88818,-93.20148,4,1,0,90,0,0
88912,-93.65732,4,1,0,90,0,0
89006,-94.117645,4,1,0,90,0,0
89099,-94.57755,4,1,0,90,0,0
89193,-95.047005,4,1,0,90,0,0
89287,-95.52112,4,1,0,90,0,0
89381,-96,4,1,0,90,0,0
89568,-96.96709,4,1,0,90,0,0
89756,-97.95919,4,1,0,90,0,0
89943,-98.966354,4,1,0,90,0,0
90037,-99.48049,4,1,0,90,0,0
90080,-99.95013,4,1,0,70,0,0
90318,-96.93647,4,1,0,70,0,0
90506,-94.08451,4,1,0,70,0,0
90693,-91.40946,4,1,0,70,0,0
90881,-88.86918,4,1,0,70,0,0
90974,-87.66404,4,1,0,70,0,0
91068,-86.478714,4,1,0,70,0,0
91256,-84.20168,4,1,0,70,0,0
91443,-82.05268,4,1,0,70,0,0
91537,-81.013336,4,1,0,70,0,0
91580,-80.01066,4,1,0,90,0,0
91818,-80.68085,4,1,0,90,0,0
92006,-81.366035,4,1,0,90,0,0
92099,-81.70931,4,1,0,90,0,0
92193,-82.05923,4,1,0,90,0,0
92381,-82.76813,4,1,0,90,0,0
92568,-83.48552,4,1,0,90,0,0
92662,-83.850845,4,1,0,90,0,0
92756,-84.21938,4,1,0,90,0,0
92849,-84.587204,4,1,0,90,0,0
92943,-84.962265,4,1,0,90,0,0
93037,-85.34066,4,1,0,90,0,0
93131,-85.72244,4,1,0,90,0,0
93318,-86.492195,4,1,0,90,0,0
93412,-86.88438,4,1,0,90,0,0
93506,-87.28013,4,1,0,90,0,0
93693,-88.07823,4,1,0,90,0,0
93787,-88.48497,4,1,0,90,0,0
93881,-88.89546,4,1,0,90,0,0
93974,-89.305374,4,1,0,90,0,0
94068,-89.72354,4,1,0,90,0,0
94256,-90.57173,4,1,0,90,0,0
94443,-91.43147,4,1,0,90,0,0
94537,-91.869835,4,1,0,90,0,0
94631,-92.31242,4,1,0,90,0,0
94818,-93.205696,4,1,0,90,0,0
94912,-93.66127,4,1,0,90,0,0
95006,-94.121346,4,1,0,90,0,0
95099,-94.58098,4,1,0,90,0,0
95193,-95.050125,4,1,0,90,0,0
95287,-95.52398,4,1,0,90,0,0
95381,-96.002556,4,1,0,90,0,0
95568,-96.96905,4,1,0,90,0,0
95756,-97.96052,4,1,0,90,0,0
95943,-98.96703,4,1,0,90,0,0
96037,-99.480835,4,1,0,90,0,0
96080,-99.95013,4,1,0,70,0,0
96318,-96.93647,4,1,0,70,0,0
96506,-94.08451,4,1,0,70,0,0
96693,-91.40946,4,1,0,70,0,0
96881,-88.86918,4,1,0,70,0,0
96974,-87.66404,4,1,0,70,0,0
97068,-86.478714,4,1,0,70,0,0
97256,-84.20168,4,1,0,70,0,0
97443,-82.05268,4,1,0,70,0,0
97537,-81.013336,4,1,0,70,0,0
97580,-80.01066,4,1,0,90,0,0
97818,-80.68085,4,1,0,90,0,0
98006,-81.366035,4,1,0,90,0,0
98099,-81.70931,4,1,0,90,0,0
98193,-82.05923,4,1,0,90,0,0
98381,-82.76813,4,1,0,90,0,0
98568,-83.48552,4,1,0,90,0,0
98662,-83.850845,4,1,0,90,0,0
98756,-84.21938,4,1,0,90,0,0
98849,-84.587204,4,1,0,90,0,0
98943,-84.962265,4,1,0,90,0,0
99037,-85.34066,4,1,0,90,0,0
99131,-85.72244,4,1,0,90,0,0
99318,-86.492195,4,1,0,90,0,0
99412,-86.88438,4,1,0,90,0,0
99506,-87.28013,4,1,0,90,0,0
99693,-88.07823,4,1,0,90,0,0
99787,-88.48497,4,1,0,90,0,0
99881,-88.89546,4,1,0,90,0,0
99974,-89.305374,4,1,0,90,0,0
100068,-89.72354,4,1,0,90,0,0
100256,-90.57173,4,1,0,90,0,0
100443,-91.43147,4,1,0,90,0,0
100537,-91.869835,4,1,0,90,0,0
100631,-92.31242,4,1,0,90,0,0
100818,-93.205696,4,1,0,90,0,0
100912,-93.66127,4,1,0,90,0,0
101006,-94.121346,4,1,0,90,0,0
101099,-94.58098,4,1,0,90,0,0
101193,-95.050125,4,1,0,90,0,0
101287,-95.52398,4,1,0,90,0,0
101381,-96.002556,4,1,0,90,0,0
101568,-96.96905,4,1,0,90,0,0
101756,-97.96052,4,1,0,90,0,0
101943,-98.96703,4,1,0,90,0,0
102037,-99.480835,4,1,0,90,0,0
102080,-99.95003,4,1,0,70,0,0
102318,-96.930534,4,1,0,70,0,0
102506,-94.07338,4,1,0,70,0,0
102693,-91.39376,4,1,0,70,0,0
102881,-88.8494,4,1,0,70,0,0
102974,-87.64242,4,1,0,70,0,0
103068,-86.45533,4,1,0,70,0,0
103256,-84.17509,4,1,0,70,0,0
103443,-82.02324,4,1,0,70,0,0
103537,-80.98259,4,1,0,70,0,0
103580,-79.96802,4,1,0,90,0,0
103818,-80.670456,4,1,0,90,0,0
104006,-81.35593,4,1,0,90,0,0
104099,-81.69935,4,1,0,90,0,0
104193,-82.049416,4,1,0,90,0,0
104381,-82.75863,4,1,0,90,0,0
104568,-83.476326,4,1,0,90,0,0
104662,-83.84182,4,1,0,90,0,0
104756,-84.210526,4,1,0,90,0,0
104849,-84.578514,4,1,0,90,0,0
104943,-84.95374,4,1,0,90,0,0
105037,-85.33232,4,1,0,90,0,0
105131,-85.71428,4,1,0,90,0,0
105318,-86.484406,4,1,0,90,0,0
105412,-86.87678,4,1,0,90,0,0
105506,-87.272736,4,1,0,90,0,0
105693,-88.07124,4,1,0,90,0,0
105787,-88.47818,4,1,0,90,0,0
105881,-88.888885,4,1,0,90,0,0
105974,-89.299,4,1,0,90,0,0
106068,-89.717384,4,1,0,90,0,0
106256,-90.56603,4,1,0,90,0,0
106443,-91.42625,4,1,0,90,0,0
106537,-91.86485,4,1,0,90,0,0
106631,-92.3077,4,1,0,90,0,0
106818,-93.20148,4,1,0,90,0,0
106912,-93.65732,4,1,0,90,0,0
107006,-94.117645,4,1,0,90,0,0
107099,-94.57755,4,1,0,90,0,0
107193,-95.047005,4,1,0,90,0,0
107287,-95.52112,4,1,0,90,0,0
107381,-96,4,1,0,90,0,0
107568,-96.96709,4,1,0,90,0,0
107756,-97.95919,4,1,0,90,0,0
107943,-98.966354,4,1,0,90,0,0
108080,-90.9090909090909,4,1,0,70,0,0
108879,-83.33333,4,1,0,70,0,0
108972,-81.644516,4,1,0,70,0,0
109066,-80.00569,4,1,0,70,0,0
109160,-78.43137,4,1,0,70,0,0
109254,-76.91781,4,1,0,70,0,0
109347,-75.47677,4,1,0,70,0,0
109441,-74.07407,4,1,0,70,0,0
109580,-66.6666666666667,4,1,0,90,0,0
109634,-66.6666666666667,4,1,0,90,0,1
109819,-74.0740740740741,4,1,0,90,0,1
126830,-80,4,1,0,70,0,1
126884,-80,4,1,0,70,0,0
126972,-81.61933,4,1,0,70,0,0
127066,-83.32407,4,1,0,70,0,0
127160,-85.101555,4,1,0,70,0,0
127254,-66.6666666666667,4,1,0,70,0,0
127580,-66.6666666666667,4,1,0,90,0,0
127634,-66.6666666666667,4,1,0,90,0,1
127819,-74.0740740740741,4,1,0,90,0,1
133580,-74.0740740740741,4,1,0,50,0,1
133634,-74.0740740740741,4,1,0,50,0,0

[HitObjects]
256,192,134,5,0,0:0:0:0:
256,192,321,1,0,0:0:0:0:
256,192,509,1,2,0:0:0:0:
256,192,696,1,0,0:0:0:0:
256,192,1071,1,2,0:0:0:0:
256,192,1446,1,0,0:0:0:0:
256,192,1821,1,2,0:0:0:0:
256,192,2196,1,0,0:0:0:0:
256,192,2384,1,2,0:0:0:0:
256,192,2571,1,2,0:0:0:0:
256,192,2759,1,0,0:0:0:0:
256,192,2946,1,0,0:0:0:0:
256,192,3134,1,2,0:0:0:0:
256,192,3321,1,0,0:0:0:0:
256,192,3509,1,2,0:0:0:0:
256,192,3696,1,0,0:0:0:0:
256,192,4071,1,2,0:0:0:0:
256,192,4446,1,0,0:0:0:0:
256,192,4821,1,2,0:0:0:0:
256,192,5196,1,0,0:0:0:0:
256,192,5384,1,2,0:0:0:0:
256,192,5571,1,2,0:0:0:0:
256,192,5759,1,0,0:0:0:0:
256,192,5946,1,0,0:0:0:0:
256,192,6134,1,2,0:0:0:0:
256,192,6321,1,0,0:0:0:0:
256,192,6509,1,2,0:0:0:0:
256,192,6696,1,0,0:0:0:0:
256,192,7071,1,2,0:0:0:0:
256,192,7446,1,0,0:0:0:0:
256,192,7821,1,2,0:0:0:0:
256,192,8196,1,0,0:0:0:0:
256,192,8384,1,2,0:0:0:0:
256,192,8571,1,2,0:0:0:0:
256,192,8759,1,0,0:0:0:0:
256,192,8946,1,0,0:0:0:0:
256,192,9134,1,2,0:0:0:0:
256,192,9321,1,0,0:0:0:0:
256,192,9509,1,2,0:0:0:0:
256,192,9696,1,0,0:0:0:0:
256,192,10071,1,2,0:0:0:0:
256,192,10446,1,0,0:0:0:0:
256,192,10821,1,2,0:0:0:0:
256,192,11196,1,0,0:0:0:0:
256,192,11384,1,2,0:0:0:0:
256,192,11571,1,2,0:0:0:0:
256,192,11759,1,0,0:0:0:0:
256,192,11946,1,0,0:0:0:0:
256,192,12134,1,2,0:0:0:0:
256,192,12696,1,2,0:0:0:0:
256,192,12884,1,0,0:0:0:0:
256,192,13446,1,2,0:0:0:0:
256,192,13634,1,0,0:0:0:0:
256,192,14009,1,0,0:0:0:0:
256,192,14196,1,2,0:0:0:0:
256,192,14384,1,0,0:0:0:0:
256,192,14946,1,0,0:0:0:0:
256,192,15134,1,2,0:0:0:0:
256,192,15696,1,2,0:0:0:0:
256,192,15884,1,2,0:0:0:0:
256,192,16446,1,0,0:0:0:0:
256,192,16634,1,2,0:0:0:0:
256,192,17196,1,2,0:0:0:0:
256,192,17384,1,2,0:0:0:0:
256,192,17571,1,0,0:0:0:0:
256,192,17759,1,2,0:0:0:0:
256,192,18134,1,2,0:0:0:0:
256,192,18696,1,2,0:0:0:0:
256,192,18884,1,0,0:0:0:0:
256,192,19446,1,0,0:0:0:0:
256,192,19634,1,2,0:0:0:0:
256,192,19821,1,2,0:0:0:0:
256,192,20196,1,0,0:0:0:0:
256,192,20384,1,0,0:0:0:0:
256,192,20946,1,2,0:0:0:0:
256,192,21134,1,2,0:0:0:0:
256,192,21696,1,2,0:0:0:0:
256,192,21884,1,0,0:0:0:0:
256,192,22446,1,0,0:0:0:0:
256,192,22634,1,2,0:0:0:0:
256,192,23196,1,2,0:0:0:0:
256,192,23384,1,0,0:0:0:0:
256,192,23759,1,0,0:0:0:0:
256,192,24134,1,6,0:0:0:0:
256,192,24321,1,0,0:0:0:0:
256,192,24509,1,0,0:0:0:0:
256,192,24602,1,0,0:0:0:0:
256,192,24696,1,2,0:0:0:0:
256,192,24884,1,0,0:0:0:0:
256,192,25071,1,2,0:0:0:0:
256,192,25165,1,0,0:0:0:0:
256,192,25259,1,2,0:0:0:0:
256,192,25352,1,0,0:0:0:0:
256,192,25446,1,2,0:0:0:0:
256,192,25540,1,2,0:0:0:0:
256,192,25634,1,0,0:0:0:0:
256,192,25821,1,2,0:0:0:0:
256,192,25915,1,0,0:0:0:0:
256,192,26009,1,2,0:0:0:0:
256,192,26196,1,2,0:0:0:0:
256,192,26290,1,0,0:0:0:0:
256,192,26384,1,2,0:0:0:0:
256,192,26477,1,2,0:0:0:0:
256,192,26571,1,0,0:0:0:0:
256,192,26759,1,2,0:0:0:0:
256,192,26946,1,2,0:0:0:0:
256,192,27040,1,2,0:0:0:0:
256,192,27134,1,0,0:0:0:0:
256,192,27321,1,0,0:0:0:0:
256,192,27415,1,0,0:0:0:0:
256,192,27509,1,2,0:0:0:0:
256,192,27602,1,2,0:0:0:0:
256,192,27696,1,0,0:0:0:0:
256,192,27790,1,2,0:0:0:0:
256,192,27884,1,0,0:0:0:0:
256,192,28071,1,0,0:0:0:0:
256,192,28259,1,2,0:0:0:0:
256,192,28446,1,0,0:0:0:0:
256,192,28540,1,0,0:0:0:0:
256,192,28634,1,2,0:0:0:0:
256,192,28821,1,2,0:0:0:0:
256,192,29009,1,0,0:0:0:0:
256,192,29196,1,2,0:0:0:0:
256,192,29384,1,0,0:0:0:0:
256,192,29477,1,0,0:0:0:0:
256,192,29571,1,0,0:0:0:0:
256,192,29759,1,2,0:0:0:0:
256,192,29946,1,0,0:0:0:0:
256,192,30040,1,0,0:0:0:0:
256,192,30134,1,6,0:0:0:0:
256,192,30321,1,0,0:0:0:0:
256,192,30509,1,0,0:0:0:0:
256,192,30602,1,0,0:0:0:0:
256,192,30696,1,2,0:0:0:0:
256,192,30884,1,0,0:0:0:0:
256,192,31071,1,2,0:0:0:0:
256,192,31165,1,0,0:0:0:0:
256,192,31259,1,2,0:0:0:0:
256,192,31352,1,0,0:0:0:0:
256,192,31446,1,2,0:0:0:0:
256,192,31540,1,2,0:0:0:0:
256,192,31634,1,0,0:0:0:0:
256,192,31821,1,2,0:0:0:0:
256,192,31915,1,2,0:0:0:0:
256,192,32009,1,0,0:0:0:0:
256,192,32196,1,2,0:0:0:0:
256,192,32290,1,2,0:0:0:0:
256,192,32384,1,0,0:0:0:0:
256,192,32477,1,0,0:0:0:0:
256,192,32571,1,2,0:0:0:0:
256,192,32759,1,2,0:0:0:0:
256,192,32946,1,2,0:0:0:0:
256,192,33040,1,0,0:0:0:0:
256,192,33134,1,2,0:0:0:0:
256,192,33321,1,0,0:0:0:0:
256,192,33415,1,0,0:0:0:0:
256,192,33509,1,2,0:0:0:0:
256,192,33602,1,0,0:0:0:0:
256,192,33696,1,2,0:0:0:0:
256,192,33790,1,2,0:0:0:0:
256,192,33884,1,0,0:0:0:0:
256,192,34071,1,0,0:0:0:0:
256,192,34259,1,2,0:0:0:0:
256,192,34446,1,2,0:0:0:0:
256,192,34540,1,2,0:0:0:0:
256,192,34634,1,0,0:0:0:0:
256,192,34821,1,2,0:0:0:0:
256,192,35009,1,0,0:0:0:0:
256,192,35196,1,2,0:0:0:0:
256,192,35384,1,2,0:0:0:0:
256,192,35477,1,2,0:0:0:0:
256,192,35571,1,0,0:0:0:0:
256,192,35759,1,2,0:0:0:0:
256,192,35946,1,2,0:0:0:0:
256,192,36040,1,0,0:0:0:0:
256,192,36134,1,6,0:0:0:0:
256,192,36321,1,0,0:0:0:0:
256,192,36509,1,0,0:0:0:0:
256,192,36602,1,0,0:0:0:0:
256,192,36696,1,2,0:0:0:0:
256,192,36884,1,0,0:0:0:0:
256,192,37071,1,2,0:0:0:0:
256,192,37165,1,2,0:0:0:0:
256,192,37259,1,0,0:0:0:0:
256,192,37352,1,0,0:0:0:0:
256,192,37446,1,2,0:0:0:0:
256,192,37540,1,0,0:0:0:0:
256,192,37634,1,2,0:0:0:0:
256,192,37821,1,0,0:0:0:0:
256,192,37915,1,0,0:0:0:0:
256,192,38009,1,2,0:0:0:0:
256,192,38196,1,2,0:0:0:0:
256,192,38290,1,2,0:0:0:0:
256,192,38384,1,0,0:0:0:0:
256,192,38477,1,0,0:0:0:0:
256,192,38571,1,2,0:0:0:0:
256,192,38759,1,2,0:0:0:0:
256,192,38946,1,2,0:0:0:0:
256,192,39040,1,2,0:0:0:0:
256,192,39134,1,0,0:0:0:0:
256,192,39321,1,0,0:0:0:0:
256,192,39415,1,0,0:0:0:0:
256,192,39509,1,2,0:0:0:0:
256,192,39602,1,2,0:0:0:0:
256,192,39696,1,0,0:0:0:0:
256,192,39790,1,2,0:0:0:0:
256,192,39884,1,0,0:0:0:0:
256,192,40071,1,0,0:0:0:0:
256,192,40259,1,2,0:0:0:0:
256,192,40446,1,0,0:0:0:0:
256,192,40540,1,0,0:0:0:0:
256,192,40634,1,2,0:0:0:0:
256,192,40821,1,2,0:0:0:0:
256,192,41009,1,0,0:0:0:0:
256,192,41196,1,2,0:0:0:0:
256,192,41384,1,2,0:0:0:0:
256,192,41477,1,2,0:0:0:0:
256,192,41571,1,0,0:0:0:0:
256,192,41759,1,2,0:0:0:0:
256,192,41946,1,0,0:0:0:0:
256,192,42040,1,0,0:0:0:0:
256,192,42134,1,6,0:0:0:0:
256,192,42321,1,0,0:0:0:0:
256,192,42509,1,0,0:0:0:0:
256,192,42602,1,0,0:0:0:0:
256,192,42696,1,2,0:0:0:0:
256,192,42884,1,0,0:0:0:0:
256,192,43071,1,2,0:0:0:0:
256,192,43165,1,0,0:0:0:0:
256,192,43259,1,2,0:0:0:0:
256,192,43352,1,0,0:0:0:0:
256,192,43446,1,2,0:0:0:0:
256,192,43540,1,2,0:0:0:0:
256,192,43634,1,0,0:0:0:0:
256,192,43821,1,2,0:0:0:0:
256,192,43915,1,2,0:0:0:0:
256,192,44009,1,0,0:0:0:0:
256,192,44196,1,2,0:0:0:0:
256,192,44290,1,2,0:0:0:0:
256,192,44384,1,0,0:0:0:0:
256,192,44477,1,0,0:0:0:0:
256,192,44571,1,2,0:0:0:0:
256,192,44759,1,2,0:0:0:0:
256,192,44946,1,2,0:0:0:0:
256,192,45040,1,0,0:0:0:0:
256,192,45134,1,2,0:0:0:0:
256,192,45321,1,0,0:0:0:0:
256,192,45415,1,0,0:0:0:0:
256,192,45509,1,2,0:0:0:0:
256,192,45602,1,0,0:0:0:0:
256,192,45696,1,2,0:0:0:0:
256,192,45790,1,2,0:0:0:0:
256,192,45884,1,0,0:0:0:0:
256,192,46071,1,2,0:0:0:0:
256,192,46259,1,0,0:0:0:0:
256,192,46446,1,2,0:0:0:0:
256,192,46540,1,2,0:0:0:0:
256,192,46634,1,0,0:0:0:0:
256,192,46821,1,2,0:0:0:0:
256,192,47009,1,0,0:0:0:0:
256,192,47196,1,2,0:0:0:0:
256,192,47384,1,2,0:0:0:0:
256,192,47477,1,2,0:0:0:0:
256,192,47571,1,0,0:0:0:0:
256,192,47759,1,2,0:0:0:0:
256,192,47852,1,0,0:0:0:0:
256,192,47946,1,0,0:0:0:0:
256,192,48134,1,2,0:0:0:0:
256,192,48227,1,0,0:0:0:0:
256,192,48321,1,2,0:0:0:0:
256,192,48509,1,2,0:0:0:0:
256,192,48602,1,0,0:0:0:0:
256,192,48696,1,2,0:0:0:0:
256,192,48884,1,2,0:0:0:0:
256,192,48977,1,0,0:0:0:0:
256,192,49071,1,2,0:0:0:0:
256,192,49165,1,0,0:0:0:0:
256,192,49259,1,2,0:0:0:0:
256,192,49352,1,0,0:0:0:0:
256,192,49446,1,2,0:0:0:0:
256,192,49634,1,6,0:0:0:0:
256,192,49821,1,0,0:0:0:0:
256,192,50009,1,2,0:0:0:0:
256,192,50102,1,0,0:0:0:0:
256,192,50196,1,2,0:0:0:0:
256,192,50290,1,2,0:0:0:0:
256,192,50384,1,0,0:0:0:0:
256,192,50571,1,2,0:0:0:0:
256,192,50759,1,2,0:0:0:0:
256,192,50852,1,2,0:0:0:0:
256,192,50946,1,0,0:0:0:0:
256,192,51040,1,0,0:0:0:0:
256,192,51134,1,2,0:0:0:0:
256,192,51321,1,2,0:0:0:0:
256,192,51415,1,0,0:0:0:0:
256,192,51509,1,2,0:0:0:0:
256,192,51602,1,0,0:0:0:0:
256,192,51696,1,0,0:0:0:0:
256,192,51884,1,2,0:0:0:0:
256,192,52071,1,0,0:0:0:0:
256,192,52259,1,2,0:0:0:0:
256,192,52352,1,2,0:0:0:0:
256,192,52446,1,0,0:0:0:0:
256,192,52540,1,0,0:0:0:0:
256,192,52634,1,2,0:0:0:0:
256,192,52821,1,2,0:0:0:0:
256,192,52915,1,0,0:0:0:0:
256,192,53009,1,2,0:0:0:0:
256,192,53196,1,0,0:0:0:0:
256,192,53384,1,0,0:0:0:0:
256,192,53477,1,0,0:0:0:0:
256,192,53571,1,2,0:0:0:0:
256,192,53665,1,0,0:0:0:0:
256,192,53759,1,2,0:0:0:0:
256,192,53852,1,2,0:0:0:0:
256,192,53946,1,0,0:0:0:0:
256,192,54134,1,0,0:0:0:0:
256,192,54321,1,2,0:0:0:0:
256,192,54415,1,2,0:0:0:0:
256,192,54509,1,0,0:0:0:0:
256,192,54696,1,2,0:0:0:0:
256,192,54884,1,2,0:0:0:0:
256,192,54977,1,0,0:0:0:0:
256,192,55071,1,2,0:0:0:0:
256,192,55165,1,0,0:0:0:0:
256,192,55259,1,2,0:0:0:0:
256,192,55352,1,2,0:0:0:0:
256,192,55446,1,0,0:0:0:0:
256,192,55540,1,0,0:0:0:0:
256,192,55634,1,2,0:0:0:0:
256,192,55821,1,0,0:0:0:0:
256,192,56009,1,2,0:0:0:0:
256,192,56102,1,0,0:0:0:0:
256,192,56196,1,2,0:0:0:0:
256,192,56290,1,2,0:0:0:0:
256,192,56384,1,0,0:0:0:0:
256,192,56571,1,2,0:0:0:0:
256,192,56759,1,2,0:0:0:0:
256,192,56852,1,2,0:0:0:0:
256,192,56946,1,0,0:0:0:0:
256,192,57040,1,0,0:0:0:0:
256,192,57134,1,2,0:0:0:0:
256,192,57321,1,2,0:0:0:0:
256,192,57415,1,0,0:0:0:0:
256,192,57509,1,2,0:0:0:0:
256,192,57602,1,0,0:0:0:0:
256,192,57696,1,0,0:0:0:0:
256,192,57884,1,2,0:0:0:0:
256,192,58071,1,0,0:0:0:0:
256,192,58259,1,2,0:0:0:0:
256,192,58352,1,2,0:0:0:0:
256,192,58446,1,0,0:0:0:0:
256,192,58540,1,0,0:0:0:0:
256,192,58634,1,2,0:0:0:0:
256,192,58821,1,2,0:0:0:0:
256,192,58915,1,0,0:0:0:0:
256,192,59009,1,2,0:0:0:0:
256,192,59196,1,0,0:0:0:0:
256,192,59384,1,0,0:0:0:0:
256,192,59477,1,0,0:0:0:0:
256,192,59571,1,2,0:0:0:0:
256,192,59665,1,0,0:0:0:0:
256,192,59759,1,2,0:0:0:0:
256,192,59852,1,2,0:0:0:0:
256,192,59946,1,0,0:0:0:0:
256,192,60134,1,2,0:0:0:0:
256,192,60321,1,2,0:0:0:0:
256,192,60415,1,2,0:0:0:0:
256,192,60509,1,0,0:0:0:0:
256,192,60696,1,2,0:0:0:0:
256,192,60884,1,2,0:0:0:0:
256,192,60977,1,0,0:0:0:0:
256,192,61071,1,2,0:0:0:0:
256,192,61165,1,0,0:0:0:0:
256,192,61259,1,2,0:0:0:0:
256,192,61352,1,2,0:0:0:0:
256,192,61446,1,0,0:0:0:0:
256,192,61540,1,0,0:0:0:0:
256,192,61634,1,2,0:0:0:0:
256,192,62384,1,0,0:0:0:0:
256,192,63134,1,2,0:0:0:0:
256,192,63415,1,0,0:0:0:0:
256,192,63696,1,2,0:0:0:0:
256,192,64071,1,0,0:0:0:0:
256,192,64634,1,2,0:0:0:0:
256,192,65384,1,0,0:0:0:0:
256,192,66134,1,2,0:0:0:0:
256,192,66415,1,0,0:0:0:0:
256,192,66696,1,2,0:0:0:0:
256,192,67071,1,0,0:0:0:0:
256,192,67634,1,2,0:0:0:0:
256,192,68384,1,0,0:0:0:0:
256,192,69134,1,2,0:0:0:0:
256,192,69415,1,0,0:0:0:0:
256,192,69696,1,2,0:0:0:0:
256,192,70071,1,0,0:0:0:0:
256,192,70634,1,2,0:0:0:0:
256,192,71384,1,0,0:0:0:0:
256,192,72134,1,2,0:0:0:0:
256,192,72415,1,0,0:0:0:0:
256,192,72696,1,2,0:0:0:0:
256,192,73071,1,0,0:0:0:0:
256,192,73634,1,2,0:0:0:0:
256,192,73821,1,0,0:0:0:0:
256,192,74009,1,2,0:0:0:0:
256,192,74196,1,0,0:0:0:0:
256,192,74290,1,0,0:0:0:0:
256,192,74384,1,2,0:0:0:0:
256,192,74571,1,0,0:0:0:0:
256,192,74759,1,2,0:0:0:0:
256,192,74852,1,2,0:0:0:0:
256,192,74946,1,0,0:0:0:0:
256,192,75134,1,2,0:0:0:0:
256,192,75321,1,0,0:0:0:0:
256,192,75415,1,0,0:0:0:0:
256,192,75509,1,2,0:0:0:0:
256,192,75696,1,0,0:0:0:0:
256,192,75884,1,2,0:0:0:0:
256,192,76071,1,0,0:0:0:0:
256,192,76165,1,0,0:0:0:0:
256,192,76259,1,2,0:0:0:0:
256,192,76352,1,2,0:0:0:0:
256,192,76446,1,2,0:0:0:0:
256,192,76634,1,2,0:0:0:0:
256,192,76821,1,0,0:0:0:0:
256,192,77009,1,2,0:0:0:0:
256,192,77196,1,0,0:0:0:0:
256,192,77290,1,0,0:0:0:0:
256,192,77384,1,2,0:0:0:0:
256,192,77477,1,2,0:0:0:0:
256,192,77571,1,0,0:0:0:0:
256,192,77759,1,0,0:0:0:0:
256,192,77852,1,2,0:0:0:0:
256,192,77946,1,2,0:0:0:0:
256,192,78134,1,0,0:0:0:0:
256,192,78321,1,2,0:0:0:0:
256,192,78415,1,0,0:0:0:0:
256,192,78509,1,2,0:0:0:0:
256,192,78884,1,2,0:0:0:0:
256,192,79071,1,0,0:0:0:0:
256,192,79259,1,2,0:0:0:0:
256,192,79352,1,2,0:0:0:0:
256,192,79446,1,0,0:0:0:0:
256,192,79634,1,2,0:0:0:0:
256,192,79821,1,0,0:0:0:0:
256,192,80009,1,2,0:0:0:0:
256,192,80196,1,0,0:0:0:0:
256,192,80290,1,0,0:0:0:0:
256,192,80384,1,2,0:0:0:0:
256,192,80571,1,0,0:0:0:0:
256,192,80759,1,2,0:0:0:0:
256,192,80852,1,2,0:0:0:0:
256,192,80946,1,0,0:0:0:0:
256,192,81134,1,2,0:0:0:0:
256,192,81321,1,0,0:0:0:0:
256,192,81415,1,0,0:0:0:0:
256,192,81509,1,2,0:0:0:0:
256,192,81696,1,0,0:0:0:0:
256,192,81884,1,2,0:0:0:0:
256,192,82071,1,0,0:0:0:0:
256,192,82165,1,0,0:0:0:0:
256,192,82259,1,2,0:0:0:0:
256,192,82352,1,0,0:0:0:0:
256,192,82446,1,2,0:0:0:0:
256,192,82634,1,2,0:0:0:0:
256,192,82821,1,0,0:0:0:0:
256,192,83009,1,2,0:0:0:0:
256,192,83196,1,2,0:0:0:0:
256,192,83290,1,2,0:0:0:0:
256,192,83384,1,0,0:0:0:0:
256,192,83477,1,0,0:0:0:0:
256,192,83571,1,2,0:0:0:0:
256,192,83759,1,0,0:0:0:0:
256,192,83852,1,2,0:0:0:0:
256,192,83946,1,2,0:0:0:0:
256,192,85634,1,6,0:0:0:0:
256,192,85821,1,0,0:0:0:0:
256,192,86009,1,0,0:0:0:0:
256,192,86102,1,0,0:0:0:0:
256,192,86196,1,2,0:0:0:0:
256,192,86384,1,0,0:0:0:0:
256,192,86571,1,2,0:0:0:0:
256,192,86665,1,0,0:0:0:0:
256,192,86759,1,2,0:0:0:0:
256,192,86852,1,0,0:0:0:0:
256,192,86946,1,2,0:0:0:0:
256,192,87040,1,2,0:0:0:0:
256,192,87134,1,0,0:0:0:0:
256,192,87321,1,2,0:0:0:0:
256,192,87415,1,0,0:0:0:0:
256,192,87509,1,2,0:0:0:0:
256,192,87696,1,2,0:0:0:0:
256,192,87790,1,0,0:0:0:0:
256,192,87884,1,2,0:0:0:0:
256,192,87977,1,2,0:0:0:0:
256,192,88071,1,0,0:0:0:0:
256,192,88259,1,2,0:0:0:0:
256,192,88446,1,2,0:0:0:0:
256,192,88540,1,2,0:0:0:0:
256,192,88634,1,0,0:0:0:0:
256,192,88821,1,0,0:0:0:0:
256,192,88915,1,0,0:0:0:0:
256,192,89009,1,2,0:0:0:0:
256,192,89102,1,2,0:0:0:0:
256,192,89196,1,0,0:0:0:0:
256,192,89290,1,2,0:0:0:0:
256,192,89384,1,0,0:0:0:0:
256,192,89571,1,0,0:0:0:0:
256,192,89759,1,2,0:0:0:0:
256,192,89946,1,0,0:0:0:0:
256,192,90040,1,0,0:0:0:0:
256,192,90134,1,2,0:0:0:0:
256,192,90321,1,2,0:0:0:0:
256,192,90509,1,0,0:0:0:0:
256,192,90696,1,2,0:0:0:0:
256,192,90884,1,0,0:0:0:0:
256,192,90977,1,0,0:0:0:0:
256,192,91071,1,0,0:0:0:0:
256,192,91259,1,2,0:0:0:0:
256,192,91446,1,0,0:0:0:0:
256,192,91540,1,0,0:0:0:0:
256,192,91634,1,6,0:0:0:0:
256,192,91821,1,0,0:0:0:0:
256,192,92009,1,0,0:0:0:0:
256,192,92102,1,0,0:0:0:0:
256,192,92196,1,2,0:0:0:0:
256,192,92384,1,0,0:0:0:0:
256,192,92571,1,2,0:0:0:0:
256,192,92665,1,0,0:0:0:0:
256,192,92759,1,2,0:0:0:0:
256,192,92852,1,0,0:0:0:0:
256,192,92946,1,2,0:0:0:0:
256,192,93040,1,2,0:0:0:0:
256,192,93134,1,0,0:0:0:0:
256,192,93321,1,2,0:0:0:0:
256,192,93415,1,2,0:0:0:0:
256,192,93509,1,0,0:0:0:0:
256,192,93696,1,2,0:0:0:0:
256,192,93790,1,2,0:0:0:0:
256,192,93884,1,0,0:0:0:0:
256,192,93977,1,0,0:0:0:0:
256,192,94071,1,2,0:0:0:0:
256,192,94259,1,2,0:0:0:0:
256,192,94446,1,2,0:0:0:0:
256,192,94540,1,0,0:0:0:0:
256,192,94634,1,2,0:0:0:0:
256,192,94821,1,0,0:0:0:0:
256,192,94915,1,0,0:0:0:0:
256,192,95009,1,2,0:0:0:0:
256,192,95102,1,0,0:0:0:0:
256,192,95196,1,2,0:0:0:0:
256,192,95290,1,2,0:0:0:0:
256,192,95384,1,0,0:0:0:0:
256,192,95571,1,0,0:0:0:0:
256,192,95759,1,2,0:0:0:0:
256,192,95946,1,2,0:0:0:0:
256,192,96040,1,2,0:0:0:0:
256,192,96134,1,0,0:0:0:0:
256,192,96321,1,2,0:0:0:0:
256,192,96509,1,0,0:0:0:0:
256,192,96696,1,2,0:0:0:0:
256,192,96884,1,2,0:0:0:0:
256,192,96977,1,2,0:0:0:0:
256,192,97071,1,0,0:0:0:0:
256,192,97259,1,2,0:0:0:0:
256,192,97446,1,2,0:0:0:0:
256,192,97540,1,0,0:0:0:0:
256,192,97634,1,6,0:0:0:0:
256,192,97821,1,0,0:0:0:0:
256,192,98009,1,0,0:0:0:0:
256,192,98102,1,0,0:0:0:0:
256,192,98196,1,2,0:0:0:0:
256,192,98384,1,0,0:0:0:0:
256,192,98571,1,2,0:0:0:0:
256,192,98665,1,2,0:0:0:0:
256,192,98759,1,0,0:0:0:0:
256,192,98852,1,0,0:0:0:0:
256,192,98946,1,2,0:0:0:0:
256,192,99040,1,0,0:0:0:0:
256,192,99134,1,2,0:0:0:0:
256,192,99321,1,0,0:0:0:0:
256,192,99415,1,0,0:0:0:0:
256,192,99509,1,2,0:0:0:0:
256,192,99696,1,2,0:0:0:0:
256,192,99790,1,2,0:0:0:0:
256,192,99884,1,0,0:0:0:0:
256,192,99977,1,0,0:0:0:0:
256,192,100071,1,2,0:0:0:0:
256,192,100259,1,2,0:0:0:0:
256,192,100446,1,2,0:0:0:0:
256,192,100540,1,2,0:0:0:0:
256,192,100634,1,0,0:0:0:0:
256,192,100821,1,0,0:0:0:0:
256,192,100915,1,0,0:0:0:0:
256,192,101009,1,2,0:0:0:0:
256,192,101102,1,2,0:0:0:0:
256,192,101196,1,0,0:0:0:0:
256,192,101290,1,2,0:0:0:0:
256,192,101384,1,0,0:0:0:0:
256,192,101571,1,0,0:0:0:0:
256,192,101759,1,2,0:0:0:0:
256,192,101946,1,0,0:0:0:0:
256,192,102040,1,0,0:0:0:0:
256,192,102134,1,2,0:0:0:0:
256,192,102321,1,2,0:0:0:0:
256,192,102509,1,0,0:0:0:0:
256,192,102696,1,2,0:0:0:0:
256,192,102884,1,2,0:0:0:0:
256,192,102977,1,2,0:0:0:0:
256,192,103071,1,0,0:0:0:0:
256,192,103259,1,2,0:0:0:0:
256,192,103446,1,0,0:0:0:0:
256,192,103540,1,0,0:0:0:0:
256,192,103634,1,6,0:0:0:0:
256,192,103821,1,0,0:0:0:0:
256,192,104009,1,0,0:0:0:0:
256,192,104102,1,0,0:0:0:0:
256,192,104196,1,2,0:0:0:0:
256,192,104384,1,0,0:0:0:0:
256,192,104571,1,2,0:0:0:0:
256,192,104665,1,0,0:0:0:0:
256,192,104759,1,2,0:0:0:0:
256,192,104852,1,0,0:0:0:0:
256,192,104946,1,2,0:0:0:0:
256,192,105040,1,2,0:0:0:0:
256,192,105134,1,0,0:0:0:0:
256,192,105321,1,2,0:0:0:0:
256,192,105415,1,2,0:0:0:0:
256,192,105509,1,0,0:0:0:0:
256,192,105696,1,2,0:0:0:0:
256,192,105790,1,2,0:0:0:0:
256,192,105884,1,0,0:0:0:0:
256,192,105977,1,0,0:0:0:0:
256,192,106071,1,2,0:0:0:0:
256,192,106259,1,2,0:0:0:0:
256,192,106446,1,2,0:0:0:0:
256,192,106540,1,0,0:0:0:0:
256,192,106634,1,2,0:0:0:0:
256,192,106821,1,0,0:0:0:0:
256,192,106915,1,0,0:0:0:0:
256,192,107009,1,2,0:0:0:0:
256,192,107102,1,0,0:0:0:0:
256,192,107196,1,2,0:0:0:0:
256,192,107290,1,2,0:0:0:0:
256,192,107384,1,0,0:0:0:0:
256,192,107571,1,2,0:0:0:0:
256,192,107759,1,0,0:0:0:0:
256,192,107946,1,2,0:0:0:0:
256,192,108134,1,2,0:0:0:0:
256,192,108227,1,0,0:0:0:0:
256,192,108321,1,2,0:0:0:0:
256,192,108509,1,2,0:0:0:0:
256,192,108602,1,0,0:0:0:0:
256,192,108696,1,2,0:0:0:0:
256,192,108884,1,2,0:0:0:0:
256,192,108977,1,0,0:0:0:0:
256,192,109071,1,2,0:0:0:0:
256,192,109165,1,0,0:0:0:0:
256,192,109259,1,2,0:0:0:0:
256,192,109352,1,0,0:0:0:0:
256,192,109446,1,2,0:0:0:0:
256,192,109634,1,6,0:0:0:0:
256,192,109821,1,0,0:0:0:0:
256,192,110009,1,2,0:0:0:0:
256,192,110102,1,0,0:0:0:0:
256,192,110196,1,2,0:0:0:0:
256,192,110290,1,2,0:0:0:0:
256,192,110384,1,0,0:0:0:0:
256,192,110571,1,2,0:0:0:0:
256,192,110759,1,2,0:0:0:0:
256,192,110852,1,2,0:0:0:0:
256,192,110946,1,0,0:0:0:0:
256,192,111040,1,0,0:0:0:0:
256,192,111134,1,2,0:0:0:0:
256,192,111321,1,2,0:0:0:0:
256,192,111415,1,0,0:0:0:0:
256,192,111509,1,2,0:0:0:0:
256,192,111602,1,0,0:0:0:0:
256,192,111696,1,0,0:0:0:0:
256,192,111884,1,2,0:0:0:0:
256,192,112071,1,0,0:0:0:0:
256,192,112259,1,2,0:0:0:0:
256,192,112352,1,2,0:0:0:0:
256,192,112446,1,0,0:0:0:0:
256,192,112540,1,0,0:0:0:0:
256,192,112634,1,2,0:0:0:0:
256,192,112821,1,2,0:0:0:0:
256,192,112915,1,0,0:0:0:0:
256,192,113009,1,2,0:0:0:0:
256,192,113196,1,0,0:0:0:0:
256,192,113384,1,0,0:0:0:0:
256,192,113477,1,0,0:0:0:0:
256,192,113571,1,2,0:0:0:0:
256,192,113665,1,0,0:0:0:0:
256,192,113759,1,2,0:0:0:0:
256,192,113852,1,2,0:0:0:0:
256,192,113946,1,0,0:0:0:0:
256,192,114134,1,0,0:0:0:0:
256,192,114321,1,2,0:0:0:0:
256,192,114415,1,2,0:0:0:0:
256,192,114509,1,0,0:0:0:0:
256,192,114696,1,2,0:0:0:0:
256,192,114884,1,2,0:0:0:0:
256,192,114977,1,0,0:0:0:0:
256,192,115071,1,2,0:0:0:0:
256,192,115165,1,0,0:0:0:0:
256,192,115259,1,2,0:0:0:0:
256,192,115352,1,2,0:0:0:0:
256,192,115446,1,0,0:0:0:0:
256,192,115540,1,0,0:0:0:0:
256,192,115634,1,2,0:0:0:0:
256,192,115821,1,0,0:0:0:0:
256,192,116009,1,2,0:0:0:0:
256,192,116102,1,0,0:0:0:0:
256,192,116196,1,2,0:0:0:0:
256,192,116290,1,2,0:0:0:0:
256,192,116384,1,0,0:0:0:0:
256,192,116571,1,2,0:0:0:0:
256,192,116759,1,2,0:0:0:0:
256,192,116852,1,2,0:0:0:0:
256,192,116946,1,0,0:0:0:0:
256,192,117040,1,0,0:0:0:0:
256,192,117134,1,2,0:0:0:0:
256,192,117321,1,2,0:0:0:0:
256,192,117415,1,0,0:0:0:0:
256,192,117509,1,2,0:0:0:0:
256,192,117602,1,0,0:0:0:0:
256,192,117696,1,0,0:0:0:0:
256,192,117884,1,2,0:0:0:0:
256,192,118071,1,0,0:0:0:0:
256,192,118259,1,2,0:0:0:0:
256,192,118352,1,2,0:0:0:0:
256,192,118446,1,0,0:0:0:0:
256,192,118540,1,0,0:0:0:0:
256,192,118634,1,2,0:0:0:0:
256,192,118821,1,2,0:0:0:0:
256,192,118915,1,0,0:0:0:0:
256,192,119009,1,2,0:0:0:0:
256,192,119196,1,0,0:0:0:0:
256,192,119384,1,0,0:0:0:0:
256,192,119477,1,0,0:0:0:0:
256,192,119571,1,2,0:0:0:0:
256,192,119665,1,0,0:0:0:0:
256,192,119759,1,2,0:0:0:0:
256,192,119852,1,2,0:0:0:0:
256,192,119946,1,0,0:0:0:0:
256,192,120134,1,2,0:0:0:0:
256,192,120321,1,2,0:0:0:0:
256,192,120415,1,2,0:0:0:0:
256,192,120509,1,0,0:0:0:0:
256,192,120696,1,2,0:0:0:0:
256,192,120884,1,2,0:0:0:0:
256,192,120977,1,0,0:0:0:0:
256,192,121071,1,2,0:0:0:0:
256,192,121165,1,0,0:0:0:0:
256,192,121259,1,2,0:0:0:0:
256,192,121352,1,2,0:0:0:0:
256,192,121446,1,0,0:0:0:0:
256,192,121634,1,6,0:0:0:0:
256,192,121821,1,0,0:0:0:0:
256,192,122009,1,2,0:0:0:0:
256,192,122102,1,0,0:0:0:0:
256,192,122196,1,2,0:0:0:0:
256,192,122290,1,2,0:0:0:0:
256,192,122384,1,0,0:0:0:0:
256,192,122571,1,2,0:0:0:0:
256,192,122759,1,2,0:0:0:0:
256,192,122852,1,2,0:0:0:0:
256,192,122946,1,0,0:0:0:0:
256,192,123040,1,0,0:0:0:0:
256,192,123134,1,2,0:0:0:0:
256,192,123321,1,2,0:0:0:0:
256,192,123415,1,0,0:0:0:0:
256,192,123509,1,2,0:0:0:0:
256,192,123602,1,0,0:0:0:0:
256,192,123696,1,0,0:0:0:0:
256,192,123884,1,2,0:0:0:0:
256,192,124071,1,0,0:0:0:0:
256,192,124259,1,2,0:0:0:0:
256,192,124352,1,2,0:0:0:0:
256,192,124446,1,0,0:0:0:0:
256,192,124540,1,0,0:0:0:0:
256,192,124634,1,2,0:0:0:0:
256,192,124821,1,2,0:0:0:0:
256,192,124915,1,0,0:0:0:0:
256,192,125009,1,2,0:0:0:0:
256,192,125196,1,0,0:0:0:0:
256,192,125384,1,0,0:0:0:0:
256,192,125477,1,0,0:0:0:0:
256,192,125571,1,2,0:0:0:0:
256,192,125665,1,0,0:0:0:0:
256,192,125759,1,2,0:0:0:0:
256,192,125852,1,2,0:0:0:0:
256,192,125946,1,0,0:0:0:0:
256,192,126134,1,2,0:0:0:0:
256,192,126321,1,2,0:0:0:0:
256,192,126415,1,2,0:0:0:0:
256,192,126509,1,0,0:0:0:0:
256,192,126696,1,2,0:0:0:0:
256,192,126884,1,0,0:0:0:0:
256,192,126977,1,0,0:0:0:0:
256,192,127071,1,0,0:0:0:0:
256,192,127165,1,0,0:0:0:0:
256,192,127259,1,2,0:0:0:0:
256,192,127634,1,6,0:0:0:0:
256,192,127821,1,0,0:0:0:0:
256,192,128009,1,2,0:0:0:0:
256,192,128102,1,0,0:0:0:0:
256,192,128196,1,2,0:0:0:0:
256,192,128290,1,2,0:0:0:0:
256,192,128384,1,0,0:0:0:0:
256,192,128571,1,2,0:0:0:0:
256,192,128759,1,2,0:0:0:0:
256,192,128852,1,2,0:0:0:0:
256,192,128946,1,0,0:0:0:0:
256,192,129040,1,0,0:0:0:0:
256,192,129134,1,2,0:0:0:0:
256,192,129321,1,2,0:0:0:0:
256,192,129415,1,0,0:0:0:0:
256,192,129509,1,2,0:0:0:0:
256,192,129602,1,0,0:0:0:0:
256,192,129696,1,0,0:0:0:0:
256,192,129884,1,2,0:0:0:0:
256,192,130071,1,0,0:0:0:0:
256,192,130259,1,2,0:0:0:0:
256,192,130352,1,2,0:0:0:0:
256,192,130446,1,0,0:0:0:0:
256,192,130540,1,0,0:0:0:0:
256,192,130634,1,2,0:0:0:0:
256,192,130821,1,2,0:0:0:0:
256,192,130915,1,0,0:0:0:0:
256,192,131009,1,2,0:0:0:0:
256,192,131196,1,0,0:0:0:0:
256,192,131384,1,0,0:0:0:0:
256,192,131477,1,0,0:0:0:0:
256,192,131571,1,2,0:0:0:0:
256,192,131665,1,0,0:0:0:0:
256,192,131759,1,2,0:0:0:0:
256,192,131852,1,2,0:0:0:0:
256,192,131946,1,0,0:0:0:0:
256,192,132134,1,2,0:0:0:0:
256,192,132321,1,2,0:0:0:0:
256,192,132415,1,2,0:0:0:0:
256,192,132509,1,0,0:0:0:0:
256,192,132696,1,2,0:0:0:0:
256,192,132884,1,2,0:0:0:0:
256,192,132977,1,0,0:0:0:0:
256,192,133071,1,2,0:0:0:0:
256,192,133165,1,0,0:0:0:0:
256,192,133259,1,2,0:0:0:0:
256,192,133352,1,2,0:0:0:0:
256,192,133446,1,0,0:0:0:0:
