osu file format v14

[General]
AudioFilename: audio.mp3
AudioLeadIn: 0
PreviewTime: 84134
Countdown: 0
SampleSet: Normal
StackLeniency: 0.7
Mode: 1
LetterboxInBreaks: 0
WidescreenStoryboard: 1

[Editor]
DistanceSpacing: 3.5
BeatDivisor: 4
GridSize: 16
TimelineZoom: 2.2

[Metadata]
Title:minnesota is a place that exists
TitleUnicode:minnesota is a place that exists
Artist:glaive
ArtistUnicode:glaive
Creator:Cryceptio
Version:muzukashii
Source:
Tags:english hyper pop hyper-pop hyperpop G1* tsukani jeshuan fynbi
BeatmapID:4209802
BeatmapSetID:1798956

[Difficulty]
HPDrainRate:6
CircleSize:2
OverallDifficulty:5
ApproachRate:5
SliderMultiplier:1.4
SliderTickRate:1

[Events]
//Background and Video events
0,0,"mimnesotabg.jpg",0,0
//Break Periods
//Storyboard Layer 0 (Background)
//Storyboard Layer 1 (Fail)
//Storyboard Layer 2 (Pass)
//Storyboard Layer 3 (Foreground)
//Storyboard Layer 4 (Overlay)
//Storyboard Sound Samples

[TimingPoints]
134,375,4,1,0,70,1,0
134,-111.111111111111,4,1,0,70,0,0
12129,-111.111111111111,4,1,0,70,0,0
24129,-100,4,1,0,90,0,0
47941,-105.263157894737,4,1,0,70,0,0
48129,-111.111111111111,4,1,0,70,0,0
49535,-100,4,1,0,90,0,0
49634,375,4,1,0,90,1,1
49634,-100,4,1,0,90,0,1
60504,-100,4,1,0,90,0,1
61634,-100,4,1,0,50,0,0
61816,-125,4,1,0,50,0,0
63129,-125,4,1,0,50,0,0
72410,-125,4,1,0,50,0,0
73535,-111.111111111111,4,1,0,70,0,0
73629,-100,4,1,0,70,0,0
109634,-100,4,1,0,90,0,1
126785,-100,4,1,0,70,0,1
126884,-100,4,1,0,70,0,0
127634,-100,4,1,0,90,0,1
133446,-100,4,1,0,90,0,0
133629,-125,4,1,0,50,0,0

[HitObjects]
416,64,12134,5,8,0:0:0:0:
304,176,12696,1,0,0:0:0:0:
416,64,12884,1,8,0:0:0:0:
416,64,13446,1,8,0:0:0:0:
304,176,13634,1,0,0:0:0:0:
304,176,14196,1,0,0:0:0:0:
304,176,14384,1,0,0:0:0:0:
304,176,14946,1,0,0:0:0:0:
416,64,15134,1,8,0:0:0:0:
416,64,15696,1,8,0:0:0:0:
368,224,15884,1,0,0:0:0:0:
304,176,16446,1,0,0:0:0:0:
416,64,16634,1,8,0:0:0:0:
304,192,17196,1,0,0:0:0:0:
416,64,17384,1,8,0:0:0:0:
304,192,17759,1,0,0:0:0:0:
416,64,18134,1,8,0:0:0:0:
304,176,18696,1,0,0:0:0:0:
304,176,18884,1,0,0:0:0:0:
416,64,19446,1,8,0:0:0:0:
304,176,19634,1,0,0:0:0:0:
304,176,20196,1,0,0:0:0:0:
304,176,20384,1,0,0:0:0:0:
416,64,20946,1,8,0:0:0:0:
304,176,21134,1,0,0:0:0:0:
416,64,21696,1,8,0:0:0:0:
416,64,21884,1,8,0:0:0:0:
304,176,22446,1,0,0:0:0:0:
416,64,22634,1,8,0:0:0:0:
416,64,23196,1,8,0:0:0:0:
288,176,23384,1,0,0:0:0:0:
416,320,24134,1,12,0:0:0:0:
416,64,24509,1,8,0:0:0:0:
304,176,24696,1,0,0:0:0:0:
304,176,24884,1,0,0:0:0:0:
416,64,25071,1,8,0:0:0:0:
304,176,25446,1,0,0:0:0:0:
304,176,25821,1,0,0:0:0:0:
416,64,26196,1,8,0:0:0:0:
304,176,26384,1,0,0:0:0:0:
304,176,26477,1,0,0:0:0:0:
304,176,26571,1,0,0:0:0:0:
416,64,26759,1,8,0:0:0:0:
320,176,26946,1,0,0:0:0:0:
416,64,27321,1,8,0:0:0:0:
416,64,27696,1,8,0:0:0:0:
416,64,28071,1,8,0:0:0:0:
416,64,28259,1,8,0:0:0:0:
304,176,28446,1,0,0:0:0:0:
416,320,30134,1,12,0:0:0:0:
304,176,30509,1,0,0:0:0:0:
320,176,30696,1,0,0:0:0:0:
416,64,30884,1,8,0:0:0:0:
416,64,31071,1,8,0:0:0:0:
320,176,31446,1,0,0:0:0:0:
416,64,31821,1,8,0:0:0:0:
416,64,32196,1,8,0:0:0:0:
320,176,32384,1,0,0:0:0:0:
320,176,32477,1,0,0:0:0:0:
320,176,32571,1,0,0:0:0:0:
416,64,32759,1,8,0:0:0:0:
320,176,32946,1,0,0:0:0:0:
416,64,33134,1,8,0:0:0:0:
416,64,33509,1,8,0:0:0:0:
416,64,33696,1,8,0:0:0:0:
304,192,34071,1,0,0:0:0:0:
416,64,34259,1,8,0:0:0:0:
304,192,34446,1,0,0:0:0:0:
416,320,36134,1,12,0:0:0:0:
304,192,36509,1,0,0:0:0:0:
304,192,36696,1,0,0:0:0:0:
416,64,36884,1,8,0:0:0:0:
304,192,37071,1,0,0:0:0:0:
416,64,37446,1,8,0:0:0:0:
288,192,37821,1,0,0:0:0:0:
416,64,38196,1,8,0:0:0:0:
304,192,38384,1,0,0:0:0:0:
304,192,38477,1,0,0:0:0:0:
304,192,38571,1,0,0:0:0:0:
416,64,38759,1,8,0:0:0:0:
304,192,38946,1,0,0:0:0:0:
416,64,39134,1,8,0:0:0:0:
304,192,39509,1,0,0:0:0:0:
304,192,39696,1,0,0:0:0:0:
416,64,40071,1,8,0:0:0:0:
416,64,40259,1,8,0:0:0:0:
304,192,40446,1,0,0:0:0:0:
416,320,42134,1,12,0:0:0:0:
416,64,42509,1,8,0:0:0:0:
304,192,42696,1,0,0:0:0:0:
304,192,42884,1,0,0:0:0:0:
304,192,43071,1,0,0:0:0:0:
416,64,43446,1,8,0:0:0:0:
304,192,43821,1,0,0:0:0:0:
416,64,44196,1,8,0:0:0:0:
304,192,44384,1,0,0:0:0:0:
304,192,44477,1,0,0:0:0:0:
304,192,44571,1,0,0:0:0:0:
416,64,44759,1,8,0:0:0:0:
288,192,44946,1,0,0:0:0:0:
416,64,45134,1,8,0:0:0:0:
288,192,45321,1,0,0:0:0:0:
288,192,45696,1,0,0:0:0:0:
416,64,46071,1,8,0:0:0:0:
288,176,46259,1,0,0:0:0:0:
288,176,46446,1,0,0:0:0:0:
416,64,48134,1,8,0:0:0:0:
288,176,48321,1,0,0:0:0:0:
288,176,48415,1,0,0:0:0:0:
288,176,48509,1,0,0:0:0:0:
288,176,48696,1,0,0:0:0:0:
416,64,48884,1,8,0:0:0:0:
416,64,48977,1,8,0:0:0:0:
416,64,49071,1,8,0:0:0:0:
288,176,49259,1,0,0:0:0:0:
288,176,49352,1,0,0:0:0:0:
288,176,49446,1,0,0:0:0:0:
416,320,49634,1,12,0:0:0:0:
288,176,49821,1,0,0:0:0:0:
416,64,50009,1,8,0:0:0:0:
416,64,50196,1,8,0:0:0:0:
288,176,50571,1,0,0:0:0:0:
416,64,50946,1,8,0:0:0:0:
288,176,51321,1,0,0:0:0:0:
288,176,51696,1,0,0:0:0:0:
416,64,51884,1,8,0:0:0:0:
416,64,51977,1,8,0:0:0:0:
416,64,52071,1,8,0:0:0:0:
288,176,52259,1,0,0:0:0:0:
416,64,52446,1,8,0:0:0:0:
288,176,52634,1,0,0:0:0:0:
288,176,52821,1,0,0:0:0:0:
416,64,53009,1,8,0:0:0:0:
288,176,53196,1,0,0:0:0:0:
416,64,53571,1,8,0:0:0:0:
416,64,53946,1,8,0:0:0:0:
416,64,54321,1,8,0:0:0:0:
288,176,54509,1,0,0:0:0:0:
288,176,54602,1,0,0:0:0:0:
288,176,54696,1,0,0:0:0:0:
288,176,54884,1,0,0:0:0:0:
416,64,55071,1,8,0:0:0:0:
288,176,55259,1,0,0:0:0:0:
288,176,55352,1,0,0:0:0:0:
288,176,55446,1,0,0:0:0:0:
416,320,55634,1,8,0:0:0:0:
288,160,55821,1,0,0:0:0:0:
416,64,56009,1,8,0:0:0:0:
288,160,56196,1,0,0:0:0:0:
416,64,56571,1,8,0:0:0:0:
416,64,56946,1,8,0:0:0:0:
416,64,57321,1,8,0:0:0:0:
288,176,57696,1,0,0:0:0:0:
416,64,57884,1,8,0:0:0:0:
416,64,57977,1,8,0:0:0:0:
416,64,58071,1,8,0:0:0:0:
416,64,58259,1,8,0:0:0:0:
416,64,58446,1,8,0:0:0:0:
288,160,58634,1,0,0:0:0:0:
288,160,58821,1,0,0:0:0:0:
416,64,59009,1,8,0:0:0:0:
416,64,59196,1,8,0:0:0:0:
416,64,59571,1,8,0:0:0:0:
288,176,59946,1,0,0:0:0:0:
288,176,60321,1,0,0:0:0:0:
416,64,60696,1,8,0:0:0:0:
288,176,60884,1,0,0:0:0:0:
288,176,61071,1,0,0:0:0:0:
416,64,61259,1,8,0:0:0:0:
288,176,61446,1,0,0:0:0:0:
416,64,61634,1,8,0:0:0:0:
288,160,62384,1,0,0:0:0:0:
416,64,63134,1,8,0:0:0:0:
416,64,63415,1,8,0:0:0:0:
288,176,63696,1,0,0:0:0:0:
416,64,64071,1,8,0:0:0:0:
416,64,64634,1,8,0:0:0:0:
288,160,65384,1,0,0:0:0:0:
288,160,66134,1,0,0:0:0:0:
288,160,66415,1,0,0:0:0:0:
416,64,66696,1,8,0:0:0:0:
288,160,67071,1,0,0:0:0:0:
416,64,67634,1,8,0:0:0:0:
288,176,68384,1,0,0:0:0:0:
416,64,69134,1,8,0:0:0:0:
288,176,69415,1,0,0:0:0:0:
416,64,69696,1,8,0:0:0:0:
416,64,70071,1,8,0:0:0:0:
416,64,70634,1,8,0:0:0:0:
288,176,71384,1,0,0:0:0:0:
416,64,72134,1,8,0:0:0:0:
288,176,72415,1,0,0:0:0:0:
288,176,72696,1,0,0:0:0:0:
416,64,73071,1,8,0:0:0:0:
416,320,73634,1,12,0:0:0:0:
288,176,74009,1,0,0:0:0:0:
288,176,74384,1,0,0:0:0:0:
416,64,74571,1,8,0:0:0:0:
416,64,74759,1,8,0:0:0:0:
416,64,74852,1,8,0:0:0:0:
416,64,74946,1,8,0:0:0:0:
288,176,75321,1,0,0:0:0:0:
288,176,75696,1,0,0:0:0:0:
416,64,75884,1,8,0:0:0:0:
288,176,76071,1,0,0:0:0:0:
288,176,76259,1,0,0:0:0:0:
288,176,76352,1,0,0:0:0:0:
288,176,76446,1,0,0:0:0:0:
416,320,76634,1,12,0:0:0:0:
288,176,77009,1,0,0:0:0:0:
288,176,77384,1,0,0:0:0:0:
416,64,77571,1,8,0:0:0:0:
416,64,77759,1,8,0:0:0:0:
416,64,77852,1,8,0:0:0:0:
416,64,77946,1,8,0:0:0:0:
288,176,78321,1,0,0:0:0:0:
288,176,78696,1,0,0:0:0:0:
416,64,78884,1,8,0:0:0:0:
288,176,79071,1,0,0:0:0:0:
288,176,79259,1,0,0:0:0:0:
288,176,79352,1,0,0:0:0:0:
288,176,79446,1,0,0:0:0:0:
416,320,79634,1,12,0:0:0:0:
288,176,80009,1,0,0:0:0:0:
288,176,80384,1,0,0:0:0:0:
416,64,80571,1,8,0:0:0:0:
416,64,80759,1,8,0:0:0:0:
416,64,80852,1,8,0:0:0:0:
416,64,80946,1,8,0:0:0:0:
288,176,81321,1,0,0:0:0:0:
288,176,81696,1,0,0:0:0:0:
416,64,81884,1,8,0:0:0:0:
288,192,82071,1,0,0:0:0:0:
288,192,82259,1,0,0:0:0:0:
288,192,82352,1,0,0:0:0:0:
288,192,82446,1,0,0:0:0:0:
416,320,82634,1,12,0:0:0:0:
288,176,83009,1,0,0:0:0:0:
288,176,83196,1,0,0:0:0:0:
416,64,83571,1,8,0:0:0:0:
416,64,83759,1,8,0:0:0:0:
416,64,83852,1,8,0:0:0:0:
416,64,83946,1,8,0:0:0:0:
416,320,85634,1,12,0:0:0:0:
416,64,86009,1,8,0:0:0:0:
304,176,86196,1,0,0:0:0:0:
304,176,86384,1,0,0:0:0:0:
304,176,86571,1,0,0:0:0:0:
416,64,86946,1,8,0:0:0:0:
304,176,87321,1,0,0:0:0:0:
416,64,87696,1,8,0:0:0:0:
304,176,87884,1,0,0:0:0:0:
304,176,87977,1,0,0:0:0:0:
304,176,88071,1,0,0:0:0:0:
416,64,88259,1,8,0:0:0:0:
416,64,88446,1,8,0:0:0:0:
416,64,88821,1,8,0:0:0:0:
304,176,89196,1,0,0:0:0:0:
416,64,89571,1,8,0:0:0:0:
416,64,89759,1,8,0:0:0:0:
304,176,89946,1,0,0:0:0:0:
416,320,91634,1,12,0:0:0:0:
416,64,92009,1,8,0:0:0:0:
416,64,92196,1,8,0:0:0:0:
304,176,92384,1,0,0:0:0:0:
416,64,92571,1,8,0:0:0:0:
416,64,92946,1,8,0:0:0:0:
416,64,93321,1,8,0:0:0:0:
304,176,93696,1,0,0:0:0:0:
416,64,93884,1,8,0:0:0:0:
416,64,93977,1,8,0:0:0:0:
416,64,94071,1,8,0:0:0:0:
304,176,94259,1,0,0:0:0:0:
304,176,94446,1,0,0:0:0:0:
416,64,94634,1,8,0:0:0:0:
416,64,95009,1,8,0:0:0:0:
304,176,95196,1,0,0:0:0:0:
416,64,95571,1,8,0:0:0:0:
416,64,95759,1,8,0:0:0:0:
304,176,95946,1,0,0:0:0:0:
416,320,97634,1,12,0:0:0:0:
416,64,98009,1,8,0:0:0:0:
416,64,98196,1,8,0:0:0:0:
304,176,98384,1,0,0:0:0:0:
304,176,98571,1,0,0:0:0:0:
304,176,98946,1,0,0:0:0:0:
416,64,99321,1,8,0:0:0:0:
304,176,99696,1,0,0:0:0:0:
416,64,99884,1,8,0:0:0:0:
416,64,99977,1,8,0:0:0:0:
416,64,100071,1,8,0:0:0:0:
304,176,100259,1,0,0:0:0:0:
288,176,100446,1,0,0:0:0:0:
416,64,100634,1,8,0:0:0:0:
416,64,101009,1,8,0:0:0:0:
288,176,101196,1,0,0:0:0:0:
416,64,101571,1,8,0:0:0:0:
416,64,101759,1,8,0:0:0:0:
288,176,101946,1,0,0:0:0:0:
416,320,103634,1,12,0:0:0:0:
416,64,104009,1,8,0:0:0:0:
416,64,104196,1,8,0:0:0:0:
288,176,104384,1,0,0:0:0:0:
288,176,104571,1,0,0:0:0:0:
416,64,104946,1,8,0:0:0:0:
416,64,105321,1,8,0:0:0:0:
288,176,105696,1,0,0:0:0:0:
416,64,105884,1,8,0:0:0:0:
416,64,105977,1,8,0:0:0:0:
416,64,106071,1,8,0:0:0:0:
416,64,106259,1,8,0:0:0:0:
416,64,106446,1,8,0:0:0:0:
288,176,106634,1,0,0:0:0:0:
416,64,106821,1,8,0:0:0:0:
416,64,107196,1,8,0:0:0:0:
288,176,107571,1,0,0:0:0:0:
416,64,107759,1,8,0:0:0:0:
416,64,107946,1,8,0:0:0:0:
304,176,108134,1,0,0:0:0:0:
304,176,108509,1,0,0:0:0:0:
416,64,108884,1,8,0:0:0:0:
416,64,108977,1,8,0:0:0:0:
416,64,109071,1,8,0:0:0:0:
304,176,109259,1,0,0:0:0:0:
304,176,109352,1,0,0:0:0:0:
304,176,109446,1,0,0:0:0:0:
416,320,109634,1,12,0:0:0:0:
416,64,109821,1,8,0:0:0:0:
304,176,110009,1,0,0:0:0:0:
416,64,110196,1,8,0:0:0:0:
304,176,110571,1,0,0:0:0:0:
416,64,110946,1,8,0:0:0:0:
304,176,111321,1,0,0:0:0:0:
304,176,111696,1,0,0:0:0:0:
416,64,111884,1,8,0:0:0:0:
416,64,111977,1,8,0:0:0:0:
416,64,112071,1,8,0:0:0:0:
416,64,112259,1,8,0:0:0:0:
416,64,112446,1,8,0:0:0:0:
320,176,112634,1,0,0:0:0:0:
320,176,112821,1,0,0:0:0:0:
416,64,113009,1,8,0:0:0:0:
416,64,113196,1,8,0:0:0:0:
416,64,113571,1,8,0:0:0:0:
320,176,113946,1,0,0:0:0:0:
416,64,114321,1,8,0:0:0:0:
320,176,114509,1,0,0:0:0:0:
304,192,114602,1,0,0:0:0:0:
320,176,114696,1,0,0:0:0:0:
416,64,114884,1,8,0:0:0:0:
416,64,115071,1,8,0:0:0:0:
320,176,115259,1,0,0:0:0:0:
320,176,115352,1,0,0:0:0:0:
320,176,115446,1,0,0:0:0:0:
416,320,115634,1,8,0:0:0:0:
320,176,115821,1,0,0:0:0:0:
416,64,116009,1,8,0:0:0:0:
320,176,116196,1,0,0:0:0:0:
416,64,116571,1,8,0:0:0:0:
320,176,116946,1,0,0:0:0:0:
416,64,117321,1,8,0:0:0:0:
320,176,117696,1,0,0:0:0:0:
416,64,117884,1,8,0:0:0:0:
416,64,117977,1,8,0:0:0:0:
416,64,118071,1,8,0:0:0:0:
320,176,118259,1,0,0:0:0:0:
416,64,118446,1,8,0:0:0:0:
320,176,118634,1,0,0:0:0:0:
320,176,118821,1,0,0:0:0:0:
416,64,119009,1,8,0:0:0:0:
320,176,119196,1,0,0:0:0:0:
416,64,119571,1,8,0:0:0:0:
320,176,119946,1,0,0:0:0:0:
416,64,120321,1,8,0:0:0:0:
320,176,120509,1,0,0:0:0:0:
320,176,120602,1,0,0:0:0:0:
320,176,120696,1,0,0:0:0:0:
416,64,120884,1,8,0:0:0:0:
416,64,120977,1,8,0:0:0:0:
416,64,121071,1,8,0:0:0:0:
320,176,121259,1,0,0:0:0:0:
320,176,121352,1,0,0:0:0:0:
320,176,121446,1,0,0:0:0:0:
416,320,121634,1,12,0:0:0:0:
320,176,121821,1,0,0:0:0:0:
320,176,122009,1,0,0:0:0:0:
416,64,122196,1,8,0:0:0:0:
416,64,122571,1,8,0:0:0:0:
320,176,122946,1,0,0:0:0:0:
416,64,123321,1,8,0:0:0:0:
320,176,123696,1,0,0:0:0:0:
416,64,123884,1,8,0:0:0:0:
416,64,123977,1,8,0:0:0:0:
416,64,124071,1,8,0:0:0:0:
320,176,124259,1,0,0:0:0:0:
416,64,124446,1,8,0:0:0:0:
320,176,124634,1,0,0:0:0:0:
320,176,124821,1,0,0:0:0:0:
416,64,125009,1,8,0:0:0:0:
320,176,125196,1,0,0:0:0:0:
416,64,125571,1,8,0:0:0:0:
320,176,125946,1,0,0:0:0:0:
416,64,126321,1,8,0:0:0:0:
320,176,126696,1,0,0:0:0:0:
320,176,126884,1,0,0:0:0:0:
416,64,127259,1,8,0:0:0:0:
416,320,127634,1,12,0:0:0:0:
320,176,127821,1,0,0:0:0:0:
416,64,128009,1,8,0:0:0:0:
320,176,128196,1,0,0:0:0:0:
416,64,128571,1,8,0:0:0:0:
320,176,128946,1,0,0:0:0:0:
416,64,129321,1,8,0:0:0:0:
320,176,129696,1,0,0:0:0:0:
416,64,129884,1,8,0:0:0:0:
416,64,129977,1,8,0:0:0:0:
416,64,130071,1,8,0:0:0:0:
416,64,130259,1,8,0:0:0:0:
320,176,130446,1,0,0:0:0:0:
320,176,130634,1,0,0:0:0:0:
320,176,130821,1,0,0:0:0:0:
416,64,131009,1,8,0:0:0:0:
320,176,131196,1,0,0:0:0:0:
416,64,131571,1,8,0:0:0:0:
320,176,131946,1,0,0:0:0:0:
416,64,132321,1,8,0:0:0:0:
320,176,132696,1,0,0:0:0:0:
416,64,132884,1,8,0:0:0:0:
416,64,132977,1,8,0:0:0:0:
416,64,133071,1,8,0:0:0:0:
320,176,133259,1,0,0:0:0:0:
416,64,133446,1,8,0:0:0:0:
