osu file format v14

[General]
AudioFilename: audio.mp3
AudioLeadIn: 0
PreviewTime: 84134
Countdown: 0
SampleSet: Normal
StackLeniency: 0.7
Mode: 1
LetterboxInBreaks: 0
WidescreenStoryboard: 1

[Editor]
DistanceSpacing: 3.4
BeatDivisor: 4
GridSize: 32
TimelineZoom: 2.3

[Metadata]
Title:minnesota is a place that exists
TitleUnicode:minnesota is a place that exists
Artist:glaive
ArtistUnicode:glaive
Creator:Cryceptio
Version:fyn's oni
Source:
Tags:english hyper pop hyper-pop hyperpop G1* tsukani jeshuan fynbi
BeatmapID:3776862
BeatmapSetID:1798956

[Difficulty]
HPDrainRate:5.5
CircleSize:2
OverallDifficulty:6
ApproachRate:10
SliderMultiplier:1.4
SliderTickRate:1

[Events]
//Background and Video events
0,0,"mimnesotabg.jpg",0,0
//Break Periods
2,61646,72059
//Storyboard Layer 0 (Background)
//Storyboard Layer 1 (Fail)
//Storyboard Layer 2 (Pass)
//Storyboard Layer 3 (Foreground)
//Storyboard Layer 4 (Overlay)
//Storyboard Sound Samples

[TimingPoints]
134,375,4,1,0,75,1,0
134,-111.111111111111,4,1,0,75,0,0
12644,-117.647058823529,4,1,0,75,0,0
23941,-117.647058823529,4,1,0,95,0,0
24129,-100,4,1,0,95,0,0
28629,-108.108108108108,4,1,0,90,0,0
30129,-100,4,1,0,95,0,0
34629,-108.108108108108,4,1,0,90,0,0
36129,-100,4,1,0,95,0,0
40629,-108.108108108108,4,1,0,90,0,0
42129,-100,4,1,0,95,0,0
46629,-108.108108108108,4,1,0,90,0,0
48082,-107.49027,4,1,0,95,0,0
48269,-105.100464,4,1,0,95,0,0
48457,-102.80264,4,1,0,95,0,0
48644,-100.61462,4,1,0,95,0,0
48832,-98.50679,4,1,0,95,0,0
48925,-97.496414,4,1,0,95,0,0
49019,-96.49602,4,1,0,95,0,0
49113,-95.51594,4,1,0,95,0,0
49207,-94.55556,4,1,0,95,0,0
49300,-93.62423,4,1,0,95,0,0
49394,-92.70134,4,1,0,95,0,0
49634,375,4,1,0,95,1,1
49634,-90.90909,4,1,0,95,0,1
61634,-100,4,1,0,75,0,0
63082,-101.26582278481,4,1,0,75,0,0
64535,-102.564102564103,4,1,0,75,0,0
66035,-103.896103896104,4,1,0,75,0,0
67535,-105.263157894737,4,1,0,75,0,0
69035,-106.666666666667,4,1,0,75,0,0
70535,-108.108108108108,4,1,0,75,0,0
72035,-109.58904109589,4,1,0,75,0,0
72128,-109.58904109589,4,1,0,75,0,0
73582,-111.111111111111,4,1,0,75,0,0
73628,-111.111111111111,4,1,0,75,0,0
84082,-117.647058823529,4,1,0,75,0,0
85628,-100,4,1,0,95,0,0
90128,-108.108108108108,4,1,0,90,0,0
91628,-100,4,1,0,95,0,0
96128,-108.108108108108,4,1,0,90,0,0
97628,-100,4,1,0,95,0,0
102128,-108.108108108108,4,1,0,90,0,0
103628,-100,4,1,0,95,0,0
108128,-100,4,1,0,95,0,0
108269,-98.768684,4,1,0,95,0,0
108457,-97.560974,4,1,0,95,0,0
108644,-96.38864,4,1,0,95,0,0
108832,-95.2381,4,1,0,95,0,0
108925,-94.67904,4,1,0,95,0,0
109019,-94.120605,4,1,0,95,0,0
109113,-93.56871,4,1,0,95,0,0
109207,-93.023254,4,1,0,95,0,0
109300,-92.48982,4,1,0,95,0,0
109394,-91.95685,4,1,0,95,0,0
109634,-90.90909,4,1,0,95,0,1
120082,-90.65087,4,1,0,95,0,1
120269,-89.63786,4,1,0,95,0,1
120457,-88.642006,4,1,0,95,0,1
120550,-88.15751,4,1,0,95,0,1
120644,-87.67316,4,1,0,95,0,1
120832,-86.720245,4,1,0,95,0,1
120925,-86.25647,4,1,0,95,0,1
121019,-85.79272,4,1,0,95,0,1
121113,-85.33394,4,1,0,95,0,1
121207,-84.88004,4,1,0,95,0,1
121300,-84.43569,4,1,0,95,0,1
121394,-83.991264,4,1,0,95,0,1
121582,-83.3333325694445,4,1,0,95,0,1
121957,-90.90909,4,1,0,95,0,1
126884,-90.9090909090909,4,1,0,95,0,0
127254,-74.0740740740741,4,1,0,95,0,0
127634,-90.9090909090909,4,1,0,95,0,1
133446,-90.9090909090909,4,1,0,95,0,0
133629,-13.7551581843191,4,1,0,55,0,0

[HitObjects]
256,192,134,5,0,0:0:0:0:
256,192,321,5,0,0:0:0:0:
256,192,509,5,8,0:0:0:0:
256,192,696,5,0,0:0:0:0:
256,192,1071,5,8,0:0:0:0:
256,192,1446,5,0,0:0:0:0:
256,192,1821,5,8,0:0:0:0:
256,192,2196,5,0,0:0:0:0:
256,192,2384,5,8,0:0:0:0:
256,192,2571,5,0,0:0:0:0:
256,192,2759,5,8,0:0:0:0:
256,192,2946,5,8,0:0:0:0:
256,192,3134,5,0,0:0:0:0:
256,192,3321,5,0,0:0:0:0:
256,192,3509,5,8,0:0:0:0:
256,192,3696,5,0,0:0:0:0:
256,192,4071,5,8,0:0:0:0:
256,192,4446,5,0,0:0:0:0:
256,192,4821,5,8,0:0:0:0:
256,192,5196,5,0,0:0:0:0:
256,192,5384,5,8,0:0:0:0:
256,192,5571,5,8,0:0:0:0:
256,192,5759,5,0,0:0:0:0:
256,192,5946,5,8,0:0:0:0:
256,192,6134,5,0,0:0:0:0:
256,192,6321,5,0,0:0:0:0:
256,192,6509,5,8,0:0:0:0:
256,192,6696,5,0,0:0:0:0:
256,192,7071,5,8,0:0:0:0:
256,192,7446,5,0,0:0:0:0:
256,192,7821,5,8,0:0:0:0:
256,192,8196,5,0,0:0:0:0:
256,192,8384,5,8,0:0:0:0:
256,192,8571,5,0,0:0:0:0:
256,192,8759,5,8,0:0:0:0:
256,192,8946,5,8,0:0:0:0:
256,192,9134,5,0,0:0:0:0:
256,192,9321,5,0,0:0:0:0:
256,192,9509,5,8,0:0:0:0:
256,192,9696,5,0,0:0:0:0:
256,192,10071,5,8,0:0:0:0:
256,192,10446,5,0,0:0:0:0:
256,192,10821,5,8,0:0:0:0:
256,192,11384,5,8,0:0:0:0:
256,192,11571,5,0,0:0:0:0:
256,192,11759,5,0,0:0:0:0:
256,192,11946,5,0,0:0:0:0:
256,192,12134,5,8,0:0:0:0:
256,192,12696,5,8,0:0:0:0:
256,192,12884,5,8,0:0:0:0:
256,192,13446,5,0,0:0:0:0:
256,192,13634,5,0,0:0:0:0:
256,192,14196,5,8,0:0:0:0:
256,192,14384,5,0,0:0:0:0:
256,192,14946,5,0,0:0:0:0:
256,192,15134,5,8,0:0:0:0:
256,192,15696,5,8,0:0:0:0:
256,192,15884,5,0,0:0:0:0:
256,192,16446,5,0,0:0:0:0:
256,192,16634,5,8,0:0:0:0:
256,192,17196,5,8,0:0:0:0:
256,192,17384,5,8,0:0:0:0:
256,192,17571,5,0,0:0:0:0:
256,192,17759,5,8,0:0:0:0:
256,192,18134,5,8,0:0:0:0:
256,192,18696,5,8,0:0:0:0:
256,192,18884,5,8,0:0:0:0:
256,192,19446,5,0,0:0:0:0:
256,192,19634,5,0,0:0:0:0:
256,192,20196,5,8,0:0:0:0:
256,192,20384,5,0,0:0:0:0:
256,192,20946,5,8,0:0:0:0:
256,192,21134,5,8,0:0:0:0:
256,192,21696,5,0,0:0:0:0:
256,192,21884,5,8,0:0:0:0:
256,192,22446,5,0,0:0:0:0:
256,192,22634,5,0,0:0:0:0:
256,192,23196,5,8,0:0:0:0:
256,192,23384,5,0,0:0:0:0:
256,192,23759,5,8,0:0:0:0:
256,192,24134,5,4,0:0:0:0:
256,192,24509,5,8,0:0:0:0:
256,192,24696,5,0,0:0:0:0:
256,192,24790,5,0,0:0:0:0:
256,192,24884,5,0,0:0:0:0:
256,192,25071,5,8,0:0:0:0:
256,192,25259,5,0,0:0:0:0:
256,192,25352,5,8,0:0:0:0:
256,192,25446,5,8,0:0:0:0:
256,192,25634,5,0,0:0:0:0:
256,192,25821,5,8,0:0:0:0:
256,192,25915,5,0,0:0:0:0:
256,192,26009,5,0,0:0:0:0:
256,192,26196,5,8,0:0:0:0:
256,192,26384,5,0,0:0:0:0:
256,192,26571,5,8,0:0:0:0:
256,192,26759,5,0,0:0:0:0:
256,192,26852,5,0,0:0:0:0:
256,192,26946,5,8,0:0:0:0:
256,192,27134,5,0,0:0:0:0:
256,192,27321,5,8,0:0:0:0:
256,192,27415,5,8,0:0:0:0:
256,192,27509,5,0,0:0:0:0:
256,192,27696,5,8,0:0:0:0:
256,192,27884,5,0,0:0:0:0:
256,192,28071,5,8,0:0:0:0:
256,192,28165,5,8,0:0:0:0:
256,192,28259,5,8,0:0:0:0:
256,192,28446,5,0,0:0:0:0:
256,192,30134,5,4,0:0:0:0:
256,192,30509,5,8,0:0:0:0:
256,192,30696,5,0,0:0:0:0:
256,192,30790,5,0,0:0:0:0:
256,192,30884,5,0,0:0:0:0:
256,192,31071,5,8,0:0:0:0:
256,192,31259,5,0,0:0:0:0:
256,192,31352,5,0,0:0:0:0:
256,192,31446,5,8,0:0:0:0:
256,192,31634,5,0,0:0:0:0:
256,192,31821,5,8,0:0:0:0:
256,192,31915,5,8,0:0:0:0:
256,192,32009,5,0,0:0:0:0:
256,192,32196,5,8,0:0:0:0:
256,192,32384,5,0,0:0:0:0:
256,192,32571,5,0,0:0:0:0:
256,192,32759,5,8,0:0:0:0:
256,192,33134,5,8,0:0:0:0:
256,192,33227,5,0,0:0:0:0:
256,192,33321,5,0,0:0:0:0:
256,192,33509,5,8,0:0:0:0:
256,192,33696,5,8,0:0:0:0:
256,192,33790,5,8,0:0:0:0:
256,192,33884,5,0,0:0:0:0:
256,192,34071,5,8,0:0:0:0:
256,192,34259,5,0,0:0:0:0:
256,192,34446,5,8,0:0:0:0:
256,192,36134,5,4,0:0:0:0:
256,192,36509,5,8,0:0:0:0:
256,192,36602,5,8,0:0:0:0:
256,192,36696,5,8,0:0:0:0:
256,192,36884,5,0,0:0:0:0:
256,192,37071,5,8,0:0:0:0:
256,192,37165,5,8,0:0:0:0:
256,192,37259,5,0,0:0:0:0:
256,192,37446,5,8,0:0:0:0:
256,192,37634,5,0,0:0:0:0:
256,192,37821,5,0,0:0:0:0:
256,192,37915,5,0,0:0:0:0:
256,192,38009,5,8,0:0:0:0:
256,192,38196,5,8,0:0:0:0:
256,192,38384,5,0,0:0:0:0:
256,192,38571,5,8,0:0:0:0:
256,192,38759,5,8,0:0:0:0:
256,192,39134,5,0,0:0:0:0:
256,192,39227,5,0,0:0:0:0:
256,192,39321,5,0,0:0:0:0:
256,192,39509,5,8,0:0:0:0:
256,192,39696,5,8,0:0:0:0:
256,192,39790,5,8,0:0:0:0:
256,192,39884,5,0,0:0:0:0:
256,192,40071,5,8,0:0:0:0:
256,192,40259,5,8,0:0:0:0:
256,192,40446,5,0,0:0:0:0:
256,192,42134,5,4,0:0:0:0:
256,192,42509,5,8,0:0:0:0:
256,192,42602,5,8,0:0:0:0:
256,192,42696,5,8,0:0:0:0:
256,192,42884,5,0,0:0:0:0:
256,192,43071,5,8,0:0:0:0:
256,192,43259,5,0,0:0:0:0:
256,192,43352,5,0,0:0:0:0:
256,192,43446,5,8,0:0:0:0:
256,192,43634,5,0,0:0:0:0:
256,192,43821,5,8,0:0:0:0:
256,192,43915,5,8,0:0:0:0:
256,192,44009,5,0,0:0:0:0:
256,192,44196,5,8,0:0:0:0:
256,192,44384,5,8,0:0:0:0:
256,192,44571,5,0,0:0:0:0:
256,192,44759,5,8,0:0:0:0:
256,192,45134,5,0,0:0:0:0:
256,192,45227,5,8,0:0:0:0:
256,192,45321,5,8,0:0:0:0:
256,192,45509,5,0,0:0:0:0:
256,192,45696,5,8,0:0:0:0:
256,192,45790,5,8,0:0:0:0:
256,192,45884,5,0,0:0:0:0:
256,192,46071,5,8,0:0:0:0:
256,192,46259,5,0,0:0:0:0:
256,192,46352,5,0,0:0:0:0:
256,192,46446,5,8,0:0:0:0:
256,192,48134,5,8,0:0:0:0:
256,192,48321,5,0,0:0:0:0:
256,192,48509,5,8,0:0:0:0:
256,192,48696,5,0,0:0:0:0:
256,192,48884,5,8,0:0:0:0:
256,192,48977,5,0,0:0:0:0:
256,192,49071,5,8,0:0:0:0:
256,192,49165,5,0,0:0:0:0:
256,192,49259,5,8,0:0:0:0:
256,192,49352,5,0,0:0:0:0:
256,192,49446,5,8,0:0:0:0:
256,192,49634,5,4,0:0:0:0:
256,192,50009,5,8,0:0:0:0:
256,192,50102,5,0,0:0:0:0:
256,192,50196,5,8,0:0:0:0:
256,192,50384,5,0,0:0:0:0:
256,192,50571,5,8,0:0:0:0:
256,192,50665,5,8,0:0:0:0:
256,192,50759,5,0,0:0:0:0:
256,192,50946,5,8,0:0:0:0:
256,192,51134,5,0,0:0:0:0:
256,192,51321,5,8,0:0:0:0:
256,192,51415,5,8,0:0:0:0:
256,192,51509,5,8,0:0:0:0:
256,192,51696,5,0,0:0:0:0:
256,192,51790,5,0,0:0:0:0:
256,192,51884,5,8,0:0:0:0:
256,192,52071,5,0,0:0:0:0:
256,192,52259,5,8,0:0:0:0:
256,192,52446,5,0,0:0:0:0:
256,192,52634,5,0,0:0:0:0:
256,192,53009,5,8,0:0:0:0:
256,192,53102,5,0,0:0:0:0:
256,192,53196,5,8,0:0:0:0:
256,192,53384,5,0,0:0:0:0:
256,192,53571,5,8,0:0:0:0:
256,192,53665,5,8,0:0:0:0:
256,192,53759,5,0,0:0:0:0:
256,192,53946,5,0,0:0:0:0:
256,192,54134,5,0,0:0:0:0:
256,192,54321,5,0,0:0:0:0:
256,192,54415,5,8,0:0:0:0:
256,192,54509,5,8,0:0:0:0:
256,192,54696,5,8,0:0:0:0:
256,192,54884,5,0,0:0:0:0:
256,192,54977,5,0,0:0:0:0:
256,192,55071,5,8,0:0:0:0:
256,192,55165,5,8,0:0:0:0:
256,192,55259,5,0,0:0:0:0:
256,192,55446,5,8,0:0:0:0:
256,192,55634,5,0,0:0:0:0:
256,192,56009,5,8,0:0:0:0:
256,192,56102,5,0,0:0:0:0:
256,192,56196,5,8,0:0:0:0:
256,192,56384,5,0,0:0:0:0:
256,192,56571,5,8,0:0:0:0:
256,192,56759,5,0,0:0:0:0:
256,192,56852,5,0,0:0:0:0:
256,192,56946,5,8,0:0:0:0:
256,192,57134,5,0,0:0:0:0:
256,192,57321,5,8,0:0:0:0:
256,192,57415,5,8,0:0:0:0:
256,192,57509,5,8,0:0:0:0:
256,192,57696,5,0,0:0:0:0:
256,192,57884,5,8,0:0:0:0:
256,192,57977,5,8,0:0:0:0:
256,192,58071,5,0,0:0:0:0:
256,192,58259,5,8,0:0:0:0:
256,192,58446,5,0,0:0:0:0:
256,192,58634,5,0,0:0:0:0:
256,192,59009,5,8,0:0:0:0:
256,192,59102,5,0,0:0:0:0:
256,192,59196,5,8,0:0:0:0:
256,192,59384,5,0,0:0:0:0:
256,192,59571,5,8,0:0:0:0:
256,192,59759,5,0,0:0:0:0:
256,192,59852,5,8,0:0:0:0:
256,192,59946,5,0,0:0:0:0:
256,192,60134,5,0,0:0:0:0:
256,192,60321,5,8,0:0:0:0:
256,192,60415,5,8,0:0:0:0:
256,192,60509,5,8,0:0:0:0:
256,192,60696,5,0,0:0:0:0:
256,192,60884,5,8,0:0:0:0:
256,192,60977,5,8,0:0:0:0:
256,192,61071,5,0,0:0:0:0:
256,192,61165,5,0,0:0:0:0:
256,192,61259,5,8,0:0:0:0:
256,192,61446,5,0,0:0:0:0:
256,192,73634,5,0,0:0:0:0:
256,192,74009,5,8,0:0:0:0:
256,192,74571,5,0,0:0:0:0:
256,192,74759,5,0,0:0:0:0:
256,192,74852,5,8,0:0:0:0:
256,192,74946,5,8,0:0:0:0:
256,192,75134,5,0,0:0:0:0:
256,192,75321,5,0,0:0:0:0:
256,192,75509,5,8,0:0:0:0:
256,192,75884,5,8,0:0:0:0:
256,192,76071,5,0,0:0:0:0:
256,192,76165,5,0,0:0:0:0:
256,192,76352,5,8,0:0:0:0:
256,192,76446,5,8,0:0:0:0:
256,192,76634,5,0,0:0:0:0:
256,192,77009,5,8,0:0:0:0:
256,192,77571,5,0,0:0:0:0:
256,192,77759,5,0,0:0:0:0:
256,192,77852,5,8,0:0:0:0:
256,192,77946,5,8,0:0:0:0:
256,192,78134,5,0,0:0:0:0:
256,192,78321,5,0,0:0:0:0:
256,192,78509,5,8,0:0:0:0:
256,192,78884,5,8,0:0:0:0:
256,192,79071,5,0,0:0:0:0:
256,192,79259,5,0,0:0:0:0:
256,192,79352,5,0,0:0:0:0:
256,192,79446,5,8,0:0:0:0:
256,192,79634,5,0,0:0:0:0:
256,192,80009,5,8,0:0:0:0:
256,192,80571,5,0,0:0:0:0:
256,192,80665,5,0,0:0:0:0:
256,192,80852,5,8,0:0:0:0:
256,192,80946,5,8,0:0:0:0:
256,192,81134,5,0,0:0:0:0:
256,192,81321,5,0,0:0:0:0:
256,192,81509,5,8,0:0:0:0:
256,192,81884,5,8,0:0:0:0:
256,192,82071,5,0,0:0:0:0:
256,192,82259,5,0,0:0:0:0:
256,192,82352,5,8,0:0:0:0:
256,192,82446,5,8,0:0:0:0:
256,192,82634,5,0,0:0:0:0:
256,192,83009,5,8,0:0:0:0:
256,192,83196,5,0,0:0:0:0:
256,192,83571,5,0,0:0:0:0:
256,192,83759,5,0,0:0:0:0:
256,192,83852,5,8,0:0:0:0:
256,192,83946,5,8,0:0:0:0:
256,192,85634,5,4,0:0:0:0:
256,192,86009,5,8,0:0:0:0:
256,192,86196,5,0,0:0:0:0:
256,192,86290,5,0,0:0:0:0:
256,192,86384,5,0,0:0:0:0:
256,192,86571,5,8,0:0:0:0:
256,192,86759,5,0,0:0:0:0:
256,192,86852,5,8,0:0:0:0:
256,192,86946,5,8,0:0:0:0:
256,192,87134,5,0,0:0:0:0:
256,192,87321,5,8,0:0:0:0:
256,192,87415,5,0,0:0:0:0:
256,192,87509,5,0,0:0:0:0:
256,192,87696,5,8,0:0:0:0:
256,192,87884,5,0,0:0:0:0:
256,192,88071,5,8,0:0:0:0:
256,192,88259,5,0,0:0:0:0:
256,192,88352,5,0,0:0:0:0:
256,192,88446,5,8,0:0:0:0:
256,192,88634,5,0,0:0:0:0:
256,192,88821,5,8,0:0:0:0:
256,192,88915,5,8,0:0:0:0:
256,192,89009,5,0,0:0:0:0:
256,192,89196,5,8,0:0:0:0:
256,192,89384,5,0,0:0:0:0:
256,192,89571,5,8,0:0:0:0:
256,192,89665,5,8,0:0:0:0:
256,192,89759,5,8,0:0:0:0:
256,192,89946,5,0,0:0:0:0:
256,192,91634,5,4,0:0:0:0:
256,192,92009,5,8,0:0:0:0:
256,192,92196,5,0,0:0:0:0:
256,192,92290,5,0,0:0:0:0:
256,192,92384,5,0,0:0:0:0:
256,192,92571,5,8,0:0:0:0:
256,192,92759,5,0,0:0:0:0:
256,192,92852,5,0,0:0:0:0:
256,192,92946,5,8,0:0:0:0:
256,192,93134,5,0,0:0:0:0:
256,192,93321,5,8,0:0:0:0:
256,192,93415,5,8,0:0:0:0:
256,192,93509,5,0,0:0:0:0:
256,192,93696,5,8,0:0:0:0:
256,192,93884,5,0,0:0:0:0:
256,192,94071,5,0,0:0:0:0:
256,192,94259,5,8,0:0:0:0:
256,192,94634,5,8,0:0:0:0:
256,192,94727,5,0,0:0:0:0:
256,192,94821,5,0,0:0:0:0:
256,192,95009,5,8,0:0:0:0:
256,192,95196,5,8,0:0:0:0:
256,192,95290,5,8,0:0:0:0:
256,192,95384,5,0,0:0:0:0:
256,192,95571,5,8,0:0:0:0:
256,192,95759,5,0,0:0:0:0:
256,192,95946,5,8,0:0:0:0:
256,192,97634,5,4,0:0:0:0:
256,192,98009,5,8,0:0:0:0:
256,192,98102,5,8,0:0:0:0:
256,192,98196,5,8,0:0:0:0:
256,192,98384,5,0,0:0:0:0:
256,192,98571,5,8,0:0:0:0:
256,192,98665,5,8,0:0:0:0:
256,192,98759,5,0,0:0:0:0:
256,192,98946,5,8,0:0:0:0:
256,192,99134,5,0,0:0:0:0:
256,192,99321,5,0,0:0:0:0:
256,192,99415,5,0,0:0:0:0:
256,192,99509,5,8,0:0:0:0:
256,192,99696,5,8,0:0:0:0:
256,192,99884,5,0,0:0:0:0:
256,192,100071,5,8,0:0:0:0:
256,192,100259,5,8,0:0:0:0:
256,192,100634,5,0,0:0:0:0:
256,192,100727,5,0,0:0:0:0:
256,192,100821,5,0,0:0:0:0:
256,192,101009,5,8,0:0:0:0:
256,192,101196,5,8,0:0:0:0:
256,192,101290,5,8,0:0:0:0:
256,192,101384,5,0,0:0:0:0:
256,192,101571,5,8,0:0:0:0:
256,192,101759,5,8,0:0:0:0:
256,192,101946,5,0,0:0:0:0:
256,192,103634,5,4,0:0:0:0:
256,192,104009,5,8,0:0:0:0:
256,192,104102,5,8,0:0:0:0:
256,192,104196,5,8,0:0:0:0:
256,192,104384,5,0,0:0:0:0:
256,192,104571,5,8,0:0:0:0:
256,192,104759,5,0,0:0:0:0:
256,192,104852,5,0,0:0:0:0:
256,192,104946,5,8,0:0:0:0:
256,192,105134,5,0,0:0:0:0:
256,192,105321,5,8,0:0:0:0:
256,192,105415,5,8,0:0:0:0:
256,192,105509,5,0,0:0:0:0:
256,192,105696,5,8,0:0:0:0:
256,192,105884,5,8,0:0:0:0:
256,192,106071,5,0,0:0:0:0:
256,192,106259,5,8,0:0:0:0:
256,192,106634,5,0,0:0:0:0:
256,192,106727,5,8,0:0:0:0:
256,192,106821,5,8,0:0:0:0:
256,192,107009,5,0,0:0:0:0:
256,192,107196,5,8,0:0:0:0:
256,192,107290,5,8,0:0:0:0:
256,192,107384,5,0,0:0:0:0:
256,192,107571,5,8,0:0:0:0:
256,192,107759,5,0,0:0:0:0:
256,192,107852,5,0,0:0:0:0:
256,192,107946,5,8,0:0:0:0:
256,192,108134,5,0,0:0:0:0:
256,192,108321,5,0,0:0:0:0:
256,192,108509,5,8,0:0:0:0:
256,192,108696,5,0,0:0:0:0:
256,192,108884,5,8,0:0:0:0:
256,192,108977,5,8,0:0:0:0:
256,192,109071,5,8,0:0:0:0:
256,192,109165,5,8,0:0:0:0:
256,192,109259,5,8,0:0:0:0:
256,192,109352,5,8,0:0:0:0:
256,192,109446,5,8,0:0:0:0:
256,192,109634,5,4,0:0:0:0:
256,192,110009,5,8,0:0:0:0:
256,192,110102,5,0,0:0:0:0:
256,192,110196,5,8,0:0:0:0:
256,192,110384,5,0,0:0:0:0:
256,192,110571,5,8,0:0:0:0:
256,192,110665,5,8,0:0:0:0:
256,192,110759,5,0,0:0:0:0:
256,192,110946,5,8,0:0:0:0:
256,192,111134,5,0,0:0:0:0:
256,192,111321,5,8,0:0:0:0:
256,192,111415,5,8,0:0:0:0:
256,192,111509,5,8,0:0:0:0:
256,192,111696,5,0,0:0:0:0:
256,192,111790,5,0,0:0:0:0:
256,192,111884,5,8,0:0:0:0:
256,192,112071,5,0,0:0:0:0:
256,192,112259,5,8,0:0:0:0:
256,192,112446,5,0,0:0:0:0:
256,192,112634,5,0,0:0:0:0:
256,192,113009,5,8,0:0:0:0:
256,192,113102,5,0,0:0:0:0:
256,192,113196,5,8,0:0:0:0:
256,192,113384,5,0,0:0:0:0:
256,192,113571,5,8,0:0:0:0:
256,192,113665,5,8,0:0:0:0:
256,192,113759,5,0,0:0:0:0:
256,192,113946,5,0,0:0:0:0:
256,192,114134,5,0,0:0:0:0:
256,192,114321,5,0,0:0:0:0:
256,192,114415,5,8,0:0:0:0:
256,192,114509,5,8,0:0:0:0:
256,192,114696,5,8,0:0:0:0:
256,192,114884,5,0,0:0:0:0:
256,192,114977,5,0,0:0:0:0:
256,192,115071,5,8,0:0:0:0:
256,192,115165,5,8,0:0:0:0:
256,192,115259,5,0,0:0:0:0:
256,192,115446,5,8,0:0:0:0:
256,192,115634,5,0,0:0:0:0:
256,192,116009,5,8,0:0:0:0:
256,192,116102,5,0,0:0:0:0:
256,192,116196,5,8,0:0:0:0:
256,192,116384,5,0,0:0:0:0:
256,192,116571,5,8,0:0:0:0:
256,192,116759,5,0,0:0:0:0:
256,192,116852,5,0,0:0:0:0:
256,192,116946,5,8,0:0:0:0:
256,192,117134,5,0,0:0:0:0:
256,192,117321,5,8,0:0:0:0:
256,192,117415,5,8,0:0:0:0:
256,192,117509,5,8,0:0:0:0:
256,192,117696,5,0,0:0:0:0:
256,192,117884,5,8,0:0:0:0:
256,192,117977,5,8,0:0:0:0:
256,192,118071,5,0,0:0:0:0:
256,192,118259,5,8,0:0:0:0:
256,192,118446,5,0,0:0:0:0:
256,192,118634,5,0,0:0:0:0:
256,192,119009,5,8,0:0:0:0:
256,192,119102,5,0,0:0:0:0:
256,192,119196,5,8,0:0:0:0:
256,192,119384,5,0,0:0:0:0:
256,192,119571,5,8,0:0:0:0:
256,192,119759,5,0,0:0:0:0:
256,192,119852,5,8,0:0:0:0:
256,192,119946,5,0,0:0:0:0:
256,192,120134,5,0,0:0:0:0:
256,192,120321,5,8,0:0:0:0:
256,192,120509,5,0,0:0:0:0:
256,192,120602,5,0,0:0:0:0:
256,192,120696,5,8,0:0:0:0:
256,192,120884,5,8,0:0:0:0:
256,192,120977,5,8,0:0:0:0:
256,192,121071,5,0,0:0:0:0:
256,192,121165,5,0,0:0:0:0:
256,192,121259,5,8,0:0:0:0:
256,192,121352,5,8,0:0:0:0:
256,192,121446,5,0,0:0:0:0:
256,192,121634,5,12,0:0:0:0:
256,192,122009,5,8,0:0:0:0:
256,192,122102,5,0,0:0:0:0:
256,192,122196,5,8,0:0:0:0:
256,192,122384,5,0,0:0:0:0:
256,192,122571,5,8,0:0:0:0:
256,192,122665,5,8,0:0:0:0:
256,192,122759,5,0,0:0:0:0:
256,192,122946,5,8,0:0:0:0:
256,192,123134,5,0,0:0:0:0:
256,192,123321,5,8,0:0:0:0:
256,192,123415,5,8,0:0:0:0:
256,192,123509,5,8,0:0:0:0:
256,192,123696,5,0,0:0:0:0:
256,192,123790,5,0,0:0:0:0:
256,192,123884,5,8,0:0:0:0:
256,192,124071,5,0,0:0:0:0:
256,192,124259,5,8,0:0:0:0:
256,192,124446,5,0,0:0:0:0:
256,192,124634,5,0,0:0:0:0:
256,192,125009,5,8,0:0:0:0:
256,192,125102,5,0,0:0:0:0:
256,192,125196,5,8,0:0:0:0:
256,192,125384,5,0,0:0:0:0:
256,192,125571,5,8,0:0:0:0:
256,192,125665,5,8,0:0:0:0:
256,192,125759,5,0,0:0:0:0:
256,192,125946,5,0,0:0:0:0:
256,192,126134,5,0,0:0:0:0:
256,192,126321,5,8,0:0:0:0:
256,192,126415,5,8,0:0:0:0:
256,192,126509,5,8,0:0:0:0:
256,192,126696,5,8,0:0:0:0:
256,192,126884,5,0,0:0:0:0:
256,192,127259,5,8,0:0:0:0:
256,192,127634,5,4,0:0:0:0:
256,192,128009,5,8,0:0:0:0:
256,192,128102,5,0,0:0:0:0:
256,192,128196,5,8,0:0:0:0:
256,192,128384,5,0,0:0:0:0:
256,192,128571,5,8,0:0:0:0:
256,192,128759,5,0,0:0:0:0:
256,192,128852,5,0,0:0:0:0:
256,192,128946,5,8,0:0:0:0:
256,192,129134,5,0,0:0:0:0:
256,192,129321,5,8,0:0:0:0:
256,192,129415,5,8,0:0:0:0:
256,192,129509,5,8,0:0:0:0:
256,192,129696,5,0,0:0:0:0:
256,192,129884,5,8,0:0:0:0:
256,192,129977,5,8,0:0:0:0:
256,192,130071,5,0,0:0:0:0:
256,192,130259,5,8,0:0:0:0:
256,192,130446,5,0,0:0:0:0:
256,192,130634,5,0,0:0:0:0:
256,192,131009,5,8,0:0:0:0:
256,192,131102,5,0,0:0:0:0:
256,192,131196,5,8,0:0:0:0:
256,192,131384,5,0,0:0:0:0:
256,192,131571,5,8,0:0:0:0:
256,192,131759,5,0,0:0:0:0:
256,192,131852,5,8,0:0:0:0:
256,192,131946,5,0,0:0:0:0:
256,192,132134,5,0,0:0:0:0:
256,192,132321,5,8,0:0:0:0:
256,192,132415,5,8,0:0:0:0:
256,192,132509,5,8,0:0:0:0:
256,192,132696,5,0,0:0:0:0:
256,192,132884,5,8,0:0:0:0:
256,192,132977,5,8,0:0:0:0:
256,192,133071,5,0,0:0:0:0:
256,192,133165,5,0,0:0:0:0:
256,192,133259,5,8,0:0:0:0:
256,192,133446,5,0,0:0:0:0:
