osu file format v14

[General]
AudioFilename: audio.mp3
AudioLeadIn: 0
PreviewTime: 84134
Countdown: 0
SampleSet: Normal
StackLeniency: 0.7
Mode: 1
LetterboxInBreaks: 0
WidescreenStoryboard: 1

[Editor]
DistanceSpacing: 1
BeatDivisor: 2
GridSize: 4
TimelineZoom: 0.8

[Metadata]
Title:minnesota is a place that exists
TitleUnicode:minnesota is a place that exists
Artist:glaive
ArtistUnicode:glaive
Creator:Cryceptio
Version:futsuu
Source:
Tags:english hyper pop hyper-pop hyperpop G1* tsukani jeshuan fynbi
BeatmapID:3687874
BeatmapSetID:1798956

[Difficulty]
HPDrainRate:7
CircleSize:2
OverallDifficulty:4
ApproachRate:5
SliderMultiplier:1.4
SliderTickRate:1

[Events]
//Background and Video events
0,0,"mimnesotabg.jpg",0,0
//Break Periods
//Storyboard Layer 0 (Background)
//Storyboard Layer 1 (Fail)
//Storyboard Layer 2 (Pass)
//Storyboard Layer 3 (Foreground)
//Storyboard Layer 4 (Overlay)
//Storyboard Sound Samples

[TimingPoints]
134,375,4,1,0,70,1,0
138,-100,4,1,0,70,0,0
12129,-100,4,1,0,70,0,0
24129,-100,4,1,0,90,0,0
47941,-100,4,1,0,70,0,0
48129,-100,4,1,0,70,0,0
49535,-100,4,1,0,90,0,0
49634,375,4,1,0,90,1,1
49634,-100,4,1,0,90,0,1
60513,-100,4,1,0,90,0,1
61634,-100,4,1,0,50,0,0
61816,-100,4,1,0,50,0,0
63129,-100,4,1,0,50,0,0
72410,-100,4,1,0,50,0,0
73535,-100,4,1,0,70,0,0
73629,-100,4,1,0,70,0,0
109634,-100,4,1,0,90,0,1
126785,-100,4,1,0,70,0,1
126884,-100,4,1,0,70,0,0
127634,-100,4,1,0,90,0,1
133446,-100,4,1,0,90,0,0
133629,-100,4,1,0,50,0,0

[HitObjects]
139,175,12134,5,8,0:0:0:0:
139,175,12696,1,0,0:0:0:0:
139,175,12884,1,8,0:0:0:0:
84,132,13446,1,8,0:0:0:0:
84,132,13634,1,0,0:0:0:0:
128,39,14196,1,0,0:0:0:0:
64,64,14384,1,0,0:0:0:0:
448,64,15134,1,8,0:0:0:0:
86,18,15696,1,8,0:0:0:0:
86,18,15884,1,0,0:0:0:0:
126,37,16446,1,0,0:0:0:0:
126,37,16634,1,8,0:0:0:0:
64,64,17196,1,0,0:0:0:0:
448,64,17384,1,8,0:0:0:0:
133,113,17759,1,0,0:0:0:0:
139,174,18134,1,8,0:0:0:0:
64,64,18696,1,0,0:0:0:0:
139,174,18884,1,0,0:0:0:0:
448,64,19446,1,8,0:0:0:0:
64,64,19634,1,0,0:0:0:0:
64,64,20196,1,0,0:0:0:0:
139,174,20384,1,0,0:0:0:0:
64,64,21134,1,0,0:0:0:0:
52,265,21696,1,8,0:0:0:0:
448,64,21884,1,8,0:0:0:0:
76,201,22446,1,0,0:0:0:0:
76,201,22634,1,8,0:0:0:0:
137,174,23196,1,0,0:0:0:0:
64,64,23384,1,0,0:0:0:0:
137,174,24134,1,12,0:0:0:0:
137,174,24509,1,8,0:0:0:0:
137,174,24696,1,0,0:0:0:0:
140,175,25071,1,8,0:0:0:0:
137,174,25446,1,0,0:0:0:0:
64,64,25821,1,0,0:0:0:0:
137,174,26196,1,8,0:0:0:0:
140,175,26571,1,0,0:0:0:0:
448,64,26759,1,8,0:0:0:0:
64,64,26946,1,0,0:0:0:0:
448,64,27321,1,8,0:0:0:0:
448,64,27696,1,8,0:0:0:0:
448,64,28071,1,8,0:0:0:0:
448,64,28259,1,8,0:0:0:0:
137,174,28446,1,0,0:0:0:0:
137,175,30134,1,12,0:0:0:0:
64,64,30509,1,0,0:0:0:0:
137,175,30696,1,0,0:0:0:0:
137,175,31071,1,8,0:0:0:0:
64,64,31446,1,0,0:0:0:0:
137,175,31821,1,8,0:0:0:0:
137,175,32196,1,8,0:0:0:0:
148,171,32384,1,0,0:0:0:0:
448,64,32571,1,8,0:0:0:0:
172,174,32759,1,0,0:0:0:0:
137,175,33134,1,8,0:0:0:0:
137,175,33509,1,8,0:0:0:0:
448,64,33696,1,8,0:0:0:0:
64,64,34071,1,0,0:0:0:0:
448,64,34259,1,8,0:0:0:0:
137,175,34446,1,0,0:0:0:0:
136,180,36134,1,12,0:0:0:0:
64,64,36509,1,0,0:0:0:0:
136,180,36696,1,0,0:0:0:0:
64,64,37071,1,0,0:0:0:0:
136,180,37446,1,8,0:0:0:0:
64,64,37821,1,0,0:0:0:0:
136,180,38196,1,8,0:0:0:0:
136,180,38384,1,0,0:0:0:0:
136,180,38571,1,8,0:0:0:0:
136,180,38759,1,0,0:0:0:0:
136,180,39134,1,8,0:0:0:0:
64,64,39509,1,0,0:0:0:0:
136,180,39696,1,0,0:0:0:0:
136,180,40071,1,8,0:0:0:0:
448,64,40259,1,8,0:0:0:0:
136,180,40446,1,0,0:0:0:0:
136,180,42134,1,12,0:0:0:0:
448,64,42509,1,8,0:0:0:0:
64,64,42696,1,0,0:0:0:0:
64,64,43071,1,0,0:0:0:0:
139,175,43446,1,8,0:0:0:0:
136,180,43821,1,0,0:0:0:0:
448,64,44196,1,8,0:0:0:0:
164,195,44384,1,0,0:0:0:0:
139,175,44571,1,8,0:0:0:0:
64,64,44759,1,0,0:0:0:0:
139,175,45134,1,8,0:0:0:0:
64,64,45321,1,0,0:0:0:0:
64,64,45696,1,0,0:0:0:0:
448,64,46071,1,8,0:0:0:0:
139,175,46259,1,0,0:0:0:0:
136,180,46446,1,0,0:0:0:0:
448,64,48134,1,8,0:0:0:0:
64,64,48509,1,0,0:0:0:0:
448,64,48884,1,8,0:0:0:0:
139,175,49071,1,0,0:0:0:0:
64,64,49259,1,0,0:0:0:0:
139,175,49634,1,12,0:0:0:0:
139,175,50009,1,8,0:0:0:0:
448,64,50196,1,8,0:0:0:0:
64,64,50571,1,0,0:0:0:0:
448,64,50946,1,8,0:0:0:0:
64,64,51321,1,0,0:0:0:0:
147,219,51696,1,0,0:0:0:0:
139,175,51884,1,8,0:0:0:0:
139,175,52071,1,8,0:0:0:0:
139,175,52259,1,0,0:0:0:0:
139,175,52446,1,8,0:0:0:0:
64,64,52821,1,0,0:0:0:0:
448,64,53009,1,8,0:0:0:0:
64,64,53196,1,0,0:0:0:0:
136,180,53571,1,8,0:0:0:0:
448,64,53946,1,8,0:0:0:0:
136,180,54321,1,8,0:0:0:0:
136,180,54884,1,0,0:0:0:0:
143,169,55634,1,8,0:0:0:0:
143,169,56009,1,8,0:0:0:0:
136,180,56196,1,0,0:0:0:0:
139,175,56571,1,8,0:0:0:0:
448,64,56946,1,8,0:0:0:0:
139,175,57321,1,8,0:0:0:0:
158,178,57696,1,0,0:0:0:0:
139,175,57884,1,8,0:0:0:0:
139,175,58071,1,8,0:0:0:0:
448,64,58259,1,8,0:0:0:0:
139,175,58446,1,8,0:0:0:0:
139,175,58821,1,0,0:0:0:0:
139,175,59009,1,8,0:0:0:0:
448,64,59196,1,8,0:0:0:0:
139,175,59571,1,8,0:0:0:0:
139,175,59946,1,0,0:0:0:0:
64,64,60321,1,0,0:0:0:0:
139,175,60884,1,0,0:0:0:0:
448,64,61259,1,8,0:0:0:0:
139,175,61634,1,8,0:0:0:0:
325,181,62384,1,0,0:0:0:0:
325,181,63134,1,8,0:0:0:0:
139,175,63696,1,0,0:0:0:0:
139,175,64071,1,8,0:0:0:0:
139,175,64634,1,8,0:0:0:0:
350,185,65384,1,0,0:0:0:0:
64,64,66134,1,0,0:0:0:0:
350,185,66696,1,8,0:0:0:0:
350,185,67071,1,0,0:0:0:0:
139,175,67634,1,8,0:0:0:0:
139,175,68384,1,0,0:0:0:0:
139,175,69134,1,8,0:0:0:0:
448,64,69696,1,8,0:0:0:0:
448,64,70071,1,8,0:0:0:0:
139,175,70634,1,8,0:0:0:0:
321,181,71384,1,0,0:0:0:0:
321,181,72134,1,8,0:0:0:0:
64,64,72696,1,0,0:0:0:0:
321,181,73071,1,8,0:0:0:0:
448,320,73634,1,12,0:0:0:0:
64,64,74009,1,0,0:0:0:0:
139,175,74384,1,0,0:0:0:0:
139,175,74571,1,8,0:0:0:0:
448,64,74759,1,8,0:0:0:0:
139,175,74946,1,0,0:0:0:0:
448,64,75884,1,8,0:0:0:0:
64,64,76259,1,0,0:0:0:0:
448,320,76634,1,12,0:0:0:0:
64,64,77009,1,8,0:0:0:0:
139,175,77384,1,8,0:0:0:0:
139,175,77571,1,0,0:0:0:0:
448,64,77759,1,0,0:0:0:0:
64,64,77946,1,8,0:0:0:0:
448,64,78884,1,8,0:0:0:0:
64,64,79259,1,0,0:0:0:0:
448,320,79634,1,12,0:0:0:0:
64,64,80009,1,0,0:0:0:0:
139,175,80384,1,8,0:0:0:0:
139,175,80571,1,0,0:0:0:0:
139,175,80759,1,8,0:0:0:0:
139,175,80946,1,0,0:0:0:0:
448,64,81884,1,8,0:0:0:0:
139,175,82259,1,0,0:0:0:0:
448,320,82634,1,12,0:0:0:0:
139,175,83009,1,0,0:0:0:0:
139,175,83196,1,0,0:0:0:0:
139,175,83571,1,8,0:0:0:0:
139,175,83759,1,8,0:0:0:0:
448,64,83946,1,8,0:0:0:0:
137,174,85634,1,12,0:0:0:0:
137,174,86009,1,8,0:0:0:0:
140,175,86195,1,0,0:0:0:0:
64,64,86570,1,0,0:0:0:0:
140,175,86945,1,8,0:0:0:0:
137,174,87320,1,0,0:0:0:0:
137,174,87695,1,8,0:0:0:0:
137,174,88070,1,0,0:0:0:0:
143,178,88258,1,8,0:0:0:0:
448,64,88445,1,8,0:0:0:0:
140,175,88820,1,8,0:0:0:0:
137,174,89195,1,0,0:0:0:0:
137,174,89570,1,8,0:0:0:0:
448,64,89759,1,8,0:0:0:0:
137,174,89945,1,0,0:0:0:0:
136,173,91634,1,12,0:0:0:0:
137,174,92009,1,8,0:0:0:0:
448,64,92195,1,0,0:0:0:0:
140,175,92570,1,8,0:0:0:0:
137,174,92945,1,8,0:0:0:0:
140,175,93320,1,0,0:0:0:0:
137,174,93695,1,0,0:0:0:0:
137,174,93884,1,8,0:0:0:0:
64,64,94071,1,0,0:0:0:0:
162,181,94259,1,0,0:0:0:0:
137,174,94634,1,8,0:0:0:0:
448,64,95009,1,8,0:0:0:0:
64,64,95195,1,0,0:0:0:0:
137,174,95571,1,8,0:0:0:0:
448,64,95759,1,8,0:0:0:0:
137,174,95945,1,0,0:0:0:0:
137,174,97633,1,12,0:0:0:0:
137,174,98009,1,8,0:0:0:0:
448,64,98195,1,8,0:0:0:0:
64,64,98570,1,0,0:0:0:0:
137,174,98945,1,0,0:0:0:0:
140,175,99320,1,8,0:0:0:0:
64,64,99695,1,0,0:0:0:0:
448,64,99883,1,8,0:0:0:0:
64,64,100071,1,0,0:0:0:0:
137,174,100259,1,0,0:0:0:0:
137,174,100634,1,8,0:0:0:0:
140,175,101008,1,8,0:0:0:0:
137,174,101195,1,0,0:0:0:0:
137,174,101571,1,8,0:0:0:0:
448,64,101759,1,8,0:0:0:0:
140,175,101946,1,0,0:0:0:0:
137,174,103634,1,12,0:0:0:0:
137,174,104009,1,8,0:0:0:0:
448,64,104195,1,8,0:0:0:0:
64,64,104570,1,0,0:0:0:0:
137,174,104945,1,8,0:0:0:0:
140,175,105320,1,8,0:0:0:0:
137,174,105695,1,0,0:0:0:0:
448,64,105884,1,8,0:0:0:0:
137,174,106070,1,8,0:0:0:0:
448,64,106258,1,8,0:0:0:0:
64,64,106633,1,0,0:0:0:0:
448,64,106820,1,8,0:0:0:0:
137,174,107195,1,8,0:0:0:0:
64,64,107571,1,0,0:0:0:0:
448,64,107758,1,8,0:0:0:0:
448,64,107946,1,8,0:0:0:0:
64,64,108133,1,0,0:0:0:0:
448,64,108883,1,8,0:0:0:0:
139,175,109071,1,0,0:0:0:0:
64,64,109258,1,0,0:0:0:0:
139,175,109634,1,12,0:0:0:0:
139,175,110008,1,0,0:0:0:0:
137,174,110195,1,8,0:0:0:0:
64,64,110570,1,0,0:0:0:0:
448,64,110945,1,8,0:0:0:0:
64,64,111320,1,0,0:0:0:0:
140,175,111695,1,0,0:0:0:0:
137,174,111883,1,8,0:0:0:0:
137,174,112070,1,8,0:0:0:0:
448,64,112258,1,8,0:0:0:0:
137,174,112445,1,8,0:0:0:0:
140,175,112820,1,0,0:0:0:0:
137,174,113008,1,8,0:0:0:0:
448,64,113195,1,8,0:0:0:0:
132,176,113570,1,8,0:0:0:0:
137,174,113945,1,0,0:0:0:0:
137,174,114321,1,8,0:0:0:0:
137,174,114883,1,8,0:0:0:0:
135,172,115634,1,8,0:0:0:0:
137,174,116008,1,8,0:0:0:0:
137,174,116195,1,0,0:0:0:0:
137,174,116570,1,8,0:0:0:0:
137,174,116945,1,0,0:0:0:0:
140,175,117320,1,8,0:0:0:0:
137,174,117695,1,0,0:0:0:0:
137,174,117883,1,8,0:0:0:0:
140,175,118070,1,8,0:0:0:0:
133,182,118258,1,0,0:0:0:0:
137,174,118445,1,8,0:0:0:0:
140,175,118820,1,0,0:0:0:0:
137,174,119008,1,8,0:0:0:0:
137,174,119195,1,0,0:0:0:0:
137,174,119570,1,8,0:0:0:0:
140,175,119945,1,0,0:0:0:0:
140,175,120320,1,8,0:0:0:0:
448,64,120883,1,8,0:0:0:0:
277,225,121633,1,12,0:0:0:0:
137,174,122008,1,0,0:0:0:0:
137,174,122195,1,8,0:0:0:0:
137,174,122570,1,8,0:0:0:0:
140,175,122945,1,8,0:0:0:0:
137,174,123320,1,0,0:0:0:0:
140,175,123696,1,8,0:0:0:0:
137,174,123883,1,0,0:0:0:0:
137,174,124070,1,0,0:0:0:0:
118,174,124259,1,8,0:0:0:0:
137,174,124446,1,0,0:0:0:0:
137,174,124820,1,8,0:0:0:0:
140,175,125008,1,0,0:0:0:0:
137,174,125195,1,8,0:0:0:0:
137,174,125570,1,8,0:0:0:0:
140,175,125945,1,0,0:0:0:0:
137,174,126320,1,8,0:0:0:0:
131,195,126883,1,0,0:0:0:0:
137,174,127634,1,12,0:0:0:0:
137,174,128008,1,8,0:0:0:0:
140,175,128195,1,0,0:0:0:0:
137,174,128570,1,8,0:0:0:0:
140,175,128945,1,0,0:0:0:0:
137,174,129320,1,8,0:0:0:0:
137,174,129695,1,0,0:0:0:0:
140,175,129884,1,8,0:0:0:0:
140,175,130070,1,8,0:0:0:0:
448,64,130258,1,8,0:0:0:0:
64,64,130445,1,0,0:0:0:0:
140,175,130820,1,0,0:0:0:0:
137,174,131008,1,8,0:0:0:0:
137,174,131195,1,0,0:0:0:0:
137,174,131570,1,8,0:0:0:0:
137,174,131945,1,0,0:0:0:0:
137,174,132320,1,8,0:0:0:0:
137,174,132884,1,8,0:0:0:0:
140,175,133071,1,8,0:0:0:0:
137,174,133259,1,0,0:0:0:0:
137,174,133446,1,8,0:0:0:0:
