osu file format v14

[General]
AudioFilename: audio.mp3
AudioLeadIn: 0
PreviewTime: 17066
Countdown: 0
SampleSet: Normal
StackLeniency: 0.7
Mode: 1
LetterboxInBreaks: 0
WidescreenStoryboard: 1

[Editor]
DistanceSpacing: 0.8
BeatDivisor: 4
GridSize: 16
TimelineZoom: 1

[Metadata]
Title:life is pain
TitleUnicode:life is pain
Artist:glaive
ArtistUnicode:glaive
Creator:Boaz
Version:agony
Source:
Tags:hyperpop hip hop hyper pop hiphop english electronic arcpotato
BeatmapID:3381641
BeatmapSetID:1656628

[Difficulty]
HPDrainRate:6.5
CircleSize:2
OverallDifficulty:4
ApproachRate:10
SliderMultiplier:1.4
SliderTickRate:1

[Events]
//Background and Video events
0,0,"bg3242342.jpg",0,-100
//Break Periods
//Storyboard Layer 0 (Background)
//Storyboard Layer 1 (Fail)
//Storyboard Layer 2 (Pass)
//Storyboard Layer 3 (Foreground)
//Storyboard Layer 4 (Overlay)
//Storyboard Sound Samples

[TimingPoints]
5794,727.272727272727,4,1,0,65,1,0
5794,-95.2380952380952,4,1,0,65,0,0
17066,-100,4,1,0,65,0,0
17430,-105.263157894737,4,1,0,75,0,1
40521,-97.5609756097561,4,1,0,75,0,1
40703,-95.2380952380952,4,1,0,75,0,0
41430,-95.2380952380952,4,1,0,65,0,0
63612,-95.2380952380952,4,1,0,75,0,0
63975,-105.263157894737,4,1,0,75,0,1
87066,-100,4,1,0,75,0,1
87248,-100,4,1,0,65,0,0

[HitObjects]
252,205,5794,5,8,0:0:0:0:
161,178,5975,1,0,0:0:0:0:
235,213,6157,1,0,0:0:0:0:
252,205,6521,1,8,0:0:0:0:
145,228,6703,1,8,0:0:0:0:
274,218,6884,1,0,0:0:0:0:
272,220,7066,1,0,0:0:0:0:
252,205,7248,1,8,0:0:0:0:
270,219,7612,1,0,0:0:0:0:
64,64,7975,1,8,0:0:0:0:
252,205,8703,5,8,0:0:0:0:
242,211,8884,1,0,0:0:0:0:
270,191,9066,1,8,0:0:0:0:
252,205,9430,1,8,0:0:0:0:
303,173,9612,1,0,0:0:0:0:
270,219,9793,1,8,0:0:0:0:
202,178,9975,1,8,0:0:0:0:
252,205,10157,1,0,0:0:0:0:
270,219,10521,1,0,0:0:0:0:
64,64,10884,1,8,0:0:0:0:
252,205,11612,5,8,0:0:0:0:
242,211,11793,1,0,0:0:0:0:
303,173,11975,1,0,0:0:0:0:
252,205,12339,1,8,0:0:0:0:
303,173,12703,1,8,0:0:0:0:
303,173,12884,1,8,0:0:0:0:
252,205,13066,1,0,0:0:0:0:
157,172,13248,1,8,0:0:0:0:
303,173,13430,1,0,0:0:0:0:
64,64,13794,1,8,0:0:0:0:
252,205,14521,5,8,0:0:0:0:
242,211,14703,1,8,0:0:0:0:
303,173,14884,1,0,0:0:0:0:
252,205,15248,1,8,0:0:0:0:
303,173,15612,1,8,0:0:0:0:
303,173,15793,1,0,0:0:0:0:
252,205,15975,1,0,0:0:0:0:
448,64,17066,5,8,0:0:0:0:
64,320,17430,1,4,0:0:0:0:
448,64,18157,5,8,0:0:0:0:
233,199,18339,1,0,0:0:0:0:
233,199,18521,1,0,0:0:0:0:
64,64,18884,1,8,0:0:0:0:
233,199,19248,1,0,0:0:0:0:
448,64,19612,1,8,0:0:0:0:
260,213,19793,1,0,0:0:0:0:
448,64,19975,1,8,0:0:0:0:
259,213,20157,1,8,0:0:0:0:
225,251,20339,1,0,0:0:0:0:
225,251,21066,5,8,0:0:0:0:
257,207,21248,1,0,0:0:0:0:
195,181,21430,1,8,0:0:0:0:
225,251,21793,1,0,0:0:0:0:
259,213,22157,1,8,0:0:0:0:
448,64,22521,1,8,0:0:0:0:
259,213,22703,1,8,0:0:0:0:
448,64,22884,1,0,0:0:0:0:
183,211,23066,1,8,0:0:0:0:
64,320,23248,1,4,0:0:0:0:
225,251,23975,5,8,0:0:0:0:
231,181,24157,1,0,0:0:0:0:
259,214,24339,1,0,0:0:0:0:
259,214,24703,1,8,0:0:0:0:
448,64,25066,1,8,0:0:0:0:
259,214,25248,1,0,0:0:0:0:
225,251,25430,1,8,0:0:0:0:
259,214,25612,1,8,0:0:0:0:
248,240,25793,1,0,0:0:0:0:
225,251,26157,1,8,0:0:0:0:
225,251,26884,5,8,0:0:0:0:
157,172,27066,1,8,0:0:0:0:
180,182,27248,1,0,0:0:0:0:
448,64,27612,1,8,0:0:0:0:
173,173,27793,1,0,0:0:0:0:
173,173,27975,1,0,0:0:0:0:
302,197,28157,1,0,0:0:0:0:
448,64,28339,1,8,0:0:0:0:
268,217,28703,1,8,0:0:0:0:
64,320,29066,1,4,0:0:0:0:
264,186,29430,1,0,0:0:0:0:
264,186,29612,1,0,0:0:0:0:
448,64,29794,1,8,0:0:0:0:
226,115,30157,1,0,0:0:0:0:
245,258,30521,1,8,0:0:0:0:
215,196,30884,1,0,0:0:0:0:
448,64,31248,1,8,0:0:0:0:
276,208,31430,1,8,0:0:0:0:
448,64,31612,1,8,0:0:0:0:
269,206,31793,1,8,0:0:0:0:
245,258,31975,1,0,0:0:0:0:
245,258,32703,5,8,0:0:0:0:
231,181,32884,1,0,0:0:0:0:
232,221,33066,1,0,0:0:0:0:
245,258,33430,1,8,0:0:0:0:
232,221,33793,1,8,0:0:0:0:
228,211,34157,1,8,0:0:0:0:
220,185,34339,1,0,0:0:0:0:
64,64,34521,1,8,0:0:0:0:
232,221,34703,1,8,0:0:0:0:
64,320,34884,1,4,0:0:0:0:
448,64,35612,5,8,0:0:0:0:
231,181,35793,1,0,0:0:0:0:
245,174,35975,1,0,0:0:0:0:
245,174,36339,1,8,0:0:0:0:
64,64,36703,1,8,0:0:0:0:
245,174,36884,1,8,0:0:0:0:
64,64,37066,1,0,0:0:0:0:
245,174,37248,1,8,0:0:0:0:
448,64,37430,1,0,0:0:0:0:
245,258,37793,1,0,0:0:0:0:
245,258,38521,5,8,0:0:0:0:
107,66,38703,1,8,0:0:0:0:
245,174,38884,1,0,0:0:0:0:
245,258,39248,1,8,0:0:0:0:
220,160,39430,1,8,0:0:0:0:
220,160,39612,1,0,0:0:0:0:
245,174,39793,1,0,0:0:0:0:
64,64,39975,1,8,0:0:0:0:
245,174,40521,5,8,0:0:0:0:
245,258,40703,1,4,0:0:0:0:
64,64,41430,5,8,0:0:0:0:
211,181,41793,1,0,0:0:0:0:
211,181,42157,1,8,0:0:0:0:
173,174,42521,1,0,0:0:0:0:
159,170,42703,1,8,0:0:0:0:
64,64,42884,1,8,0:0:0:0:
155,164,43248,1,8,0:0:0:0:
220,169,43430,1,0,0:0:0:0:
155,164,43612,1,0,0:0:0:0:
155,164,44339,5,8,0:0:0:0:
155,164,44703,1,0,0:0:0:0:
155,164,45066,1,8,0:0:0:0:
162,201,45248,1,0,0:0:0:0:
155,164,45430,1,8,0:0:0:0:
155,164,45793,1,8,0:0:0:0:
155,164,45975,1,0,0:0:0:0:
155,164,46157,1,8,0:0:0:0:
220,169,46339,1,8,0:0:0:0:
64,64,46521,1,0,0:0:0:0:
64,64,47248,5,8,0:0:0:0:
64,64,47612,1,0,0:0:0:0:
107,66,47975,1,8,0:0:0:0:
64,64,48339,1,0,0:0:0:0:
64,64,48703,1,8,0:0:0:0:
64,64,49066,1,0,0:0:0:0:
223,201,49248,1,0,0:0:0:0:
107,66,49430,1,8,0:0:0:0:
64,64,50157,5,8,0:0:0:0:
64,64,50521,1,0,0:0:0:0:
206,211,50703,1,0,0:0:0:0:
64,64,50884,1,8,0:0:0:0:
107,66,51248,1,8,0:0:0:0:
64,64,51612,1,0,0:0:0:0:
107,66,51793,1,0,0:0:0:0:
64,64,51975,1,8,0:0:0:0:
223,201,52157,1,8,0:0:0:0:
64,64,52339,1,4,0:0:0:0:
107,66,53066,5,8,0:0:0:0:
64,64,53430,1,0,0:0:0:0:
64,64,53794,1,8,0:0:0:0:
275,220,53975,1,8,0:0:0:0:
107,66,54157,1,0,0:0:0:0:
64,64,54521,1,8,0:0:0:0:
107,66,54703,1,0,0:0:0:0:
64,64,54884,1,8,0:0:0:0:
64,64,55248,1,0,0:0:0:0:
64,64,55975,5,8,0:0:0:0:
107,66,56339,1,0,0:0:0:0:
225,228,56521,1,0,0:0:0:0:
107,66,56703,1,8,0:0:0:0:
64,64,57066,1,8,0:0:0:0:
64,64,57430,1,8,0:0:0:0:
107,66,57612,1,0,0:0:0:0:
64,64,57793,1,0,0:0:0:0:
177,157,57975,1,8,0:0:0:0:
64,64,58157,1,4,0:0:0:0:
64,64,58884,5,8,0:0:0:0:
64,64,59248,1,0,0:0:0:0:
107,66,59612,1,8,0:0:0:0:
64,64,59975,1,0,0:0:0:0:
64,64,60339,1,8,0:0:0:0:
107,66,60521,1,0,0:0:0:0:
64,64,60703,1,8,0:0:0:0:
206,164,60884,1,8,0:0:0:0:
64,64,61066,1,0,0:0:0:0:
64,64,61794,5,8,0:0:0:0:
197,243,62157,1,8,0:0:0:0:
197,243,62339,1,0,0:0:0:0:
64,64,62521,1,0,0:0:0:0:
448,64,63612,1,8,0:0:0:0:
64,320,63975,1,4,0:0:0:0:
450,64,64703,5,8,0:0:0:0:
271,177,64884,1,0,0:0:0:0:
235,199,65067,1,0,0:0:0:0:
66,64,65430,1,8,0:0:0:0:
235,199,65793,1,0,0:0:0:0:
450,64,66158,1,8,0:0:0:0:
262,213,66339,1,0,0:0:0:0:
450,64,66521,1,8,0:0:0:0:
261,213,66703,1,8,0:0:0:0:
227,251,66885,1,0,0:0:0:0:
227,251,67612,5,8,0:0:0:0:
271,177,67793,1,0,0:0:0:0:
229,166,67975,1,0,0:0:0:0:
227,251,68339,1,0,0:0:0:0:
261,213,68703,1,8,0:0:0:0:
450,64,69067,1,8,0:0:0:0:
261,213,69249,1,8,0:0:0:0:
450,64,69430,1,0,0:0:0:0:
153,197,69612,1,8,0:0:0:0:
66,320,69794,1,4,0:0:0:0:
227,251,70521,5,8,0:0:0:0:
271,177,70703,1,0,0:0:0:0:
261,214,70885,1,0,0:0:0:0:
261,214,71249,1,0,0:0:0:0:
450,64,71612,1,0,0:0:0:0:
261,214,71794,1,0,0:0:0:0:
227,251,71976,1,8,0:0:0:0:
261,214,72158,1,8,0:0:0:0:
250,240,72339,1,0,0:0:0:0:
227,251,72703,1,8,0:0:0:0:
227,251,73430,5,8,0:0:0:0:
159,172,73612,1,8,0:0:0:0:
182,182,73794,1,0,0:0:0:0:
450,64,74158,1,8,0:0:0:0:
270,180,74339,1,0,0:0:0:0:
270,180,74521,1,0,0:0:0:0:
304,197,74703,1,0,0:0:0:0:
450,64,74885,1,8,0:0:0:0:
270,217,75249,1,8,0:0:0:0:
66,320,75612,1,4,0:0:0:0:
266,186,75976,1,0,0:0:0:0:
266,186,76158,1,0,0:0:0:0:
450,64,76340,1,8,0:0:0:0:
228,115,76703,1,0,0:0:0:0:
247,258,77067,1,8,0:0:0:0:
217,196,77430,1,0,0:0:0:0:
450,64,77794,1,8,0:0:0:0:
278,208,77976,1,8,0:0:0:0:
450,64,78158,1,0,0:0:0:0:
271,206,78339,1,8,0:0:0:0:
247,258,78521,1,0,0:0:0:0:
247,258,79249,5,8,0:0:0:0:
271,177,79430,1,0,0:0:0:0:
234,221,79612,1,0,0:0:0:0:
247,258,79976,1,8,0:0:0:0:
234,221,80339,1,0,0:0:0:0:
230,211,80703,1,8,0:0:0:0:
222,185,80885,1,0,0:0:0:0:
66,64,81067,1,8,0:0:0:0:
234,221,81249,1,8,0:0:0:0:
66,320,81430,1,4,0:0:0:0:
450,64,82158,5,8,0:0:0:0:
271,177,82339,1,0,0:0:0:0:
247,174,82521,1,0,0:0:0:0:
247,174,82885,1,8,0:0:0:0:
66,64,83249,1,0,0:0:0:0:
247,174,83430,1,8,0:0:0:0:
66,64,83612,1,8,0:0:0:0:
247,174,83794,1,0,0:0:0:0:
450,64,83976,1,8,0:0:0:0:
247,258,84339,1,0,0:0:0:0:
245,258,85067,5,8,0:0:0:0:
263,206,85248,1,8,0:0:0:0:
263,206,85430,1,0,0:0:0:0:
245,258,85794,1,8,0:0:0:0:
189,164,85975,1,8,0:0:0:0:
189,164,86157,1,0,0:0:0:0:
257,191,86339,1,0,0:0:0:0:
64,64,86521,1,8,0:0:0:0:
257,191,87066,5,0,0:0:0:0:
245,258,87249,1,8,0:0:0:0:
190,147,87430,1,8,0:0:0:0:
190,147,87612,1,0,0:0:0:0:
317,134,87975,1,8,0:0:0:0:
190,147,88157,1,0,0:0:0:0:
317,134,88339,1,8,0:0:0:0:
298,109,88703,1,0,0:0:0:0:
196,128,89066,1,8,0:0:0:0:
298,109,89430,1,0,0:0:0:0:
97,174,89793,1,8,0:0:0:0:
97,174,89975,1,0,0:0:0:0:
298,109,90157,1,8,0:0:0:0:
97,174,90521,1,0,0:0:0:0:
298,109,90884,1,8,0:0:0:0:
252,172,91248,1,0,0:0:0:0:
206,174,91430,1,8,0:0:0:0:
298,109,91612,1,0,0:0:0:0:
97,174,91975,1,8,0:0:0:0:
298,109,92339,1,8,0:0:0:0:
97,174,92521,1,0,0:0:0:0:
97,174,92703,1,8,0:0:0:0:
97,174,92884,1,8,0:0:0:0:
