osu file format v14

[General]
AudioFilename: audio.mp3
AudioLeadIn: 0
PreviewTime: 81918
Countdown: 0
SampleSet: Soft
StackLeniency: 0.7
Mode: 0
LetterboxInBreaks: 0
WidescreenStoryboard: 1

[Editor]
Bookmarks: 73,219,364,510,656,801,947,1093,1238,1384,1529,1675,1821,1966,2112,2258,2403,2549,2694,2840,2986,3131,3277,3423,3568,3714,3860,4005,4151,4296,4442,4588,4733,4879,5025,5170,5316,5461,5607,5753,5898,6044,6190,6335,6481,6627,6772,6918,7063,7209,7355,7500,7646,7792,7937,8083,8228,8374,8520,8665,8811,9394,28034,44927,46675,46821,46966,47112,47258,47403,47549,47694,47840,47986,48131,48277,48423,48568,48714,48860,49005,49151,49296,49442,49588,49733,49879,50025,50170,50316,50461,50607,50753,50898,51044,51190,51335,51481,51627,51772,51918,52063,52209,52355,52500,52646,52792,52937,53083,53228,53374,53520,53665,53811,53957,54102,54248,54393,54539,54685,54830,54976,55122,55267,55413,55559,55704,55850,55995,65316,74636,83957,102597,102743,102889,103034,103180,103326,103471,103617,103762,103908,104054,104199,104345,104491,104636,104782,104927,105073,105219,105364,105510,105656,105801,105947,106093,106238,106384,106529,106675,106821,106966,107112,107258,107403,107549,107694,107840,107986,108131,108277,108423,108568,108714,108860,109005,109151,109296,109442,109588,109733,109879,110025,110170,110316,110461,110607,110753,110898,111044,111190,111335,111481,111627,111772,111918,112063,112209,112355,112500,112646,112792,112937,113083,113228,113374,113520,113665,113811,113957,114102,114248,114393,114539,114685,114830,114976,115122,115267,115413,115559,115704,115850,115995
DistanceSpacing: 1.1
BeatDivisor: 4
GridSize: 16
TimelineZoom: 1.1

[Metadata]
Title:icarus
TitleUnicode:icarus
Artist:glaive
ArtistUnicode:glaive
Creator:THAT_otaku
Version:Normal
Source:
Tags:old dog new tricks pop hiphop hip hop hyperpop hyper english greek myth mythology legend flying arutsuki OneShotFox
BeatmapID:3793820
BeatmapSetID:1784520

[Difficulty]
HPDrainRate:3
CircleSize:3
OverallDifficulty:5
ApproachRate:6
SliderMultiplier:1.6
SliderTickRate:1

[Events]
//Background and Video events
0,0,"unga.png",0,0
//Break Periods
2,46875,54946
//Storyboard Layer 0 (Background)
//Storyboard Layer 1 (Fail)
//Storyboard Layer 2 (Pass)
//Storyboard Layer 3 (Foreground)
//Storyboard Layer 4 (Overlay)
//Storyboard Sound Samples

[TimingPoints]
74,582.52427184466,4,2,1,40,1,0
9394,-100,4,2,1,70,0,0
23374,-100,4,2,1,40,0,0
25704,-100,4,2,1,50,0,0
27452,-100,4,2,2,80,0,0
28035,-100,4,2,21,100,0,1
29928,-100,4,2,22,100,0,1
30365,-100,4,2,21,100,0,1
32258,-100,4,2,22,100,0,1
32695,-100,4,2,23,100,0,1
34588,-100,4,2,24,100,0,1
35025,-100,4,2,23,100,0,1
36918,-100,4,2,24,100,0,1
37209,-100,4,2,2,100,0,0
37355,-100,4,2,21,100,0,1
39248,-100,4,2,22,100,0,1
39685,-100,4,2,21,100,0,1
41578,-100,4,2,22,100,0,1
42015,-100,4,2,23,100,0,1
43908,-100,4,2,24,100,0,1
44345,-100,4,2,23,100,0,1
44928,-100,4,2,2,80,0,0
46675,-100,4,2,1,60,0,0
55996,-100,4,2,3,80,0,0
74637,-100,4,2,1,60,0,0
83374,-100,4,2,2,80,0,0
83957,-100,4,2,21,100,0,1
85850,-100,4,2,22,100,0,1
86287,-100,4,2,21,100,0,1
88180,-100,4,2,22,100,0,1
88617,-100,4,2,23,100,0,1
89200,-100,4,2,23,100,0,0
89782,-100,4,2,23,100,0,1
89928,-100,4,2,23,100,0,0
90365,-100,4,2,23,100,0,1
90656,-100,4,2,22,100,0,0
90947,-100,4,2,23,100,0,1
92840,-100,4,2,24,100,0,1
93132,-100,4,2,24,100,0,0
93277,-100,4,2,21,100,0,1
95170,-100,4,2,22,100,0,1
95607,-100,4,2,21,100,0,1
97500,-100,4,2,22,100,0,1
97937,-100,4,2,23,100,0,1
99830,-100,4,2,24,100,0,1
100267,-100,4,2,23,100,0,1
102160,-100,4,2,24,100,0,1
102598,-100,4,2,1,60,0,0
104928,-100,4,2,1,50,0,0
107258,-100,4,2,1,40,0,0
115996,-100,4,2,1,5,0,0

[Colours]
Combo1 : 255,237,134
Combo2 : 255,162,68
Combo3 : 191,235,255
Combo4 : 106,163,255

[HitObjects]
43,46,8811,22,0,L|125:53,1,80,2|2,2:2|2:2,0:0:0:0:
202,64,9394,6,0,B|189:180|189:180|204:220,2,160,2|8|0,3:2|2:2|0:0,0:0:0:0:
275,33,10850,1,0,2:2:0:0:
344,72,11141,2,0,B|403:84|403:84|487:47,1,120,8|0,2:2|0:0,0:0:0:0:
493,41,11724,38,0,B|478:81|478:81|492:212,1,160,2|8,3:2|2:2,0:0:0:0:
508,275,12598,1,0,3:2:0:0:
476,348,12889,1,0,0:0:0:0:
397,362,13180,2,0,L|389:259,2,80,0|8|0,2:2|2:2|2:2,0:0:0:0:
317,368,14054,6,0,B|308:244|308:244|322:202,2,160,2|8|0,3:2|2:2|0:0,0:0:0:0:
237,375,15510,1,0,2:2:0:0:
168,332,15802,2,0,B|165:287|165:287|175:245,1,80,8|0,2:2|0:0,0:0:0:0:
240,205,16384,38,0,B|285:202|285:202|327:212,2,80,2|0|8,3:2|2:2|2:2,0:0:0:0:
161,221,17258,1,0,3:2:0:0:
81,231,17549,2,0,L|73:128,1,80,0|0,0:0|2:2,0:0:0:0:
139,103,18132,2,0,L|145:23,1,80,8|0,2:2|2:2,0:0:0:0:
65,20,18714,6,0,B|57:121|57:121|78:165,1,120,2|0,3:2|2:2,0:0:0:0:
87,171,19297,1,8,2:2:0:0:
42,235,19588,1,0,3:2:0:0:
82,303,19879,2,0,L|88:383,2,80,0|0|8,0:0|2:2|2:2,0:0:0:0:
160,289,20753,1,0,0:0:0:0:
184,212,21044,38,0,B|266:203|266:203|342:222,1,160,2|8,3:2|2:2,0:0:0:0:
416,249,21918,1,0,3:2:0:0:
487,213,22209,2,0,L|477:107,1,80,0|0,0:0|2:2,0:0:0:0:
421,78,22792,2,0,L|341:85,1,80,8|0,2:2|2:2,0:0:0:0:
266,56,23374,5,0,2:2:0:0:
107,42,23957,1,0,0:0:0:0:
93,201,24540,1,0,0:0:0:0:
253,215,25122,1,0,0:0:0:0:
345,84,25705,37,0,0:0:0:0:
504,70,26288,1,2,0:0:0:0:
511,229,26871,1,2,0:0:0:0:
358,243,27452,22,0,P|352:269|356:303,2,40,10|2|0,2:2|2:2|2:2,0:0:0:0:
298,177,28035,6,0,P|236:173|151:199,1,120,4|0,3:2|0:0,0:0:0:0:
146,214,28617,2,0,P|107:225|41:209,1,80,8|0,2:2|0:0,0:0:0:0:
29,200,29054,2,0,P|19:161|22:122,1,80,4|0,3:2|3:2,0:0:0:0:
3,81,29491,1,6,3:2:0:0:
57,11,29782,38,0,B|110:-10|129:54|199:16,1,120,10|2,2:2|0:0,0:0:0:0:
214,12,30365,2,0,P|253:8|292:18,2,80,4|2|10,3:2|2:2|2:2,0:0:0:0:
246,93,31239,1,2,2:2:0:0:
262,134,31384,2,0,P|264:173|253:211,1,80,4|0,3:2|3:2,0:0:0:0:
222,244,31821,2,0,P|189:223|153:236,2,80,6|10|6,3:2|2:2|3:2,0:0:0:0:
259,323,32695,6,0,P|307:350|343:308,1,120,4|0,3:2|0:0,0:0:0:0:
343,264,33277,2,0,P|339:224|349:185,1,80,10|2,2:2|2:2,0:0:0:0:
381,155,33714,2,0,P|420:150|459:160,1,80,4|0,3:2|3:2,0:0:0:0:
483,196,34151,1,6,3:2:0:0:
430,266,34442,38,0,P|456:314|414:350,1,120,10|0,2:2|0:0,0:0:0:0:
370,341,35025,1,6,3:2:0:0:
282,334,35316,1,2,2:2:0:0:
194,325,35607,2,0,P|155:333|115:331,2,80,10|2|2,2:2|2:2|2:2,0:0:0:0:
155,245,36481,1,6,3:2:0:0:
192,165,36773,1,10,2:2:0:0:
162,132,36918,2,0,P|161:93|190:67,1,80,6|2,3:2|0:0,0:0:0:0:
200,24,37355,6,0,B|249:0|273:62|313:30,1,120,4|0,3:2|0:0,0:0:0:0:
354,15,37938,2,0,P|381:42|379:80,1,80,8|0,2:2|0:0,0:0:0:0:
351,114,38374,2,0,P|348:152|376:179,1,80,4|0,3:2|3:2,0:0:0:0:
420,182,38811,1,6,3:2:0:0:
486,239,39103,38,0,P|498:297|494:357,1,120,10|2,2:2|0:0,0:0:0:0:
451,364,39685,2,0,P|411:361|372:371,2,80,4|2|10,3:2|2:2|2:2,0:0:0:0:
418,281,40559,1,2,2:2:0:0:
379,259,40705,2,0,P|339:255|300:265,1,80,4|0,3:2|3:2,0:0:0:0:
264,289,41141,2,0,P|262:327|290:353,2,80,6|10|2,3:2|2:2|3:2,0:0:0:0:
247,202,42015,6,0,B|198:178|174:240|134:208,1,120,4|0,3:2|0:0,0:0:0:0:
109,171,42598,2,0,P|70:168|45:198,1,80,10|2,2:2|2:2,0:0:0:0:
43,241,43035,2,0,P|70:268|67:307,1,80,4|0,3:2|3:2,0:0:0:0:
36,339,43471,1,4,3:2:0:0:
119,371,43763,38,0,P|177:359|237:363,1,120,10|0,2:2|0:0,0:0:0:0:
279,374,44345,1,6,3:2:0:0:
321,296,44636,1,0,0:0:0:0:
282,216,44928,1,10,2:2:0:0:
256,192,45219,12,0,46675,2:2:0:0:
496,36,55996,22,0,B|466:24|466:24|367:35,1,120,0|0,3:2|0:0,0:0:0:0:
360,69,56578,2,0,L|278:62,1,80,10|0,2:2|0:0,0:0:0:0:
247,38,57015,2,0,L|138:47,1,80,0|0,3:2|3:2,0:0:0:0:
47,57,57743,2,0,B|82:105|82:105|41:149,1,120,10|0,2:2|0:0,0:0:0:0:
19,183,58326,6,0,B|48:194|48:194|143:186,1,120,2|0,3:2|0:0,0:0:0:0:
170,165,58908,1,10,2:2:0:0:
249,156,59200,1,0,0:0:0:0:
278,129,59345,2,0,L|391:140,1,80,0|0,3:2|3:2,0:0:0:0:
476,151,60073,2,0,B|485:181|485:181|468:241|468:241|483:272,1,120,10|0,2:2|0:0,0:0:0:0:
492,302,60656,38,0,B|366:289,1,120,2|0,3:2|0:0,0:0:0:0:
333,284,61239,2,0,B|325:250|325:250|328:205,1,80,10|0,2:2|0:0,0:0:0:0:
334,165,61675,2,0,B|289:162|289:162|256:170,1,80,0|0,3:2|3:2,0:0:0:0:
151,230,62404,2,0,B|103:265|103:265|59:224,1,120,10|0,2:2|0:0,0:0:0:0:
33,192,62986,6,0,L|90:187,2,40,2|2|2,3:2|2:2|2:2,0:0:0:0:
28,112,63568,1,10,2:2:0:0:
23,31,63860,1,2,2:2:0:0:
51,3,64005,2,0,L|164:12,1,80,0|0,3:2|3:2,0:0:0:0:
179,119,64734,2,0,B|209:128|209:128|269:111|269:111|300:126,1,120,10|0,2:2|0:0,0:0:0:0:
328,140,65316,38,0,B|346:128|346:128|338:46,2,80,2|2|10,3:2|2:2|2:2,0:0:0:0:
278,203,66190,1,2,2:2:0:0:
243,222,66336,2,0,L|232:335,1,80,0|0,3:2|3:2,0:0:0:0:
160,207,67064,2,0,L|172:87,1,120,10|0,2:2|0:0,0:0:0:0:
178,48,67646,6,0,B|190:30|190:30|272:38,2,80,2|2|10,3:2|2:2|2:2,0:0:0:0:
107,9,68520,1,2,2:2:0:0:
68,15,68666,2,0,L|57:128,1,80,0|0,3:2|3:2,0:0:0:0:
138,185,69394,2,0,L|153:328,1,120,10|0,2:2|0:0,0:0:0:0:
157,343,69976,38,0,B|169:361|169:361|251:353,2,80,2|2|10,3:2|2:2|2:2,0:0:0:0:
78,359,70850,1,0,0:0:0:0:
52,283,71141,2,0,B|34:271|34:271|42:189,2,80,2|2|10,2:2|0:0|2:2,0:0:0:0:
183,191,72307,6,0,B|195:173|195:173|277:181,2,80,2|2|10,3:2|2:2|2:2,0:0:0:0:
193,270,73181,1,2,2:2:0:0:
206,348,73472,1,2,2:2:0:0:
285,359,73763,1,2,2:2:0:0:
364,367,74054,1,10,2:2:0:0:
430,221,74637,38,0,B|499:196|499:196|282:165|282:165|157:197,1,400,2|0,2:2|2:2,0:0:0:0:
100,211,76384,1,0,2:2:0:0:
73,241,76530,2,0,L|80:320,1,80,0|0,2:2|0:0,0:0:0:0:
104,352,76967,6,0,B|190:344|190:344|188:309|188:309|347:300|347:300|352:330|352:330|445:328,1,400,2|0,2:2|2:2,0:0:0:0:
502,274,78714,2,0,L|494:194,1,80,0|0,2:2|2:2,0:0:0:0:
436,138,79297,38,0,B|424:12|424:12|235:28|235:28|252:216|252:216|409:203,1,640,2|0,2:2|0:0,0:0:0:0:
388,204,83374,22,0,P|362:198|328:202,1,40,8|2,2:2|2:2,0:0:0:0:
219,226,83957,6,0,P|179:264|208:311,1,120,4|0,3:2|0:0,0:0:0:0:
251,301,84540,2,0,P|290:297|328:308,1,80,8|0,2:2|0:0,0:0:0:0:
365,331,84976,2,0,P|405:335|444:325,1,80,4|0,3:2|3:2,0:0:0:0:
477,298,85413,1,6,3:2:0:0:
432,222,85704,38,0,B|401:181|463:157|440:109,1,120,10|2,2:2|0:0,0:0:0:0:
433,65,86287,2,0,P|471:54|510:56,2,80,4|2|10,3:2|2:2|2:2,0:0:0:0:
345,58,87161,1,2,2:2:0:0:
304,40,87307,2,0,P|265:37|237:64,1,80,4|0,3:2|3:2,0:0:0:0:
208,97,87743,2,0,P|180:69|141:72,2,80,6|10|6,3:2|2:2|3:2,0:0:0:0:
256,170,88617,22,0,B|270:226|270:226|262:238|262:238|251:291|251:291|271:350,1,160,4|2,3:2|2:2,0:0:0:0:
144,213,89782,5,6,3:2:0:0:
215,51,90365,5,6,3:2:0:0:
302,46,90656,1,6,3:2:0:0:
376,92,90947,5,6,3:2:0:0:
377,179,91238,1,2,2:2:0:0:
323,248,91530,38,0,P|316:287|322:326,2,80,10|2|2,2:2|2:2|2:2,0:0:0:0:
264,181,92404,1,6,3:2:0:0:
177,186,92695,1,10,2:2:0:0:
147,217,92840,2,0,P|148:178|119:152,1,80,6|2,3:2|0:0,0:0:0:0:
77,138,93277,6,0,P|36:99|66:52,1,120,4|0,3:2|0:0,0:0:0:0:
107,40,93860,2,0,P|134:68|172:64,1,80,8|0,2:2|0:0,0:0:0:0:
207,37,94297,2,0,P|235:9|274:12,1,80,4|0,3:2|3:2,0:0:0:0:
311,33,94734,1,6,3:2:0:0:
397,16,95025,38,0,P|409:74|404:134,1,120,10|2,2:2|0:0,0:0:0:0:
392,177,95608,2,0,P|393:216|403:255,2,80,4|2|10,3:2|2:2|2:2,0:0:0:0:
315,133,96482,1,2,2:2:0:0:
274,149,96627,2,0,P|246:176|249:215,1,80,4|0,3:2|3:2,0:0:0:0:
262,256,97064,2,0,P|222:256|183:266,2,80,6|10|6,3:2|2:2|3:2,0:0:0:0:
346,282,97938,6,0,P|374:329|333:367,1,120,4|0,3:2|0:0,0:0:0:0:
289,363,98521,2,0,P|251:367|225:339,1,80,10|2,2:2|2:2,0:0:0:0:
193,306,98958,2,0,P|155:303|127:330,1,80,4|0,3:2|3:2,0:0:0:0:
112,372,99395,1,6,3:2:0:0:
24,372,99686,1,10,2:2:0:0:
5,332,99832,2,0,P|0:292|8:253,1,80,4|0,3:2|0:0,0:0:0:0:
41,224,100269,37,6,3:2:0:0:
126,203,100559,1,2,0:0:0:0:
207,236,100850,2,0,P|246:246|286:242,1,80,10|2,2:2|2:2,0:0:0:0:
325,224,101287,2,0,P|328:184|318:145,1,80,0|0,3:2|3:2,0:0:0:0:
295,108,101724,5,2,3:2:0:0:
207,97,102015,1,10,2:2:0:0:
119,85,102307,1,0,3:2:0:0:
78,163,102598,5,0,2:2:0:0:
