osu file format v14

[General]
AudioFilename: audio.mp3
AudioLeadIn: 0
PreviewTime: 20491
Countdown: 0
SampleSet: Soft
StackLeniency: 0.7
Mode: 0
LetterboxInBreaks: 0
EpilepsyWarning: 1
WidescreenStoryboard: 1

[Editor]
Bookmarks: 10531,21068,31604,52678,63214,73751,84287
DistanceSpacing: 0.8
BeatDivisor: 2
GridSize: 16
TimelineZoom: 0.9

[Metadata]
Title:i wanna slam my head against the wall
TitleUnicode:i wanna slam my head against the wall
Artist:glaive
ArtistUnicode:glaive
Creator:Tachibana_
Version:ryxliee's normal
Source:
Tags:all dogs go to heaven english hyperpop pop hip hop hip-hop rap electronic dnb Ryxliee hyper drum and bass want to
BeatmapID:3447869
BeatmapSetID:1685032

[Difficulty]
HPDrainRate:3
CircleSize:3.4
OverallDifficulty:4
ApproachRate:5.5
SliderMultiplier:1.12
SliderTickRate:1

[Events]
//Background and Video events
0,0,"bg.jpg",0,0
//Break Periods
//Storyboard Layer 0 (Background)
//Storyboard Layer 1 (Fail)
//Storyboard Layer 2 (Pass)
//Storyboard Layer 3 (Foreground)
//Storyboard Layer 4 (Overlay)
//Storyboard Sound Samples

[TimingPoints]
10531,658.544616397761,4,2,1,42,1,0
10531,-55.5555555555556,4,2,1,42,0,0
13165,-55.5555555555556,4,2,1,62,0,0
13329,-55.5555555555556,4,2,1,42,0,0
15799,-55.5555555555556,4,2,1,62,0,0
15963,-55.5555555555556,4,2,1,42,0,0
18433,-55.5555555555556,4,2,1,62,0,0
18597,-55.5555555555556,4,2,1,42,0,0
20573,-55.5555555555556,4,2,1,50,0,0
20738,-55.5555555555556,4,2,1,58,0,0
20903,-55.5555555555556,4,2,1,66,0,0
21068,329.27230819888,4,2,2,72,1,0
21068,-111.111111111111,4,2,2,72,0,0
21232,-111.111111111111,4,2,1,72,0,0
21397,-111.111111111111,4,2,1,58,0,0
23702,-105.263157894737,4,2,2,72,0,0
23866,-105.263157894737,4,2,1,58,0,0
26336,-100,4,2,2,72,0,0
26500,-100,4,2,1,62,0,0
28970,-95.2380952380952,4,2,2,72,0,0
29135,-95.2380952380952,4,2,1,66,0,0
31275,-95.2380952380952,4,2,1,68,0,0
31357,-95.2380952380952,4,2,1,70,0,0
31440,-95.2380952380952,4,2,1,72,0,0
31522,-95.2380952380952,4,2,1,74,0,0
31604,-90.9090909090908,4,2,1,76,0,1
31769,-90.9090909090908,4,2,1,72,0,1
33909,-90.9090909090908,4,2,1,78,0,1
34074,-90.9090909090908,4,2,1,72,0,1
44446,-90.9090909090908,4,2,1,78,0,1
44611,-90.9090909090908,4,2,1,72,0,1
52678,658.544616397761,4,2,1,40,1,0
52678,-55.5555555555556,4,2,1,40,0,0
52842,-55.5555555555556,4,2,1,40,0,0
55312,-55.5555555555556,4,2,1,55,0,0
55476,-55.5555555555556,4,2,1,40,0,0
57946,-55.5555555555556,4,2,1,55,0,0
58110,-55.5555555555556,4,2,1,40,0,0
60580,-55.5555555555556,4,2,1,55,0,0
60744,-55.5555555555556,4,2,1,40,0,0
63214,-55.5555555555556,4,2,1,55,0,0
63378,-55.5555555555556,4,2,1,40,0,0
65848,-55.5555555555556,4,2,1,55,0,0
66012,-55.5555555555556,4,2,1,40,0,0
68483,-55.5555555555556,4,2,1,55,0,0
68647,-55.5555555555556,4,2,1,40,0,0
71117,-55.5555555555556,4,2,1,55,0,0
71281,-55.5555555555556,4,2,1,40,0,0
73257,-55.5555555555556,4,2,1,50,0,0
73422,-55.5555555555556,4,2,1,58,0,0
73587,-55.5555555555556,4,2,1,66,0,0
73751,329.27230819888,4,2,2,60,1,0
73751,-111.111111111111,4,2,2,60,0,0
73915,-111.111111111111,4,2,1,60,0,0
76385,-105.263157894737,4,2,2,60,0,0
76549,-105.263157894737,4,2,1,60,0,0
79019,-100,4,2,2,64,0,0
79183,-100,4,2,1,64,0,0
81653,-95.2380952380952,4,2,2,68,0,0
81818,-95.2380952380952,4,2,1,68,0,0
84040,-95.2380952380952,4,2,1,70,0,0
84123,-95.2380952380952,4,2,1,72,0,0
84205,-95.2380952380952,4,2,1,74,0,0
84287,-90.9090909090909,4,2,1,76,0,1
86592,-90.9090909090909,4,2,1,78,0,1
86757,-90.9090909090909,4,2,1,72,0,1
94824,658.544616397761,4,2,1,80,1,0
94824,-50,4,2,1,80,0,0
95153,-50,4,2,2,84,0,0
95235,-50,4,2,1,85,0,0
95317,-50,4,2,1,87,0,0
95400,-50,4,2,1,86,0,0
95482,-50,4,2,1,88,0,0
97128,-50,4,2,1,78,0,0
97293,-50,4,2,1,72,0,0

[Colours]
Combo1 : 0,102,51
Combo2 : 64,128,128
Combo3 : 106,106,181
Combo4 : 255,128,64
Combo5 : 255,72,72
Combo6 : 0,128,192
SliderBorder : 216,144,144
SliderTrackOverride : 36,10,6

[HitObjects]
339,256,10531,6,0,B|291:237|228:283|273:315|219:356|134:327,1,201.599993847656,4|8,0:0|0:0,0:0:0:0:
99,295,11518,2,0,P|50:302|16:338,2,100.799996923828,2|2|2,0:0|0:0|3:0,0:0:0:0:
161,243,12506,1,10,0:0:0:0:
125,170,12835,1,2,0:0:0:0:
181,111,13165,6,0,B|267:119|267:119|290:144|290:144|370:152,1,201.599993847656,6|10,3:0|0:0,0:0:0:0:
451,144,14152,1,2,0:0:0:0:
500,207,14482,2,0,P|486:256|477:305,1,100.799996923828,2|2,0:0|3:0,0:0:0:0:
403,338,15140,2,0,P|393:288|379:240,1,100.799996923828,10|2,0:0|0:0,0:0:0:0:
305,274,15799,6,0,B|271:299|246:321|246:321|180:289|131:267,1,201.599993847656,6|10,3:0|0:0,0:0:0:0:
102,192,16787,2,0,P|56:213|12:238,2,100.799996923828,2|2|2,3:0|0:0|3:0,0:0:0:0:
153,129,17774,1,10,0:0:0:0:
224,167,18104,1,2,0:0:0:0:
293,126,18433,6,0,B|305:71|319:2|319:2|323:42|345:72,1,201.599993847656,6|10,3:0|0:0,0:0:0:0:
444,198,19750,2,0,B|431:252|418:322|418:322|414:282|391:251,1,201.599993847656,2|10,0:0|0:0,0:0:0:0:
327,204,20738,1,2,3:0:0:0:
257,244,21068,6,0,P|208:252|165:228,1,100.799996923828,0|10,1:0|3:0,0:0:0:0:
111,168,21726,2,0,P|67:143|19:152,1,100.799996923828,2|10,0:0|3:0,0:0:0:0:
0,188,22220,1,2,0:0:0:0:
50,250,22549,2,0,P|45:274|42:299,1,50.3999984619141,2|10,0:0|3:0,0:0:0:0:
19,333,22878,2,0,B|73:340|58:363|111:370,1,100.799996923828,2|0,3:0|0:0,0:0:0:0:
149,381,23372,1,10,3:0:0:0:
225,342,23702,5,0,1:0:0:0:
194,262,24031,1,10,3:0:0:0:
255,203,24360,2,0,P|307:213|358:227,1,106.399997158814,2|10,0:0|3:0,0:0:0:0:
386,259,24854,1,2,0:0:0:0:
462,221,25183,2,0,P|468:195|474:169,1,53.1999985794068,2|8,0:0|3:0,0:0:0:0:
510,144,25513,2,0,P|497:93|482:42,1,106.399997158814,2|0,3:0|0:0,0:0:0:0:
450,13,26007,1,10,3:0:0:0:
382,71,26336,5,0,1:0:0:0:
306,22,26665,1,10,3:0:0:0:
238,81,26994,2,0,P|225:134|256:179,1,112,2|10,0:0|3:0,0:0:0:0:
284,214,27488,1,2,0:0:0:0:
351,272,27818,2,0,P|356:299|347:325,1,56,2|10,0:0|3:0,0:0:0:0:
317,359,28147,2,0,P|263:348|207:340,1,112,2|0,3:0|0:0,0:0:0:0:
163,332,28641,1,10,3:0:0:0:
72,358,28970,6,0,P|40:310|53:254,1,117.599996411133,0|10,1:0|3:0,0:0:0:0:
95,233,29464,2,0,P|126:185|113:129,1,117.599996411133,2|2,3:0|0:0,0:0:0:0:
71,108,29958,1,10,3:0:0:0:
125,31,30287,2,0,B|187:40|170:65|232:74,1,117.599996411133,2|8,3:0|3:0,0:0:0:0:
273,97,30781,1,2,3:0:0:0:
349,40,31110,1,2,0:0:0:0:
349,40,31275,2,0,P|377:46|405:56,1,58.7999982055665,6|6,0:0|0:0,0:0:0:0:
452,42,31604,6,0,B|468:65|487:81|487:81|462:147,1,123.200003759766,6|10,3:0|0:0,0:0:0:0:
413,233,32263,1,2,3:0:0:0:
331,177,32592,2,0,P|300:180|270:187,1,61.6000018798829,10|2,0:0|0:0,0:0:0:0:
236,223,32921,1,2,3:0:0:0:
144,260,33251,2,0,P|113:262|87:247,1,61.6000018798829,10|2,0:0|0:0,0:0:0:0:
44,222,33580,1,0,3:0:0:0:
31,124,33909,1,10,0:0:0:0:
85,42,34238,6,0,P|143:29|189:67,1,123.200003759766,0|10,3:0|0:0,0:0:0:0:
250,146,34897,1,2,3:0:0:0:
329,203,35226,2,0,P|359:207|387:197,1,61.6000018798829,10|0,0:0|0:0,0:0:0:0:
431,171,35555,1,2,3:0:0:0:
431,171,35720,1,2,0:0:0:0:
496,244,36049,2,0,B|516:269|505:298|505:298|476:315|438:342,1,123.200003759766,2|2,0:0|0:0,0:0:0:0:
420,373,36543,2,0,P|390:379|362:367,1,61.6000018798829,10|2,0:0|0:0,0:0:0:0:
323,336,36873,6,0,B|328:280|328:280|332:271|332:271|339:214,1,123.200003759766,2|10,3:0|0:0,0:0:0:0:
402,138,37531,1,2,3:0:0:0:
331,69,37860,2,0,P|295:76|266:84,1,61.6000018798829,10|2,0:0|0:0,0:0:0:0:
225,81,38190,1,2,3:0:0:0:
225,81,38354,1,2,0:0:0:0:
137,126,38684,2,0,B|112:192|112:192|131:208|147:231,1,123.200003759766,2|2,0:0|0:0,0:0:0:0:
171,273,39177,1,10,0:0:0:0:
241,342,39507,6,0,B|303:331|282:303|351:291,1,123.200003759766,2|8,3:0|0:0,0:0:0:0:
392,319,40001,2,0,P|449:307|468:251,1,123.200003759766,2|0,0:0|0:0,0:0:0:0:
481,203,40495,1,10,0:0:0:0:
400,134,40824,1,2,3:0:0:0:
400,134,40988,2,0,P|341:149|281:178,1,123.200003759766,2|2,0:0|0:0,0:0:0:0:
246,206,41482,1,0,3:0:0:0:
171,140,41812,2,0,P|176:109|185:80,1,61.6000018798829,10|2,0:0|0:0,0:0:0:0:
216,41,42141,6,0,P|167:6|109:20,1,123.200003759766,2|10,3:0|0:0,0:0:0:0:
41,92,42800,1,2,3:0:0:0:
91,176,43129,2,0,P|81:205|76:235,1,61.6000018798829,10|2,0:0|0:0,0:0:0:0:
51,278,43458,1,2,3:0:0:0:
112,354,43787,2,0,P|142:356|168:341,1,61.6000018798829,10|2,0:0|0:0,0:0:0:0:
199,302,44117,1,0,3:0:0:0:
293,330,44446,1,10,0:0:0:0:
359,256,44775,6,0,B|347:202|347:202|339:198|339:198|324:140,1,123.200003759766,0|10,3:0|0:0,0:0:0:0:
260,65,45434,1,2,3:0:0:0:
341,10,45763,2,0,P|371:6|398:20,1,61.6000018798829,10|0,0:0|0:0,0:0:0:0:
443,51,46092,1,2,3:0:0:0:
443,51,46257,1,2,0:0:0:0:
512,121,46586,2,0,P|494:180|482:240,1,123.200003759766,2|2,0:0|0:0,0:0:0:0:
435,254,47080,2,0,P|446:283|456:322,1,61.6000018798829,10|2,0:0|0:0,0:0:0:0:
492,343,47410,6,0,B|472:353|456:369|456:369|419:355|378:348,1,123.200003759766,2|10,3:0|0:0,0:0:0:0:
283,368,48068,1,2,3:0:0:0:
210,300,48397,2,0,P|207:269|222:243,1,61.6000018798829,10|2,0:0|0:0,0:0:0:0:
271,224,48727,1,2,3:0:0:0:
271,224,48891,1,2,0:0:0:0:
352,168,49221,2,0,P|362:109|321:66,1,123.200003759766,2|2,0:0|0:0,0:0:0:0:
275,48,49714,1,10,0:0:0:0:
199,111,50043,6,0,B|137:100|158:72|88:60,1,123.200003759766,2|10,3:0|0:0,0:0:0:0:
39,58,50538,2,0,P|52:119|58:180,1,123.200003759766,2|0,0:0|0:0,0:0:0:0:
38,225,51032,1,10,0:0:0:0:
117,291,51361,1,2,3:0:0:0:
117,291,51525,2,0,B|183:266|183:266|199:285|222:301,1,123.200003759766,2|2,0:0|0:0,0:0:0:0:
266,322,52019,1,0,3:0:0:0:
351,272,52349,2,0,P|380:279|404:299,1,61.6000018798829,10|0,0:0|0:0,0:0:0:0:
426,332,52678,6,0,P|438:231|456:132,1,201.599993847656,2|8,3:0|0:0,0:0:0:0:
509,72,53665,2,0,P|502:48|491:26,1,50.3999984619141,2|2,0:0|0:0,0:0:0:0:
412,8,54159,2,0,B|329:24|368:71|289:87,1,151.199995385742,2|10,0:0|0:0,0:0:0:0:
221,130,54982,1,2,0:0:0:0:
158,79,55312,6,0,P|64:92|43:184,1,201.599993847656,14|8,3:0|0:0,0:0:0:0:
66,261,56299,2,0,P|91:265|117:275,1,50.3999984619141,2|2,0:0|0:0,0:0:0:0:
166,337,56793,2,0,P|223:313|340:296,1,151.199995385742,2|10,0:0|0:0,0:0:0:0:
388,319,57617,1,2,0:0:0:0:
427,248,57946,6,0,B|415:193|401:124|401:124|401:168|376:192,1,201.599993847656,14|8,3:0|0:0,0:0:0:0:
321,132,58934,2,0,P|299:119|274:115,1,50.3999984619141,2|2,0:0|0:0,0:0:0:0:
210,164,59428,2,0,P|146:201|76:180,1,151.199995385742,2|10,0:0|0:0,0:0:0:0:
11,131,60251,1,0,0:0:0:0:
44,57,60580,6,0,B|128:39|128:39|157:56|157:56|236:40,2,201.599993847656,14|10|2,3:0|0:0|0:0,0:0:0:0:
11,131,62226,1,2,0:0:0:0:
76,180,62556,2,0,P|68:229|62:279,1,100.799996923828,10|0,0:0|0:0,0:0:0:0:
51,359,63214,6,0,B|99:378|162:332|117:300|171:259|256:288,1,201.599993847656,14|8,3:0|0:0,0:0:0:0:
297,256,64202,2,0,P|344:269|387:246,2,100.799996923828,2|2|2,0:0|0:0|0:3,0:0:0:0:
236,202,65190,1,10,0:0:0:0:
287,140,65519,1,2,0:0:0:0:
250,67,65848,6,0,B|284:42|309:20|309:20|375:52|424:74,1,201.599993847656,6|10,3:0|0:0,0:0:0:0:
488,121,66836,1,2,0:0:0:0:
449,191,67165,2,0,P|466:242|479:300,1,100.799996923828,2|2,0:0|3:0,0:0:0:0:
399,310,67824,2,0,P|387:260|371:213,1,100.799996923828,10|2,0:0|0:0,0:0:0:0:
382,133,68483,6,0,B|334:114|271:160|316:192|262:233|177:204,1,201.599993847656,6|10,3:0|0:0,0:0:0:0:
139,244,69470,2,0,P|91:230|48:253,2,100.799996923828,2|2|2,3:3|0:0|3:0,0:0:0:0:
204,291,70459,1,10,0:0:0:0:
276,255,70788,1,2,0:0:0:0:
343,299,71117,6,0,B|365:329|369:369|369:369|383:300|395:245,1,201.599993847656,6|10,3:0|0:0,0:0:0:0:
282,129,72434,2,0,B|260:99|256:59|256:59|242:128|230:183,1,201.599993847656,2|10,0:0|0:0,0:0:0:0:
267,254,73422,1,2,3:0:0:0:
207,307,73751,6,0,P|157:317|110:336,1,100.799996923828,0|8,1:0|3:0,0:0:0:0:
75,355,74244,1,2,3:0:0:0:
21,302,74574,1,2,0:0:0:0:
21,302,74738,2,0,P|29:235|46:140,1,151.199995385742,8|2,3:0|0:0,0:0:0:0:
56,114,75397,1,10,3:0:0:0:
124,156,75726,2,0,P|173:158|213:129,1,100.799996923828,2|10,0:0|3:0,0:0:0:0:
260,58,76385,6,0,P|312:55|354:85,1,106.399997158814,0|10,1:0|3:0,0:0:0:0:
383,117,76878,1,2,3:0:0:0:
466,152,77208,1,2,0:0:0:0:
466,152,77372,2,0,B|455:181|427:199|427:199|471:291,1,159.59999573822,10|2,3:0|0:0,0:0:0:0:
495,320,78031,1,10,3:0:0:0:
423,365,78360,2,0,P|372:348|317:333,1,106.399997158814,2|10,0:0|3:0,0:0:0:0:
235,359,79019,6,0,P|196:319|195:264,1,112,0|8,1:0|3:0,0:0:0:0:
212,223,79512,1,2,3:0:0:0:
281,166,79842,1,2,0:0:0:0:
281,166,80006,2,0,B|333:169|315:202|381:210,1,112,10|0,3:0|3:0,0:0:0:0:
426,231,80501,1,2,0:0:0:0:
426,231,80665,1,10,3:0:0:0:
488,167,80994,1,2,0:0:0:0:
445,87,81324,2,0,P|415:78|386:73,1,56,10|0,3:0|0:0,0:0:0:0:
360,37,81653,6,0,P|302:47|246:66,1,117.599996411133,0|10,1:0|3:0,0:0:0:0:
224,108,82147,2,0,P|127:86|38:77,1,176.399994616699,2|8,3:0|3:0,0:0:0:0:
1,158,82970,2,0,P|4:214|51:247,1,117.599996411133,2|10,3:0|3:0,0:0:0:0:
92,269,83464,1,2,3:0:0:0:
172,217,83793,1,2,0:0:0:0:
172,217,83958,2,0,P|200:213|228:222,1,58.7999982055665,6|4,0:0|0:0,0:0:0:0:
269,250,84287,6,0,B|285:227|304:211|304:211|279:145,1,123.200003759766,6|10,3:0|0:0,0:0:0:0:
219,65,84946,1,2,3:0:0:0:
304,15,85275,2,0,P|333:21|361:35,1,61.6000018798829,10|2,0:0|0:0,0:0:0:0:
408,19,85604,1,2,3:0:0:0:
486,79,85934,2,0,P|479:108|456:128,1,61.6000018798829,10|2,0:0|0:0,0:0:0:0:
411,147,86263,1,0,3:0:0:0:
451,236,86592,1,10,0:0:0:0:
397,319,86921,6,0,B|332:305|353:280|288:265,1,123.200003759766,0|10,3:0|0:0,0:0:0:0:
213,200,87580,1,2,3:0:0:0:
129,252,87909,2,0,P|121:281|115:312,1,61.6000018798829,10|0,0:0|0:0,0:0:0:0:
93,358,88238,1,2,3:0:0:0:
93,358,88403,1,2,0:0:0:0:
25,286,88732,2,0,P|39:226|56:166,1,123.200003759766,2|2,0:0|0:0,0:0:0:0:
101,147,89226,2,0,P|94:114|82:70,1,61.6000018798829,10|2,0:0|0:0,0:0:0:0:
46,57,89556,6,0,P|85:11|144:12,1,123.200003759766,2|10,3:0|0:0,0:0:0:0:
239,40,90214,1,2,3:0:0:0:
270,133,90543,2,0,P|248:161|226:195,1,61.6000018798829,10|2,0:0|0:0,0:0:0:0:
191,206,90873,1,2,3:0:0:0:
191,206,91037,1,2,0:0:0:0:
223,299,91367,2,0,P|278:314|361:351,1,123.200003759766,2|2,0:0|0:0,0:0:0:0:
374,374,91860,1,10,0:0:0:0:
458,323,92190,6,0,B|483:257|483:257|464:241|448:218,1,123.200003759766,2|8,3:0|0:0,0:0:0:0:
403,197,92684,2,0,B|415:143|415:143|423:139|423:139|438:81,1,123.200003759766,2|0,0:0|0:0,0:0:0:0:
448,33,93178,1,10,0:0:0:0:
357,63,93507,1,2,3:0:0:0:
357,63,93671,2,0,B|288:67|305:25|243:30,1,123.200003759766,2|2,0:0|0:0,0:0:0:0:
200,57,94165,1,0,3:0:0:0:
167,149,94495,2,0,P|183:176|209:191,1,61.6000018798829,10|2,0:0|0:0,0:0:0:0:
252,182,94824,6,0,P|304:196|335:241,1,112,2|4,3:0|0:0,0:0:0:0:
298,330,95482,2,0,P|263:337|238:344,1,56,4|0,0:0|0:0,0:0:0:0:
215,377,95811,2,0,P|167:360|103:345,1,112,10|2,0:0|3:0,0:0:0:0:
31,307,96470,1,10,0:0:0:0:
31,307,96634,2,0,P|61:262|47:210,1,112,2|0,0:0|0:0,0:0:0:0:
18,176,97128,1,10,0:0:0:0:
64,98,97458,6,0,B|123:106|108:132|166:140,1,112,0|10,3:0|0:0,0:0:0:0:
239,190,98116,1,2,3:0:0:0:
316,145,98445,1,10,0:0:0:0:
398,193,98775,1,2,3:0:0:0:
398,193,98940,2,0,P|393:220|388:248,1,56,2|8,0:0|0:0,0:0:0:0:
354,277,99269,2,0,P|373:328|420:355,1,112,2|2,0:0|0:0,0:0:0:0:
465,359,99763,1,10,0:0:0:0:
510,282,100092,6,0,P|502:226|491:171,1,112,2|10,3:0|0:0,0:0:0:0:
466,85,100750,1,2,3:0:0:0:
388,130,101080,2,0,P|360:126|338:109,1,56,10|2,0:0|0:0,0:0:0:0:
316,70,101409,2,0,P|265:52|207:71,1,112,2|8,3:0|0:0,0:0:0:0:
172,90,101903,2,0,P|188:143|199:198,1,112,2|2,0:0|0:0,0:0:0:0:
223,235,102397,1,10,0:0:0:0:
173,309,102726,6,0,P|122:327|64:308,1,112,2|8,3:0|0:0,0:0:0:0:
29,289,103220,2,0,P|45:235|56:180,1,112,2|0,0:0|0:0,0:0:0:0:
80,144,103714,1,10,0:0:0:0:
36,64,104043,1,2,3:0:0:0:
36,64,104208,2,0,P|78:29|132:32,1,112,2|2,0:0|0:0,0:0:0:0:
167,61,104702,2,0,B|226:53|211:27|269:18,1,112,0|8,3:0|0:0,0:0:0:0:
353,48,105360,5,2,3:0:0:0:
