osu file format v14

[General]
AudioFilename: audio.mp3
AudioLeadIn: 0
PreviewTime: 20491
Countdown: 0
SampleSet: Soft
StackLeniency: 0.7
Mode: 0
LetterboxInBreaks: 0
EpilepsyWarning: 1
WidescreenStoryboard: 1

[Editor]
Bookmarks: 10531,105360
DistanceSpacing: 1.8
BeatDivisor: 4
GridSize: 8
TimelineZoom: 1.7

[Metadata]
Title:i wanna slam my head against the wall
TitleUnicode:i wanna slam my head against the wall
Artist:glaive
ArtistUnicode:glaive
Creator:Tachibana_
Version:hard
Source:
Tags:all dogs go to heaven english hyperpop pop hip hop hip-hop rap electronic dnb Ryxliee hyper drum and bass want to
BeatmapID:3443051
BeatmapSetID:1685032

[Difficulty]
HPDrainRate:4
CircleSize:3.6
OverallDifficulty:6
ApproachRate:8
SliderMultiplier:1.32
SliderTickRate:1

[Events]
//Background and Video events
0,0,"bg.jpg",0,0
//Break Periods
//Storyboard Layer 0 (Background)
//Storyboard Layer 1 (Fail)
//Storyboard Layer 2 (Pass)
//Storyboard Layer 3 (Foreground)
//Storyboard Layer 4 (Overlay)
//Storyboard Sound Samples

[TimingPoints]
10531,658.544616397761,4,2,1,42,1,0
10531,-81.9672131147541,4,2,1,42,0,0
13165,-81.9672131147541,4,2,1,62,0,0
13329,-81.9672131147541,4,2,1,42,0,0
15799,-81.9672131147541,4,2,1,62,0,0
15963,-81.9672131147541,4,2,1,42,0,0
18433,-81.9672131147541,4,2,1,62,0,0
18597,-81.9672131147541,4,2,1,42,0,0
20573,-81.9672131147541,4,2,1,50,0,0
20738,-70.4225352112676,4,2,1,58,0,0
20903,-70.4225352112676,4,2,1,66,0,0
21068,329.27230819888,4,2,2,72,1,0
21232,-100,4,2,1,72,0,0
21397,-121.951219512195,4,2,1,58,0,0
23372,-138.888888888889,4,2,1,58,0,0
23702,-121.951219512195,4,2,2,72,0,0
23866,-121.951219512195,4,2,1,58,0,0
25183,-138.888888888889,4,2,1,58,0,0
25513,-121.951219512195,4,2,1,58,0,0
26007,-108.695652173913,4,2,1,58,0,0
26336,-108.695652173913,4,2,2,72,0,0
26500,-108.695652173913,4,2,1,62,0,0
27818,-121.951219512195,4,2,1,62,0,0
28147,-108.695652173913,4,2,1,62,0,0
28970,-98.0392156862745,4,2,2,72,0,0
29135,-98.0392156862745,4,2,1,66,0,0
31275,-98.0392156862745,4,2,1,68,0,0
31357,-98.0392156862745,4,2,1,70,0,0
31440,-98.0392156862745,4,2,1,72,0,0
31522,-98.0392156862745,4,2,1,74,0,0
31604,-81.9672131147541,4,2,1,76,0,1
31769,-81.9672131147541,4,2,1,72,0,1
33909,-81.9672131147541,4,2,1,78,0,1
34074,-81.9672131147541,4,2,1,72,0,1
44446,-81.9672131147541,4,2,1,78,0,1
44611,-81.9672131147541,4,2,1,72,0,1
52678,658.544616397761,4,2,1,40,1,0
52678,-75.7575757575758,4,2,1,40,0,0
52842,-75.7575757575758,4,2,1,40,0,0
55312,-75.7575757575758,4,2,1,55,0,0
55476,-75.7575757575758,4,2,1,40,0,0
57946,-75.7575757575758,4,2,1,55,0,0
58110,-75.7575757575758,4,2,1,40,0,0
60580,-75.7575757575758,4,2,1,55,0,0
60744,-75.7575757575758,4,2,1,40,0,0
63214,-81.9672131147541,4,2,1,55,0,0
63378,-81.9672131147541,4,2,1,40,0,0
65848,-81.9672131147541,4,2,1,55,0,0
66012,-81.9672131147541,4,2,1,40,0,0
68483,-81.9672131147541,4,2,1,55,0,0
68647,-81.9672131147541,4,2,1,40,0,0
71117,-81.9672131147541,4,2,1,55,0,0
71281,-81.9672131147541,4,2,1,40,0,0
73257,-81.9672131147541,4,2,1,50,0,0
73422,-81.9672131147541,4,2,1,58,0,0
73587,-81.9672131147541,4,2,1,66,0,0
73751,329.27230819888,4,2,2,60,1,0
73751,-98.0392156862745,4,2,2,60,0,0
73915,-98.0392156862745,4,2,1,60,0,0
75726,-98.0392156862745,4,2,1,60,0,0
75973,-98.0392156862745,4,2,1,5,0,0
76055,-98.0392156862745,4,2,1,60,0,0
76385,-98.0392156862745,4,2,2,60,0,0
76549,-98.0392156862745,4,2,1,60,0,0
78360,-98.0392156862745,4,2,1,60,0,0
78607,-98.0392156862745,4,2,1,5,0,0
78690,-98.0392156862745,4,2,1,60,0,0
78937,-98.0392156862745,4,2,1,5,0,0
79019,-98.0392156862745,4,2,2,64,0,0
79183,-98.0392156862745,4,2,1,64,0,0
80994,-98.0392156862745,4,2,1,64,0,0
81241,-98.0392156862745,4,2,1,5,0,0
81324,-98.0392156862745,4,2,1,64,0,0
81653,-98.0392156862745,4,2,2,68,0,0
81818,-98.0392156862745,4,2,1,68,0,0
84040,-98.0392156862745,4,2,1,70,0,0
84123,-98.0392156862745,4,2,1,72,0,0
84205,-98.0392156862745,4,2,1,74,0,0
84287,-81.9672131147541,4,2,1,76,0,1
86592,-81.9672131147541,4,2,1,78,0,1
86757,-81.9672131147541,4,2,1,72,0,1
94824,658.544616397761,4,2,1,80,1,0
94824,-43.1034482758621,4,2,1,80,0,0
95153,-43.1034482758621,4,2,2,84,0,0
95235,-43.1034482758621,4,2,1,85,0,0
95317,-43.1034482758621,4,2,1,87,0,0
95400,-43.1034482758621,4,2,1,86,0,0
95482,-43.1034482758621,4,2,1,88,0,0
97128,-43.1034482758621,4,2,1,78,0,0
97293,-43.1034482758621,4,2,1,72,0,0

[Colours]
Combo1 : 0,102,51
Combo2 : 64,128,128
Combo3 : 106,106,181
Combo4 : 255,128,64
Combo5 : 255,72,72
Combo6 : 0,128,192
SliderBorder : 216,144,144
SliderTrackOverride : 36,10,6

[HitObjects]
253,34,10531,6,0,B|332:34|289:69|368:69,1,120.779995024018,4|0,0:0|0:0,0:0:0:0:
444,60,11189,1,8,0:0:0:0:
444,60,11518,2,0,L|437:107,1,40.2599983413392,2|0,0:0|0:0,0:0:0:0:
374,142,11848,2,0,L|381:189,1,40.2599983413392,2|0,0:0|0:0,0:0:0:0:
400,255,12177,2,0,P|443:246|485:241,2,80.5199966826784,2|10|2,3:0|0:0|0:0,0:0:0:0:
287,358,13165,6,0,P|230:341|224:282,1,120.779995024018,6|0,3:0|0:0,0:0:0:0:
256,218,13823,1,10,0:0:0:0:
256,218,14152,2,0,L|209:211,1,40.2599983413392,2|0,0:0|0:0,0:0:0:0:
153,257,14482,2,0,L|106:264,1,40.2599983413392,2|0,0:0|0:0,0:0:0:0:
47,223,14811,2,0,P|68:258|65:305,2,80.5199966826784,2|10|2,3:0|0:0|0:0,0:0:0:0:
0,76,15799,6,0,P|44:65|123:46,1,120.779995024018,6|0,3:0|0:0,0:0:0:0:
191,28,16457,1,10,0:0:0:0:
191,28,16787,2,0,P|212:32|230:33,1,40.2599983413392,2|0,3:0|3:0,0:0:0:0:
264,102,17116,2,0,P|285:98|303:96,1,40.2599983413392,2|0,0:0|0:0,0:0:0:0:
379,82,17446,2,0,P|392:47|380:-2,2,80.5199966826784,2|10|2,3:0|0:0|0:0,0:0:0:0:
358,157,18268,1,0,3:0:0:0:
358,157,18433,6,0,P|372:174|349:262,1,120.779995024018,6|0,3:0|0:0,0:0:0:0:
280,292,19092,1,10,0:0:0:0:
128,127,19585,1,0,0:0:0:0:
128,127,19750,2,0,B|110:196|150:183|137:245,1,120.779995024018,2|0,0:0|0:0,0:0:0:0:
181,313,20409,1,10,0:0:0:0:
181,313,20573,2,0,P|161:321|142:322,2,40.2599983413392,2|2|2,3:0|3:0|3:0,0:0:0:0:
272,300,21067,1,0,1:0:0:0:
272,300,21397,6,0,L|250:174,1,108.240001651611,10|2,3:0|0:0,0:0:0:0:
268,116,21891,1,2,0:0:0:0:
268,116,22055,2,0,L|331:126,1,54.1200008258057,10|2,3:0|0:0,0:0:0:0:
375,281,22549,2,0,L|428:272,1,54.1200008258057,2|10,0:0|3:0,0:0:0:0:
510,252,22878,1,2,3:0:0:0:
510,252,23372,2,0,P|508:223|489:193,1,47.5200011601563,10|2,3:0|0:0,0:0:0:0:
419,192,23702,6,0,P|419:136|445:87,1,108.240001651611,0|10,1:0|3:0,0:0:0:0:
307,0,24360,2,0,L|253:8,1,54.1200008258057,2|0,0:0|0:0,0:0:0:0:
177,24,24689,1,10,3:0:0:0:
177,24,24854,1,2,0:0:0:0:
65,112,25183,2,0,L|69:177,1,47.5200011601563,2|8,0:0|3:0,0:0:0:0:
36,229,25513,2,0,P|82:199|114:238,1,108.240001651611,2|0,3:0|0:0,0:0:0:0:
93,313,26007,2,0,P|120:308|152:303,1,60.71999796167,10|2,3:0|0:0,0:0:0:0:
229,282,26336,5,0,1:0:0:0:
251,125,26665,2,0,L|377:149,1,121.43999592334,10|2,3:0|0:0,0:0:0:0:
444,115,27159,1,0,0:0:0:0:
444,115,27323,2,0,L|455:182,1,60.71999796167,10|2,3:0|0:0,0:0:0:0:
329,253,27818,2,0,L|320:306,1,54.1200008258057,2|10,0:0|3:0,0:0:0:0:
377,360,28147,2,0,P|317:349|257:339,1,121.43999592334,2|0,3:0|0:0,0:0:0:0:
183,359,28641,1,10,3:0:0:0:
183,359,28805,1,2,0:0:0:0:
114,315,28970,6,0,P|98:285|100:252,1,67.3200004108887,0|2,1:0|0:0,0:0:0:0:
131,177,29299,1,10,3:0:0:0:
203,213,29464,2,0,P|267:233|333:244,1,134.640000821777,2|2,3:0|0:0,0:0:0:0:
415,225,29958,1,10,3:0:0:0:
415,225,30287,6,0,L|425:158,1,67.3200004108887,2|2,3:0|0:0,0:0:0:0:
439,79,30616,1,8,3:0:0:0:
359,96,30781,1,2,3:0:0:0:
184,16,31110,5,2,0:0:0:0:
116,71,31275,2,0,L|121:104,3,33.6600002054443,6|6|6|6,0:0|0:0|0:0|0:0,0:0:0:0:
111,152,31604,6,0,B|217:145|162:209|272:208,1,161.039993365357,6|10,3:0|0:0,0:0:0:0:
345,191,32098,1,0,0:0:0:0:
345,191,32263,2,0,L|354:111,1,80.5199966826784,2|0,3:0|0:0,0:0:0:0:
320,34,32592,1,10,0:0:0:0:
320,34,32757,1,2,0:0:0:0:
402,3,32921,6,0,P|460:35|432:120,1,161.039993365357,2|10,3:0|0:0,0:0:0:0:
438,204,33415,2,0,P|453:243|447:295,2,80.5199966826784,2|0|0,0:0|3:0|0:0,0:0:0:0:
361,158,33909,6,0,L|281:145,1,80.5199966826784,10|0,0:0|0:0,0:0:0:0:
285,57,34238,2,0,L|364:69,1,80.5199966826784,0|0,3:0|0:0,0:0:0:0:
452,85,34568,5,10,0:0:0:0:
452,85,34897,2,0,B|408:140|408:140|428:238,1,161.039993365357,2|10,3:0|0:0,0:0:0:0:
500,285,35391,1,0,0:0:0:0:
500,285,35556,2,0,P|466:318|421:321,1,80.5199966826784,2|2,3:0|0:0,0:0:0:0:
360,366,35885,1,8,0:0:0:0:
360,366,36049,6,0,P|326:333|281:330,1,80.5199966826784,2|0,0:0|3:0,0:0:0:0:
209,341,36379,1,2,0:0:0:0:
209,341,36543,1,10,0:0:0:0:
137,288,36708,1,2,0:0:0:0:
55,323,36873,2,0,L|42:243,1,80.5199966826784,2|2,3:0|0:0,0:0:0:0:
21,157,37202,5,10,0:0:0:0:
21,157,37531,2,0,B|107:124|50:95|145:58,1,161.039993365357,2|10,3:0|0:0,0:0:0:0:
219,11,38025,1,2,0:0:0:0:
219,11,38190,2,0,B|257:17|257:17|260:19|260:19|298:25,1,80.5199966826784,2|2,3:0|0:0,0:0:0:0:
308,117,38519,1,8,0:0:0:0:
308,117,38684,6,0,B|346:111|346:111|349:109|349:109|387:103,1,80.5199966826784,2|0,0:0|3:0,0:0:0:0:
448,39,39013,1,2,0:0:0:0:
448,39,39177,1,10,0:0:0:0:
494,114,39342,1,2,0:0:0:0:
439,183,39507,6,0,L|357:202,2,80.5199966826784,2|2|8,3:0|0:0|0:0,0:0:0:0:
485,258,40001,2,0,L|321:298,1,161.039993365357,2|0,0:0|0:0,0:0:0:0:
261,354,40495,2,0,P|239:320|240:280,1,80.5199966826784,10|2,0:0|0:0,0:0:0:0:
268,196,40824,6,0,L|186:177,2,80.5199966826784,2|2|10,3:0|0:0|0:0,0:0:0:0:
320,124,41318,2,0,L|162:82,1,161.039993365357,2|0,0:0|0:0,0:0:0:0:
102,20,41812,2,0,P|121:51|108:101,1,80.5199966826784,10|2,0:0|0:0,0:0:0:0:
34,131,42141,6,0,B|40:164|72:178|72:178|51:222|44:279,1,161.039993365357,2|10,3:0|0:0,0:0:0:0:
12,356,42635,1,0,0:0:0:0:
12,356,42800,2,0,L|92:347,1,80.5199966826784,2|0,3:0|0:0,0:0:0:0:
179,379,43129,1,10,0:0:0:0:
179,379,43294,1,2,0:0:0:0:
205,294,43458,6,0,P|237:236|322:264,1,161.039993365357,2|10,3:0|0:0,0:0:0:0:
401,284,43952,2,0,P|390:337|383:370,2,80.5199966826784,2|0|0,0:0|3:0|0:0,0:0:0:0:
461,218,44446,6,0,P|462:172|443:139,1,80.5199966826784,10|0,0:0|0:0,0:0:0:0:
509,83,44775,2,0,P|471:55|433:52,1,80.5199966826784,0|0,3:0|0:0,0:0:0:0:
362,6,45104,5,10,0:0:0:0:
362,6,45434,2,0,B|307:50|307:50|209:30,1,161.039993365357,2|10,3:0|0:0,0:0:0:0:
135,16,45928,1,0,0:0:0:0:
135,16,46093,2,0,B|112:53|112:53|120:99,1,80.5199966826784,2|2,3:0|0:0,0:0:0:0:
48,141,46421,1,10,0:0:0:0:
48,141,46586,6,0,B|71:178|71:178|63:224,1,80.5199966826784,2|0,0:0|3:0,0:0:0:0:
20,293,46916,1,2,0:0:0:0:
20,293,47080,1,10,0:0:0:0:
102,325,47245,1,2,0:0:0:0:
164,261,47410,2,0,L|151:181,1,80.5199966826784,2|2,3:0|0:0,0:0:0:0:
137,93,47739,5,10,0:0:0:0:
137,93,48068,2,0,B|244:101|181:145|280:161,1,161.039993365357,2|10,3:0|0:0,0:0:0:0:
344,102,48562,1,2,0:0:0:0:
344,102,48727,2,0,P|368:133|362:182,1,80.5199966826784,2|2,3:0|0:0,0:0:0:0:
304,235,49056,1,8,0:0:0:0:
304,235,49221,6,0,P|280:266|286:315,1,80.5199966826784,2|0,0:0|3:0,0:0:0:0:
332,384,49550,1,2,0:0:0:0:
332,384,49714,1,10,0:0:0:0:
397,323,49879,1,2,0:0:0:0:
473,367,50044,6,0,L|494:285,2,80.5199966826784,2|2|10,3:0|0:0|0:0,0:0:0:0:
397,323,50538,2,0,L|438:159,1,161.039993365357,2|0,0:0|0:0,0:0:0:0:
496,101,51032,2,0,P|462:79|423:79,1,80.5199966826784,10|2,0:0|0:0,0:0:0:0:
353,134,51361,6,0,L|274:152,2,80.5199966826784,2|2|10,3:0|0:0|0:0,0:0:0:0:
302,60,51855,2,0,L|144:97,1,161.039993365357,2|0,0:0|0:0,0:0:0:0:
123,190,52349,2,0,L|205:171,1,80.5199966826784,10|0,0:0|0:0,0:0:0:0:
266,220,52678,6,0,B|370:237|301:288|416:309,1,174.239999468262,2|8,3:0|0:0,0:0:0:0:
508,176,53665,1,2,0:0:0:0:
508,176,53830,2,0,L|444:168,1,43.5599998670654,2|0,0:0|0:0,0:0:0:0:
426,102,54159,1,2,0:0:0:0:
426,102,54324,2,0,L|362:110,1,43.5599998670654,2|0,0:0|0:0,0:0:0:0:
333,173,54653,2,0,P|343:192|344:213,2,43.5599998670654,10|2|2,0:0|0:0|0:0,0:0:0:0:
232,40,55312,6,0,P|139:63|41:87,1,174.239999468262,14|8,3:0|0:0,0:0:0:0:
6,239,56299,1,2,0:0:0:0:
6,239,56464,2,0,P|37:246|67:247,1,43.5599998670654,2|0,0:0|0:0,0:0:0:0:
101,315,56793,1,2,0:0:0:0:
101,315,56958,2,0,P|132:308|162:307,1,43.5599998670654,2|0,0:0|0:0,0:0:0:0:
213,264,57287,2,0,P|227:286|227:313,2,43.5599998670654,10|2|2,0:0|0:0|0:0,0:0:0:0:
93,161,57946,6,0,P|168:103|248:115,1,174.239999468262,14|8,3:0|0:0,0:0:0:0:
337,243,58934,1,2,3:0:0:0:
337,243,59099,2,0,P|329:209|324:182,1,43.5599998670654,2|0,3:0|3:0,3:0:0:0:
405,169,59428,1,2,0:0:0:0:
405,169,59592,2,0,P|411:134|415:107,1,43.5599998670654,2|0,0:0|0:0,0:0:0:0:
343,84,59921,2,0,L|331:137,2,43.5599998670654,10|2|2,0:0|0:0|0:0,0:0:0:0:
493,20,60580,6,0,B|427:11|427:11|422:8|422:8|340:-2,1,130.679999601196,14|0,3:0|0:0,0:0:0:0:
296,41,61239,2,0,L|198:64,1,87.1199997341309,10|0,0:0|0:0,0:0:0:0:
57,28,61897,2,0,P|89:72|82:115,1,87.1199997341309,2|2,0:0|0:0,0:0:0:0:
4,252,62556,2,0,L|53:243,1,43.5599998670654,10|0,0:0|0:0,0:0:0:0:
109,189,62885,1,0,0:0:0:0:
109,189,63050,1,0,0:0:0:0:
176,236,63214,6,0,B|273:247|231:187|336:185,1,161.039993365357,14|8,3:0|0:0,0:0:0:0:
456,261,64202,2,0,L|461:221,1,40.2599983413392,2|0,0:0|0:0,0:0:0:0:
401,172,64532,2,0,L|395:132,1,40.2599983413392,2|0,0:0|0:0,0:0:0:0:
431,64,64861,2,0,P|473:85|516:78,2,80.5199966826784,2|10|2,0:3|0:0|0:0,0:0:0:0:
288,6,65849,6,0,P|231:23|225:82,1,120.779995024018,6|0,3:0|0:0,0:0:0:0:
259,148,66507,1,10,0:0:0:0:
259,148,66836,2,0,P|235:156|219:157,1,40.2599983413392,2|0,0:0|0:0,0:0:0:0:
168,213,67165,2,0,P|144:205|128:204,1,40.2599983413392,2|0,0:0|0:0,0:0:0:0:
56,178,67495,2,0,P|47:137|36:93,2,80.5199966826784,2|10|2,3:0|0:0|0:0,0:0:0:0:
8,323,68483,6,0,P|52:334|131:353,1,120.779995024018,6|0,3:0|0:0,0:0:0:0:
189,308,69141,1,10,0:0:0:0:
189,308,69471,2,0,P|210:304|231:300,1,40.2599983413392,2|2,3:3|3:0,0:0:0:0:
294,339,69800,2,0,P|312:342|333:346,1,40.2599983413392,2|0,0:0|0:0,0:0:0:0:
392,296,70130,2,0,P|378:333|386:372,2,80.5199966826784,2|10|2,3:0|0:0|0:0,0:0:0:0:
451,247,70952,1,0,3:0:0:0:
451,247,71117,6,0,P|465:230|442:142,1,120.779995024018,6|0,3:0|0:0,0:0:0:0:
378,101,71776,1,10,0:0:0:0:
210,257,72269,1,0,0:0:0:0:
210,257,72434,2,0,B|136:247|171:216|101:207,1,120.779995024018,2|0,0:0|0:0,0:0:0:0:
30,202,73093,1,10,0:0:0:0:
30,202,73257,2,0,P|30:226|41:247,2,40.2599983413392,2|2|0,3:0|3:0|3:0,0:0:0:0:
73,133,73751,6,0,B|127:123|127:123|142:106|142:106|200:95,1,134.640000821777,0|8,1:0|3:0,0:0:0:0:
220,17,74244,2,0,P|252:23|285:30,1,67.3200004108887,2|0,3:0|0:0,0:0:0:0:
366,7,74574,1,2,0:0:0:0:
366,7,74738,2,0,P|405:11|416:94,1,134.640000821777,8|0,3:0|3:0,0:0:0:0:
349,134,75232,1,2,0:0:0:0:
412,184,75397,2,0,P|433:215|428:247,1,67.3200004108887,10|0,3:0|3:0,0:0:0:0:
386,312,75726,2,0,L|282:297,1,100.980000616333,2|0,0:0|0:0,0:0:0:0:
270,281,76055,2,0,L|181:295,1,67.3200004108887,10|0,3:0|0:0,0:0:0:0:
152,353,76385,6,0,P|158:290|99:268,1,134.640000821777,0|10,1:0|3:0,0:0:0:0:
37,318,76878,2,0,P|20:288|23:252,1,67.3200004108887,2|0,3:0|0:0,0:0:0:0:
61,186,77208,1,2,0:0:0:0:
61,186,77372,6,0,B|115:176|115:176|130:159|130:159|188:148,1,134.640000821777,10|0,3:0|3:0,0:0:0:0:
264,170,77866,1,2,0:0:0:0:
336,133,78031,2,0,P|355:106|353:73,1,67.3200004108887,10|0,3:0|3:0,0:0:0:0:
298,14,78360,2,0,L|198:0,1,100.980000616333,2|0,0:0|0:0,0:0:0:0:
178,13,78690,2,0,L|73:32,1,100.980000616333,10|0,3:0|0:0,0:0:0:0:
70,53,79019,6,0,B|109:93|109:93|91:182,1,134.640000821777,0|8,1:0|3:0,0:0:0:0:
42,241,79513,2,0,P|49:274|56:307,1,67.3200004108887,2|0,3:0|0:0,0:0:0:0:
145,331,79843,1,2,0:0:0:0:
145,331,80007,2,0,P|184:327|195:244,1,134.640000821777,10|0,3:0|3:0,0:0:0:0:
139,182,80501,1,2,0:0:0:0:
143,101,80665,2,0,P|169:81|202:83,1,67.3200004108887,10|0,3:0|3:0,0:0:0:0:
273,121,80995,2,0,P|279:163|287:220,1,100.980000616333,2|0,0:0|0:0,0:0:0:0:
303,238,81324,2,0,L|292:304,1,67.3200004108887,10|0,3:0|0:0,0:0:0:0:
354,356,81654,6,0,P|328:352|203:334,1,134.640000821777,0|10,1:0|3:0,0:0:0:0:
141,350,82147,2,0,B|122:276|122:276|150:264|164:232,1,134.640000821777,2|0,3:0|0:0,0:0:0:0:
92,206,82641,1,8,3:0:0:0:
92,206,82970,2,0,P|70:172|126:100,1,134.640000821777,2|10,3:0|3:0,0:0:0:0:
128,21,83464,2,0,L|277:55,1,134.640000821777,2|2,3:0|0:0,0:0:0:0:
303,119,83958,2,0,L|347:115,3,33.6600002054443,6|4|4|4,0:0|0:0|0:0|0:0,0:0:0:0:
372,97,84287,6,0,B|424:142|424:142|396:241,1,161.039993365357,6|10,3:0|0:0,0:0:0:0:
339,297,84781,1,0,0:0:0:0:
339,297,84946,2,0,L|259:288,1,80.5199966826784,2|0,3:0|0:0,0:0:0:0:
189,241,85275,1,10,0:0:0:0:
189,241,85440,1,2,0:0:0:0:
108,278,85604,6,0,B|79:245|102:204|102:204|147:168|116:104,1,161.039993365357,2|10,3:0|0:0,0:0:0:0:
69,63,86098,2,0,P|41:97|42:152,2,80.5199966826784,2|0|0,0:0|3:0|0:0,0:0:0:0:
147,20,86592,6,0,L|227:33,1,80.5199966826784,10|0,0:0|0:0,0:0:0:0:
221,121,86921,2,0,L|142:109,1,80.5199966826784,0|0,3:0|0:0,0:0:0:0:
73,67,87251,5,10,0:0:0:0:
73,67,87580,2,0,P|109:135|73:215,1,161.039993365357,2|10,3:0|0:0,0:0:0:0:
21,275,88074,1,0,0:0:0:0:
21,275,88239,2,0,P|52:299|101:293,1,80.5199966826784,2|2,3:0|0:0,0:0:0:0:
164,356,88568,1,8,0:0:0:0:
164,356,88732,6,0,P|195:332|244:338,1,80.5199966826784,2|0,0:0|3:0,0:0:0:0:
318,375,89062,1,2,0:0:0:0:
318,375,89226,1,10,0:0:0:0:
382,314,89391,1,2,0:0:0:0:
469,326,89556,2,0,L|482:246,1,80.5199966826784,2|2,3:0|0:0,0:0:0:0:
465,163,89885,5,10,0:0:0:0:
465,163,90214,2,0,B|377:192|432:225|340:258,1,161.039993365357,2|10,3:0|0:0,0:0:0:0:
257,245,90708,1,2,0:0:0:0:
257,245,90873,2,0,B|251:207|251:207|249:204|249:204|243:166,1,80.5199966826784,2|2,3:0|0:0,0:0:0:0:
160,150,91202,1,8,0:0:0:0:
160,150,91367,6,0,B|166:112|166:112|168:109|168:109|174:71,1,80.5199966826784,2|0,0:0|3:0,0:0:0:0:
241,13,91696,1,2,0:0:0:0:
241,13,91860,1,10,0:0:0:0:
323,44,92025,1,2,0:0:0:0:
326,132,92190,6,0,L|244:151,2,80.5199966826784,2|2|8,3:0|0:0|0:0,0:0:0:0:
370,209,92684,2,0,L|207:248,1,161.039993365357,2|0,0:0|0:0,0:0:0:0:
126,230,93178,2,0,P|104:196|104:157,1,80.5199966826784,10|2,0:0|0:0,0:0:0:0:
150,81,93507,6,0,L|228:99,2,80.5199966826784,2|2|10,3:0|0:0|0:0,0:0:0:0:
188,1,94001,2,0,L|346:38,1,161.039993365357,2|0,0:0|0:0,0:0:0:0:
428,13,94495,2,0,P|447:44|434:94,1,80.5199966826784,10|2,0:0|0:0,0:0:0:0:
454,176,94824,6,0,L|292:208,1,153.120004672852,2|4,3:0|0:0,0:0:0:0:
285,204,95235,1,4,2:0:0:0:
285,204,95317,1,4,2:0:0:0:
223,272,95482,6,0,P|157:268|156:182,1,153.120004672852,4|10,0:0|0:0,0:0:0:0:
201,120,95976,1,2,0:0:0:0:
167,34,96141,2,0,B|117:19|75:3|75:3|56:38|17:46,1,153.120004672852,2|10,3:0|0:0,0:0:0:0:
3,129,96634,1,2,0:0:0:0:
3,129,96799,2,0,L|19:211,1,76.5600023364259,0|0,3:0|0:0,0:0:0:0:
106,216,97128,6,0,L|94:292,1,76.5600023364259,10|0,0:0|0:0,0:0:0:0:
30,356,97457,2,0,P|64:338|113:349,1,76.5600023364259,0|0,3:0|0:0,0:0:0:0:
186,375,97787,5,10,0:0:0:0:
186,375,98116,2,0,B|242:360|242:360|264:323|264:323|326:304,1,153.120004672852,2|10,3:0|0:0,0:0:0:0:
403,344,98610,1,0,0:0:0:0:
403,344,98775,2,0,P|415:303|425:257,1,76.5600023364259,2|2,3:0|0:0,0:0:0:0:
356,213,99104,1,8,0:0:0:0:
356,213,99269,2,0,P|344:172|334:126,1,76.5600023364259,2|0,0:0|3:0,0:0:0:0:
404,76,99598,5,2,0:0:0:0:
404,76,99762,1,10,0:0:0:0:
328,22,99927,1,2,0:0:0:0:
272,95,100092,2,0,P|241:119|194:118,1,76.5600023364259,2|2,3:0|0:0,0:0:0:0:
120,84,100421,5,10,0:0:0:0:
120,84,100750,2,0,P|170:131|143:219,1,153.120004672852,2|10,3:0|0:0,0:0:0:0:
104,285,101244,1,2,0:0:0:0:
104,285,101409,2,0,B|142:291|142:291|145:293|145:293|179:298,1,76.5600023364259,2|2,3:0|0:0,0:0:0:0:
236,374,101738,1,8,0:0:0:0:
236,374,101903,6,0,B|274:368|274:368|277:366|277:366|310:360,1,76.5600023364259,2|0,0:0|3:0,0:0:0:0:
403,341,102232,1,2,0:0:0:0:
403,341,102396,1,10,0:0:0:0:
450,261,102561,1,2,0:0:0:0:
378,202,102726,6,0,L|299:183,2,76.5600023364259,2|2|8,3:0|0:0|0:0,0:0:0:0:
393,120,103220,2,0,L|240:82,1,153.120004672852,2|0,0:0|0:0,0:0:0:0:
175,25,103714,2,0,P|196:58|196:94,1,76.5600023364259,10|2,0:0|0:0,0:0:0:0:
157,175,104043,6,0,L|175:255,2,76.5600023364259,2|2|10,3:0|0:0|0:0,0:0:0:0:
81,209,104537,2,0,L|117:366,1,153.120004672852,2|0,0:0|0:0,0:0:0:0:
206,377,105031,2,0,P|247:371|287:364,1,76.5600023364259,8|0,0:0|0:0,0:0:0:0:
371,342,105360,5,2,3:0:0:0:
