osu file format v14

[General]
AudioFilename: audio.mp3
AudioLeadIn: 0
PreviewTime: 20492
Countdown: 0
SampleSet: Soft
StackLeniency: 0.7
Mode: 0
LetterboxInBreaks: 0
WidescreenStoryboard: 1

[Editor]
Bookmarks: 10531,21068,31605,42141,52678,63215,73751,84288,94825,105361
DistanceSpacing: 0.7
BeatDivisor: 4
GridSize: 8
TimelineZoom: 1

[Metadata]
Title:i wanna slam my head against the wall
TitleUnicode:i wanna slam my head against the wall
Artist:glaive
ArtistUnicode:glaive
Creator:Mimari
Version:mimari & sylas' hard
Source:
Tags:sylas thekoala all dogs go to heaven english hyperpop pop hip hop hip-hop rap electronic dnb roda totsuki reisevia iwsmhatw want
BeatmapID:2910518
BeatmapSetID:1405001

[Difficulty]
HPDrainRate:4
CircleSize:3.4
OverallDifficulty:6
ApproachRate:8
SliderMultiplier:1.4
SliderTickRate:1

[Events]
//Background and Video events
0,0,"jr-korpa-7NoLliK6ntc-unsplash.jpg",0,0
//Break Periods
//Storyboard Layer 0 (Background)
//Storyboard Layer 1 (Fail)
//Storyboard Layer 2 (Pass)
//Storyboard Layer 3 (Foreground)
//Storyboard Layer 4 (Overlay)
//Storyboard Sound Samples

[TimingPoints]
10531,658.544616397761,4,2,2,50,1,0
10531,-66.6666666666667,4,2,2,50,0,0
15799,-62.5,4,2,2,50,0,0
16457,-66.6666666666667,4,2,2,50,0,0
18433,-62.5,4,2,2,50,0,0
19750,-60.6060606060606,4,2,2,50,0,0
20573,-60.6060606060606,4,2,2,65,0,0
21068,329.27230819888,4,2,1,55,1,0
21068,-142.857142857143,4,2,1,55,0,0
23702,-125,4,2,1,60,0,0
26336,-111.111111111111,4,2,1,65,0,0
28970,-100,4,2,1,70,0,0
31604,-83.3333333333333,4,2,2,85,0,0
52678,658.544616397761,4,2,2,50,1,0
52678,-66.6666666666667,4,2,2,50,0,0
63214,-66.6666666666667,4,2,2,50,0,0
68482,-62.5,4,2,2,50,0,0
69140,-66.6666666666667,4,2,2,50,0,0
71116,-62.5,4,2,2,50,0,0
72433,-60.6060606060606,4,2,2,50,0,0
73422,-60.6060606060606,4,2,1,50,0,0
73751,329.27230819888,4,2,1,55,1,0
73751,-125,4,2,1,55,0,0
76385,-125,4,2,1,60,0,0
79019,-111.111111111111,4,2,1,65,0,0
81653,-111.111111111111,4,2,1,70,0,0
84287,-83.3333333333333,4,2,2,85,0,0
94824,658.544616397761,4,2,1,80,1,0
94824,-58.8235294117647,4,2,1,80,0,0
105360,-58.8235294117647,4,2,1,50,0,0

[Colours]
Combo1 : 140,157,227
Combo2 : 243,156,158
Combo3 : 175,141,233
Combo4 : 239,156,226

[HitObjects]
452,266,10531,6,0,B|405:250|376:282|376:282|352:310|306:300,1,157.500006008148,0|0,3:2|0:0,0:0:0:0:
232,271,11188,1,8,0:0:0:0:
232,271,11518,6,0,L|222:207,1,52.5000020027161,2|0,0:0|0:0,0:0:0:0:
149,193,11848,2,0,L|159:129,1,52.5000020027161,2|0,0:0|0:0,0:0:0:0:
223,85,12177,2,0,P|271:97|300:160,2,105.000004005432,2|10|2,3:2|0:0|0:0,0:0:0:0:
92,28,13165,6,0,B|54:20|28:49|34:89|34:89|46:193,1,157.500006008148,2|0,3:2|0:0,0:0:0:0:
52,227,13822,1,10,0:0:0:0:
52,227,14152,6,0,L|62:310,1,52.5000020027161,2|0,0:0|0:0,0:0:0:0:
136,300,14482,2,0,L|142:352,1,52.5000020027161,2|0,0:0|0:0,0:0:0:0:
226,374,14811,6,0,L|247:244,1,105.000004005432,2|10,3:2|0:0,0:0:0:0:
259,192,15305,1,0,3:2:0:0:
77,78,15799,6,0,B|127:60|159:95|159:95|184:125|234:114,1,168,2|0,3:2|0:0,0:0:0:0:
307,84,16456,1,10,0:0:0:0:
307,84,16787,6,0,P|333:85|369:109,1,52.5000020027161,2|0,3:2|3:2,0:0:0:0:
417,45,17116,2,0,P|431:66|432:110,1,52.5000020027161,2|0,0:0|0:0,0:0:0:0:
509,137,17445,2,0,P|454:174|380:165,1,105.000004005432,2|10,3:2|0:0,0:0:0:0:
270,245,18104,5,2,0:0:0:0:
270,245,18268,1,0,3:2:0:0:
201,303,18433,6,0,B|253:335|253:335|365:312,1,168,2|0,3:2|0:0,0:0:0:0:
436,292,19091,1,10,0:0:0:0:
436,292,19420,6,0,L|446:224,1,56
472,161,19750,2,0,B|425:142|393:176|393:176|360:211|302:192,1,173.250001652241,2|0,0:0|0:0,0:0:0:0:
253,133,20409,1,8,0:0:0:0:
253,133,20573,1,2,3:2:0:0:
339,60,20738,2,0,P|336:99|326:140,1,57.7500005507469,2|2,0:0|3:2,0:0:0:0:
232,215,21067,1,6,3:2:0:0:
232,215,21397,6,0,L|119:235,1,97.9999970092774,10|2,0:0|0:0,0:0:0:0:
54,96,22055,1,10,0:0:0:0:
54,96,22220,2,0,L|167:116,1,97.9999970092774,2|2,0:0|0:0,0:0:0:0:
232,137,22714,5,10,0:0:0:0:
232,137,22878,1,2,3:2:0:0:
431,93,23372,2,0,P|438:63|440:32,1,48.9999985046387,10|2,0:0|0:0,0:0:0:0:
343,35,23702,6,0,P|345:79|365:150,1,112,2|10,3:2|0:0,0:0:0:0:
482,216,24360,2,0,P|480:260|468:290,1,56,2|0,0:0|0:0,0:0:0:0:
438,348,24689,1,10,0:0:0:0:
438,348,24854,1,2,0:0:0:0:
260,210,25183,6,0,L|270:128,1,56,2|10,0:0|0:0,0:0:0:0:
266,75,25513,2,0,P|223:76|154:121,1,112,2|0,3:2|0:0,0:0:0:0:
142,186,26007,2,0,L|146:221,1,28,10|0,0:0|0:0,0:0:0:0:
281,344,26336,6,0,P|328:329|339:301,1,62.9999980773926,2|0,3:2|0:0,0:0:0:0:
405,354,26665,2,0,P|415:306|396:283,1,62.9999980773926,10|0,0:0|3:2,0:0:0:0:
349,227,26994,2,0,P|286:236|226:254,1,125.999996154785,2|10,0:0|0:0,0:0:0:0:
153,292,27488,1,2,0:0:0:0:
153,292,27818,6,0,P|143:252|146:213,1,62.9999980773926,2|10,0:0|0:0,0:0:0:0:
211,162,28147,2,0,P|223:100|227:37,1,125.999996154785,2|0,3:2|0:0,0:0:0:0:
152,0,28641,1,10,0:0:0:0:
152,0,28805,1,2,0:0:0:0:
66,57,28970,6,0,P|67:91|77:127,1,70,2|2,3:2|0:0,0:0:0:0:
118,199,29299,1,10,0:0:0:0:
211,162,29464,2,0,P|273:172|360:202,1,140,2|2,3:2|0:0,0:0:0:0:
415,288,29958,1,10,0:0:0:0:
415,288,30287,6,0,L|402:375,1,70,2|2,3:2|0:0,0:0:0:0:
325,271,30616,1,8,0:0:0:0:
426,203,30781,1,2,3:2:0:0:
239,36,31110,5,10,0:0:0:0:
276,126,31275,2,0,L|266:189,3,35,10|8|10|8,0:0|0:0|0:0|0:0,0:0:0:0:
197,128,31604,6,0,P|133:121|76:186,1,125.999996154785,6|0,3:2|0:0,0:0:0:0:
80,174,31933,2,0,L|89:262,1,83.9999974365235,10|0,3:2|0:0,0:0:0:0:
13,338,32263,6,0,B|60:318|94:354|94:354|128:387|177:366,1,167.999994873047,2|10,3:2|3:2,0:0:0:0:
242,323,32757,1,2,0:0:0:0:
209,235,32921,2,0,P|158:269|147:313,1,83.9999974365235,0|0,3:2|0:0,0:0:0:0:
299,252,33251,1,10,3:2:0:0:
299,252,33415,6,0,B|289:169|289:169|286:166|286:166|275:76,1,167.999994873047,2|0,0:0|0:0,0:0:0:0:
252,12,33909,2,0,P|203:47|203:87,1,83.9999974365235,10|0,3:2|0:0,0:0:0:0:
200,151,34238,1,0,3:2:0:0:
200,151,34568,6,0,L|208:234,1,83.9999974365235,10|0,3:2|0:0,0:0:0:0:
121,197,34897,2,0,L|129:280,1,83.9999974365235,2|0,3:2|0:0,0:0:0:0:
223,320,35226,2,0,B|283:328|283:328|288:331|288:331|364:341,1,125.999996154785,10|0,3:2|0:0,0:0:0:0:
365,340,35555,5,2,3:2:0:0:
451,382,35720,2,0,P|466:347|448:287,1,83.9999974365235,2|8,0:0|3:2,0:0:0:0:
482,222,36049,6,0,B|435:202|401:238|401:238|367:271|318:250,1,167.999994873047,2|2,0:0|0:0,0:0:0:0:
268,195,36543,1,10,3:2:0:0:
327,139,36708,1,2,0:0:0:0:
300,63,36873,6,0,P|263:44|209:51,1,83.9999974365235,2|2,3:2|0:0,0:0:0:0:
136,19,37202,2,0,P|143:64|149:108,1,83.9999974365235,10|0,3:2|0:0,0:0:0:0:
57,94,37531,2,0,B|53:143|88:170|88:170|126:195|115:249,1,167.999994873047,2|10,3:2|3:2,0:0:0:0:
64,314,38025,1,2,0:0:0:0:
134,374,38190,5,2,3:2:0:0:
134,374,38354,2,0,L|227:363,1,83.9999974365235,2|8,0:0|3:2,0:0:0:0:
302,351,38684,6,0,B|357:338|357:338|373:202,1,167.999994873047,2|2,0:0|0:0,0:0:0:0:
377,138,39177,1,10,3:2:0:0:
295,184,39342,1,2,0:0:0:0:
228,131,39507,5,2,3:2:0:0:
228,131,39671,2,0,L|217:30,1,83.9999974365235,2|8,0:0|3:2,0:0:0:0:
294,9,40001,6,0,B|341:-11|375:25|375:25|409:58|458:37,1,167.999994873047,2|0,0:0|0:0,0:0:0:0:
512,95,40494,1,10,3:2:0:0:
447,148,40659,1,2,0:0:0:0:
502,225,40824,5,2,3:2:0:0:
502,225,40988,2,0,B|494:265|494:265|492:269|492:269|486:318,1,83.9999974365235,2|8,0:0|3:2,0:0:0:0:
412,351,41318,6,0,B|372:368|338:335|338:335|304:299|257:319,1,167.999994873047,2|2,0:0|0:0,0:0:0:0:
182,354,41812,1,10,3:2:0:0:
182,354,41976,1,2,0:0:0:0:
122,260,42141,6,0,P|115:196|180:139,1,125.999996154785,6|0,3:2|0:0,0:0:0:0:
164,144,42470,2,0,P|205:144|246:153,1,83.9999974365235,10|0,3:2|0:0,0:0:0:0:
346,199,42799,2,0,P|407:214|499:145,1,167.999994873047,2|10,3:2|3:2,0:0:0:0:
492,56,43294,1,2,0:0:0:0:
411,85,43458,2,0,L|314:119,1,83.9999974365235,0|0,3:2|0:0,0:0:0:0:
250,44,43788,1,10,3:2:0:0:
250,44,43952,6,0,B|240:127|240:127|237:130|237:130|226:220,1,167.999994873047,2|0,0:0|0:0,0:0:0:0:
189,287,44446,2,0,L|106:299,1,83.9999974365235,10|0,3:2|0:0,0:0:0:0:
22,249,44775,1,0,3:2:0:0:
22,249,45105,6,0,P|10:209|30:173,1,83.9999974365235,10|0,3:2|0:0,0:0:0:0:
120,133,45434,2,0,L|128:216,1,83.9999974365235,2|0,3:2|0:0,0:0:0:0:
188,308,45763,2,0,B|224:322|252:304|252:304|281:283|329:308,1,125.999996154785,10|0,3:2|0:0,0:0:0:0:
324,307,46092,5,2,3:2:0:0:
385,376,46257,2,0,P|408:346|406:283,1,83.9999974365235,2|8,0:0|3:2,0:0:0:0:
364,226,46586,6,0,B|354:143|354:143|351:140|351:140|340:50,1,167.999994873047,2|2,0:0|0:0,0:0:0:0:
262,15,47080,1,10,3:2:0:0:
247,110,47245,1,2,0:0:0:0:
156,144,47409,6,0,P|114:145|77:126,1,83.9999974365235,2|2,3:2|0:0,0:0:0:0:
101,39,47739,2,0,P|142:37|179:56,1,83.9999974365235,10|0,3:2|0:0,0:0:0:0:
245,131,48068,2,0,B|253:179|220:209|220:209|185:237|200:290,1,167.999994873047,2|10,3:2|3:2,0:0:0:0:
266,360,48562,1,2,0:0:0:0:
332,293,48727,5,2,3:2:0:0:
332,293,48891,2,0,L|343:200,1,83.9999974365235,2|8,0:0|3:2,0:0:0:0:
326,102,49220,2,0,P|285:55|187:67,1,167.999994873047,2|2,0:0|0:0,0:0:0:0:
128,123,49714,1,10,3:2:0:0:
48,81,49879,1,2,0:0:0:0:
3,156,50044,5,2,3:2:0:0:
3,156,50208,2,0,L|18:249,1,83.9999974365235,2|8,0:0|3:2,0:0:0:0:
90,295,50538,6,0,B|156:309|156:309|184:293|184:293|265:304,1,167.999994873047,2|0,0:0|0:0,0:0:0:0:
342,312,51031,1,10,3:2:0:0:
391,231,51196,1,2,0:0:0:0:
373,148,51361,5,2,3:2:0:0:
373,148,51525,2,0,B|367:106|367:106|362:102|362:102|354:59,1,83.9999974365235,2|8,0:0|3:2,0:0:0:0:
280,15,51855,6,0,B|240:-2|206:31|206:31|172:67|125:47,1,167.999994873047,2|2,0:0|0:0,0:0:0:0:
50,12,52349,1,10,3:2:0:0:
50,12,52513,1,0,0:0:0:0:
18,125,52678,6,0,B|28:202|28:202|33:206|33:206|42:283,1,157.500006008148,4|0,3:2|0:0,0:0:0:0:
57,359,53336,1,8,0:0:0:0:
57,359,53665,5,2,0:0:0:0:
135,372,53830,2,0,L|208:355,1,52.5000020027161,2|0,0:0|0:0,0:0:0:0:
262,331,54159,6,0,P|203:324|179:225,1,157.500006008148,2|10,0:0|0:0,0:0:0:0:
191,161,54818,1,2,0:0:0:0:
191,161,54982,2,0,L|209:74,1,52.5000020027161,2|0,0:0|0:0,0:0:0:0:
184,33,55312,6,0,B|222:16|255:48|255:48|287:82|332:63,1,157.500006008148,2|0,3:2|0:0,0:0:0:0:
400,33,55971,1,8,0:0:0:0:
400,33,56299,5,2,0:0:0:0:
454,88,56464,2,0,L|464:159,1,52.5000020027161,2|0,0:0|0:0,0:0:0:0:
479,219,56793,6,0,B|440:235|407:203|407:203|375:169|330:188,1,157.500006008148,2|10,0:0|0:0,0:0:0:0:
260,220,57452,1,2,3:2:0:0:
260,220,57617,1,2,0:0:0:0:
148,364,57946,6,0,B|158:287|158:287|163:283|163:283|172:206,1,157.500006008148,2|0,3:2|0:0,0:0:0:0:
187,133,58604,1,10,0:0:0:0:
187,133,58934,5,2,3:2:0:0:
104,156,59098,2,0,L|94:88,1,52.5000020027161,2|0,3:2|0:0,0:0:0:0:
154,45,59428,6,0,P|214:42|270:130,1,157.500006008148,2|10,0:0|0:0,0:0:0:0:
269,196,60086,1,2,0:0:0:0:
269,196,60251,2,0,L|352:172,1,52.5000020027161,2|0,0:0|3:2,0:0:0:0:
398,162,60580,6,0,B|414:200|382:233|382:233|348:265|367:310,1,157.500006008148,2|0,3:2|0:0,0:0:0:0:
433,357,61239,2,0,B|335:342|335:342|328:345|328:345|209:328,1,210.000008010865,10|2,0:0|0:0,0:0:0:0:
58,256,62226,6,0,L|132:243,1,52.5000020027161,2|0,3:2|0:0,0:0:0:0:
191,232,62556,1,8,0:0:0:0:
191,232,62720,2,0,P|206:181|203:96,1,105.000004005432,0|2,3:2|0:0,0:0:0:0:
134,75,63214,6,0,P|220:39|295:101,1,157.500006008148,0|0,3:2|0:0,0:0:0:0:
324,136,63873,1,8,0:0:0:0:
324,136,64202,6,0,L|388:126,1,52.5000020027161,2|0,0:0|0:0,0:0:0:0:
455,111,64531,2,0,P|457:139|445:175,1,52.5000020027161,2|0,0:0|0:0,0:0:0:0:
385,216,64860,2,0,P|382:262|402:325,2,105.000004005432,2|10|2,3:2|0:0|0:0,0:0:0:0:
235,136,65848,6,0,B|187:127|163:158|163:158|131:195|89:180,1,157.500006008148,2|0,3:2|0:0,0:0:0:0:
19,147,66507,1,10,0:0:0:0:
19,147,66836,6,0,P|11:182|29:230,1,52.5000020027161,2|0,0:0|0:0,0:0:0:0:
15,279,67165,2,0,P|41:303|91:311,1,52.5000020027161,2|0,0:0|0:0,0:0:0:0:
136,341,67494,6,0,P|192:328|266:320,1,105.000004005432,2|10,3:2|0:0,0:0:0:0:
321,343,67988,1,0,3:2:0:0:
395,62,68483,6,0,B|433:54|459:83|453:123|453:123|441:227,1,168,2|0,3:2|0:0,0:0:0:0:
430,270,69141,1,10,0:0:0:0:
430,270,69470,6,0,L|337:249,1,52.5000020027161,2|0,3:2|3:2,0:0:0:0:
338,187,69800,2,0,L|245:207,1,52.5000020027161,2|0,0:0|0:0,0:0:0:0:
205,177,70128,2,0,P|210:228|244:268,1,105.000004005432,2|10,3:2|0:0,0:0:0:0:
301,31,70787,5,2,0:0:0:0:
301,31,70951,1,0,3:2:0:0:
250,93,71117,6,0,B|180:83|180:83|161:100|161:100|87:92,1,168,2|0,3:2|0:0,0:0:0:0:
15,59,71774,1,10,0:0:0:0:
15,59,72105,6,0,P|1:87|6:114,1,56
49,214,72434,2,0,B|94:237|129:205|129:205|164:173|221:197,1,173.250001652241,2|0,0:0|0:0,0:0:0:0:
287,248,73092,1,8,0:0:0:0:
287,248,73256,1,2,3:2:0:0:
359,193,73421,2,0,P|363:164|365:135,1,57.7500005507469,10|10,0:0|0:0,0:0:0:0:
330,33,73751,6,0,P|286:9|213:45,1,112,6|10,3:2|0:0,0:0:0:0:
146,11,74244,2,0,P|149:41|164:86,1,56,0|0,3:2|0:0,0:0:0:0:
223,120,74574,1,2,0:0:0:0:
223,120,74738,2,0,P|222:174|200:255,1,112,10|2,0:0|3:2,0:0:0:0:
174,303,75232,1,2,0:0:0:0:
174,303,75397,5,10,0:0:0:0:
12,217,75726,1,2,0:0:0:0:
108,66,76055,1,10,0:0:0:0:
142,184,76385,6,0,B|203:174|188:214|253:199,1,112,2|10,3:2|0:0,0:0:0:0:
312,255,76879,2,0,P|331:218|332:193,1,56,2|0,3:2|0:0,0:0:0:0:
293,132,77207,1,2,0:0:0:0:
293,132,77372,2,0,P|280:62|310:20,1,112,10|0,0:0|3:2,0:0:0:0:
373,0,77866,5,2,0:0:0:0:
373,0,78031,1,10,0:0:0:0:
495,120,78360,1,2,0:0:0:0:
411,267,78690,1,10,0:0:0:0:
317,145,79019,6,0,P|380:149|440:191,1,125.999996154785,2|10,3:2|0:0,0:0:0:0:
493,239,79513,2,0,L|505:316,1,62.9999980773926,2|0,3:2|0:0,0:0:0:0:
443,361,79842,1,2,0:0:0:0:
443,361,80007,2,0,B|383:350|383:350|377:351|377:351|302:338,1,125.999996154785,10|0,0:0|3:2,0:0:0:0:
244,370,80501,5,2,0:0:0:0:
244,370,80665,1,10,0:0:0:0:
143,211,80994,1,2,0:0:0:0:
324,114,81324,2,0,P|327:152|298:195,1,62.9999980773926,10|0,0:0|0:0,0:0:0:0:
236,218,81653,6,0,B|229:164|229:164|229:157|229:157|221:83,1,125.999996154785,2|10,3:2|0:0,0:0:0:0:
281,40,82147,2,0,P|237:14|166:33,1,125.999996154785,2|0,3:2|0:0,0:0:0:0:
127,100,82641,1,8,0:0:0:0:
127,100,82970,6,0,L|64:110,1,62.9999980773926,2|0,3:2|0:0,0:0:0:0:
0,166,83299,1,10,0:0:0:0:
86,221,83464,2,0,B|140:228|140:228|146:227|146:227|221:236,1,125.999996154785,2|10,3:2|0:0,0:0:0:0:
292,203,83959,5,10,0:0:0:0:
292,203,84123,1,10,0:0:0:0:
266,112,84287,6,0,B|233:95|200:113|200:113|168:131|129:116,1,125.999996154785,6|0,3:2|0:0,0:0:0:0:
132,115,84616,2,0,L|123:203,1,83.9999974365235,10|0,3:2|0:0,0:0:0:0:
154,303,84946,6,0,P|211:333|312:272,1,167.999994873047,2|10,3:2|3:2,0:0:0:0:
348,213,85440,1,2,0:0:0:0:
408,293,85604,2,0,L|425:387,1,83.9999974365235,0|0,3:2|0:0,0:0:0:0:
475,222,85934,1,10,3:2:0:0:
475,222,86098,6,0,B|485:139|485:139|488:136|488:136|499:46,1,167.999994873047,2|0,0:0|0:0,0:0:0:0:
415,13,86592,2,0,P|355:18|335:53,1,83.9999974365235,10|0,3:2|0:0,0:0:0:0:
321,122,86921,1,0,3:2:0:0:
321,122,87251,6,0,L|238:130,1,83.9999974365235,10|0,3:2|0:0,0:0:0:0:
160,78,87580,2,0,P|165:18|200:-1,1,83.9999974365235,2|0,3:2|0:0,0:0:0:0:
151,171,87909,2,0,B|123:188|123:188|34:158,1,125.999996154785,10|0,3:2|0:0,0:0:0:0:
19,157,88238,5,2,3:2:0:0:
0,247,88403,2,0,P|5:306|40:326,1,83.9999974365235,2|8,0:0|3:2,0:0:0:0:
123,347,88732,6,0,B|170:367|204:331|204:331|238:298|287:319,1,167.999994873047,2|2,0:0|0:0,0:0:0:0:
291,326,89226,1,10,3:2:0:0:
367,363,89391,1,2,0:0:0:0:
438,316,89556,6,0,L|423:223,1,83.9999974365235,2|2,3:2|0:0,0:0:0:0:
472,164,89885,2,0,P|428:144|384:158,1,83.9999974365235,10|0,3:2|0:0,0:0:0:0:
329,224,90214,2,0,B|274:232|274:232|214:241|194:181|223:154,1,167.999994873047,2|10,3:2|3:2,0:0:0:0:
277,103,90708,1,2,0:0:0:0:
218,38,90873,5,2,3:2:0:0:
218,38,91037,2,0,L|125:27,1,83.9999974365235,2|8,0:0|3:2,0:0:0:0:
49,12,91367,6,0,B|59:95|59:95|62:98|62:98|73:188,1,167.999994873047,2|2,0:0|0:0,0:0:0:0:
96,264,91860,1,10,3:2:0:0:
164,196,92025,1,2,0:0:0:0:
229,271,92190,5,2,3:2:0:0:
229,271,92354,2,0,P|271:281|330:260,1,83.9999974365235,2|8,0:0|3:2,0:0:0:0:
402,291,92684,6,0,B|418:243|382:209|382:209|349:175|370:126,1,167.999994873047,2|0,0:0|0:0,0:0:0:0:
437,69,93177,1,10,3:2:0:0:
345,37,93342,1,2,0:0:0:0:
279,107,93507,5,2,3:2:0:0:
279,107,93671,2,0,B|237:114|237:114|236:119|236:119|189:127,1,83.9999974365235,2|8,0:0|3:2,0:0:0:0:
149,206,94001,2,0,B|95:190|95:190|37:172|44:109|82:97,1,167.999994873047,2|2,0:0|0:0,0:0:0:0:
148,57,94495,1,10,3:2:0:0:
148,57,94659,1,2,0:0:0:0:
232,178,94824,6,0,B|223:240|223:240|224:244|224:244|212:327,1,119.000002269745,6|2,3:2|0:0,0:0:0:0:
275,356,95317,1,0,0:0:0:0:
349,315,95482,2,0,P|393:340|475:328,1,119.000002269745,10|2,0:0|3:2,0:0:0:0:
492,261,95976,1,2,0:0:0:0:
492,261,96141,6,0,L|482:177,1,59.5000011348725
417,164,96470,2,0,L|427:80,1,59.5000011348725,2|2,0:0|0:0,0:0:0:0:
462,29,96799,2,0,P|396:27|340:82,1,119.000002269745,10|2,0:0|0:0,0:0:0:0:
257,135,97458,6,0,P|191:137|135:82,1,119.000002269745,0|2,3:2|0:0,0:0:0:0:
100,43,97952,1,0,3:2:0:0:
64,118,98116,2,0,L|73:182,1,59.5000011348725,2|0,0:0|0:0,0:0:0:0:
146,213,98445,2,0,L|137:277,1,59.5000011348725,2|0,3:2|0:0,0:0:0:0:
115,354,98776,5,2,0:0:0:0:
115,354,98939,2,0,P|144:360|180:343,1,59.5000011348725,2|0,0:0|0:0,0:0:0:0:
223,281,99269,2,0,B|280:290|280:290|284:294|284:294|357:304,1,119.000002269745,2|2,0:0|0:0,0:0:0:0:
423,320,99763,1,2,0:0:0:0:
423,320,99927,1,2,0:0:0:0:
482,244,100092,6,0,P|485:210|451:169,1,59.5000011348725,2|2,3:2|0:0,0:0:0:0:
438,167,100421,2,0,B|381:176|381:176|377:180|377:180|304:190,1,119.000002269745,2|10,0:0|0:0,0:0:0:0:
203,196,101080,2,0,P|190:167|202:123,1,59.5000011348725,2|2,3:2|0:0,0:0:0:0:
213,63,101410,5,2,0:0:0:0:
213,63,101574,2,0,L|280:47,1,59.5000011348725,2|0,0:0|0:0,0:0:0:0:
349,26,101903,2,0,P|398:28|442:87,1,119.000002269745,2|0,0:0|0:0,0:0:0:0:
471,159,102398,1,2,0:0:0:0:
471,159,102562,1,2,0:0:0:0:
412,222,102726,5,2,3:2:0:0:
332,198,102891,2,0,L|255:212,1,59.5000011348725,2|0,0:0|0:0,0:0:0:0:
226,139,103220,2,0,P|186:212|208:267,1,119.000002269745,2|0,3:2|0:0,0:0:0:0:
231,322,103714,1,2,3:2:0:0:
231,322,103878,1,2,0:0:0:0:
152,365,104043,5,2,0:0:0:0:
79,331,104208,2,0,L|61:171,1,119.000002269745,2|2,0:0|0:0,0:0:0:0:
40,136,104702,6,0,B|92:118|129:157|129:157|166:193|219:170,1,178.500003404617,10|0,0:0|0:0,0:0:0:0:
278,134,105360,1,2,0:0:0:0:
