osu file format v14

[General]
AudioFilename: audio.mp3
AudioLeadIn: 0
PreviewTime: 25357
Countdown: 0
SampleSet: Soft
StackLeniency: 0.7
Mode: 0
LetterboxInBreaks: 0
WidescreenStoryboard: 1

[Editor]
Bookmarks: 8391,16776,25160,34610,43003,51387,57295,59774,68171,76568,84956,93340,101733,110117,118504,126897
DistanceSpacing: 1.1
BeatDivisor: 4
GridSize: 16
TimelineZoom: 1.1

[Metadata]
Title:eyesore
TitleUnicode:eyesore
Artist:glaive
ArtistUnicode:glaive
Creator:Mimari
Version:mimari & sylas' normal
Source:
Tags:​​​cypress grove english hip hop pop hyperpop sylas thekoala ancel ancelysia mayflower
BeatmapID:2771000
BeatmapSetID:1334577

[Difficulty]
HPDrainRate:3
CircleSize:3.2
OverallDifficulty:4
ApproachRate:6
SliderMultiplier:1.6
SliderTickRate:1

[Events]
//Background and Video events
0,0,"39969588-rain-wallpapers.jpg",0,0
//Break Periods
2,76767,83906
//Storyboard Layer 0 (Background)
//Storyboard Layer 1 (Fail)
//Storyboard Layer 2 (Pass)
//Storyboard Layer 3 (Foreground)
//Storyboard Layer 4 (Overlay)
//Storyboard Sound Samples

[TimingPoints]
8392,524.017467248908,4,2,2,68,1,0
25160,-100,4,2,1,83,0,0
26208,525.164113785558,4,2,1,83,1,0
26208,-111.111111111111,4,2,1,83,0,0
38811,524.017467248908,4,2,1,83,1,0
38811,-111.111111111111,4,2,1,83,0,0
43003,-100,4,2,1,83,0,1
51387,525.164113785558,4,2,1,83,1,1
57688,521.739130434783,4,2,1,83,1,1
59765,-100,4,2,1,83,0,1
59774,524.017467248908,4,2,1,74,1,0
66062,529.801324503311,4,2,1,74,1,0
68171,524.017467248908,4,2,1,74,1,0
69677,-100,4,2,1,74,0,0
69743,-100,4,2,1,74,0,0
69941,-100,4,2,1,74,0,0
70005,-100,4,2,1,74,0,0
70206,-100,4,2,1,74,0,0
70267,-100,4,2,1,74,0,0
71773,-100,4,2,1,74,0,0
71839,-100,4,2,1,74,0,0
72035,-100,4,2,1,74,0,0
72101,-100,4,2,1,74,0,0
73869,-100,4,2,1,74,0,0
73935,-100,4,2,1,74,0,0
74131,-100,4,2,1,74,0,0
74197,-100,4,2,1,74,0,0
74393,-100,4,2,1,74,0,0
74459,527.472527472527,4,2,1,74,1,0
76568,524.017467248908,4,2,1,55,1,0
82856,525.164113785558,4,2,1,68,1,0
84956,524.017467248908,4,2,3,68,1,0
84956,-111.111111111111,4,2,3,68,0,0
92292,-111.111111111111,4,2,1,68,0,0
92554,-111.111111111111,4,2,1,83,0,0
93340,-111.111111111111,4,2,1,83,0,0
97532,525.164113785558,4,2,1,83,1,0
97532,-111.111111111111,4,2,1,83,0,0
101733,524.017467248908,4,2,1,83,1,0
101733,-111.111111111111,4,2,1,83,0,0
108021,-111.111111111111,4,2,1,83,0,0
110117,523.331879633668,4,2,1,83,1,1
114303,525.164113785558,4,2,1,83,1,1
118504,524.017467248908,4,2,1,83,1,1
124792,526.315789473684,4,2,1,83,1,1
126897,-100,4,2,1,83,0,0

[Colours]
Combo1 : 192,192,192
Combo2 : 234,204,170
Combo3 : 210,153,111

[HitObjects]
18,80,8391,6,0,P|54:33|149:50,1,160,2|8,3:2|0:1,0:0:0:0:
197,117,9178,1,0,3:0:0:0:
284,103,9440,2,0,L|302:30,2,53.3333333333333,0|0|0,3:0|0:0|0:0,0:0:0:0:
319,149,9964,2,0,B|386:137|372:178|453:160,1,120,8|0,0:1|0:0,0:0:0:0:
475,203,10488,6,0,P|504:276|440:344,1,160,2|8,3:2|0:1,0:0:0:0:
380,372,11274,1,0,3:0:0:0:
302,329,11536,2,0,P|295:349|290:383,2,53.3333333333333,0|0|0,3:0|0:0|0:0,0:0:0:0:
330,277,12060,2,0,P|325:223|298:140,1,120,8|0,0:1|0:0,0:0:0:0:
293,118,12584,6,0,P|233:63|157:96,1,160,2|8,3:0|0:1,0:0:0:0:
53,221,13632,2,0,L|65:286,2,40,0|0|0,3:0|0:0|0:0,0:0:0:0:
93,142,14156,1,8,0:1:0:0:
159,199,14418,1,0,3:0:0:0:
237,156,14680,6,0,B|303:141|286:194|372:177,1,120,2|0,3:0|0:0,0:0:0:0:
394,177,15204,2,0,L|404:118,2,40,8|0|0,0:1|0:0|3:0,0:0:0:0:
361,258,15728,2,0,P|364:304|380:361,1,80,2|0,3:2|0:0,0:0:0:0:
453,369,16252,1,8,0:1:0:0:
491,289,16514,1,0,0:0:0:0:
466,201,16776,6,0,P|428:178|360:192,1,80,2|2,3:2|3:2,0:0:0:0:
361,258,17300,2,0,P|323:281|255:267,1,80,8|0,0:1|3:0,0:0:0:0:
252,256,17693,2,0,P|253:211|274:154,1,80,2|0,0:0|0:0,0:0:0:0:
280,137,18086,1,2,0:0:0:0:
244,56,18348,2,0,P|180:42|135:87,1,120,8|0,0:1|0:0,0:0:0:0:
105,100,18872,6,0,L|121:208,1,80,2|2,3:2|3:2,0:0:0:0:
104,266,19396,1,8,0:1:0:0:
152,339,19658,1,0,3:0:0:0:
235,311,19920,2,0,L|244:246,2,40,2|0|2,0:3|0:0|0:0,0:0:0:0:
306,362,20444,2,0,P|362:360|421:304,1,120,8|0,0:1|0:0,0:0:0:0:
436,286,20968,6,0,L|432:185,1,80,2|2,3:0|3:0,0:0:0:0:
460,122,21492,1,8,0:1:0:0:
388,70,21754,1,0,3:0:0:0:
301,87,22016,2,0,P|264:69|202:70,1,80,2|0,2:0|0:0,0:0:0:0:
192,46,22409,1,0,0:0:0:0:
192,46,22540,2,0,P|155:64|93:63,1,80,8|0,0:1|0:0,0:0:0:0:
32,41,23064,6,0,P|27:92|53:133,1,80,2|2,3:0|3:0,0:0:0:0:
90,187,23588,1,8,0:1:0:0:
57,268,23850,1,0,3:0:0:0:
110,337,24112,1,2,0:0:0:0:
197,334,24374,2,0,P|205:306|192:262,1,40
195,252,24636,2,0,P|218:243|286:257,1,80,8|0,0:1|0:0,0:0:0:0:
343,308,25160,5,8,1:3:0:0:
343,308,25291,2,0,P|366:317|434:303,1,80,2|4,0:3|1:3,0:0:0:0:
480,247,25815,2,0,L|473:198,1,40,8|4,1:3|1:3,0:0:0:0:
457,122,26208,6,0,B|462:2|328:24|318:126|389:219,1,287.999991210938,6|0,1:3|0:0,1:0:0:0:
374,198,28308,2,0,B|430:270|420:372|294:392|291:274,1,287.999991210938,10|0,1:3|0:0,1:0:0:0:
258,37,30409,6,0,B|181:-6|106:62|153:85|84:149|-18:90,1,287.999991210938,6|0,1:3|0:0,1:0:0:0:
3,100,32509,2,0,B|80:57|155:125|108:148|177:212|279:153,1,287.999991210938,10|0,1:3|0:0,1:0:0:0:
481,45,34610,6,0,L|456:213,1,143.999995605469,6|0,1:3|3:0,1:0:0:0:
494,346,35660,1,0,3:0:0:0:
494,346,36186,1,0,3:0:0:0:
348,282,36711,6,0,L|180:307,1,143.999995605469,10|0,1:3|3:0,1:0:0:0:
61,368,37761,1,0,3:0:0:0:
110,217,38286,2,0,P|118:173|114:129,1,71.9999978027344,0|0,3:0|0:0,0:0:0:0:
49,103,38811,6,0,P|92:68|180:94,1,143.999995605469,6|0,1:3|3:0,1:0:0:0:
260,218,39859,1,0,3:0:0:0:
260,218,40383,1,0,3:0:0:0:
398,140,40907,6,0,P|433:183|407:271,1,143.999995605469,10|0,1:3|3:0,1:0:0:0:
281,349,41955,2,0,L|196:358,1,71.9999978027344,0|0,1:0|1:0,0:0:0:0:
131,367,42479,1,2,1:3:0:0:
72,313,42741,2,0,P|67:283|73:267,1,35.9999989013672,0|2,3:0|1:3,0:0:0:0:
93,241,43003,6,0,B|183:207|155:302|275:251,1,160,6|8,1:3|1:0,0:0:0:0:
315,210,43789,2,0,L|325:149,1,40,2|2,0:0|3:2,0:0:0:0:
333,128,44051,1,0,1:0:0:0:
394,65,44313,1,0,0:0:0:0:
323,12,44575,2,0,P|283:12|246:35,1,80,10|0,1:2|0:0,0:0:0:0:
161,31,45099,6,0,P|169:72|181:127,1,80,10|2,1:3|0:0,0:0:0:0:
231,178,45623,1,8,1:0:0:0:
231,178,45754,2,0,P|222:217|215:256,1,80,0|2,0:0|3:2,0:0:0:0:
274,374,46409,1,2,0:3:0:0:
345,322,46671,1,10,1:2:0:0:
422,364,46933,1,2,3:2:0:0:
480,298,47195,6,0,P|500:229|493:118,1,160,6|8,1:3|1:0,0:0:0:0:
481,55,47981,2,0,L|421:42,1,40,2|2,0:0|3:2,0:0:0:0:
399,35,48243,1,0,1:0:0:0:
326,84,48505,1,0,0:0:0:0:
367,161,48767,2,0,P|377:205|364:250,1,80,10|0,1:2|0:0,0:0:0:0:
318,309,49291,6,0,L|216:288,1,80,6|2,1:3|3:2,0:0:0:0:
162,329,49815,1,8,1:0:0:0:
162,329,49946,2,0,L|60:308,1,80,0|2,3:0|0:0,0:0:0:0:
24,194,50601,1,2,0:3:0:0:
92,138,50863,1,10,1:2:0:0:
24,81,51125,1,2,3:2:0:0:
77,11,51387,6,0,P|143:4|255:66,1,160,6|8,1:3|1:0,0:0:0:0:
298,91,52174,1,2,0:0:0:0:
289,178,52437,2,0,L|276:264,1,80,0|0,1:0|0:0,0:0:0:0:
220,325,52962,1,10,1:2:0:0:
220,325,53093,2,0,P|254:344|293:344,1,80
333,324,53487,6,0,P|372:323|406:343,1,80,10|2,1:3|0:0,0:0:0:0:
475,287,54012,2,0,P|466:248|453:153,1,120,8|2,1:0|0:0,0:0:0:0:
468,37,54800,1,2,0:3:0:0:
386,62,55063,1,10,1:2:0:0:
302,35,55325,1,2,3:2:0:0:
247,103,55588,6,0,P|178:123|67:116,1,160,6|8,1:3|1:0,0:0:0:0:
12,73,56376,1,2,0:0:0:0:
5,160,56638,2,0,L|18:246,1,80,0|2,1:0|0:0,0:0:0:0:
57,323,57163,1,10,1:2:0:0:
57,323,57295,2,0,L|143:310,1,80
180,309,57688,5,10,1:3:0:0:
259,272,57948,1,2,0:0:0:0:
330,323,58209,2,0,P|353:292|360:250,1,80,8|0,1:0|0:0,0:0:0:0:
382,213,58601,2,0,P|376:174|351:140,1,80,2|0,0:0|0:0,0:0:0:0:
316,115,58992,2,0,P|222:117|146:130,1,160,2|2,0:3|0:3,0:0:0:0:
102,195,59774,6,0,L|123:317,2,106.666666666667,2|0|0,1:2|0:0|0:0,0:0:0:0:
177,104,60822,2,0,L|198:-18,2,106.666666666667,0|0|0,3:0|0:0|0:0,0:0:0:0:
242,201,61870,2,0,P|293:211|349:172,1,120,2|0,3:2|0:0,0:0:0:0:
403,55,62656,1,0,0:0:0:0:
460,121,62918,2,0,B|474:149|474:149|452:243,2,106.666666666667,0|0|0,3:0|0:0|0:0,0:0:0:0:
385,30,63966,6,0,P|432:5|501:20,2,106.666666666667,2|0|0,1:2|0:0|0:0,0:0:0:0:
298,109,65014,2,0,P|245:114|199:89,2,106.666666666667,0|0|0,3:0|0:0|0:0,0:0:0:0:
404,158,66062,2,0,P|409:210|384:256,1,106.666666666667,2|0,3:2|0:0,0:0:0:0:
280,360,66856,1,0,0:0:0:0:
200,321,67121,2,0,B|177:309|177:309|39:357,1,160,0|10,3:0|1:2,0:0:0:0:
10,274,67916,1,2,3:2:0:0:
47,195,68171,6,0,L|28:97,1,80,8|2,1:3|0:0,0:0:0:0:
111,79,68695,2,0,L|126:157,1,80,8|0,1:0|0:0,0:0:0:0:
203,199,69219,1,0,3:0:0:0:
287,175,69481,2,0,L|302:96,2,80,4|10|4,3:0|1:2|3:0,0:0:0:0:
351,237,70267,6,0,P|399:265|440:253,1,80,8|2,1:3|0:0,0:0:0:0:
482,198,70791,2,0,P|484:158|462:125,1,80,8|0,1:0|0:0,0:0:0:0:
391,73,71315,1,0,3:0:0:0:
308,104,71577,1,8,1:3:0:0:
234,55,71839,2,0,P|183:43|144:38,1,80,10|0,1:2|0:0,0:0:0:0:
72,12,72363,6,0,P|67:51|82:87,1,80,2|2,1:3|0:0,0:0:0:0:
160,127,72887,2,0,P|175:163|170:202,1,80,8|0,1:0|0:0,0:0:0:0:
147,287,73411,1,0,3:0:0:0:
79,343,73673,2,0,P|39:338|8:314,2,80,4|10|4,1:3|1:2|1:3,0:0:0:0:
160,374,74459,6,0,L|275:359,1,80,8|2,1:3|0:0,0:0:0:0:
302,302,74986,2,0,L|417:317,1,80,8|2,1:0|0:0,0:0:0:0:
448,368,75513,2,0,B|508:298|435:203|406:251|345:172|417:69,1,320
82,212,84956,6,0,P|64:280|83:349,2,143.999995605469,2|2|4,3:2|3:0|0:3,0:0:0:0:
136,78,86528,1,0,3:0:0:0:
235,181,87052,2,0,B|304:169|300:230|381:208,1,143.999995605469,2|2,3:2|3:0,0:0:0:0:
373,66,88100,2,0,B|304:54|308:115|227:93,1,143.999995605469,4|0,0:3|3:0,0:0:0:0:
104,151,89148,6,0,P|84:82|102:13,2,143.999995605469,2|2|4,3:2|0:3|0:3,0:0:0:0:
163,282,90720,1,0,3:0:0:0:
250,167,91244,2,0,P|318:147|387:165,1,143.999995605469,2|2,3:2|0:3,0:0:0:0:
490,264,92292,2,0,P|486:300|477:337,1,71.9999978027344,4|8,1:3|1:3,0:0:0:0:
415,383,92816,2,0,L|357:373,1,35.9999989013672,10|4,1:2|1:3,0:0:0:0:
342,363,93078,1,4,1:3:0:0:
288,288,93340,6,0,B|261:224|280:133|342:128|342:128|339:186|369:216,1,287.999991210938,6|0,1:3|0:0,1:0:0:0:
368,215,95436,2,0,B|358:283|400:366|461:355|461:355|444:299|465:263,1,287.999991210938,10|0,1:3|0:0,1:0:0:0:
214,70,97532,6,0,P|106:70|177:178,1,287.999991210938,12|0,1:3|0:0,1:0:0:0:
171,179,99632,2,0,P|278:179|207:287,1,287.999991210938,10|0,1:3|0:0,1:0:0:0:
20,370,101733,6,0,L|42:218,1,143.999995605469,12|0,1:3|3:0,1:0:0:0:
66,70,102781,1,0,3:0:0:0:
66,70,103305,1,0,3:0:0:0:
199,155,103829,6,0,P|262:177|337:127,1,143.999995605469,10|0,1:3|3:0,1:0:0:0:
424,27,104877,1,0,3:0:0:0:
267,21,105401,2,0,L|258:100,1,71.9999978027344,0|0,3:0|0:0,0:0:0:0:
326,143,105925,6,0,L|308:303,1,143.999995605469,6|0,1:3|3:0,1:0:0:0:
452,365,106973,1,0,3:0:0:0:
452,365,107497,1,0,3:0:0:0:
492,212,108021,6,0,P|426:189|368:228,1,143.999995605469,10|0,1:3|3:0,1:0:0:0:
282,361,109069,2,0,L|162:338,1,107.999996704102,8|4,1:3|1:3,0:0:0:0:
95,323,109724,5,8,1:3:0:0:
95,323,109855,1,4,1:3:0:0:
105,237,110117,6,0,P|142:184|241:215,1,160,6|8,1:3|1:0,0:0:0:0:
301,245,110901,2,0,L|311:187,1,40,2|2,0:0|3:2,0:0:0:0:
313,161,111163,1,0,1:0:0:0:
281,78,111425,1,2,2:0:0:0:
355,31,111686,2,0,P|395:31|432:54,1,80,10|0,1:2|0:0,0:0:0:0:
449,136,112210,6,0,L|442:234,1,80,10|2,1:3|0:0,0:0:0:0:
458,307,112733,1,8,1:0:0:0:
458,307,112864,2,0,P|418:307|381:284,1,80,0|2,0:0|3:2,0:0:0:0:
260,234,113518,1,2,0:0:0:0:
221,313,113780,1,10,1:2:0:0:
134,329,114041,1,2,3:2:0:0:
65,275,114303,6,0,B|35:185|125:215|80:94,1,160,6|8,1:3|1:0,0:0:0:0:
71,38,115090,2,0,P|88:25|131:25,1,40,2|2,0:0|3:2,0:0:0:0:
149,22,115353,1,0,1:0:0:0:
222,70,115615,1,0,0:0:0:0:
302,105,115878,2,0,P|346:115|391:102,1,80,10|0,1:2|0:0,0:0:0:0:
459,71,116403,6,0,P|466:110|456:148,1,80,10|2,1:3|0:0,0:0:0:0:
390,205,116928,1,8,1:0:0:0:
390,205,117060,2,0,P|382:244|392:282,1,80,0|0,0:0|3:0,0:0:0:0:
410,322,117453,2,0,L|305:305,1,80,0|0,1:0|1:0,0:0:0:0:
243,320,117979,2,0,L|196:328,1,40,10|0,1:2|0:0,0:0:0:0:
160,336,118241,1,0,1:0:0:0:
81,294,118504,6,0,B|47:204|142:232|91:112,1,160,6|8,1:3|1:0,0:0:0:0:
60,65,119290,2,0,P|78:50|109:55,1,40,2|2,0:0|3:2,0:0:0:0:
135,62,119552,1,0,1:0:0:0:
218,89,119814,1,0,0:0:0:0:
297,52,120076,2,0,P|336:43|397:38,1,80,10|0,1:2|0:0,0:0:0:0:
460,63,120600,6,0,L|449:154,1,80,10|2,1:3|0:0,0:0:0:0:
403,216,121124,1,8,1:0:0:0:
403,216,121255,2,0,L|421:296,1,80,0|2,0:0|3:2,0:0:0:0:
316,374,121910,1,2,0:0:0:0:
263,303,122172,1,10,1:2:0:0:
301,223,122434,1,2,3:2:0:0:
245,154,122696,6,0,P|189:132|77:143,1,160,6|8,1:3|1:0,0:0:0:0:
37,207,123482,2,0,L|49:278,1,40,2|2,0:0|3:2,0:0:0:0:
54,289,123744,1,0,1:0:0:0:
84,371,124006,1,2,0:0:0:0:
166,339,124268,2,0,P|202:326|259:324,1,80,10|0,1:2|0:0,0:0:0:0:
322,361,124792,6,0,L|342:274,1,80,6|2,1:3|0:0,0:0:0:0:
366,199,125318,1,8,1:0:0:0:
366,199,125449,2,0,L|392:96,1,80,0|2,0:0|3:2,0:0:0:0:
293,26,126107,2,0,P|236:22|168:66,1,120,2|0,0:0|0:0,0:0:0:0:
168,92,126634,1,2,0:0:0:0:
