osu file format v14

[General]
AudioFilename: audio.mp3
AudioLeadIn: 0
PreviewTime: 25357
Countdown: 0
SampleSet: Soft
StackLeniency: 0.7
Mode: 0
LetterboxInBreaks: 0
WidescreenStoryboard: 1

[Editor]
Bookmarks: 8391,16776,25160,34610,43003,51387,59774,68171,76568,84956,93340,101733,110117,118504,126897
DistanceSpacing: 0.73
BeatDivisor: 4
GridSize: 32
TimelineZoom: 1.6

[Metadata]
Title:eyesore
TitleUnicode:eyesore
Artist:glaive
ArtistUnicode:glaive
Creator:Mimari
Version:mimari & sylas' insane
Source:
Tags:​​​cypress grove english hip hop pop hyperpop sylas thekoala ancel ancelysia mayflower
BeatmapID:2770683
BeatmapSetID:1334577

[Difficulty]
HPDrainRate:5
CircleSize:3.8
OverallDifficulty:8
ApproachRate:9
SliderMultiplier:2.1
SliderTickRate:1

[Events]
//Background and Video events
0,0,"39969588-rain-wallpapers.jpg",0,0
//Break Periods
2,76768,84355
//Storyboard Layer 0 (Background)
//Storyboard Layer 1 (Fail)
//Storyboard Layer 2 (Pass)
//Storyboard Layer 3 (Foreground)
//Storyboard Layer 4 (Overlay)
//Storyboard Sound Samples

[TimingPoints]
8392,524.017467248908,4,2,2,68,1,0
9440,-83.3333333333333,4,2,2,68,0,0
10488,-100,4,2,2,68,0,0
11536,-83.3333333333333,4,2,2,68,0,0
25160,-71.4285714285714,4,2,1,83,0,0
25946,-58.8235294117647,4,2,1,83,0,0
26208,525.164113785558,4,2,1,83,1,0
26208,-111.111111111111,4,2,1,83,0,0
34610,-100,4,2,1,83,0,0
38811,524.017467248908,4,2,1,83,1,0
43003,-71.4285714285714,4,2,1,83,0,1
44706,-58.8235294117647,4,2,1,83,0,1
45099,-71.4285714285714,4,2,1,83,0,1
46016,-62.5,4,2,1,83,0,1
46671,-71.4285714285714,4,2,1,83,0,1
47195,-71.4285714285714,4,2,1,83,0,1
48898,-58.8235294117647,4,2,1,83,0,1
49291,-71.4285714285714,4,2,1,83,0,1
51387,525.164113785558,4,2,1,83,1,1
51387,-71.4285714285714,4,2,1,83,0,1
53093,-58.8235294117647,4,2,1,83,0,1
53487,-71.4285714285714,4,2,1,83,0,1
57295,-58.8235294117647,4,2,1,83,0,1
57688,521.739130434783,4,2,1,83,1,1
57688,-58.8235294117647,4,2,1,83,0,1
59448,-58.8235294117647,4,2,1,83,0,1
59514,-58.8235294117647,4,2,1,83,0,1
59765,-58.8235294117647,4,2,1,83,0,1
59774,524.017467248908,4,2,1,74,1,0
59774,-90.9090909090909,4,2,1,74,0,0
61520,-76.9230769230769,4,2,1,74,0,0
61870,-90.9090909090909,4,2,1,74,0,0
62918,-83.3333333333333,4,2,1,74,0,0
63442,-76.9230769230769,4,2,1,74,0,0
64315,-90.9090909090909,4,2,1,74,0,0
65712,-76.9230769230769,4,2,1,74,0,0
66062,529.801324503311,4,2,1,74,1,0
66062,-90.9090909090909,4,2,1,74,0,0
68171,524.017467248908,4,2,1,74,1,0
68171,-83.3333333333333,4,2,1,74,0,0
69481,-71.4285714285714,4,2,1,74,0,0
69677,-71.4285714285714,4,2,1,74,0,0
69743,-71.4285714285714,4,2,1,74,0,0
69939,-71.4285714285714,4,2,1,74,0,0
70005,-71.4285714285714,4,2,1,74,0,0
70201,-71.4285714285714,4,2,1,74,0,0
70206,-71.4285714285714,4,2,1,74,0,0
70267,-90.9090909090909,4,2,1,74,0,0
71577,-76.9230769230769,4,2,1,74,0,0
71773,-76.9230769230769,4,2,1,74,0,0
71839,-90.9090909090909,4,2,1,74,0,0
72035,-90.9090909090909,4,2,1,74,0,0
72101,-90.9090909090909,4,2,1,74,0,0
72363,-83.3333333333333,4,2,1,74,0,0
73673,-71.4285714285714,4,2,1,74,0,0
73869,-71.4285714285714,4,2,1,74,0,0
73935,-71.4285714285714,4,2,1,74,0,0
74131,-71.4285714285714,4,2,1,74,0,0
74197,-71.4285714285714,4,2,1,74,0,0
74393,-71.4285714285714,4,2,1,74,0,0
74459,527.472527472527,4,2,1,74,1,0
74459,-83.3333333333333,4,2,1,74,0,0
76568,524.017467248908,4,2,1,55,1,0
82856,525.164113785558,4,2,1,68,1,0
84956,524.017467248908,4,2,3,68,1,0
85087,-111.111111111111,4,2,3,68,0,0
85480,-100,4,2,3,68,0,0
88100,-111.111111111111,4,2,3,68,0,0
90196,-100,4,2,3,68,0,0
92292,-90.9090909090909,4,2,1,68,0,0
92554,-90.9090909090909,4,2,1,83,0,0
92816,-83.3333333333333,4,2,1,83,0,0
93078,-76.9230769230769,4,2,1,83,0,0
93340,-111.111111111111,4,2,1,83,0,0
97532,525.164113785558,4,2,1,83,1,0
97532,-111.111111111111,4,2,1,83,0,0
101733,524.017467248908,4,2,1,83,1,0
101733,-100,4,2,1,83,0,0
110117,523.331879633668,4,2,1,83,1,1
110117,-71.4285714285714,4,2,1,83,0,1
111817,-58.8235294117647,4,2,1,83,0,1
112210,-71.4285714285714,4,2,1,83,0,1
113126,-58.8235294117647,4,2,1,83,0,1
113780,-71.4285714285714,4,2,1,83,0,1
114303,525.164113785558,4,2,1,83,1,1
114303,-66.6666666666667,4,2,1,83,0,1
114828,-71.4285714285714,4,2,1,83,0,1
116009,-58.8235294117647,4,2,1,83,0,1
116403,-71.4285714285714,4,2,1,83,0,1
118504,524.017467248908,4,2,1,83,1,1
118504,-71.4285714285714,4,2,1,83,0,1
120207,-58.8235294117647,4,2,1,83,0,1
120600,-71.4285714285714,4,2,1,83,0,1
124399,-58.8235294117647,4,2,1,83,0,1
124792,526.315789473684,4,2,1,83,1,1
124792,-58.8235294117647,4,2,1,83,0,1
125713,-66.6666666666667,4,2,1,83,0,1
126897,-100,4,2,1,83,0,0

[Colours]
Combo1 : 192,192,192
Combo2 : 234,204,170
Combo3 : 210,153,111

[HitObjects]
73,81,8391,6,0,P|49:157|33:262,1,175,2|0,3:2|0:0,0:0:0:0:
43,267,8916,2,0,P|91:279|132:219,1,105,8|0,0:1|3:0,0:0:0:0:
205,91,9440,6,0,P|165:118|133:156,2,83.9999974365235,0|0|0,3:0|0:0|0:0,0:0:0:0:
280,37,9964,2,0,B|334:-10|396:79|382:125|325:193,1,209.999993591309,8|0,0:1|0:0,0:0:0:0:
334,183,10488,6,0,B|280:167|251:205|251:205|214:245|154:211,1,175,2|0,3:2|0:0,0:0:0:0:
157,227,11012,2,0,P|117:260|131:320,1,105,8|0,0:1|3:0,0:0:0:0:
263,376,11536,6,0,P|301:363|367:344,2,83.9999974365235,0|0|0,3:0|0:0|0:0,0:0:0:0:
197,323,12060,2,0,B|177:295|186:254|224:220|247:281|293:209|245:155,1,209.999993591309,8|0,0:1|0:0,0:0:0:0:
232,138,12584,6,0,B|202:81|202:81|286:29|355:136,1,209.999993591309,2|0,3:0|0:0,0:0:0:0:
334,121,13108,1,8,0:1:0:0:
125,198,13632,6,0,P|94:209|66:241,2,62.9999980773926,0|0|0,3:0|0:0|0:0,0:0:0:0:
235,58,14156,6,0,L|215:144,1,83.9999974365235,8|0,0:1|0:0,0:0:0:0:
212,56,14418,2,0,L|232:142,1,83.9999974365235,0|0,3:0|0:0,0:0:0:0:
257,212,14680,6,0,B|311:170|354:221|354:221|396:268|475:222,1,209.999993591309,2|0,3:0|0:0,0:0:0:0:
466,228,15204,6,0,L|485:121,1,62.9999980773926,8|0,0:1|0:0,0:0:0:0:
489,91,15466,5,0,3:0:0:0:
412,119,15597,1,0,0:0:0:0:
397,108,15728,2,0,L|383:40,2,62.9999980773926,2|0|0,3:2|0:0|0:0,0:0:0:0:
257,212,16252,6,0,P|209:210|163:245,1,83.9999974365235,8|0,0:1|0:0,0:0:0:0:
243,181,16514,2,0,P|201:205|182:259,1,83.9999974365235
215,305,16776,5,2,3:2:0:0:
319,142,17038,1,2,3:2:0:0:
177,33,17300,2,0,P|127:42|94:75,1,94.499997116089,8|0,0:1|0:0,0:0:0:0:
94,81,17562,1,0,3:0:0:0:
9,140,17693,6,0,P|68:153|147:191,1,125.999996154785,2|0,0:0|0:0,0:0:0:0:
209,175,18086,2,0,P|199:141|203:96,1,62.9999980773926,2|0,0:0|0:0,0:0:0:0:
130,269,18348,5,8,0:1:0:0:
277,227,18544,5,0,3:0:0:0:
179,338,18741,5,0,0:0:0:0:
179,338,18872,2,0,L|299:319,1,94.499997116089,2|0,3:2|0:0,0:0:0:0:
282,313,19134,2,0,L|358:336,1,62.9999980773926,2|0,3:2|0:0,0:0:0:0:
449,299,19396,6,0,P|466:272|452:229,1,62.9999980773926,8|0,0:1|0:0,0:0:0:0:
398,172,19658,2,0,P|394:141|411:115,1,62.9999980773926,0|0,3:0|0:0,0:0:0:0:
472,55,19920,5,2,0:3:0:0:
472,55,20051,1,0,0:0:0:0:
390,31,20182,2,0,L|312:46,1,62.9999980773926,2|0,0:0|0:0,0:0:0:0:
250,5,20444,5,8,0:1:0:0:
292,155,20640,5,0,3:0:0:0:
185,52,20837,5,0,0:0:0:0:
185,52,20968,2,0,P|135:59|91:106,1,94.499997116089,2|0,3:0|0:0,0:0:0:0:
94,99,21230,2,0,L|111:180,1,62.9999980773926,2|0,3:0|0:0,0:0:0:0:
38,30,21492,5,8,0:1:0:0:
193,140,21754,1,0,3:0:0:0:
72,283,22016,1,2,2:0:0:0:
72,283,22278,2,0,P|53:247|58:215,1,62.9999980773926
106,160,22540,5,8,0:1:0:0:
151,246,22671,2,0,P|175:270|215:278,1,62.9999980773926
219,268,22933,1,0,0:0:0:0:
326,288,23064,6,0,P|300:229|293:159,2,125.999996154785,2|2|8,3:0|3:0|0:1,0:0:0:0:
474,364,23850,1,0,3:0:0:0:
512,201,24112,6,0,P|507:137|492:62,1,125.999996154785,2|0,0:0|0:0,0:0:0:0:
427,9,24505,1,0,0:0:0:0:
385,89,24636,2,0,P|322:112|266:97,1,125.999996154785,8|0,0:1|0:0,0:0:0:0:
267,98,25160,5,8,1:3:0:0:
285,185,25291,2,0,P|283:224|242:268,1,73.4999977569581,2|2,0:3|0:3,0:0:0:0:
190,113,25553,2,0,P|191:76|209:45,1,73.4999977569581,4|0,1:3|0:0,0:0:0:0:
295,20,25815,5,8,1:3:0:0:
204,191,25946,2,0,B|171:206|142:181|142:181|115:157|78:169,1,133.875002553463,4|0,1:3|0:0,0:0:0:0:
58,177,26208,6,0,B|9:188|-24:239|-35:292|79:397|239:265,1,377.999988464356,6|0,1:3|0:0,1:0:0:0:
462,33,28308,6,0,B|450:78|450:78|450:90|450:90|438:144,1,94.499997116089,10|0,1:3|0:0,1:0:0:0:
319,190,28833,5,0,0:0:0:0:
314,171,28965,1,0,0:0:0:0:
436,325,29227,6,0,P|364:319|282:293,1,141.749995674133
43,74,30409,6,0,B|54:25|105:-8|158:-19|263:95|131:255,1,377.999988464356,6|0,1:3|0:0,1:0:0:0:
5,367,32509,6,0,P|48:351|112:338,1,94.499997116089,10|0,1:3|0:0,1:0:0:0:
245,325,33035,5,0,0:0:0:0:
239,349,33166,1,0,0:0:0:0:
169,214,33429,6,0,B|155:178|183:151|183:151|216:120|190:63,1,141.749995674133
63,13,34085,2,0,P|78:66|111:99,1,94.499997116089
331,165,34610,6,0,B|387:126|466:135|466:135|427:105|381:111,2,210,6|0|0,1:3|3:0|3:0,1:0:0:0:
271,238,35923,1,0,0:0:0:0:
341,298,36186,1,0,3:0:0:0:
341,298,36317,2,0,P|299:323|231:326,1,105
185,273,36711,6,0,B|196:205|155:137|155:137|198:160|212:204,2,210,10|0|0,1:3|3:0|3:0,1:0:0:0:
81,307,38024,1,0,0:0:0:0:
65,231,38286,1,0,3:0:0:0:
48,158,38549,1,0,0:0:0:0:
146,54,38811,6,0,B|78:42|10:83|10:83|33:40|77:26,2,210,6|0|0,1:3|3:0|3:0,1:0:0:0:
230,105,40121,1,0,0:0:0:0:
303,43,40383,1,0,3:0:0:0:
303,43,40514,2,0,P|373:17|422:23,1,105
462,73,40907,6,0,B|449:140|490:208|490:208|447:185|433:140,1,210,10|0,1:3|3:0,1:0:0:0:
442,161,41955,6,0,L|434:90,1,52.5,0|0,1:0|3:0,0:0:0:0:
351,185,42217,2,0,L|343:114,1,52.5,0|0,1:0|3:0,0:0:0:0:
232,329,42479,5,2,1:3:0:0:
232,329,42741,1,0,3:0:0:0:
355,289,42872,1,2,1:3:0:0:
154,362,43003,6,0,B|51:316|70:173|229:227|160:334,1,220.499993270874,6|2,1:3|0:0,0:0:0:0:
18,277,43527,2,0,P|47:200|125:165,1,146.999995513916,8|2,1:0|0:0,0:0:0:0:
245,225,43920,1,2,3:2:0:0:
163,103,44051,6,0,P|127:80|61:94,1,73.4999977569581,0|2,1:0|0:0,0:0:0:0:
100,265,44313,2,0,P|136:261|165:240,1,73.4999977569581
244,63,44576,5,10,1:2:0:0:
100,168,44706,2,0,B|54:196|-2:188|-2:188|43:221|109:170,1,178.500003404617
163,103,45099,6,0,P|160:64|140:12,1,73.4999977569581,10|0,1:3|0:0,0:0:0:0:
253,157,45361,2,0,P|242:192|239:228,1,73.4999977569581,2|0,0:0|0:0,0:0:0:0:
100,168,45623,5,8,1:0:0:0:
244,63,45754,2,0,P|283:64|316:99,1,73.4999977569581,0|2,0:0|0:0,0:0:0:0:
369,324,46016,6,0,P|346:234|329:140,1,168,2|0,3:2|0:0,0:0:0:0:
401,92,46409,2,0,P|409:53|428:-3,1,84,2|0,0:3|0:0,0:0:0:0:
498,215,46671,2,0,P|469:236|433:236,1,73.4999977569581,10|0,1:2|0:0,0:0:0:0:
446,160,46933,1,2,3:2:0:0:
224,356,47195,6,0,B|169:366|158:283|220:274|220:274|333:257,1,220.499993270874,6|2,1:3|0:0,0:0:0:0:
122,383,47719,2,0,P|101:310|134:237,1,146.999995513916,8|2,1:0|0:0,0:0:0:0:
235,188,48112,1,2,3:2:0:0:
70,186,48243,6,0,P|100:168|154:170,1,73.4999977569581,0|2,1:0|0:0,0:0:0:0:
304,262,48505,2,0,P|334:280|388:278,1,73.4999977569581
195,85,48768,5,10,1:2:0:0:
217,270,48898,2,0,B|189:323|227:365|227:365|224:341|231:326|231:326|240:305|220:275,1,178.500003404617
325,180,49291,6,0,P|355:166|420:156,1,73.4999977569581,6|0,1:3|0:0,0:0:0:0:
235,188,49553,2,0,P|205:174|140:164,1,73.4999977569581,2|2,3:2|3:2,0:0:0:0:
381,240,49815,5,8,1:0:0:0:
297,50,49946,2,0,P|272:79|280:135,1,73.4999977569581,0|0,3:0|0:0,0:0:0:0:
321,299,50208,6,0,P|389:275|527:267,1,146.999995513916,2|0,0:0|0:0,0:0:0:0:
512,321,50601,1,2,0:3:0:0:
239,297,50863,6,0,P|221:332|235:382,1,73.4999977569581,10|0,1:2|0:0,0:0:0:0:
389,384,51125,2,0,P|407:349|393:299,1,73.4999977569581,2|0,3:2|0:0,0:0:0:0:
360,114,51387,6,0,B|369:60|287:48|278:111|278:111|261:223,1,220.499993270874,6|2,1:3|0:0,0:0:0:0:
203,29,51912,2,0,L|176:195,1,146.999995513916,8|2,1:0|0:0,0:0:0:0:
151,337,52306,1,2,3:2:0:0:
89,185,52437,6,0,P|95:220|117:249,1,73.4999977569581,0|2,1:0|0:0,0:0:0:0:
262,219,52699,2,0,P|243:250|212:269,1,73.4999977569581
151,337,52962,5,10,1:2:0:0:
179,174,53093,2,0,P|224:105|315:75,1,178.500003404617
450,195,53487,6,0,P|459:230|462:268,1,73.4999977569581,10|0,1:3|0:0,0:0:0:0:
399,113,53750,2,0,P|401:76|411:40,1,73.4999977569581,2|2,0:0|3:2,0:0:0:0:
492,113,54012,5,8,1:0:0:0:
357,194,54144,2,0,P|322:203|284:206,1,73.4999977569581
483,336,54406,2,0,P|412:302|295:289,1,146.999995513916,2|0,0:0|0:0,0:0:0:0:
258,296,54800,5,2,0:3:0:0:
300,27,55063,2,0,P|277:55|259:98,1,73.4999977569581,10|0,1:2|0:0,0:0:0:0:
242,164,55325,1,2,3:2:0:0:
0,145,55588,6,0,P|94:168|223:254,1,220.499993270874,6|2,1:3|3:2,0:0:0:0:
213,365,56113,2,0,B|210:322|244:298|244:298|284:270|275:213,1,146.999995513916,8|2,1:0|0:0,0:0:0:0:
237,67,56507,1,2,3:2:0:0:
321,162,56638,6,0,P|369:152|399:114,1,73.4999977569581,0|2,1:0|0:0,0:0:0:0:
272,6,56901,2,0,P|245:31|236:66,1,73.4999977569581,2|0,0:0|0:0,0:0:0:0:
218,163,57163,5,10,1:2:0:0:
375,44,57295,2,0,B|405:-8|462:1|462:1|440:12|431:26|431:26|418:44|382:44,1,178.500003404617
327,242,57688,6,0,P|309:283|301:326,1,89.2500017023087,10|0,1:3|0:0,0:0:0:0:
416,207,57948,2,0,P|457:223|493:249,1,89.2500017023087,2|2,0:0|3:2,0:0:0:0:
339,147,58209,5,8,1:0:0:0:
401,295,58340,2,0,L|439:389,1,89.2500017023087,2|0,0:0|0:0,0:0:0:0:
254,150,58601,6,0,B|204:144|187:190|187:190|163:252|89:233,1,178.500003404617,2|0,0:0|0:0,0:0:0:0:
33,103,58992,2,0,B|5:71|87:16|152:116|91:206,1,178.500003404617,2|10,0:3|1:2,0:0:0:0:
46,355,59383,6,0,P|37:333|39:305,1,44.6250008511543
2,220,59514,2,0,P|81:243|134:275,1,133.875002553463,2|2,0:3|0:0,0:0:0:0:
132,288,59774,5,2,1:2:0:0:
353,368,60123,6,0,P|360:334|344:293,1,77.0000023498536,0|8,0:0|1:0,0:0:0:0:
224,383,60472,2,0,P|209:345|228:296,1,77.0000023498536
341,218,60822,6,0,B|380:204|410:247|410:247|441:288|509:258,1,154.000004699707,0|0,3:0|0:0,0:0:0:0:
512,181,61346,1,10,1:2:0:0:
426,40,61520,6,0,B|408:29|395:3|395:3|368:49|414:111,1,136.499993751526
415,114,61870,6,0,P|452:119|505:90,1,77.0000023498536,2|0,3:2|0:0,0:0:0:0:
309,39,62219,2,0,P|242:24|149:16,1,154.000004699707
141,25,62656,1,0,0:0:0:0:
171,143,62830,6,0,P|202:132|295:117,1,115.50000352478
296,128,63180,1,2,0:3:0:0:
262,202,63311,1,2,3:2:0:0:
310,272,63442,6,0,P|328:312|315:370,1,90.9999958343508,10|0,1:2|0:0,0:0:0:0:
303,365,63704,2,0,P|254:354|203:347,1,90.9999958343508,2|0,0:0|0:0,0:0:0:0:
194,361,63966,5,2,1:2:0:0:
17,184,64315,6,0,P|52:161|87:164,1,77.0000023498536,0|8,0:0|1:0,0:0:0:0:
118,295,64664,2,0,P|89:318|39:312,1,77.0000023498536
166,114,65014,6,0,B|191:159|171:213|171:213|178:185|166:163,1,154.000004699707,0|0,3:0|0:0,0:0:0:0:
75,78,65538,1,10,1:2:0:0:
217,19,65712,6,0,B|257:14|283:37|283:37|308:59|357:50,1,136.499993751526
364,58,66062,6,0,P|391:37|412:-3,1,77.0000023498536,2|0,3:2|0:0,0:0:0:0:
265,128,66415,2,0,P|276:196|307:282,1,154.000004699707
330,285,66856,1,0,0:0:0:0:
182,374,67121,6,0,P|188:347|194:276,1,77.0000023498536,0|0,3:0|0:0,0:0:0:0:
185,271,67386,1,2,3:2:0:0:
265,128,67563,5,0,0:0:0:0:
280,140,67651,2,0,P|294:172|300:230,1,77.0000023498536,10|0,1:2|0:0,0:0:0:0:
291,229,67916,1,2,3:2:0:0:
400,358,68171,6,0,B|377:331|377:331|257:358,1,125.999996154785,8|2,1:3|0:0,0:0:0:0:
359,142,68695,2,0,B|323:145|323:145|279:260,1,125.999996154785,8|0,1:0|0:0,0:0:0:0:
78,95,69219,1,0,3:0:0:0:
43,176,69481,6,0,B|62:191|62:191|142:156,1,110.249996635437,4|0,3:0|0:0,0:0:0:0:
111,196,69743,2,0,B|135:193|135:193|167:112,1,110.249996635437,10|0,1:2|0:0,0:0:0:0:
173,162,70005,2,0,B|188:142|188:142|153:62,1,110.249996635437,4|0,3:0|0:0,0:0:0:0:
149,51,70267,6,0,L|10:67,1,115.50000352478,8|2,1:3|0:0,0:0:0:0:
303,98,70791,2,0,L|229:-21,1,115.50000352478,8|0,1:0|0:0,0:0:0:0:
437,248,71315,1,0,3:0:0:0:
388,143,71577,6,0,L|348:247,1,102.374995313645,8|0,1:3|0:0,0:0:0:0:
335,173,71839,2,0,L|345:310,1,115.50000352478,10|0,1:2|0:0,0:0:0:0:
20,326,72363,6,0,B|41:350|81:337|81:337|119:329|142:350,1,125.999996154785,2|2,1:3|0:0,0:0:0:0:
106,83,72887,2,0,B|101:114|136:137|136:137|167:160|165:192,1,125.999996154785,8|0,1:0|0:0,0:0:0:0:
328,67,73411,1,0,3:0:0:0:
274,138,73673,6,0,B|291:162|327:155|327:155|363:152|379:166,1,110.249996635437,4|0,1:3|0:0,0:0:0:0:
306,178,73935,2,0,B|334:187|360:161|360:161|387:138|408:140,1,110.249996635437,10|0,1:2|0:0,0:0:0:0:
355,192,74197,2,0,B|383:183|390:147|390:147|398:113|417:102,1,110.249996635437,4|0,1:3|0:0,0:0:0:0:
426,98,74459,6,0,P|482:119|499:189,1,125.999996154785,8|2,1:3|0:0,0:0:0:0:
384,305,74986,2,0,P|341:346|270:332,1,125.999996154785,8|2,1:0|0:0,0:0:0:0:
110,263,75513,1,0,0:0:0:0:
110,263,75777,6,0,P|116:227|114:173,1,62.9999980773926,2|0,0:0|0:0,0:0:0:0:
28,111,76041,2,0,B|2:138|13:169|41:209|99:170|99:170|148:133|212:177,1,251.999992309571,2|0,0:0|0:0,0:0:0:0:
416,342,84956,5,2,3:2:0:0:
429,355,85087,2,0,P|439:307|443:227,1,94.499997116089
424,229,85480,6,0,P|350:212|332:328,1,210,2|4,3:0|0:3,0:0:0:0:
495,124,86528,6,0,B|505:61|475:84|487:6,1,105,0|0,3:0|0:0,0:0:0:0:
325,117,87052,5,2,3:2:0:0:
396,161,87314,1,2,0:0:0:0:
241,13,87576,6,0,P|185:27|160:87,1,105,2|0,3:0|0:0,0:0:0:0:
220,195,88100,2,0,P|228:141|245:83,2,94.499997116089,4|0|0,0:3|0:0|3:0,0:0:0:0:
170,263,88886,1,2,0:0:0:0:
308,166,89148,6,0,P|357:187|374:238,1,94.499997116089,2|2,3:2|0:0,0:0:0:0:
320,384,89672,5,2,0:3:0:0:
302,373,89803,2,0,P|244:362|190:358,1,94.499997116089,0|0,0:0|3:0,0:0:0:0:
180,364,90196,6,0,P|163:305|171:257,1,105,4|0,0:3|0:0,0:0:0:0:
308,166,90720,2,0,P|325:107|317:59,1,105,0|0,3:0|0:0,0:0:0:0:
81,21,91244,5,2,3:2:0:0:
114,99,91506,1,2,3:2:0:0:
265,7,91768,2,0,P|205:17|150:45,1,105,2|0,0:3|0:0,0:0:0:0:
40,180,92292,6,0,P|44:212|64:251,1,57.7500017623902,4|8,1:3|1:3,0:0:0:0:
130,346,92554,5,8,1:3:0:0:
160,256,92685,1,8,3:0:0:0:
0,293,92816,6,0,P|27:309|77:313,1,62.9999980773926,10|4,1:2|1:3,0:0:0:0:
184,162,93078,2,0,P|153:167|120:187,1,68.2499968757631,4|4,1:3|3:0,0:0:0:0:
44,36,93340,6,0,B|71:96|179:171|262:146|262:146|265:90|209:48|165:37,1,377.999988464356,6|0,1:3|0:0,1:0:0:0:
201,52,95436,6,0,B|213:97|213:97|213:109|213:109|225:163,1,94.499997116089,10|0,1:3|0:0,1:0:0:0:
319,190,95960,5,0,0:0:0:0:
319,173,96091,1,0,0:0:0:0:
436,325,96353,6,0,P|364:319|286:297,1,141.749995674133
73,276,97532,6,0,B|100:216|208:141|291:166|291:166|294:222|238:264|194:275,1,377.999988464356,12|0,1:3|0:0,1:0:0:0:
231,260,99632,6,0,P|274:244|338:231,1,94.499997116089,10|0,1:3|0:0,1:0:0:0:
419,276,100157,5,0,0:0:0:0:
413,300,100289,1,0,0:0:0:0:
426,172,100551,6,0,B|440:136|412:109|412:109|379:78|405:21,1,141.749995674133
346,167,101208,2,0,P|310:197|264:208,1,94.499997116089
157,118,101733,6,0,B|152:84|180:49|180:49|116:82|33:86,2,210,12|0|0,1:3|3:0|3:0,1:0:0:0:
118,203,103043,1,0,0:0:0:0:
166,283,103305,1,0,3:0:0:0:
166,283,103436,2,0,P|218:289|281:316,1,105
344,295,103829,6,0,P|382:253|281:248,2,210,10|0|0,1:3|3:0|3:0,1:0:0:0:
314,368,105139,1,0,0:0:0:0:
239,351,105401,1,0,3:0:0:0:
163,335,105663,1,0,0:0:0:0:
62,368,105925,6,0,B|64:303|26:238|26:238|53:267|95:261,2,210,6|0|0,1:3|3:0|3:0,1:0:0:0:
163,335,107235,1,0,0:0:0:0:
189,238,107497,1,0,3:0:0:0:
189,238,107628,2,0,P|190:184|163:112,1,105
106,95,108021,6,0,P|113:24|211:76,1,210,10|0,1:3|3:0,1:0:0:0:
212,60,109069,5,8,1:3:0:0:
175,135,109200,1,4,1:3:0:0:
175,135,109462,1,4,1:3:0:0:
301,16,109724,5,8,1:3:0:0:
325,199,109855,1,4,1:3:0:0:
471,38,110117,6,0,B|399:13|370:67|370:67|336:120|273:98,1,220.499993270874,6|2,1:3|0:0,0:0:0:0:
164,44,110640,2,0,B|190:33|224:40|224:40|195:69|191:106|209:155,1,146.999995513916,8|2,1:0|0:0,0:0:0:0:
223,234,111032,1,2,3:2:0:0:
390,176,111163,6,0,P|420:164|478:171,1,73.4999977569581,0|2,1:0|0:0,0:0:0:0:
429,314,111425,2,0,P|396:297|373:268,1,73.4999977569581,2|0,2:0|2:0,0:0:0:0:
501,254,111686,5,10,1:2:0:0:
309,213,111817,2,0,B|254:218|219:184|241:141|241:141|279:147|286:196,1,178.500003404617
289,292,112210,6,0,P|286:331|266:383,1,73.4999977569581,10|0,1:3|0:0,0:0:0:0:
166,231,112471,2,0,P|155:195|152:159,1,73.4999977569581,2|0,0:0|0:0,0:0:0:0:
189,76,112733,5,8,1:0:0:0:
189,304,112864,2,0,P|135:307|106:264,1,73.4999977569581,0|2,0:0|0:0,0:0:0:0:
26,140,113126,2,0,P|105:91|229:79,1,178.500003404617,2|0,3:2|3:0,0:0:0:0:
393,150,113518,2,0,P|392:200|359:255,1,89.2500017023087,2|0,0:0|0:0,0:0:0:0:
283,122,113780,2,0,P|271:81|272:41,1,73.4999977569581,10|0,1:2|0:0,0:0:0:0:
334,0,114041,1,2,3:2:0:0:
316,289,114303,6,0,B|290:266|294:223|294:223|235:228|183:260|158:313,1,236.250009012223,6|2,1:3|0:0,0:0:0:0:
280,360,114828,2,0,P|359:360|387:264,1,146.999995513916,8|2,1:0|0:0,0:0:0:0:
382,198,115222,1,2,3:2:0:0:
283,122,115353,6,0,P|243:104|184:112,1,73.4999977569581,0|0,1:0|0:0,0:0:0:0:
391,72,115615,2,0,P|406:30|453:-5,1,73.4999977569581
309,33,115878,5,10,1:2:0:0:
382,198,116009,2,0,B|416:219|430:266|415:286|415:286|377:277|382:226,1,178.500003404617
228,205,116403,6,0,P|242:235|252:300,1,73.4999977569581,10|0,1:3|0:0,0:0:0:0:
145,131,116666,2,0,P|152:95|168:61,1,73.4999977569581,2|2,0:0|3:2,0:0:0:0:
134,232,116928,5,8,1:0:0:0:
245,117,117060,2,0,P|280:124|314:140,1,73.4999977569581
382,198,117322,1,0,3:0:0:0:
352,44,117453,5,0,1:0:0:0:
352,44,117585,1,0,3:0:0:0:
426,124,117716,2,0,P|433:88|449:54,1,73.4999977569581,0|0,1:0|3:0,0:0:0:0:
382,303,117979,5,10,1:2:0:0:
382,303,118241,1,0,1:0:0:0:
275,203,118373,1,2,3:0:0:0:
206,341,118504,6,0,B|197:407|87:401|88:299|198:198,1,220.499993270874,6|2,1:3|0:0,0:0:0:0:
40,350,119028,2,0,P|46:274|99:191,1,146.999995513916,8|2,1:0|0:0,0:0:0:0:
173,100,119421,1,2,3:2:0:0:
15,107,119552,6,0,P|56:114|90:131,1,73.4999977569581,0|0,1:0|0:0,0:0:0:0:
185,7,119814,2,0,P|148:12|107:35,1,73.4999977569581
162,187,120076,5,10,1:2:0:0:
274,67,120207,2,0,B|279:41|295:22|295:22|219:43|280:168,1,178.500003404617
328,244,120600,6,0,P|346:213|340:140,1,73.4999977569581,10|0,1:3|0:0,0:0:0:0:
181,279,120862,2,0,P|185:315|203:346,1,73.4999977569581,2|2,0:0|3:2,0:0:0:0:
322,356,121124,5,8,1:0:0:0:
233,203,121255,2,0,P|198:194|128:181,1,73.4999977569581,0|2,0:0|0:0,0:0:0:0:
42,324,121517,2,0,P|96:315|186:275,1,146.999995513916,2|2,3:2|0:0,0:0:0:0:
263,128,121910,1,2,0:0:0:0:
233,347,122172,6,0,P|256:319|267:270,1,73.4999977569581,10|0,1:2|0:0,0:0:0:0:
233,203,122434,1,2,3:2:0:0:
420,306,122696,6,0,B|474:315|486:233|423:224|423:224|311:207,1,220.499993270874,6|0,1:3|0:0,0:0:0:0:
506,149,123221,2,0,L|340:122,1,146.999995513916,8|2,1:0|0:0,0:0:0:0:
201,105,123613,1,2,3:2:0:0:
328,19,123744,6,0,P|299:43|279:85,1,73.4999977569581,0|2,1:0|0:0,0:0:0:0:
319,213,124006,2,0,P|290:189|270:147,1,73.4999977569581,2|0,0:0|0:0,0:0:0:0:
328,19,124268,5,10,1:2:0:0:
395,183,124399,2,0,B|416:230|386:265|386:265|348:304|368:358,1,178.500003404617
204,363,124792,6,0,P|213:319|231:279,1,89.2500017023087,6|0,1:3|0:0,0:0:0:0:
106,384,125055,2,0,P|70:357|28:341,1,89.2500017023087,2|2,0:0|3:2,0:0:0:0:
90,176,125318,5,8,1:0:0:0:
133,298,125449,1,0,0:0:0:0:
133,298,125581,1,2,0:0:0:0:
206,136,125713,6,0,B|228:27|228:27|198:52|151:54,1,157.500006008148,2|0,3:2|0:0,0:0:0:0:
0,26,126107,2,0,P|58:37|130:106,1,157.500006008148,2|10,0:0|1:2,0:0:0:0:
206,218,126502,5,0,0:0:0:0:
377,180,126634,2,0,B|414:160|359:79|261:147|284:253,1,157.500006008148,2|0,0:0|3:0,0:0:0:0:
