osu file format v14

[General]
AudioFilename: audio.mp3
AudioLeadIn: 0
PreviewTime: 25357
Countdown: 0
SampleSet: Soft
StackLeniency: 0.7
Mode: 0
LetterboxInBreaks: 0
WidescreenStoryboard: 1

[Editor]
Bookmarks: 8391,16776,25160,34610,43003,51387,59774,68171,76568,84956,93340,101733,110117,118504,126897
DistanceSpacing: 1.2
BeatDivisor: 6
GridSize: 4
TimelineZoom: 1.6

[Metadata]
Title:eyesore
TitleUnicode:eyesore
Artist:glaive
ArtistUnicode:glaive
Creator:Mimari
Version:mimari & sylas' hard
Source:
Tags:​​​cypress grove english hip hop pop hyperpop sylas thekoala ancel ancelysia mayflower
BeatmapID:2770689
BeatmapSetID:1334577

[Difficulty]
HPDrainRate:4
CircleSize:3.6
OverallDifficulty:6
ApproachRate:8
SliderMultiplier:1.8
SliderTickRate:1

[Events]
//Background and Video events
0,0,"39969588-rain-wallpapers.jpg",0,0
//Break Periods
2,76768,84206
//Storyboard Layer 0 (Background)
//Storyboard Layer 1 (Fail)
//Storyboard Layer 2 (Pass)
//Storyboard Layer 3 (Foreground)
//Storyboard Layer 4 (Overlay)
//Storyboard Sound Samples

[TimingPoints]
8392,524.017467248908,4,2,2,68,1,0
17169,-100,4,2,2,68,0,0
25160,-100,4,2,1,83,0,0
26208,525.164113785558,4,2,1,83,1,0
26208,-111.111111111111,4,2,1,83,0,0
38811,524.017467248908,4,2,1,83,1,0
43003,-83.3333333333333,4,2,1,83,0,1
51387,525.164113785558,4,2,1,83,1,1
51387,-83.3333333333333,4,2,1,83,0,1
57688,521.739130434783,4,2,1,83,1,1
57688,-83.3333333333333,4,2,1,83,0,1
59765,-83.3333333333333,4,2,1,83,0,1
59774,524.017467248908,4,2,1,74,1,0
59774,-95.2380952380951,4,2,1,74,0,0
66062,529.801324503311,4,2,1,74,1,0
68149,-100,4,2,1,74,0,0
68171,524.017467248908,4,2,1,74,1,0
69677,-100,4,2,1,74,0,0
69743,-100,4,2,1,74,0,0
69941,-100,4,2,1,74,0,0
70005,-100,4,2,1,74,0,0
70206,-100,4,2,1,74,0,0
70267,-100,4,2,1,74,0,0
71773,-100,4,2,1,74,0,0
71839,-100,4,2,1,74,0,0
72035,-100,4,2,1,74,0,0
72101,-100,4,2,1,74,0,0
73869,-100,4,2,1,74,0,0
73935,-100,4,2,1,74,0,0
74131,-100,4,2,1,74,0,0
74197,-100,4,2,1,74,0,0
74393,-100,4,2,1,74,0,0
74459,527.472527472527,4,2,1,74,1,0
76568,524.017467248908,4,2,1,55,1,0
82856,525.164113785558,4,2,1,68,1,0
84956,524.017467248908,4,2,3,68,1,0
85087,-105.263157894737,4,2,3,68,0,0
92292,-90.9090909090909,4,2,1,68,0,0
92554,-90.9090909090909,4,2,1,83,0,0
93340,-111.111111111111,4,2,1,83,0,0
97532,525.164113785558,4,2,1,83,1,0
97532,-111.111111111111,4,2,1,83,0,0
101733,524.017467248908,4,2,1,83,1,0
101733,-111.111111111111,4,2,1,83,0,0
110117,523.331879633668,4,2,1,83,1,1
110117,-83.3333333333333,4,2,1,83,0,1
114303,525.164113785558,4,2,1,83,1,1
114303,-83.3333333333333,4,2,1,83,0,1
118504,524.017467248908,4,2,1,83,1,1
118504,-83.3333333333333,4,2,1,83,0,1
124792,526.315789473684,4,2,1,83,1,1
124792,-83.3333333333333,4,2,1,83,0,1
126897,-100,4,2,1,83,0,0

[Colours]
Combo1 : 192,192,192
Combo2 : 234,204,170
Combo3 : 210,153,111

[HitObjects]
136,24,8391,6,0,P|122:83|113:168,1,135,2|0,3:2|0:0,0:0:0:0:
121,175,8916,1,8,0:1:0:0:
206,133,9178,1,0,3:0:0:0:
289,188,9440,2,0,P|319:183|351:167,2,60,0|0|0,3:0|0:0|0:0,0:0:0:0:
214,221,9964,2,0,P|174:267|170:341,1,135,8|0,0:1|0:0,0:0:0:0:
181,351,10488,6,0,B|267:332|228:382|326:361,1,135,2|0,3:2|0:0,0:0:0:0:
334,356,11012,1,8,0:1:0:0:
400,293,11274,1,0,3:0:0:0:
484,319,11536,2,0,P|480:351|464:392,2,60,0|0|0,3:0|0:0|0:0,0:0:0:0:
507,239,12060,2,0,P|498:170|466:97,1,135,8|0,0:1|0:0,0:0:0:0:
460,94,12584,6,0,P|391:84|291:69,1,135,2|0,3:0|0:0,0:0:0:0:
302,72,13108,2,0,P|322:125|326:166,1,90,8|0,0:1|3:0,0:0:0:0:
283,241,13632,2,0,P|286:276|302:311,2,45,0|0|0,3:0|0:0|0:0,0:0:0:0:
243,167,14156,6,0,P|221:155|168:156,1,45,8|0,0:1|0:0,0:0:0:0:
196,231,14418,2,0,P|171:237|134:275,1,45,0|0,3:0|0:0,0:0:0:0:
71,316,14680,6,0,B|143:299|119:358|216:326,1,135,2|0,3:0|0:0,0:0:0:0:
224,330,15204,2,0,L|215:394,2,45,8|0|0,0:1|0:0|3:0,0:0:0:0:
155,248,15728,2,0,L|146:184,1,45,2|0,3:2|0:0,0:0:0:0:
144,183,15990,1,0,0:0:0:0:
253,75,16252,6,0,P|275:86|303:131,1,45,8|0,0:1|0:0,0:0:0:0:
219,150,16514,2,0,P|226:173|215:225,1,45
144,183,16776,6,0,L|35:171,1,90,2|2,3:2|3:2,0:0:0:0:
2,67,17300,2,0,P|9:45|22:27,1,45,8|0,0:1|0:0,0:0:0:0:
103,8,17562,1,0,3:0:0:0:
103,8,17693,2,0,L|192:17,1,90,2|0,0:0|0:0,0:0:0:0:
210,21,18086,1,2,0:0:0:0:
319,70,18348,2,0,P|330:33|321:-13,2,67.5,8|0|0,0:1|3:0|0:0,0:0:0:0:
275,134,18872,6,0,P|277:202|323:218,1,90,2|2,3:2|3:2,0:0:0:0:
481,230,19396,2,0,P|479:162|433:146,1,90,8|0,0:1|3:0,0:0:0:0:
397,116,19789,1,0,0:0:0:0:
397,116,19920,2,0,L|385:166,1,45,2|0,0:3|0:0,0:0:0:0:
367,235,20182,2,0,L|355:285,1,45,2|0,0:0|0:0,0:0:0:0:
394,347,20444,2,0,P|447:340|469:326,2,67.5,8|0|0,0:1|3:0|0:0,0:0:0:0:
316,353,20968,6,0,P|280:334|221:322,1,90,2|2,3:0|3:0,0:0:0:0:
106,279,21492,2,0,P|149:269|189:248,1,90,8|0,0:1|3:0,0:0:0:0:
260,150,22016,1,2,2:0:0:0:
241,28,22278,6,0,L|234:89,1,45
183,130,22540,1,8,0:1:0:0:
183,130,22671,2,0,P|124:127|92:103,1,90
64,40,23064,6,0,L|75:172,1,90,2|2,3:0|3:0,0:0:0:0:
164,230,23588,2,0,L|175:362,1,90,8|0,0:1|3:0,0:0:0:0:
269,159,24112,1,2,0:0:0:0:
318,271,24374,2,0,L|321:226,1,45
361,153,24636,2,0,L|350:21,1,90,8|0,0:1|0:0,0:0:0:0:
151,30,25160,5,8,1:3:0:0:
151,30,25291,2,0,P|144:51|148:73,1,45,2|2,0:3|0:3,0:0:0:0:
215,120,25553,2,0,P|219:141|208:170,1,45,4|0,1:3|0:0,0:0:0:0:
155,221,25815,1,8,1:3:0:0:
155,221,25946,1,4,1:3:0:0:
274,345,26208,6,0,B|337:373|421:351|452:279|452:279|406:330|333:323,1,323.999990112305,6|0,1:3|0:0,1:0:0:0:
215,120,28308,6,0,B|154:148|70:126|39:54|39:54|85:105|138:98,1,323.999990112305,10|0,1:3|0:0,1:0:0:0:
202,35,29621,2,0,P|241:34|274:56,2,80.9999975280763
139,97,30409,6,0,B|67:170|128:275|162:217|242:312|142:403,1,323.999990112305,6|0,1:3|0:0,1:0:0:0:
428,308,32509,6,0,B|351:239|426:141|460:199|521:94|449:21,1,323.999990112305,10|0,1:3|0:0,1:0:0:0:
373,4,33822,2,0,P|333:3|300:25,2,80.9999975280763
405,115,34610,6,0,B|389:157|389:157|251:105,2,161.999995056153,6|0|0,1:3|3:0|3:0,1:0:0:0:
436,23,36186,1,0,3:0:0:0:
464,211,36711,6,0,B|483:143|483:143|493:135|493:135|515:49,2,161.999995056153,10|0|0,1:3|3:0|3:0,1:0:0:0:
428,321,38286,1,0,3:0:0:0:
271,213,38811,6,0,B|240:157|240:157|366:92,2,180,6|0|0,1:3|3:0|3:0,1:0:0:0:
315,293,40383,1,0,3:0:0:0:
154,359,40907,6,0,B|91:369|91:369|64:326|64:326|-9:339,2,180,10|0|0,1:3|3:0|1:0,1:0:0:0:
178,351,42086,1,0,3:0:0:0:
259,374,42217,1,0,1:0:0:0:
241,294,42348,1,0,3:0:0:0:
241,294,42479,1,2,1:3:0:0:
30,123,42741,2,0,L|36:191,1,45,0|2,3:0|1:3,0:0:0:0:
49,245,43003,6,0,B|93:237|109:193|109:193|122:147|169:140,1,161.999995056153,6|2,1:3|0:0,0:0:0:0:
212,63,43527,2,0,P|244:99|246:172,1,107.999996704102,8|2,1:0|0:0,0:0:0:0:
181,246,43920,1,2,3:2:0:0:
251,322,44051,2,0,P|277:321|314:309,1,53.9999983520508,0|2,1:0|0:0,0:0:0:0:
347,239,44313,2,0,P|321:231|294:230,1,53.9999983520508
417,289,44575,2,0,B|446:254|430:209|430:209|411:166|443:131,1,161.999995056153,10|0,1:2|0:0,0:0:0:0:
512,115,45099,6,0,P|498:83|462:63,1,53.9999983520508,10|0,1:3|0:0,0:0:0:0:
359,118,45361,2,0,P|373:86|409:66,1,53.9999983520508,2|0,0:0|0:0,0:0:0:0:
438,9,45623,1,8,1:0:0:0:
438,9,45754,2,0,L|361:-3,1,53.9999983520508,0|2,0:0|0:0,0:0:0:0:
275,20,46016,6,0,B|252:60|268:101|268:101|270:74|290:59,1,107.999996704102,2|0,3:2|0:0,0:0:0:0:
301,75,46409,1,2,0:3:0:0:
166,41,46671,1,10,1:2:0:0:
191,182,46933,1,2,3:2:0:0:
53,203,47195,6,0,B|97:211|113:255|113:255|126:301|173:308,1,161.999995056153,6|2,1:3|0:0,0:0:0:0:
210,373,47719,2,0,P|265:369|309:338,1,107.999996704102,8|2,1:0|0:0,0:0:0:0:
359,250,48112,1,2,3:2:0:0:
444,264,48243,2,0,P|459:292|456:331,1,53.9999983520508,0|2,1:0|0:0,0:0:0:0:
395,384,48505,2,0,P|386:358|382:317,1,53.9999983520508
359,250,48767,2,0,B|375:196|368:150|368:150|361:192|340:210,1,161.999995056153,10|0,1:2|0:0,0:0:0:0:
324,221,49291,6,0,P|296:233|255:229,1,53.9999983520508,6|0,1:3|0:0,0:0:0:0:
218,301,49553,2,0,P|195:280|182:241,1,53.9999983520508,2|2,3:2|3:2,0:0:0:0:
221,154,49815,1,8,1:0:0:0:
221,154,49946,2,0,P|226:128|232:94,1,53.9999983520508,0|0,3:0|0:0,0:0:0:0:
159,7,50208,6,0,P|106:5|52:43,1,107.999996704102,2|0,0:0|0:0,0:0:0:0:
51,51,50601,1,2,0:3:0:0:
122,163,50863,1,10,1:2:0:0:
32,260,51125,1,2,3:2:0:0:
91,373,51387,6,0,P|110:343|245:339,1,161.999995056153,6|2,1:3|0:0,0:0:0:0:
289,373,51912,2,0,P|352:372|411:338,1,107.999996704102,8|2,1:0|0:0,0:0:0:0:
428,274,52306,1,2,3:2:0:0:
339,250,52437,2,0,L|333:186,1,53.9999983520508,0|2,1:0|0:0,0:0:0:0:
427,165,52699,2,0,L|433:101,1,53.9999983520508
387,42,52962,2,0,B|349:22|307:42|307:42|264:64|229:40,1,161.999995056153,10|0,1:2|0:0,0:0:0:0:
154,10,53487,6,0,P|122:11|88:26,1,53.9999983520508,10|0,1:3|0:0,0:0:0:0:
34,73,53750,2,0,P|16:99|9:136,1,53.9999983520508,2|2,0:0|3:2,0:0:0:0:
83,191,54012,1,8,1:0:0:0:
83,191,54144,2,0,L|94:267,1,53.9999983520508
29,305,54406,6,0,B|21:309|-3:302|-3:302|20:330|68:336,1,107.999996704102,2|0,0:0|0:0,0:0:0:0:
92,323,54800,1,2,0:3:0:0:
230,262,55063,1,10,1:2:0:0:
333,343,55325,1,2,3:2:0:0:
450,292,55588,6,0,P|472:233|458:131,1,161.999995056153,6|2,1:3|3:2,0:0:0:0:
419,67,56113,2,0,P|369:51|322:85,1,107.999996704102,8|2,1:0|0:0,0:0:0:0:
272,152,56507,1,2,3:2:0:0:
207,80,56638,6,0,P|200:53|198:26,1,53.9999983520508,0|2,1:0|0:0,0:0:0:0:
115,21,56901,2,0,P|110:47|102:73,1,53.9999983520508,2|0,0:0|0:0,0:0:0:0:
41,137,57163,2,0,B|78:166|119:153|119:153|164:142|199:177,1,161.999995056153,10|0,1:2|0:0,0:0:0:0:
235,238,57688,6,0,L|245:295,1,53.9999983520508,10|0,1:3|0:0,0:0:0:0:
324,334,57948,2,0,L|334:277,1,53.9999983520508,2|2,0:0|3:2,0:0:0:0:
324,201,58209,1,8,1:0:0:0:
324,201,58340,2,0,L|334:144,1,53.9999983520508,2|0,0:0|0:0,0:0:0:0:
313,65,58601,6,0,P|367:71|409:111,1,107.999996704102,2|0,0:0|0:0,0:0:0:0:
510,169,58992,2,0,P|456:175|411:211,1,107.999996704102,2|10,0:3|1:2,0:0:0:0:
393,286,59383,1,0,0:0:0:0:
477,305,59514,1,2,0:3:0:0:
332,380,59774,6,0,P|267:374|209:346,1,125.999996154785,2|0,1:2|0:0,0:0:0:0:
142,384,60298,2,0,P|131:337|164:281,1,94.499997116089,8|0,1:0|0:0,0:0:0:0:
124,197,60822,2,0,B|157:184|187:206|187:206|216:231|251:216,1,125.999996154785,0|0,3:0|0:0,0:0:0:0:
333,243,61346,2,0,B|333:172|352:134|352:134|317:136|316:177,1,157.499995193482,10|0,1:2|0:0,0:0:0:0:
302,170,61870,5,2,3:2:0:0:
367,56,62132,2,0,B|416:66|435:116|435:116|451:168|505:178,1,188.999994232178,2|0,0:0|0:0,0:0:0:0:
425,282,62918,6,0,B|392:287|381:310|381:310|369:333|314:347,1,94.499997116089,0|2,3:0|0:3,0:0:0:0:
334,345,63267,2,0,P|278:336|191:313,1,125.999996154785
137,210,63966,6,0,B|104:172|117:120|117:120|125:149|151:163,1,125.999996154785,2|0,1:2|0:0,0:0:0:0:
210,176,64490,2,0,P|255:189|302:152,1,94.499997116089,8|0,1:0|0:0,0:0:0:0:
355,48,65014,2,0,P|283:32|208:28,1,125.999996154785,0|0,3:0|0:0,0:0:0:0:
145,8,65538,2,0,P|116:46|127:105,1,94.499997116089,10|0,1:2|0:0,0:0:0:0:
210,176,66062,5,2,3:2:0:0:
234,265,66326,2,0,B|184:274|148:234|148:234|115:194|63:204,1,180,2|0,0:0|0:0,0:0:0:0:
0,351,67121,2,0,B|26:349|43:335|43:335|67:318|113:321,1,90,0|2,3:0|3:2,0:0:0:0:
117,330,67518,1,0,0:0:0:0:
117,330,67651,1,10,1:2:0:0:
224,361,67916,1,2,3:2:0:0:
320,312,68171,6,0,P|328:256|331:204,1,90,8|2,1:3|0:0,0:0:0:0:
436,209,68695,2,0,P|401:161|367:124,1,90,8|0,1:0|0:0,0:0:0:0:
452,75,69219,1,0,3:0:0:0:
326,37,69481,6,0,P|324:58|337:90,1,45,4|0,3:0|0:0,0:0:0:0:
273,129,69743,2,0,P|287:145|319:159,1,45,10|0,1:2|0:0,0:0:0:0:
382,140,70005,1,4,3:0:0:0:
242,53,70267,6,0,P|184:44|134:42,1,90,8|2,1:3|0:0,0:0:0:0:
123,148,70791,2,0,P|75:182|38:216,1,90,8|0,1:0|0:0,0:0:0:0:
77,316,71315,1,0,3:0:0:0:
77,316,71577,2,0,P|114:325|130:326,1,45,8|0,1:3|0:0,0:0:0:0:
179,377,71839,2,0,P|197:346|192:293,1,90,10|0,1:2|0:0,0:0:0:0:
358,254,72363,6,0,P|422:277|471:310,1,90,2|2,1:3|0:0,0:0:0:0:
340,153,72887,2,0,P|401:124|459:112,1,90,8|0,1:0|0:0,0:0:0:0:
275,79,73411,1,0,3:0:0:0:
175,198,73673,6,0,P|179:227|203:250,1,45,4|0,1:3|0:0,0:0:0:0:
266,212,73935,2,0,P|261:182|237:159,1,45,10|0,1:2|0:0,0:0:0:0:
192,118,74197,1,4,1:3:0:0:
88,211,74459,6,0,P|78:254|77:299,1,90,8|2,1:3|0:0,0:0:0:0:
189,240,74986,2,0,P|213:277|244:310,1,90,8|2,1:0|0:0,0:0:0:0:
326,237,75513,1,0,0:0:0:0:
326,237,76041,2,0,B|322:180|366:165|366:165|413:150|407:75,1,180,2|0,0:0|0:0,0:0:0:0:
413,75,84956,5,2,3:2:0:0:
404,65,85087,2,0,B|365:56|341:87|341:87|317:123|260:118,1,128.249996575356,0|2,0:0|3:0,0:0:0:0:
165,212,86004,2,0,B|101:216|57:175|57:175|89:181|117:161,1,170.999995433807,4|0,0:3|3:0,0:0:0:0:
175,110,86790,1,0,0:0:0:0:
125,37,87052,6,0,P|81:40|39:65,1,85.4999977169037,2|2,3:2|0:0,0:0:0:0:
60,145,87576,2,0,P|37:182|33:231,1,85.4999977169037,2|0,3:0|0:0,0:0:0:0:
33,310,88100,2,0,B|82:304|102:261|102:261|127:209|181:200,1,170.999995433807,4|0,0:3|3:0,0:0:0:0:
246,184,88886,1,2,0:0:0:0:
323,235,89148,5,2,3:2:0:0:
335,248,89279,2,0,P|328:312|311:382,1,128.249996575356,0|2,0:0|0:3,0:0:0:0:
174,352,90196,2,0,P|157:313|177:256,1,85.4999977169037,4|0,0:3|0:0,0:0:0:0:
239,197,90720,2,0,P|247:155|230:117,1,85.4999977169037,0|0,3:0|0:0,0:0:0:0:
159,52,91244,6,0,P|115:63|71:72,2,85.4999977169037,2|2|2,3:2|3:2|0:3,0:0:0:0:
240,3,92030,1,0,0:0:0:0:
333,35,92292,6,0,P|343:58|334:111,1,49.5000015106202,4|8,1:3|1:3,0:0:0:0:
298,152,92554,2,0,P|288:175|297:228,1,49.5000015106202,8|8,1:3|3:0,0:0:0:0:
364,253,92816,1,10,1:2:0:0:
397,246,92947,1,4,1:3:0:0:
423,222,93078,1,4,1:3:0:0:
252,65,93340,6,0,B|182:53|107:69|76:141|76:141|92:173|161:177|197:137,1,323.999990112305,6|0,1:3|0:0,1:0:0:0:
180,150,95436,6,0,B|240:215|321:184|321:184|322:175|322:175|411:126|482:204,1,323.999990112305,10|0,1:3|0:0,1:0:0:0:
470,272,96746,2,0,L|460:359,2,80.9999975280763
468,190,97532,6,0,P|305:194|144:266,1,323.999990112305,12|0,1:3|0:0,1:0:0:0:
158,255,99632,6,0,B|148:352|4:327|48:138|201:168,1,323.999990112305,10|0,1:3|0:0,1:0:0:0:
240,237,100945,2,0,P|241:279|218:326,2,80.9999975280763
197,167,101733,6,0,B|104:129|104:129|51:176,2,161.999995056153,12|0|0,1:3|3:0|3:0,1:0:0:0:
317,100,103305,1,0,3:0:0:0:
469,227,103829,6,0,B|422:267|422:267|329:229,2,161.999995056153,10|0|0,1:3|3:0|3:0,1:0:0:0:
486,65,105401,1,0,3:0:0:0:
317,100,105925,6,0,B|243:87|243:87|227:93|227:93|127:71,2,161.999995056153,6|0|0,1:3|3:0|3:0,1:0:0:0:
469,227,107497,1,0,3:0:0:0:
299,325,108021,6,0,B|262:199|262:199|325:223,2,161.999995056153,10|0|8,1:3|3:0|1:3,1:0:0:0:
307,364,109200,1,4,1:3:0:0:
189,308,109462,1,4,1:3:0:0:
77,371,109724,5,8,1:3:0:0:
77,371,109855,1,4,1:3:0:0:
45,293,110117,6,0,P|34:230|88:145,1,161.999995056153,6|2,1:3|0:0,0:0:0:0:
87,70,110640,2,0,B|120:65|137:87|137:87|156:108|193:100,1,107.999996704102,8|2,1:0|0:0,0:0:0:0:
269,132,111032,1,2,3:2:0:0:
269,132,111163,2,0,P|267:105|274:64,1,53.9999983520508,0|2,1:0|0:0,0:0:0:0:
352,141,111425,2,0,P|355:167|353:194,1,53.9999983520508,2|0,2:0|2:0,0:0:0:0:
393,267,111686,2,0,B|398:284|456:284|450:225|450:225|444:153,1,161.999995056153,10|0,1:2|0:0,0:0:0:0:
433,76,112210,6,0,L|438:22,1,53.9999983520508,10|0,1:3|0:0,0:0:0:0:
355,16,112471,2,0,L|301:21,1,53.9999983520508,2|0,0:0|0:0,0:0:0:0:
237,66,112733,1,8,1:0:0:0:
237,66,112864,2,0,L|161:55,1,53.9999983520508,0|2,0:0|0:0,0:0:0:0:
105,41,113126,6,0,B|93:73|111:96|111:96|131:121|113:162,1,107.999996704102,2|0,3:2|3:0,0:0:0:0:
110,174,113518,1,2,0:0:0:0:
195,290,113780,1,10,1:2:0:0:
284,181,114041,1,2,3:2:0:0:
392,280,114303,6,0,B|417:294|437:285|437:285|413:255|397:207|418:146,1,161.999995056153,6|2,1:3|0:0,0:0:0:0:
481,135,114828,2,0,P|487:85|443:24,1,107.999996704102,8|2,1:0|0:0,0:0:0:0:
369,20,115222,1,2,3:2:0:0:
369,20,115353,2,0,P|331:28|301:48,1,53.9999983520508,0|0,1:0|0:0,0:0:0:0:
269,103,115615,2,0,P|231:95|201:75,1,53.9999983520508
165,31,115878,2,0,B|111:15|65:22|65:22|107:29|125:50,1,161.999995056153,10|0,1:2|0:0,0:0:0:0:
143,120,116403,6,0,L|147:194,1,53.9999983520508,10|0,1:3|0:0,0:0:0:0:
91,231,116666,2,0,L|87:305,1,53.9999983520508,2|2,0:0|3:2,0:0:0:0:
163,318,116928,1,8,1:0:0:0:
163,318,117060,2,0,L|167:244,1,53.9999983520508
228,209,117322,6,0,P|297:209|347:270,1,107.999996704102,0|0,3:0|3:0,0:0:0:0:
376,290,117716,2,0,P|403:254|390:206,1,53.9999983520508,0|0,1:0|3:0,0:0:0:0:
379,172,117979,1,10,1:2:0:0:
295,316,118241,2,0,P|303:341|323:359,1,53.9999983520508,0|2,1:0|3:0,0:0:0:0:
415,366,118504,6,0,P|469:320|482:228,1,161.999995056153,6|2,1:3|0:0,0:0:0:0:
465,156,119028,2,0,P|456:102|436:41,1,107.999996704102,8|2,1:0|0:0,0:0:0:0:
361,8,119421,1,2,3:2:0:0:
317,85,119552,2,0,P|338:98|382:97,1,53.9999983520508,0|0,1:0|0:0,0:0:0:0:
272,9,119814,2,0,P|245:11|222:25,1,53.9999983520508
154,122,120076,6,0,B|198:121|222:161|222:161|244:204|291:202,1,161.999995056153,10|0,1:2|0:0,0:0:0:0:
362,184,120600,2,0,L|374:267,1,53.9999983520508,10|0,1:3|0:0,0:0:0:0:
424,294,120862,2,0,L|412:377,1,53.9999983520508,2|2,0:0|3:2,0:0:0:0:
335,377,121124,1,8,1:0:0:0:
335,377,121255,2,0,P|306:373|275:357,1,53.9999983520508,0|2,0:0|0:0,0:0:0:0:
207,287,121517,6,0,B|175:290|158:315|158:315|139:347|104:345,1,107.999996704102,2|2,3:2|0:0,0:0:0:0:
87,357,121910,1,2,0:0:0:0:
9,262,122172,1,10,1:2:0:0:
126,176,122434,1,2,3:2:0:0:
24,26,122696,6,0,P|90:55|197:79,1,161.999995056153,6|0,1:3|0:0,0:0:0:0:
236,19,123220,2,0,P|259:60|244:126,1,107.999996704102,8|2,1:0|0:0,0:0:0:0:
213,202,123613,1,2,3:2:0:0:
182,279,123744,2,0,P|182:307|191:331,1,53.9999983520508,0|2,1:0|0:0,0:0:0:0:
274,375,124006,2,0,P|282:349|282:322,1,53.9999983520508,2|0,0:0|0:0,0:0:0:0:
295,231,124268,2,0,B|339:230|363:270|363:270|385:313|432:311,1,161.999995056153,10|0,1:2|0:0,0:0:0:0:
493,262,124792,6,0,L|483:208,1,53.9999983520508,6|0,1:3|0:0,0:0:0:0:
464,125,125055,2,0,L|454:71,1,53.9999983520508,2|2,0:0|3:2,0:0:0:0:
383,20,125318,1,8,1:0:0:0:
383,20,125449,2,0,P|356:39|341:64,1,53.9999983520508,0|2,0:0|0:0,0:0:0:0:
340,148,125713,6,0,B|303:148|287:126|287:126|265:106|206:104,1,107.999996704102,2|0,3:2|0:0,0:0:0:0:
183,167,126107,2,0,B|146:166|130:188|130:188|108:208|49:210,1,107.999996704102,2|10,0:0|1:2,0:0:0:0:
21,149,126502,1,0,0:0:0:0:
21,149,126634,6,0,P|22:80|44:3,1,107.999996704102,2|0,0:0|3:0,0:0:0:0:
