osu file format v14

[General]
AudioFilename: audio.mp3
AudioLeadIn: 0
PreviewTime: 25357
Countdown: 0
SampleSet: Soft
StackLeniency: 0.7
Mode: 0
LetterboxInBreaks: 0
WidescreenStoryboard: 1

[Editor]
Bookmarks: 8391,16776,25160,34610,43003,51387,59774,68171,76568,84956,93340,101733,110117,118504,126897
DistanceSpacing: 0.73
BeatDivisor: 4
GridSize: 32
TimelineZoom: 1.6

[Metadata]
Title:eyesore
TitleUnicode:eyesore
Artist:glaive
ArtistUnicode:glaive
Creator:Mimari
Version:mimari & sylas' glare
Source:
Tags:​​​cypress grove english hip hop pop hyperpop sylas thekoala ancel ancelysia mayflower
BeatmapID:2764757
BeatmapSetID:1334577

[Difficulty]
HPDrainRate:6
CircleSize:4
OverallDifficulty:8.2
ApproachRate:9.2
SliderMultiplier:2.4
SliderTickRate:1

[Events]
//Background and Video events
0,0,"39969588-rain-wallpapers.jpg",0,0
//Break Periods
2,76924,84386
//Storyboard Layer 0 (Background)
//Storyboard Layer 1 (Fail)
//Storyboard Layer 2 (Pass)
//Storyboard Layer 3 (Foreground)
//Storyboard Layer 4 (Overlay)
//Storyboard Sound Samples

[TimingPoints]
8392,524.017467248908,4,2,2,68,1,0
9440,-83.3333333333333,4,2,2,68,0,0
9964,-71.4285714285714,4,2,2,68,0,0
10488,-83.3333333333333,4,2,2,68,0,0
11012,-95.2380952380951,4,2,2,68,0,0
11536,-83.3333333333333,4,2,2,68,0,0
12060,-71.4285714285714,4,2,2,68,0,0
12584,-83.3333333333333,4,2,2,68,0,0
13108,-95.2380952380951,4,2,2,68,0,0
13632,-83.3333333333333,4,2,2,68,0,0
14156,-71.4285714285714,4,2,2,68,0,0
14680,-83.3333333333333,4,2,2,68,0,0
16252,-71.4285714285714,4,2,2,68,0,0
16776,-83.3333333333333,4,2,2,68,0,0
17300,-71.4285714285714,4,2,2,68,0,0
17693,-83.3333333333333,4,2,2,68,0,0
18086,-71.4285714285714,4,2,2,68,0,0
18872,-66.6666666666667,4,2,2,68,0,0
19396,-76.9230769230769,4,2,2,68,0,0
20444,-62.5,4,2,2,68,0,0
20968,-76.9230769230769,4,2,2,68,0,0
22016,-66.6666666666667,4,2,2,68,0,0
23326,-76.9230769230769,4,2,2,68,0,0
25160,-76.9230769230769,4,2,1,83,0,0
26208,525.164113785558,4,2,1,83,1,0
26208,-83.3333333333333,4,2,1,83,0,0
34610,-90.9090909090909,4,2,1,83,0,0
38811,524.017467248908,4,2,1,83,1,0
38811,-83.3333333333333,4,2,1,83,0,0
43003,-66.6666666666667,4,2,1,83,0,1
43461,-66.6666666666667,4,2,1,83,0,1
43527,-58.8235294117647,4,2,1,83,0,1
44706,-50,4,2,1,83,0,1
45099,-58.8235294117647,4,2,1,83,0,1
45426,-58.8235294117647,4,2,1,83,0,1
45492,-58.8235294117647,4,2,1,83,0,1
46016,-50,4,2,1,83,0,1
46409,-58.8235294117647,4,2,1,83,0,1
47195,-50,4,2,1,83,0,1
47653,-50,4,2,1,83,0,1
47719,-58.8235294117647,4,2,1,83,0,1
48898,-50,4,2,1,83,0,1
49291,-52.6315789473684,4,2,1,83,0,1
49815,-58.8235294117647,4,2,1,83,0,1
50208,-50,4,2,1,83,0,1
50601,-58.8235294117647,4,2,1,83,0,1
51387,525.164113785558,4,2,1,83,1,1
51387,-66.6666666666667,4,2,1,83,0,1
51846,-66.6666666666667,4,2,1,83,0,1
51912,-58.8235294117647,4,2,1,83,0,1
53093,-50,4,2,1,83,0,1
53487,-58.8235294117647,4,2,1,83,0,1
54078,-58.8235294117647,4,2,1,83,0,1
54144,-58.8235294117647,4,2,1,83,0,1
54406,-50,4,2,1,83,0,1
54669,-58.8235294117647,4,2,1,83,0,1
55588,-52.6315789473684,4,2,1,83,0,1
56047,-52.6315789473684,4,2,1,83,0,1
56113,-58.8235294117647,4,2,1,83,0,1
57295,-50,4,2,1,83,0,1
57688,521.739130434783,4,2,1,83,1,1
57688,-52.6315789473684,4,2,1,83,0,1
57948,-58.8235294117647,4,2,1,83,0,1
58274,-58.8235294117647,4,2,1,83,0,1
58340,-58.8235294117647,4,2,1,83,0,1
58601,-52.6315789473684,4,2,1,83,0,1
59448,-52.6315789473684,4,2,1,83,0,1
59514,-43.4782608695652,4,2,1,83,0,1
59765,-43.4782608695652,4,2,1,83,0,1
59774,524.017467248908,4,2,1,74,1,0
59774,-76.9230769230769,4,2,1,74,0,0
60123,-90.9090909090909,4,2,1,74,0,0
60822,-76.9230769230769,4,2,1,74,0,0
61520,-66.6666666666667,4,2,1,74,0,0
61870,-76.9230769230769,4,2,1,74,0,0
62918,-66.6666666666667,4,2,1,74,0,0
63442,-76.9230769230769,4,2,1,74,0,0
63704,-66.6666666666667,4,2,1,74,0,0
63966,-76.9230769230769,4,2,1,74,0,0
64315,-90.9090909090909,4,2,1,74,0,0
65014,-76.9230769230769,4,2,1,74,0,0
65712,-66.6666666666667,4,2,1,74,0,0
66062,529.801324503311,4,2,1,74,1,0
66062,-71.4285714285714,4,2,1,74,0,0
67121,-62.5,4,2,1,74,0,0
68171,524.017467248908,4,2,1,74,1,0
69481,-58.8235294117647,4,2,1,74,0,0
69677,-58.8235294117647,4,2,1,74,0,0
69743,-58.8235294117647,4,2,1,74,0,0
69941,-58.8235294117647,4,2,1,74,0,0
70005,-58.8235294117647,4,2,1,74,0,0
70206,-58.8235294117647,4,2,1,74,0,0
70267,-83.3333333333333,4,2,1,74,0,0
71577,-58.8235294117647,4,2,1,74,0,0
71773,-58.8235294117647,4,2,1,74,0,0
71839,-58.8235294117647,4,2,1,74,0,0
72035,-58.8235294117647,4,2,1,74,0,0
72101,-71.4285714285714,4,2,1,74,0,0
72363,-71.4285714285714,4,2,1,74,0,0
73673,-58.8235294117647,4,2,1,74,0,0
73869,-58.8235294117647,4,2,1,74,0,0
73935,-58.8235294117647,4,2,1,74,0,0
74131,-58.8235294117647,4,2,1,74,0,0
74197,-58.8235294117647,4,2,1,74,0,0
74393,-58.8235294117647,4,2,1,74,0,0
74459,527.472527472527,4,2,1,74,1,0
74459,-76.9230769230769,4,2,1,74,0,0
76568,524.017467248908,4,2,1,55,1,0
82856,525.164113785558,4,2,1,68,1,0
84956,524.017467248908,4,2,3,68,1,0
84956,-117.647058823529,4,2,3,68,0,0
85480,-100,4,2,3,68,0,0
86528,-117.647058823529,4,2,3,68,0,0
89148,-100,4,2,3,68,0,0
89803,-111.111111111111,4,2,3,68,0,0
90720,-100,4,2,3,68,0,0
91768,-117.647058823529,4,2,3,68,0,0
92292,-117.647058823529,4,2,1,68,0,0
92554,-100,4,2,1,83,0,0
93078,-76.9230769230769,4,2,1,83,0,0
93340,-83.3333333333333,4,2,1,83,0,0
97532,525.164113785558,4,2,1,83,1,0
97532,-83.3333333333333,4,2,1,83,0,0
101733,524.017467248908,4,2,1,83,1,0
101733,-90.9090909090909,4,2,1,83,0,0
108021,-76.9230769230769,4,2,1,83,0,0
110117,523.331879633668,4,2,1,83,1,1
110117,-66.6666666666667,4,2,1,83,0,1
110574,-66.6666666666667,4,2,1,83,0,1
110640,-58.8235294117647,4,2,1,83,0,1
111817,-55.5555555555556,4,2,1,83,0,1
112210,-58.8235294117647,4,2,1,83,0,1
112668,-58.8235294117647,4,2,1,83,0,1
112733,-58.8235294117647,4,2,1,83,0,1
114303,525.164113785558,4,2,1,83,1,1
114303,-50,4,2,1,83,0,1
114762,-50,4,2,1,83,0,1
114828,-50,4,2,1,83,0,1
115353,-58.8235294117647,4,2,1,83,0,1
115878,-50,4,2,1,83,0,1
116928,-55.5555555555556,4,2,1,83,0,1
116994,-55.5555555555556,4,2,1,83,0,1
117060,-55.5555555555556,4,2,1,83,0,1
117322,-50,4,2,1,83,0,1
118504,524.017467248908,4,2,1,83,1,1
118504,-58.8235294117647,4,2,1,83,0,1
118962,-58.8235294117647,4,2,1,83,0,1
119028,-58.8235294117647,4,2,1,83,0,1
120207,-50,4,2,1,83,0,1
120600,-58.8235294117647,4,2,1,83,0,1
121058,-58.8235294117647,4,2,1,83,0,1
121124,-52.6315789473684,4,2,1,83,0,1
121517,-50,4,2,1,83,0,1
121910,-55.5555555555556,4,2,1,83,0,1
122696,-47.6190476190476,4,2,1,83,0,1
123089,-58.8235294117647,4,2,1,83,0,1
123154,-58.8235294117647,4,2,1,83,0,1
123220,-58.8235294117647,4,2,1,83,0,1
124399,-50,4,2,1,83,0,1
124792,526.315789473684,4,2,1,83,1,1
124792,-50,4,2,1,83,0,1
125384,-50,4,2,1,83,0,1
125449,-50,4,2,1,83,0,1
126107,-58.8235294117647,4,2,1,83,0,1
126568,-58.8235294117647,4,2,1,83,0,1
126634,-66.6666666666667,4,2,1,83,0,1
126897,-62.5,4,2,1,83,0,0

[Colours]
Combo1 : 192,192,192
Combo2 : 234,204,170
Combo3 : 210,153,111

[HitObjects]
172,287,8391,6,0,P|162:209|126:81,1,200,2|0,3:2|0:0,0:0:0:0:
113,82,8916,2,0,P|64:94|56:174,1,120,8|0,0:1|3:0,0:0:0:0:
251,323,9440,2,0,P|301:335|404:374,2,95.9999970703126,0|0|0,3:0|0:0|0:0,0:0:0:0:
120,374,9964,6,0,B|78:350|104:274|152:238|190:325|301:216|189:130,1,279.999991455078,8|0,0:1|0:0,0:0:0:0:
308,188,10488,6,0,P|246:82|146:122,1,239.999992675781,2|0,3:2|0:0,0:0:0:0:
144,132,11012,2,0,P|168:185|229:149,1,125.999996154785,8|0,0:1|3:0,0:0:0:0:
372,13,11536,2,0,P|379:68|389:147,2,95.9999970703126,0|0|0,3:0|0:0|0:0,0:0:0:0:
268,81,12060,6,0,B|307:44|365:50|407:86|345:146|476:206|524:107,1,279.999991455078,8|0,0:1|0:0,0:0:0:0:
458,79,12584,6,0,B|425:209|425:209|444:252|494:260|535:204,1,239.999992675781,2|0,3:0|0:0,0:0:0:0:
508,214,13108,2,0,P|443:203|408:255,1,125.999996154785,8|0,0:1|3:0,0:0:0:0:
279,384,13632,2,0,P|330:373|383:361,2,71.9999978027344,0|0|0,3:0|0:0|0:0,0:0:0:0:
226,197,14156,6,0,P|278:215|315:257,1,111.999996582031,8|0,0:1|0:0,0:0:0:0:
326,215,14418,2,0,P|270:212|221:237,1,111.999996582031,0|0,3:0|0:0,0:0:0:0:
173,292,14680,6,0,B|129:347|67:318|67:318|17:231|115:194,1,239.999992675781,2|0,3:0|0:0,0:0:0:0:
86,140,15204,5,8,0:1:0:0:
139,164,15335,1,0,0:0:0:0:
159,219,15466,1,0,3:0:0:0:
153,226,15597,1,0,0:0:0:0:
214,128,15728,6,0,P|250:121|307:102,2,71.9999978027344,2|0|0,3:2|0:0|0:0,0:0:0:0:
10,1,16252,6,0,P|54:22|72:91,1,83.9999974365235,8|0,0:1|0:0,0:0:0:0:
3,82,16514,2,0,P|24:31|104:14,1,111.999996582031
145,36,16776,6,0,P|164:110|156:139,1,71.9999978027344,2|0,3:2|0:0,0:0:0:0:
231,11,17038,2,0,P|234:46|250:78,1,71.9999978027344,2|0,3:2|0:0,0:0:0:0:
55,154,17300,6,0,B|87:141|115:169|115:169|146:196|190:181,1,125.999996154785,8|0,0:1|0:0,0:0:0:0:
170,185,17562,1,0,3:0:0:0:
252,228,17693,6,0,P|263:194|285:166,2,71.9999978027344,2|2|0,0:0|0:3|0:0,0:0:0:0:
313,23,18086,2,0,P|338:97|377:158,1,125.999996154785,2|0,0:0|0:0,0:0:0:0:
363,139,18348,5,8,0:1:0:0:
496,9,18544,5,0,3:0:0:0:
469,244,18741,5,0,0:0:0:0:
489,90,18872,6,0,B|473:62|416:83|429:149|487:176,1,135.000005149841,2|0,3:2|0:0,0:0:0:0:
469,244,19134,2,0,P|489:180|530:151,1,90.0000034332277,2|0,3:2|0:0,0:0:0:0:
341,108,19396,6,0,P|368:193|373:253,1,116.999994644165,8|0,0:1|0:0,0:0:0:0:
367,227,19658,2,0,P|331:199|296:193,1,77.9999964294435,0|0,3:0|0:0,0:0:0:0:
196,262,19920,5,2,0:3:0:0:
270,272,20051,1,0,0:0:0:0:
196,262,20182,2,0,L|184:161,1,77.9999964294435,2|0,0:0|0:0,0:0:0:0:
289,347,20444,5,8,0:1:0:0:
248,135,20640,5,0,3:0:0:0:
210,373,20837,5,0,0:0:0:0:
98,226,20968,6,0,B|90:258|113:281|113:281|136:301|130:354,1,116.999994644165,2|0,3:0|0:0,0:0:0:0:
127,339,21230,2,0,P|98:366|40:333,1,77.9999964294435,2|0,3:0|0:0,0:0:0:0:
8,204,21492,6,0,P|36:160|47:126,1,77.9999964294435,8|0,0:1|0:0,0:0:0:0:
177,223,21754,2,0,P|205:267|216:301,1,77.9999964294435,0|0,3:0|0:0,0:0:0:0:
94,55,22016,6,0,P|153:111|235:111,1,135.000005149841,2|0,2:0|0:0,0:0:0:0:
216,115,22278,1,0,0:0:0:0:
226,106,22343,2,0,P|224:73|202:49,1,45.0000017166138
263,183,22540,5,8,0:1:0:0:
330,56,22671,2,0,P|336:130|354:187,1,135.000005149841
416,229,22933,2,0,P|434:173|401:139,2,90.0000034332277,0|2|0,0:0|3:0|0:0,0:0:0:0:
273,302,23326,6,0,B|260:296|265:248|331:240|367:297,1,116.999994644165,2|0,3:0|0:0,0:0:0:0:
355,288,23588,1,8,0:1:0:0:
155,349,23850,1,0,3:0:0:0:
70,170,24112,1,2,0:0:0:0:
77,164,24374,5,0,0:0:0:0:
209,210,24505,1,0,0:0:0:0:
308,100,24636,1,8,0:1:0:0:
304,92,24898,1,0,0:0:0:0:
403,59,25160,5,8,1:3:0:0:
377,203,25291,1,2,0:3:0:0:
372,194,25422,5,2,0:3:0:0:
504,146,25553,1,4,1:3:0:0:
214,11,25815,5,8,1:3:0:0:
254,272,25946,1,4,1:3:0:0:
15,328,26208,6,0,B|4:172|166:128|200:160|200:160|28:219|50:404,1,575.999982421876,6|0,1:3|0:0,1:0:0:0:
480,28,28308,6,0,B|459:98|459:98|461:104|461:104|434:195,1,143.999995605469,10|0,1:3|0:0,1:0:0:0:
357,0,28833,5,0,0:0:0:0:
363,14,28965,1,0,0:0:0:0:
310,67,29227,1,0,0:0:0:0:
435,189,29621,5,0,0:0:0:0:
459,264,29884,1,0,0:0:0:0:
482,342,30146,1,0,0:0:0:0:
105,88,30409,6,0,B|261:77|305:239|273:273|273:273|214:101|29:123,1,575.999982421876,6|0,1:3|0:0,1:0:0:0:
480,356,32509,6,0,B|459:286|459:286|461:280|461:280|434:189,1,143.999995605469,10|0,1:3|0:0,1:0:0:0:
292,351,33034,5,0,0:0:0:0:
306,342,33166,1,0,0:0:0:0:
374,384,33428,1,0,0:0:0:0:
435,194,33822,5,0,0:0:0:0:
358,168,34084,1,0,0:0:0:0:
280,142,34347,1,0,0:0:0:0:
30,367,34610,6,0,B|60:337|60:337|24:116,2,264.000008056641,6|0|0,1:3|3:0|3:0,1:0:0:0:
141,194,35923,1,0,0:0:0:0:
215,275,36186,1,0,3:0:0:0:
206,292,36317,1,0,0:0:0:0:
125,49,36711,6,0,B|240:33|240:33|274:42|274:42|401:23,2,264.000008056641,10|0|0,1:3|3:0|3:0,1:0:0:0:
125,49,38024,5,0,0:0:0:0:
202,81,38286,1,0,3:0:0:0:
276,110,38549,1,0,0:0:0:0:
488,63,38811,6,0,B|503:28|503:28|391:13|391:13|449:167,2,287.999991210938,6|0|0,1:3|3:0|3:0,1:0:0:0:
346,158,40121,5,0,0:0:0:0:
397,223,40383,1,0,3:0:0:0:
407,212,40514,1,0,0:0:0:0:
230,347,40907,6,0,B|167:353|167:353|83:262|83:262|17:272|17:272|-7:327,1,287.999991210938,10|0,1:3|3:0,1:0:0:0:
3,303,41955,5,0,1:0:0:0:
21,291,42086,1,0,3:0:0:0:
81,344,42217,5,0,1:0:0:0:
101,272,42348,1,0,3:0:0:0:
301,349,42479,5,2,1:3:0:0:
301,349,42741,5,0,3:0:0:0:
175,119,42872,1,2,1:3:0:0:
443,368,43003,6,0,P|479:233|511:180,1,180.000006866455,6|2,1:3|0:0,0:0:0:0:
367,44,43396,2,0,P|392:47|413:91,1,45.0000017166138,2|0,0:0|0:0,0:0:0:0:
408,193,43527,6,0,B|377:234|304:229|260:187|259:130|366:145|333:224,1,204.000003890991,8|2,1:0|0:0,0:0:0:0:
384,291,43920,1,2,3:2:0:0:
188,195,44051,6,0,P|191:144|235:92,1,102.000001945496,0|2,1:0|0:0,0:0:0:0:
171,286,44313,2,0,P|127:262|104:191,1,102.000001945496
219,18,44575,1,10,1:2:0:0:
296,225,44706,6,0,B|273:219|220:187|278:95|363:125|419:208,1,240
267,345,45099,6,0,P|213:356|133:384,1,102.000001945496,10|0,1:3|0:0,0:0:0:0:
4,237,45361,2,0,P|8:216|39:191,1,51.0000009727478,2|0,0:0|0:0,0:0:0:0:
46,191,45492,1,0,0:0:0:0:
177,282,45623,2,0,P|123:271|43:243,1,102.000001945496,8|0,1:0|0:0,0:0:0:0:
0,102,45885,1,2,0:0:0:0:
193,36,46016,6,0,B|212:41|212:41|258:61|240:131|179:116|179:116|69:83,1,240,2|0,3:2|0:0,0:0:0:0:
201,29,46409,2,0,P|253:21|278:81,1,102.000001945496,2|0,0:3|0:0,0:0:0:0:
283,244,46671,6,0,P|249:203|287:151,1,102.000001945496,10|0,1:2|0:0,0:0:0:0:
336,140,46867,1,2,0:0:0:0:
346,146,46933,2,0,P|379:186|341:238,1,102.000001945496,2|0,3:2|0:0,0:0:0:0:
245,384,47195,6,0,B|190:364|210:321|210:321|306:286|360:386,1,240,6|2,1:3|0:0,0:0:0:0:
492,263,47588,2,0,P|511:292|495:350,1,60,2|0,0:0|0:0,0:0:0:0:
418,270,47719,6,0,B|396:177|497:204|536:161|492:61,1,204.000003890991,8|2,1:0|0:0,0:0:0:0:
470,0,48112,1,2,3:2:0:0:
362,107,48243,2,0,B|353:127|369:140|369:140|446:118,1,102.000001945496,0|2,1:0|0:0,0:0:0:0:
301,24,48505,2,0,B|292:3|272:6|272:6|235:77,1,102.000001945496
278,294,48767,5,10,1:2:0:0:
362,107,48898,2,0,B|272:111|247:181|258:243|374:267|373:152,1,240
178,42,49291,6,0,B|133:42|116:91|116:91|103:136|34:145,1,170.999995433807,6|2,1:3|0:0,0:0:0:0:
37,138,49553,1,2,3:2:0:0:
112,165,49684,1,2,3:2:0:0:
57,305,49815,6,0,P|46:273|56:234,1,51.0000009727478,8|0,1:0|0:0,0:0:0:0:
196,146,49946,2,0,P|191:201|138:246,1,102.000001945496,0|0,3:0|0:0,0:0:0:0:
0,0,50208,6,0,B|79:-13|143:21|152:76|152:76|109:34|36:50,1,300,2|0,0:0|0:0,0:0:0:0:
42,38,50601,6,0,P|85:7|152:23,1,102.000001945496,2|0,0:3|0:0,0:0:0:0:
275,160,50863,6,0,P|291:210|235:245,1,102.000001945496,10|0,1:2|0:0,0:0:0:0:
188,239,51059,1,2,0:0:0:0:
178,226,51125,2,0,P|162:180|195:145,1,102.000001945496,2|0,3:2|0:0,0:0:0:0:
15,384,51387,6,0,P|100:355|187:334,1,180.000006866455,6|2,1:3|0:0,0:0:0:0:
88,232,51780,2,0,P|90:261|113:285,1,45.0000017166138,2|0,0:0|0:0,0:0:0:0:
249,384,51912,6,0,B|282:350|255:293|255:293|228:236|269:191,1,204.000003890991,8|2,1:0|0:0,0:0:0:0:
350,89,52306,1,2,3:2:0:0:
429,264,52437,6,0,P|366:249|324:250,1,102.000001945496,0|2,1:0|0:0,0:0:0:0:
498,200,52699,2,0,P|499:149|512:100,1,102.000001945496
512,285,52962,5,10,1:2:0:0:
350,89,53093,2,0,B|339:50|341:20|341:20|324:10|283:54|299:136|418:127,1,240
230,49,53487,6,0,P|153:96|126:170,1,153.000002918243,10|0,1:3|0:0,0:0:0:0:
128,163,53750,1,2,0:0:0:0:
177,223,53881,1,2,3:2:0:0:
62,111,54012,6,0,P|61:77|72:41,1,51.0000009727478,8|0,1:0|0:0,0:0:0:0:
0,258,54144,2,0,P|52:243|137:234,1,102.000001945496
372,152,54406,6,0,B|427:161|515:228|515:228|493:169|437:159,1,240,2|0,0:0|0:0,0:0:0:0:
366,142,54800,2,0,P|314:146|269:188,1,102.000001945496,2|0,0:3|0:0,0:0:0:0:
362,375,55063,6,0,P|388:330|378:268,1,102.000001945496,10|0,1:2|0:0,0:0:0:0:
315,249,55260,1,2,0:0:0:0:
308,256,55325,2,0,P|281:300|291:362,1,102.000001945496,2|0,3:2|0:0,0:0:0:0:
446,115,55588,6,0,B|450:77|481:52|481:52|393:46|316:101,1,227.999993911743,6|2,1:3|0:0,0:0:0:0:
267,64,55916,1,2,0:0:0:0:
265,75,55982,2,0,P|264:109|286:141,1,56.9999984779358,2|0,3:2|0:0,0:0:0:0:
192,0,56113,6,0,P|172:106|110:201,1,204.000003890991,8|2,1:0|0:0,0:0:0:0:
205,233,56507,1,2,3:2:0:0:
47,164,56638,6,0,B|25:172|25:172|24:234|85:263,1,102.000001945496,0|2,1:0|0:0,0:0:0:0:
278,265,56901,2,0,B|287:286|287:286|244:330|181:308,1,102.000001945496,2|0,0:0|0:0,0:0:0:0:
108,328,57163,5,10,1:2:0:0:
196,109,57295,2,0,B|199:18|268:8|268:8|280:42|244:60|244:60|212:79|208:116,1,240
62,89,57688,6,0,B|107:89|124:138|124:138|139:183|206:192,1,170.999995433807,10|0,1:3|0:0,0:0:0:0:
197,187,57947,1,2,0:0:0:0:
266,155,58079,1,2,3:2:0:0:
267,287,58209,6,0,P|262:253|262:220,1,51.0000009727478,8|0,1:0|0:0,0:0:0:0:
321,99,58340,2,0,P|398:105|425:154,1,102.000001945496,2|0,0:0|0:0,0:0:0:0:
415,357,58601,6,0,B|393:333|397:295|397:295|358:294|336:333|336:333|307:375|246:365,1,227.999993911743,2|0,0:0|0:0,0:0:0:0:
92,152,58992,2,0,B|83:126|112:95|112:95|179:114|197:191|174:262,1,227.999993911743,2|10,0:3|1:2,0:0:0:0:
173,368,59383,6,0,P|159:329|183:283,1,56.9999984779358
215,54,59514,2,0,B|270:-1|340:62|326:126|248:140|241:80|270:70,1,207.000003948212,2|2,0:3|0:0,0:0:0:0:
353,9,59774,6,0,P|409:19|521:43,1,155.999992858887,2|2,1:2|0:0,0:0:0:0:
512,51,60123,2,0,P|489:79|476:132,1,88.000002685547,0|8,0:0|1:0,0:0:0:0:
390,208,60472,2,0,P|367:175|362:129,1,88.000002685547
468,228,60734,1,0,0:0:0:0:
460,217,60822,6,0,B|418:186|363:260|433:309,1,155.999992858887,0|0,3:0|0:0,0:0:0:0:
447,323,61171,1,0,0:0:0:0:
308,374,61346,2,0,P|295:344|316:285,1,51.999997619629,10|0,1:2|0:0,0:0:0:0:
322,160,61520,2,0,B|324:83|382:75|382:75|392:103|362:119|362:119|335:134|349:141,1,180.000006866455
262,230,61870,6,0,P|175:226|96:171,1,155.999992858887,2|2,3:2|0:0,0:0:0:0:
117,175,62219,2,0,P|137:111|169:94,1,103.999995239258,0|8,0:0|1:0,0:0:0:0:
322,160,62568,2,0,P|343:213|351:292,1,103.999995239258
284,95,62830,1,0,0:0:0:0:
295,84,62918,6,0,B|331:74|356:93|356:93|384:114|435:90,1,120.000004577637,0|0,3:0|0:0,0:0:0:0:
428,91,63180,1,2,0:3:0:0:
388,19,63311,1,2,3:2:0:0:
396,179,63442,6,0,P|443:193|510:223,1,103.999995239258,10|0,1:2|0:0,0:0:0:0:
511,218,63704,2,0,P|447:235|443:321,1,120.000004577637,2|0,0:0|0:0,0:0:0:0:
483,356,63966,6,0,P|427:366|321:386,1,155.999992858887,2|2,1:2|0:0,0:0:0:0:
314,371,64315,2,0,P|323:340|363:292,1,88.000002685547,0|8,0:0|1:0,0:0:0:0:
233,184,64664,2,0,P|213:144|205:101,1,88.000002685547
288,245,64926,1,0,0:0:0:0:
277,258,65014,6,0,B|234:297|173:289|173:289|199:296|228:318,1,155.999992858887,0|0,3:0|0:0,0:0:0:0:
227,321,65363,1,0,0:0:0:0:
70,361,65538,2,0,P|57:330|85:284,1,51.999997619629,10|0,1:2|0:0,0:0:0:0:
131,138,65712,2,0,B|162:93|165:32|165:32|145:71|122:83,1,180.000006866455
0,45,66062,6,0,P|36:8|101:20,1,111.999996582031,2|0,3:2|0:0,0:0:0:0:
159,216,66326,2,0,B|122:237|81:207|81:207|40:177|-14:203,1,167.999994873047,2|8,0:0|1:0,0:0:0:0:
241,89,66768,6,0,P|300:101|321:153,1,111.999996582031
177,307,67033,1,0,0:0:0:0:
169,298,67121,6,0,B|190:272|238:273|250:338|212:370,1,128,0|0,3:0|0:0,0:0:0:0:
214,374,67386,1,2,3:2:0:0:
132,134,67563,5,0,0:0:0:0:
126,125,67651,2,0,B|105:99|57:100|45:165|83:197,1,128,10|0,1:2|0:0,0:0:0:0:
83,203,67916,5,2,3:2:0:0:
388,62,68171,5,8,1:3:0:0:
388,62,68433,2,0,L|401:158,1,60,2|0,0:0|0:0,0:0:0:0:
388,62,68695,5,8,1:0:0:0:
432,336,68957,2,0,L|423:276,1,60
480,184,69219,1,0,3:0:0:0:
176,319,69481,6,0,B|137:326|122:364|122:364|117:323|165:294,1,153.000002918243,4|0,3:0|0:0,0:0:0:0:
198,240,69743,2,0,B|165:217|128:234|128:234|153:201|208:214,1,153.000002918243,10|0,1:2|0:0,0:0:0:0:
269,200,70005,2,0,B|261:161|223:146|223:146|264:141|293:189,1,153.000002918243,4|0,3:0|0:0,0:0:0:0:
298,187,70267,6,0,P|322:131|308:77,1,71.9999978027344,8|0,1:3|0:0,0:0:0:0:
397,121,70529,2,0,P|374:64|326:36,1,71.9999978027344,2|0,0:0|0:0,0:0:0:0:
145,122,70791,5,8,1:0:0:0:
145,122,71053,2,0,P|123:150|115:185,1,71.9999978027344
116,45,71315,1,0,3:0:0:0:
49,322,71577,6,0,B|38:352|52:375|52:375|23:370|12:319|48:264,1,153.000002918243,8|0,1:3|0:0,0:0:0:0:
115,296,71839,2,0,B|142:310|147:336|147:336|165:314|139:268|75:252,1,153.000002918243,10|0,1:2|0:0,0:0:0:0:
43,216,72101,2,0,L|9:122,1,83.9999974365235
327,289,72363,6,0,B|342:325|342:325|389:305|409:266|405:213,1,167.999994873047,2|2,1:3|0:0,0:0:0:0:
224,175,72887,2,0,B|197:154|197:154|224:120|260:113|302:127,1,125.999996154785,8|0,1:0|0:0,0:0:0:0:
291,125,73149,6,0,P|304:171|293:217,1,83.9999974365235
240,314,73411,1,0,3:0:0:0:
267,41,73673,6,0,B|304:21|340:45|340:45|382:71|442:39,1,153.000002918243,4|0,1:3|0:0,0:0:0:0:
477,21,73935,2,0,B|497:58|473:94|473:94|447:136|479:196,1,153.000002918243,10|0,1:2|0:0,0:0:0:0:
495,233,74197,2,0,B|464:252|422:226|422:226|386:202|349:222,1,153.000002918243,4|0,1:3|0:0,0:0:0:0:
343,229,74459,6,0,L|354:329,1,77.9999964294435,8|0,1:3|0:0,0:0:0:0:
437,349,74722,1,2,0:0:0:0:
227,146,74986,6,0,L|98:169,1,116.999994644165,8|0,1:0|0:0,0:0:0:0:
99,165,75250,2,0,P|83:113|97:60,1,77.9999964294435,2|0,0:0|0:0,0:0:0:0:
140,8,75513,5,0,0:0:0:0:
140,8,75777,1,2,0:0:0:0:
413,106,76041,6,0,B|448:129|465:145|465:145|476:99|435:43|342:20|261:94,1,311.999985717774,2|0,0:0|0:0,0:0:0:0:
84,344,84956,5,2,3:2:0:0:
68,357,85087,2,0,P|60:315|31:250,1,102.000001945496
81,185,85480,2,0,P|150:168|161:257,1,180,2|0,3:0|3:0,0:0:0:0:
146,263,86004,1,4,0:3:0:0:
0,97,86528,6,0,P|8:55|36:-16,1,102.000001945496,0|0,3:0|0:0,0:0:0:0:
185,145,87052,1,2,3:2:0:0:
81,185,87314,1,2,0:0:0:0:
203,58,87576,6,0,P|256:47|296:97,1,102.000001945496,2|0,3:0|0:0,0:0:0:0:
286,153,87969,1,0,3:0:0:0:
271,162,88100,2,0,P|218:173|178:123,1,102.000001945496,4|0,0:3|0:0,0:0:0:0:
359,27,88624,2,0,P|373:50|375:91,1,51.0000009727478,0|0,3:0|0:0,0:0:0:0:
373,88,88886,1,2,0:0:0:0:
293,265,89148,6,0,P|338:223|412:201,1,120,2|2,3:2|0:0,0:0:0:0:
485,343,89672,1,2,0:3:0:0:
487,361,89803,2,0,P|431:327|369:324,1,107.999996704102,0|0,0:0|3:0,0:0:0:0:
372,339,90196,5,4,0:3:0:0:
512,272,90458,1,0,0:0:0:0:
435,131,90720,6,0,B|387:109|341:175|426:237,1,120,0|0,3:0|0:0,0:0:0:0:
509,80,91244,5,2,3:2:0:0:
340,46,91506,1,2,3:2:0:0:
509,80,91768,6,0,P|454:64|405:32,1,102.000001945496,2|0,0:3|0:0,0:0:0:0:
230,171,92292,5,4,1:3:0:0:
300,155,92423,1,8,1:3:0:0:
171,109,92554,6,0,P|141:112|109:153,1,60,8|8,1:3|3:0,0:0:0:0:
210,247,92816,5,10,1:2:0:0:
251,87,92947,1,4,1:3:0:0:
122,242,93078,6,0,P|122:273|152:327,1,77.9999964294435,4|4,1:3|3:0,0:0:0:0:
404,352,93340,6,0,B|536:347|562:159|504:78|504:78|516:149|474:205|453:180|386:203|394:277,1,575.999982421876,6|0,1:3|0:0,1:0:0:0:
393,259,95436,6,0,B|356:280|356:280|235:259,1,143.999995605469,10|0,1:3|0:0,1:0:0:0:
186,94,95959,5,0,0:0:0:0:
192,108,96091,1,0,0:0:0:0:
147,171,96353,1,0,0:0:0:0:
435,189,96746,5,0,0:0:0:0:
459,264,97008,1,0,0:0:0:0:
482,342,97270,1,0,0:0:0:0:
125,224,97532,6,0,B|130:356|318:382|399:324|399:324|328:336|272:294|297:273|274:206|200:214,1,575.999982421876,12|0,1:3|0:0,1:0:0:0:
217,213,99632,6,0,B|180:192|180:192|59:213,1,143.999995605469,10|0,1:3|0:0,1:0:0:0:
54,65,100157,5,0,0:0:0:0:
68,56,100289,1,0,0:0:0:0:
143,89,100551,1,0,0:0:0:0:
362,28,100945,5,0,0:0:0:0:
336,105,101207,1,0,0:0:0:0:
310,183,101470,1,0,0:0:0:0:
479,325,101733,6,0,B|505:282|505:282|365:325|365:325|400:382,2,264.000008056641,12|0|0,1:3|3:0|3:0,1:0:0:0:
334,245,103043,5,0,0:0:0:0:
280,308,103305,1,0,3:0:0:0:
287,330,103436,1,0,0:0:0:0:
46,51,103829,6,0,B|133:20|133:20|232:54|232:54|135:97,2,264.000008056641,10|0|0,1:3|3:0|3:0,1:0:0:0:
69,275,105139,5,0,0:0:0:0:
85,193,105401,1,0,3:0:0:0:
100,115,105663,1,0,0:0:0:0:
13,365,105925,6,0,B|110:348|110:348|150:385|150:385|292:362,2,264.000008056641,6|0|0,1:3|3:0|3:0,1:0:0:0:
272,294,107235,5,0,0:0:0:0:
361,351,107497,1,0,3:0:0:0:
353,380,107628,1,0,0:0:0:0:
481,72,108021,6,0,B|496:37|496:37|384:22|384:22|449:197,1,311.999985717774,10|0,1:3|3:0,1:0:0:0:
440,172,109069,5,8,1:3:0:0:
421,245,109200,1,4,1:3:0:0:
421,245,109462,5,4,1:3:0:0:
311,44,109724,5,8,1:3:0:0:
395,331,109855,1,4,1:3:0:0:
128,44,110117,6,0,B|103:89|136:127|136:127|176:175|139:234,1,180.000006866455,6|2,1:3|0:0,0:0:0:0:
33,172,110509,2,0,P|61:173|85:188,1,45.0000017166138,2|0,0:0|0:0,0:0:0:0:
134,325,110640,6,0,B|169:444|332:364|217:278|169:320,1,204.000003890991,8|2,1:0|0:0,0:0:0:0:
67,275,111032,1,2,3:2:0:0:
199,161,111163,2,0,P|231:122|239:72,1,102.000001945496,0|2,1:0|0:0,0:0:0:0:
251,240,111425,2,0,P|300:228|348:244,1,102.000001945496,2|0,2:0|2:0,0:0:0:0:
157,247,111686,5,10,1:2:0:0:
367,161,111817,2,0,B|420:153|417:78|417:78|347:61|319:103,1,215.999993408203
86,163,112210,6,0,P|111:91|159:32,1,153.000002918243,10|0,1:3|0:0,0:0:0:0:
171,29,112471,1,2,0:0:0:0:
234,123,112602,2,0,P|232:148|225:180,1,51.0000009727478
89,245,112733,6,0,P|37:234|8:179,1,102.000001945496,8|0,1:0|0:0,0:0:0:0:
19,73,112995,1,2,0:0:0:0:
181,248,113126,6,0,B|232:277|279:237|279:237|334:192|407:236,1,204.000003890991,2|0,3:2|3:0,0:0:0:0:
483,78,113518,6,0,L|466:182,1,102.000001945496,2|0,0:0|0:0,0:0:0:0:
387,319,113780,2,0,L|370:215,1,102.000001945496,10|0,1:2|0:0,0:0:0:0:
389,142,113976,1,2,0:0:0:0:
387,129,114041,2,0,L|370:25,1,102.000001945496,2|0,3:2|0:0,0:0:0:0:
120,162,114303,6,0,B|119:213|159:229|159:229|155:166|184:106|230:87,1,240,6|0,1:3|0:0,0:0:0:0:
106,21,114696,2,0,P|118:55|118:87,1,60,2|0,0:0|0:0,0:0:0:0:
58,239,114828,6,0,B|84:291|134:316|179:310|179:310|221:276|278:290,1,240,8|2,1:0|0:0,0:0:0:0:
478,352,115222,1,2,3:2:0:0:
304,210,115353,2,0,B|321:190|321:190|348:278,1,102.000001945496,0|0,1:0|0:0,0:0:0:0:
481,267,115615,2,0,B|475:241|475:241|407:304,1,102.000001945496
355,350,115878,5,10,1:2:0:0:
454,103,116009,2,0,B|444:131|458:151|458:151|418:160|372:125|372:125|322:89|259:128,1,240
98,48,116403,6,0,B|65:1|139:-19|183:9|185:78|157:105,1,180,10|0,1:3|0:0,0:0:0:0:
162,103,116666,1,2,0:0:0:0:
135,176,116797,1,2,3:2:0:0:
36,101,116928,6,0,P|18:75|9:39,1,53.9999983520508,8|0,1:0|0:0,0:0:0:0:
135,176,117060,2,0,P|115:243|85:300,1,107.999996704102
342,346,117322,5,0,3:0:0:0:
337,325,117453,1,0,1:0:0:0:
259,357,117585,5,0,3:0:0:0:
289,263,117716,1,0,1:0:0:0:
175,333,117847,5,0,3:0:0:0:
286,182,117979,1,10,1:2:0:0:
286,182,118241,5,0,1:0:0:0:
98,277,118372,1,2,3:0:0:0:
291,94,118504,6,0,B|352:66|400:113|368:125|419:176|499:127,1,204.000003890991,6|0,1:3|0:0,0:0:0:0:
470,24,118897,6,0,P|449:51|440:93,1,51.0000009727478,2|0,0:0|0:0,0:0:0:0:
420,232,119028,2,0,B|409:306|465:352|465:352|432:305|452:228,1,204.000003890991,8|2,1:0|0:0,0:0:0:0:
492,131,119421,1,2,3:2:0:0:
354,189,119552,6,0,P|320:226|302:274,1,102.000001945496,0|0,1:0|0:0,0:0:0:0:
365,4,119814,2,0,P|386:56|432:115,1,102.000001945496
512,210,120076,1,10,1:2:0:0:
306,103,120207,6,0,B|215:106|205:175|205:175|239:187|257:151|257:151|276:119|328:106,1,240
167,4,120600,6,0,P|144:87|102:176,1,153.000002918243,10|0,1:3|0:0,0:0:0:0:
102,154,120862,1,2,0:0:0:0:
0,47,120993,2,0,P|21:46|51:77,1,51.0000009727478,2|0,3:2|0:0,0:0:0:0:
85,236,121124,6,0,B|85:274|55:287|55:287|58:239|36:193|1:178,1,170.999995433807,8|0,1:0|0:0,0:0:0:0:
20,164,121386,1,2,0:0:0:0:
229,325,121517,6,0,B|244:361|195:409|139:378|126:318|157:234|220:221,1,240,2|2,3:2|0:0,0:0:0:0:
409,88,121910,6,0,P|399:169|371:249,1,161.999995056153,2|0,0:0|0:0,0:0:0:0:
321,303,122172,6,0,P|290:268|317:202,1,107.999996704102,10|0,1:2|0:0,0:0:0:0:
260,152,122368,1,2,0:0:0:0:
267,140,122434,2,0,P|310:122|363:170,1,107.999996704102,2|0,3:2|0:0,0:0:0:0:
509,307,122696,6,0,B|523:358|453:386|453:386|386:312|467:240,1,251.999992309571,6|2,1:3|0:0,0:0:0:0:
484,168,123089,2,0,P|505:191|503:251,1,51.0000009727478
354,378,123220,6,0,P|269:343|111:318,1,204.000003890991,8|2,1:0|0:0,0:0:0:0:
354,378,123613,1,2,3:2:0:0:
157,236,123744,6,0,P|107:247|57:277,1,102.000001945496,0|2,1:0|0:0,0:0:0:0:
275,128,124006,2,0,P|323:150|345:213,1,102.000001945496,2|0,0:0|0:0,0:0:0:0:
159,320,124268,5,10,1:2:0:0:
95,76,124399,2,0,B|62:53|77:-12|141:-17|185:25|204:113|159:158,1,240
40,356,124792,6,0,B|6:280|93:290|116:244|68:166,1,180,6|0,1:3|0:0,0:0:0:0:
71,183,125055,1,2,0:0:0:0:
0,227,125186,1,2,3:2:0:0:
154,317,125318,2,0,P|183:317|226:279,1,60,8|0,1:0|0:0,0:0:0:0:
265,91,125449,2,0,P|200:130|191:210,1,120,0|2,0:0|0:0,0:0:0:0:
384,357,125713,6,0,B|439:337|419:294|419:294|323:259|269:359,1,240,2|0,3:2|0:0,0:0:0:0:
109,202,126107,2,0,B|57:181|77:138|77:138|162:108|208:206,1,204.000003890991,2|10,0:0|1:2,0:0:0:0:
167,364,126502,6,0,P|153:331|168:284,1,51.0000009727478
265,91,126634,2,0,B|312:59|360:92|338:114|388:149|462:95,1,180.000006866455,2|0,0:0|3:0,0:0:0:0:
