osu file format v14

[General]
AudioFilename: audio.mp3
AudioLeadIn: 0
PreviewTime: 22285
Countdown: 0
SampleSet: Soft
StackLeniency: 0.7
Mode: 0
LetterboxInBreaks: 0
WidescreenStoryboard: 1

[Editor]
Bookmarks: 11312,22639,33967,45294,56622,67949,79277
DistanceSpacing: 0.4
BeatDivisor: 4
GridSize: 16
TimelineZoom: 1.699999

[Metadata]
Title:astrid
TitleUnicode:astrid
Artist:glaive
ArtistUnicode:glaive
Creator:jamesjan3
Version:normal
Source:
Tags:hyperpop glitchcore cypress grove rap pop hip hop hip-hop english electronic sylas thekoala some hero
BeatmapID:2653374
BeatmapSetID:1275747

[Difficulty]
HPDrainRate:4
CircleSize:3
OverallDifficulty:5
ApproachRate:6
SliderMultiplier:1.1
SliderTickRate:1

[Events]
//Background and Video events
0,0,"jr-korpa-9XngoIpxcEo-unsplash.jpg",0,0
//Break Periods
2,45486,52732
//Storyboard Layer 0 (Background)
//Storyboard Layer 1 (Fail)
//Storyboard Layer 2 (Pass)
//Storyboard Layer 3 (Foreground)
//Storyboard Layer 4 (Overlay)
//Storyboard Sound Samples

[TimingPoints]
-23,353.982300884956,4,2,0,50,1,0
11304,-100,4,2,1,60,0,0
22631,-80,4,2,2,70,0,0
34003,-80,4,2,2,5,0,0
34313,-80,4,2,2,80,0,0
45286,-80,4,2,1,60,0,0
53782,-80,4,2,1,65,0,0
54490,-80,4,2,1,70,0,0
55198,-80,4,2,1,75,0,0
55906,-80,4,2,1,80,0,0
56260,-80,4,2,1,60,0,0
56614,-100,4,2,1,60,0,0
66525,-89.2857142857143,4,2,1,60,0,0
67056,-89.2857142857143,4,2,3,70,0,0
67587,-89.2857142857143,4,2,3,80,0,0
67941,-80,4,2,2,70,0,0
79313,-80,4,2,2,5,0,0
79623,-80,4,2,2,80,0,0

[Colours]
Combo1 : 136,148,225
Combo2 : 255,36,123
Combo3 : 231,88,91
Combo4 : 170,136,217

[HitObjects]
93,222,11304,38,0,L|81:130,2,82.5,2|0|2,3:2|1:2|1:2,0:0:0:0:
132,261,12012,2,0,P|184:281|245:261,1,110,2|2,0:2|1:2,0:0:0:0:
279,234,12543,1,2,1:2:0:0:
279,234,12720,2,0,L|398:248,1,110,2|0,3:2|0:0,0:0:0:0:
496,266,13428,1,2,0:2:0:0:
471,158,13782,1,2,1:2:0:0:
444,51,14136,6,0,P|398:44|337:63,1,110,2|2,3:2|0:2,0:0:0:0:
295,95,14667,1,2,1:2:0:0:
295,95,14844,2,0,P|249:102|190:84,1,110,2|2,0:2|1:2,0:0:0:0:
102,15,15552,2,0,P|78:48|81:128,1,110,2|2,3:2|0:2,0:0:0:0:
95,172,16083,1,2,1:2:0:0:
95,172,16260,1,2,3:2:0:0:
18,250,16614,1,2,1:2:0:0:
100,322,16968,38,0,L|92:398,2,55,2|2|2,3:2|0:2|3:2,0:0:0:0:
158,228,17676,2,0,P|215:209|298:284,1,165,2|2,0:2|1:2,0:0:0:0:
316,317,18384,2,0,P|373:371|451:355,1,165,2|2,3:2|1:2,0:0:0:0:
484,310,19092,1,2,0:2:0:0:
486,200,19446,2,0,L|483:137,1,55,2|0,1:2|1:2,0:0:0:0:
459,94,19800,6,0,B|413:25|318:74|324:99|335:130|252:183|166:113,1,330,2|2,3:2|1:2,0:0:0:0:
138,80,21038,1,2,1:2:0:0:
138,80,21215,2,0,B|125:39|50:48|54:106|54:106|63:224,1,220,2|2,3:2|0:2,0:0:0:0:
274,373,22631,6,0,P|301:334|296:302,1,68.75,2|0,1:2|3:2,0:0:0:0:
272,262,22985,2,0,P|245:223|250:191,1,68.75,2|0,1:2|0:0,0:0:0:0:
288,158,23339,1,2,1:2:0:0:
370,65,23693,1,2,1:2:0:0:
257,12,24047,6,0,L|177:-1,1,68.75,2|2,1:2|0:2,0:0:0:0:
136,34,24401,2,0,L|120:192,2,137.5,2|2|2,1:2|1:2|1:2,0:0:0:0:
14,57,25463,37,2,1:2:0:0:
25,117,25640,1,2,3:2:0:0:
35,177,25817,2,0,L|20:271,1,68.75,2|2,1:2|0:2,0:0:0:0:
12,305,26171,1,2,1:2:0:0:
116,370,26525,1,2,1:2:0:0:
227,315,26879,6,0,P|254:276|242:243,1,68.75,2|0,1:2|0:0,0:0:0:0:
220,203,27233,1,2,1:2:0:0:
322,133,27587,2,0,P|331:179|363:193,1,68.75,2|0,1:2|0:0,0:0:0:0:
407,205,27941,1,2,1:2:0:0:
420,336,28295,37,2,1:2:0:0:
420,336,28472,1,2,3:2:0:0:
420,336,28649,2,0,B|385:320|358:354|358:354|335:384|284:370,2,137.5,2|2|2,1:2|1:2|1:2,0:0:0:0:
508,249,29711,5,2,1:2:0:0:
404,180,30065,1,2,1:2:0:0:
439,129,30242,1,2,0:2:0:0:
477,80,30419,1,2,1:2:0:0:
368,21,30773,1,2,1:2:0:0:
244,24,31127,38,0,P|231:50|237:102,1,68.75,2|2,1:2|3:2,0:0:0:0:
271,137,31481,2,0,P|284:171|277:212,2,68.75,2|2|2,1:2|0:2|1:2,0:0:0:0:
147,121,32189,1,2,1:2:0:0:
82,226,32543,6,0,P|122:226|167:231,1,68.75,2|0,1:2|0:0,0:0:0:0:
212,237,32897,2,0,L|297:242,1,68.75,2|0,1:2|0:0,0:0:0:0:
342,248,33251,2,0,L|483:256,1,137.5,2|2,1:2|1:2,0:0:0:0:
441,137,33959,37,2,0:2:0:0:
319,166,34313,2,0,L|225:171,1,68.75,6|8,1:2|0:2,0:0:0:0:
198,135,34667,1,2,1:2:0:0:
80,173,35021,1,2,1:2:0:0:
102,294,35375,6,0,P|118:308|175:317,1,68.75,2|2,1:2|3:2,0:0:0:0:
220,294,35729,2,0,P|294:296|378:310,2,137.5,2|2|2,1:2|1:2|1:2,0:0:0:0:
148,192,36791,37,2,1:2:0:0:
125,134,36968,1,2,3:2:0:0:
132,72,37145,2,0,P|183:49|226:57,1,68.75,2|10,1:2|0:2,0:0:0:0:
256,54,37499,1,2,1:2:0:0:
377,79,37853,1,2,1:2:0:0:
386,202,38207,6,0,L|382:272,1,68.75,2|0,1:2|0:0,0:0:0:0:
377,332,38561,1,2,1:2:0:0:
261,288,38915,2,0,P|228:283|191:292,1,68.75,2|0,1:2|0:0,0:0:0:0:
136,313,39269,1,2,1:2:0:0:
88,210,39623,37,2,1:2:0:0:
88,210,39800,1,2,3:2:0:0:
88,210,39977,2,0,B|102:173|75:143|75:143|49:110|54:74,2,137.5,2|2|2,1:2|1:2|1:2,0:0:0:0:
211,218,41039,5,2,1:2:0:0:
278,114,41393,1,2,1:2:0:0:
328,79,41569,1,10,0:2:0:0:
390,83,41747,1,2,1:2:0:0:
484,162,42101,1,2,1:2:0:0:
430,273,42455,38,0,L|329:284,1,68.75,2|2,1:2|3:2,0:0:0:0:
305,253,42808,2,0,L|204:264,2,68.75,2|10|2,1:2|0:2|1:2,0:0:0:0:
342,134,43517,1,2,1:2:0:0:
237,66,43871,6,0,P|201:63|156:82,1,68.75,2|2,1:2|3:2,0:0:0:0:
131,121,44224,2,0,P|128:157|147:202,1,68.75,2|10,1:2|0:2,0:0:0:0:
183,230,44579,2,0,P|220:281|226:362,2,137.5,2|2|4,1:2|1:2|0:3,0:0:0:0:
256,192,53782,12,0,55906,0:0:0:0:
22,280,56614,6,0,P|47:341|76:366,2,82.5,2|0|0,3:2|1:2|1:2,0:0:0:0:
64,244,57322,2,0,P|116:254|186:218,1,110,2|0,0:2|1:2,0:0:0:0:
260,174,58030,6,0,P|255:123|250:51,1,110,2|2,3:2|0:2,0:0:0:0:
281,18,58561,1,2,1:2:0:0:
390,29,58915,2,0,L|375:151,1,110,2|0,3:2|1:2,0:0:0:0:
393,190,59446,38,0,L|400:259,2,55,2|2|2,3:2|0:2|0:2,0:0:0:0:
283,183,60153,2,0,L|226:179,1,55,2|2,0:2|1:2,0:0:0:0:
172,174,60507,1,2,1:2:0:0:
62,181,60861,6,0,B|26:198|29:257|77:264|77:264|130:270,1,165,2|2,3:2|1:2,0:0:0:0:
183,277,61569,2,0,B|232:282|232:282|280:289|287:349|247:365,1,165,0|0,3:2|1:2,0:0:0:0:
193,379,62277,37,2,3:2:0:0:
84,359,62631,2,0,B|55:318|92:266|92:266|127:209|79:156,1,220,2|2,3:2|1:2,0:0:0:0:
35,127,63516,1,2,1:2:0:0:
35,127,63693,6,0,B|48:82|108:78|126:122|126:122|165:205|284:186|268:92,1,330,2|0,3:2|1:2,0:0:0:0:
346,20,65109,38,0,B|412:-9|457:62|419:107|419:107|376:157|421:237|496:200,1,330,2|2,3:2|1:2,0:0:0:0:
476,260,66348,1,2,1:2:0:0:
461,316,66525,6,0,B|460:338|436:368|389:364|389:364|274:352,1,184.800002255859,2|2,3:2|3:2,0:0:0:0:
242,333,67233,1,0,1:2:0:0:
226,210,67587,1,10,3:2:0:0:
218,148,67764,1,10,3:2:0:0:
218,86,67941,6,0,P|219:45|197:16,1,68.75,2|0,1:2|3:2,0:0:0:0:
142,15,68295,1,2,1:2:0:0:
14,44,68649,1,2,1:2:0:0:
9,167,69003,1,2,1:2:0:0:
122,217,69357,6,0,L|201:230,1,68.75,2|2,1:2|0:2,0:0:0:0:
240,192,69711,2,0,P|292:160|376:181,2,137.5,2|2|2,1:2|1:2|1:2,0:0:0:0:
259,314,70773,37,2,1:2:0:0:
319,327,70950,1,2,3:2:0:0:
380,320,71127,2,0,P|416:309|456:276,1,68.75,2|2,1:2|0:2,0:0:0:0:
470,236,71481,1,2,1:2:0:0:
457,112,71835,1,2,1:2:0:0:
336,84,72189,6,0,L|249:93,1,68.75,2|0,1:2|0:0,0:0:0:0:
205,96,72543,1,2,1:2:0:0:
83,71,72897,2,0,P|79:105|88:144,1,68.75,2|0,1:2|0:0,0:0:0:0:
122,188,73251,1,2,1:2:0:0:
251,223,73605,37,2,1:2:0:0:
251,223,73782,1,2,3:2:0:0:
251,223,73959,2,0,P|312:215|387:257,2,137.5,2|2|2,1:2|1:2|1:2,0:0:0:0:
170,317,75021,5,2,1:2:0:0:
62,259,75375,1,2,1:2:0:0:
34,204,75552,1,2,0:2:0:0:
35,143,75729,1,2,1:2:0:0:
102,39,76083,1,2,1:2:0:0:
219,78,76437,38,0,L|313:81,1,68.75,2|2,1:2|3:2,0:0:0:0:
337,117,76791,2,0,L|431:114,2,68.75,2|2|2,1:2|0:2|1:2,0:0:0:0:
231,182,77499,1,2,1:2:0:0:
340,238,77853,6,0,L|344:306,1,68.75,2|0,1:2|0:0,0:0:0:0:
382,355,78207,2,0,P|426:343|444:302,1,68.75,2|0,1:2|0:0,0:0:0:0:
464,268,78561,2,0,L|456:127,1,137.5,2|2,1:2|1:2,0:0:0:0:
370,40,79269,37,2,0:2:0:0:
259,95,79623,2,0,L|254:189,1,68.75,6|8,1:2|0:2,0:0:0:0:
252,225,79977,1,2,1:2:0:0:
155,305,80331,1,2,1:2:0:0:
36,270,80685,6,0,P|22:254|13:197,1,68.75,2|2,1:2|3:2,0:0:0:0:
55,165,81039,2,0,P|64:93|39:7,2,137.5,2|2|2,1:2|1:2|1:2,0:0:0:0:
172,206,82101,37,2,1:2:0:0:
230,186,82278,1,2,3:2:0:0:
285,158,82455,2,0,P|337:177|362:213,1,68.75,2|10,1:2|0:2,0:0:0:0:
361,246,82809,1,2,1:2:0:0:
448,333,83163,1,2,1:2:0:0:
500,221,83517,6,0,L|504:151,1,68.75,2|0,1:2|0:0,0:0:0:0:
509,91,83871,1,2,1:2:0:0:
392,51,84224,2,0,L|396:121,1,68.75,2|0,1:2|0:0,0:0:0:0:
401,181,84578,1,2,1:2:0:0:
309,263,84933,37,2,1:2:0:0:
309,263,85110,1,2,3:2:0:0:
309,263,85287,2,0,B|272:249|249:281|249:281|206:348,2,137.5,2|2|2,1:2|1:2|1:2,0:0:0:0:
319,139,86349,5,2,1:2:0:0:
257,31,86703,1,2,1:2:0:0:
198,50,86879,1,10,0:2:0:0:
144,17,87057,1,2,1:2:0:0:
66,113,87411,1,2,1:2:0:0:
79,236,87765,38,0,L|180:247,1,68.75,2|2,1:2|3:2,0:0:0:0:
199,277,88118,2,0,L|188:378,2,68.75,2|10|2,1:2|0:2|1:2,0:0:0:0:
204,152,88827,1,2,1:2:0:0:
303,78,89181,6,0,P|339:75|384:94,1,68.75,2|8,1:2|0:2,0:0:0:0:
391,142,89534,2,0,P|414:169|424:217,1,68.75,0|0,1:3|0:3,0:0:0:0:
387,251,89889,2,0,P|388:313|346:383,1,137.5,2|2,1:2|1:2,0:0:0:0:
