osu file format v14

[General]
AudioFilename: audio.mp3
AudioLeadIn: 0
PreviewTime: 22285
Countdown: 0
SampleSet: Soft
StackLeniency: 0.7
Mode: 0
LetterboxInBreaks: 0
WidescreenStoryboard: 1

[Editor]
Bookmarks: 11312,22639,33967,45294,56622,67949,79277
DistanceSpacing: 0.3
BeatDivisor: 8
GridSize: 16
TimelineZoom: 1.699999

[Metadata]
Title:astrid
TitleUnicode:astrid
Artist:glaive
ArtistUnicode:glaive
Creator:jamesjan3
Version:insane
Source:
Tags:hyperpop glitchcore cypress grove rap pop hip hop hip-hop english electronic sylas thekoala some hero
BeatmapID:2651414
BeatmapSetID:1275747

[Difficulty]
HPDrainRate:5
CircleSize:3.6
OverallDifficulty:7.5
ApproachRate:8.8
SliderMultiplier:1.8
SliderTickRate:1

[Events]
//Background and Video events
0,0,"jr-korpa-9XngoIpxcEo-unsplash.jpg",0,0
//Break Periods
2,45486,53153
//Storyboard Layer 0 (Background)
//Storyboard Layer 1 (Fail)
//Storyboard Layer 2 (Pass)
//Storyboard Layer 3 (Foreground)
//Storyboard Layer 4 (Overlay)
//Storyboard Sound Samples

[TimingPoints]
-23,353.982300884956,4,2,0,50,1,0
11304,-100,4,2,1,60,0,0
22277,-500,4,2,1,60,0,0
22631,-50,4,2,2,70,0,0
23339,-75.187969924812,4,2,2,70,0,0
23693,-57.1428571428571,4,2,2,70,0,0
24047,-50,4,2,2,70,0,0
24401,-66.6666666666667,4,2,2,70,0,0
24755,-75.187969924812,4,2,2,70,0,0
25109,-50,4,2,2,70,0,0
26702,-66.6666666666667,4,2,2,70,0,0
26968,-100,4,2,2,70,0,0
27233,-50,4,2,2,70,0,0
27587,-75.187969924812,4,2,2,70,0,0
27941,-57.1428571428571,4,2,2,70,0,0
29711,-50,4,2,2,70,0,0
30242,-66.6666666666667,4,2,2,70,0,0
30419,-75.187969924812,4,2,2,70,0,0
30773,-57.1428571428571,4,2,2,70,0,0
31304,-100,4,2,2,70,0,0
32366,-66.6666666666667,4,2,2,70,0,0
32543,-50,4,2,2,70,0,0
34313,-50,4,2,2,80,0,0
34667,-75.187969924812,4,2,2,80,0,0
35021,-57.1428571428571,4,2,2,80,0,0
35375,-50,4,2,2,80,0,0
35729,-66.6666666666667,4,2,2,80,0,0
36083,-75.187969924812,4,2,2,80,0,0
36437,-50,4,2,2,80,0,0
38030,-66.6666666666667,4,2,2,80,0,0
38296,-100,4,2,2,80,0,0
38561,-50,4,2,2,80,0,0
38915,-75.187969924812,4,2,2,80,0,0
39269,-57.1428571428571,4,2,2,80,0,0
41038,-50,4,2,2,80,0,0
41569,-66.6666666666667,4,2,2,80,0,0
41746,-75.187969924812,4,2,2,80,0,0
42100,-57.1428571428571,4,2,2,80,0,0
42631,-100,4,2,2,80,0,0
43693,-66.6666666666667,4,2,2,80,0,0
43870,-50,4,2,2,80,0,0
45286,-166.666666666667,4,2,1,60,0,0
53782,-166.666666666667,4,2,1,65,0,0
54490,-166.666666666667,4,2,1,70,0,0
55198,-166.666666666667,4,2,1,75,0,0
55906,-166.666666666667,4,2,1,80,0,0
56260,-166.666666666667,4,2,1,60,0,0
56614,-100,4,2,1,60,0,0
61569,-66.6666666666667,4,2,1,60,0,0
62277,-100,4,2,1,60,0,0
65109,-80,4,2,1,60,0,0
66525,-66.6666666666667,4,2,1,60,0,0
67056,-66.6666666666667,4,2,3,70,0,0
67587,-100,4,2,3,80,0,0
67940,-50,4,2,2,70,0,0
68648,-75.187969924812,4,2,2,70,0,0
69002,-57.1428571428571,4,2,2,70,0,0
69356,-50,4,2,2,70,0,0
69710,-66.6666666666667,4,2,2,70,0,0
70064,-75.187969924812,4,2,2,70,0,0
70418,-50,4,2,2,70,0,0
72011,-66.6666666666667,4,2,2,70,0,0
72277,-100,4,2,2,70,0,0
72542,-50,4,2,2,70,0,0
72896,-75.187969924812,4,2,2,70,0,0
73250,-57.1428571428571,4,2,2,70,0,0
75020,-50,4,2,2,70,0,0
75551,-66.6666666666667,4,2,2,70,0,0
75728,-75.187969924812,4,2,2,70,0,0
76082,-57.1428571428571,4,2,2,70,0,0
76613,-100,4,2,2,70,0,0
77675,-66.6666666666667,4,2,2,70,0,0
77852,-50,4,2,2,70,0,0
79623,-50,4,2,2,80,0,0
79977,-75.187969924812,4,2,2,80,0,0
80331,-57.1428571428571,4,2,2,80,0,0
80685,-50,4,2,2,80,0,0
81039,-66.6666666666667,4,2,2,80,0,0
81393,-75.187969924812,4,2,2,80,0,0
81747,-50,4,2,2,80,0,0
83340,-66.6666666666667,4,2,2,80,0,0
83606,-100,4,2,2,80,0,0
83871,-50,4,2,2,80,0,0
84225,-75.187969924812,4,2,2,80,0,0
84579,-57.1428571428571,4,2,2,80,0,0
86348,-50,4,2,2,80,0,0
86879,-66.6666666666667,4,2,2,80,0,0
87056,-75.187969924812,4,2,2,80,0,0
87410,-57.1428571428571,4,2,2,80,0,0
87941,-100,4,2,2,80,0,0
89003,-66.6666666666667,4,2,2,80,0,0
89180,-50,4,2,2,80,0,0
90507,-50,4,2,2,5,0,0

[Colours]
Combo1 : 136,148,225
Combo2 : 255,36,123
Combo3 : 231,88,91
Combo4 : 170,136,217

[HitObjects]
153,156,11304,38,0,B|216:147|216:147|223:152|223:152|309:138,2,135,2|0|2,3:2|1:2|1:2,0:0:0:0:
84,94,12012,2,0,L|96:-5,1,90,2|2,0:2|3:2,0:0:0:0:
174,61,12366,1,2,1:2:0:0:
62,185,12543,5,2,1:2:0:0:
62,185,12631,1,0,1:2:0:0:
62,185,12720,2,0,L|74:284,1,90,2|2,3:2|0:2,0:0:0:0:
152,260,12985,2,0,L|140:359,1,90,2|0,1:2|0:0,0:0:0:0:
140,364,13251,37,2,1:2:0:0:
241,266,13428,2,0,B|285:239|335:289|310:306|360:345|433:311,1,180,2|2,0:2|1:2,0:0:0:0:
464,238,13959,5,0,1:2:0:0:
465,225,14047,1,0,1:2:0:0:
460,214,14136,1,2,3:2:0:0:
385,237,14313,1,2,0:2:0:0:
483,380,14490,2,0,P|500:326|532:277,1,90,2|2,0:2|1:2,0:0:0:0:
397,156,14844,38,0,P|357:134|314:122,1,90,2|2,0:2|3:2,0:0:0:0:
475,129,15198,1,2,1:2:0:0:
492,30,15375,5,2,1:2:0:0:
492,30,15463,1,0,1:2:0:0:
492,30,15552,2,0,P|452:51|409:63,1,90,2|2,3:2|0:2,0:0:0:0:
272,36,15906,1,2,0:2:0:0:
345,12,16083,37,2,1:2:0:0:
273,127,16260,2,0,P|233:105|190:93,2,90,2|0|2,3:2|1:2|1:2,0:0:0:0:
339,233,16791,5,0,1:2:0:0:
336,250,16879,1,0,1:2:0:0:
333,267,16968,2,0,L|315:392,1,90,2|2,3:2|0:2,0:0:0:0:
248,234,17322,2,0,P|191:226|132:294,1,135,2|0,3:2|0:0,0:0:0:0:
141,284,17676,37,2,0:2:0:0:
39,252,17853,2,0,L|57:377,1,90,2|2,3:2|1:2,0:0:0:0:
95,185,18207,5,2,1:2:0:0:
100,174,18295,1,0,1:2:0:0:
99,161,18384,1,2,3:2:0:0:
53,97,18561,1,2,0:2:0:0:
16,169,18738,1,2,0:2:0:0:
39,252,18915,37,2,1:2:0:0:
180,160,19092,2,0,P|137:86|52:96,1,180,2|2,0:2|1:2,0:0:0:0:
144,245,19623,5,0,1:2:0:0:
144,245,19711,1,0,1:2:0:0:
144,245,19800,2,0,P|206:259|253:260,1,90,2|2,3:2|0:2,0:0:0:0:
291,145,20153,2,0,P|353:131|400:130,1,90,2|2,0:2|1:2,0:0:0:0:
486,275,20507,37,2,0:2:0:0:
374,213,20684,1,2,3:2:0:0:
486,275,20861,2,0,P|441:279|397:290,1,90,2|2,1:2|1:2,0:0:0:0:
350,355,21127,5,0,1:2:0:0:
338,359,21215,2,0,P|293:354|249:343,1,90,2|2,3:2|0:2,0:0:0:0:
146,207,21569,1,2,0:2:0:0:
146,207,21746,1,2,1:2:0:0:
137,287,21923,38,0,B|182:304|231:253|216:240|260:201|315:229,1,180,2|2,0:2|0:2,0:0:0:0:
294,221,22454,1,2,0:2:0:0:
407,78,22631,38,0,B|395:173|395:173|385:253|493:258|490:178,1,270,2|8,1:2|0:2,0:0:0:0:
490,173,22985,2,0,B|509:95|402:77|396:158|396:158|388:253,1,270,2|0,1:2|0:0,0:0:0:0:
347,326,23339,38,0,P|397:379|472:372,1,119.699995068512,2|0,1:2|0:0,0:0:0:0:
388,253,23693,2,0,B|325:226|280:272|280:272|234:315|166:279,1,236.250002253056,2|0,1:2|0:0,0:0:0:0:
126,211,24047,6,0,P|111:195|138:208,2,90,2|2|2,1:2|0:2|0:2,0:0:0:0:
173,284,24401,2,0,P|188:216|145:68,1,202.500007724762,2|0,1:2|0:0,0:0:0:0:
167,7,24755,38,0,P|109:18|73:64,1,119.699995068512,2|0,1:2|0:0,0:0:0:0:
0,160,25109,2,0,P|8:204|40:236,1,90,2|0,1:2|0:0,0:0:0:0:
60,320,25286,1,2,0:2:0:0:
199,201,25463,5,2,1:2:0:0:
173,284,25640,1,2,3:2:0:0:
289,180,25817,37,2,1:2:0:0:
327,261,25994,1,2,0:2:0:0:
345,111,26171,5,2,1:2:0:0:
428,143,26348,1,2,0:2:0:0:
338,25,26525,37,2,1:2:0:0:
424,9,26702,1,2,0:2:0:0:
338,25,26879,6,0,P|286:42|260:129,1,135.000005149842,2|0,1:2|3:2,0:0:0:0:
382,265,27233,2,0,P|397:212|325:102,1,180,2|2,1:2|0:2,0:0:0:0:
125,136,27587,38,0,P|152:180|225:200,1,119.699995068512,2|0,1:2|0:0,0:0:0:0:
158,10,27941,2,0,P|135:87|-9:169,1,236.250002253056,2|0,1:2|0:0,0:0:0:0:
10,168,28295,5,2,1:2:0:0:
52,49,28472,1,2,3:2:0:0:
87,247,28649,38,0,B|73:292|146:314|162:268|162:268|183:207,1,157.500001502037,2|0,1:2|0:0,0:0:0:0:
354,194,29003,2,0,B|368:149|295:127|279:173|279:173|239:294,1,236.250002253056,2|0,1:2|0:0,0:0:0:0:
243,320,29357,5,2,1:2:0:0:
243,320,29446,1,2,0:0:0:0:
389,379,29711,38,0,B|348:312|409:254|409:254|459:198|420:131,1,270,2|0,1:2|0:0,0:0:0:0:
391,107,30065,1,2,1:2:0:0:
268,34,30242,2,0,P|307:22|347:36,1,67.5000025749208,2|0,0:2|0:0,0:0:0:0:
391,107,30419,6,0,P|321:148|300:199,1,119.699995068512,2|0,1:2|0:0,0:0:0:0:
249,342,30773,2,0,P|245:262|186:199,1,157.500001502037,2|0,1:2|0:0,0:0:0:0:
45,57,31127,37,2,1:2:0:0:
0,136,31304,1,2,3:2:0:0:
150,146,31481,5,2,1:2:0:0:
74,192,31658,1,2,0:2:0:0:
167,286,31835,37,2,1:2:0:0:
79,278,32012,1,2,0:2:0:0:
83,384,32189,5,2,1:2:0:0:
6,334,32366,1,2,0:2:0:0:
83,384,32543,38,0,P|174:335|187:176,1,270,2|0,1:2|0:0,0:0:0:0:
108,209,32897,2,0,P|182:314|311:312,1,270,2|0,1:2|0:0,0:0:0:0:
367,248,33251,6,0,B|401:184|341:126|341:126|286:75|313:2,1,270,2|8,1:2|0:2,0:0:0:0:
394,12,33605,2,0,B|411:83|336:121|336:121|273:161|282:239,1,270,2|0,1:2|0:0,0:0:0:0:
316,315,33959,37,2,0:2:0:0:
316,315,34313,2,0,B|264:293|237:331|237:331|205:377|129:349,1,180,6|8,1:2|0:2,0:0:0:0:
81,328,34578,1,0,0:0:0:0:
82,319,34667,2,0,L|92:230,1,59.8499975342561,2|0,1:2|0:0,0:0:0:0:
95,180,34844,1,0,3:2:0:0:
275,145,35021,6,0,B|212:130|179:192|179:192|184:121|110:97,1,236.250002253056,2|0,1:2|0:0,0:0:0:0:
49,64,35375,38,0,P|33:49|46:76,2,90,2|2|2,1:2|0:2|3:2,0:0:0:0:
118,99,35729,2,0,P|190:81|251:21,1,135.000005149842,2|10,1:2|0:2,0:0:0:0:
308,72,35994,5,0,0:0:0:0:
321,72,36083,2,0,P|393:90|495:200,1,179.549992602768,2|8,1:2|0:2,0:0:0:0:
479,246,36437,38,0,L|471:140,1,90,2|0,1:2|0:0,0:0:0:0:
468,72,36614,1,10,0:2:0:0:
397,283,36791,5,2,1:2:0:0:
479,246,36968,1,2,3:2:0:0:
324,230,37145,37,2,1:2:0:0:
314,319,37322,1,10,0:2:0:0:
405,193,37499,5,2,1:2:0:0:
334,140,37676,1,2,3:2:0:0:
397,283,37853,37,2,1:2:0:0:
479,246,38030,1,8,0:2:0:0:
324,230,38207,6,0,L|173:253,1,135.000005149842,2|0,1:2|3:2,0:0:0:0:
65,120,38561,2,0,P|151:92|175:189,1,180,2|10,1:2|0:2,0:0:0:0:
117,318,38915,38,0,P|103:233|111:169,1,119.699995068512,2|0,1:2|3:2,0:0:0:0:
59,5,39269,2,0,P|172:85|273:82,1,236.250002253056,2|0,1:2|0:0,0:0:0:0:
265,84,39623,5,2,1:2:0:0:
368,19,39800,1,2,3:2:0:0:
408,199,39977,38,0,B|424:217|425:244|425:244|471:110,1,157.500001502037,2|8,1:2|0:2,0:0:0:0:
274,228,40330,2,0,B|305:205|300:157|300:157|351:305,1,236.250002253056,2|8,1:2|0:2,0:0:0:0:
365,339,40684,5,2,1:2:0:0:
365,339,40773,1,2,0:0:0:0:
214,298,41038,38,0,B|157:243|200:172|200:172|234:105|179:50,1,270,2|8,1:2|0:2,0:0:0:0:
152,37,41392,1,2,1:2:0:0:
101,139,41569,2,0,P|92:200|105:236,1,67.5000025749208,10|0,0:2|0:0,0:0:0:0:
152,37,41746,6,0,P|69:54|-2:44,1,119.699995068512,2|0,1:2|3:2,0:0:0:0:
250,98,42100,2,0,P|306:100|430:142,1,157.500001502037,2|8,1:2|0:2,0:0:0:0:
180,245,42454,37,2,1:2:0:0:
200,164,42631,1,2,3:2:0:0:
240,350,42808,5,2,1:2:0:0:
156,329,42985,1,10,0:2:0:0:
343,286,43162,37,2,1:2:0:0:
324,370,43339,1,2,3:2:0:0:
280,183,43516,5,2,1:2:0:0:
364,203,43693,1,8,0:2:0:0:
259,270,43870,38,0,B|186:276|156:198|156:198|131:127|53:124,1,270,2|8,1:2|0:2,0:0:0:0:
31,200,44224,2,0,B|89:243|153:189|153:189|215:146|283:185,1,270,2|0,1:2|0:0,0:0:0:0:
364,203,44578,6,0,B|454:235|518:134|471:57|392:76|383:127,1,270,2|8,1:2|0:2,0:0:0:0:
280,183,44932,2,0,B|184:172|171:53|246:5|309:56|295:106,1,270,2|0,1:2|0:0,0:0:0:0:
305,268,45286,37,4,0:3:0:0:
256,192,53782,12,0,55906,0:0:0:0:
155,158,56260,38,0,L|148:215,1,53.9999983520508,2|2,0:2|0:2,0:0:0:0:
148,211,56614,38,0,B|228:184|212:259|283:229,2,135,2|0|0,3:2|1:2|1:2,0:0:0:0:
39,248,57322,2,0,P|67:185|63:93,1,135,2|0,0:2|0:0,0:0:0:0:
59,103,57676,1,0,1:2:0:0:
140,23,57853,1,0,1:2:0:0:
164,16,57941,1,0,1:2:0:0:
192,19,58030,6,0,P|227:54|270:164,1,135,2|0,3:2|1:2,0:0:0:0:
259,149,58384,1,2,0:2:0:0:
358,92,58561,2,0,P|370:41|367:-1,1,90,2|0,1:2|0:0,0:0:0:0:
474,121,58915,2,0,P|433:163|376:185,1,90,2|0,3:2|1:2,0:0:0:0:
209,166,59269,1,0,1:2:0:0:
233,152,59357,1,0,1:2:0:0:
259,149,59446,38,0,P|309:181|335:217,2,90,2|2|2,3:2|0:2|0:2,0:0:0:0:
217,69,59977,1,2,1:2:0:0:
136,86,60153,2,0,P|124:130|128:180,1,90,2|2,0:2|1:2,0:0:0:0:
61,273,60507,1,2,1:2:0:0:
137,323,60684,1,2,1:2:0:0:
162,328,60773,1,0,1:2:0:0:
188,320,60861,6,0,P|253:311|315:337,1,135,2|0,3:2|1:2,0:0:0:0:
326,352,61215,1,2,0:2:0:0:
423,282,61392,1,2,1:2:0:0:
315,337,61569,38,0,P|261:297|236:235,2,135,0|2|0,3:2|1:2|1:2,0:0:0:0:
423,282,62100,1,0,1:2:0:0:
448,248,62189,1,0,1:2:0:0:
448,205,62277,6,0,P|413:145|366:202,1,135,2|0,3:2|1:2,0:0:0:0:
373,185,62631,2,0,P|412:151|385:30,1,180,2|2,3:2|0:2,0:0:0:0:
271,13,63162,1,2,3:2:0:0:
220,138,63339,1,2,1:2:0:0:
149,83,63516,1,2,1:2:0:0:
166,60,63605,1,0,1:2:0:0:
191,57,63693,38,0,B|199:150|158:240,1,180,2|2,3:2|0:2,0:0:0:0:
74,249,64224,2,0,P|65:203|93:173,1,90,2|0,1:2|0:0,0:0:0:0:
239,279,64578,1,2,3:2:0:0:
165,330,64755,1,0,1:2:0:0:
248,363,64932,1,0,1:2:0:0:
280,357,65021,1,0,1:2:0:0:
317,341,65109,6,0,P|325:254|290:109,1,225,2|2,3:2|0:2,0:0:0:0:
199,70,65640,1,2,1:2:0:0:
322,30,65817,1,2,0:2:0:0:
442,93,65994,1,2,3:2:0:0:
409,167,66171,1,2,1:2:0:0:
413,77,66348,1,2,1:2:0:0:
446,85,66437,1,0,1:2:0:0:
482,111,66525,38,0,B|472:245|374:200|370:359,1,270.000010299683,2|2,3:2|0:2,0:0:0:0:
496,296,67056,5,2,3:2:0:0:
496,296,67145,1,0,3:2:0:0:
496,296,67233,1,0,1:2:0:0:
474,291,67322,1,0,3:2:0:0:
457,286,67410,1,2,1:2:0:0:
441,281,67499,1,0,1:2:0:0:
425,277,67587,38,0,L|414:211,1,45,10|10,3:2|3:2,0:0:0:0:
322,86,67764,2,0,L|310:149,1,45,10|10,3:2|3:2,0:0:0:0:
248,199,67941,38,0,B|182:168|124:231|124:231|64:290|-7:251,1,270,2|8,1:2|0:2,0:0:0:0:
5,250,68295,2,0,B|65:217|125:276|125:276|183:339|248:308,1,270,2|0,1:2|0:0,0:0:0:0:
319,262,68649,38,0,L|346:116,1,119.699995068512,2|0,1:2|0:0,0:0:0:0:
249,76,69003,2,0,B|331:61|331:61|401:48|410:143|340:144,1,236.250002253056,2|0,1:2|0:0,0:0:0:0:
237,159,69357,6,0,P|222:175|249:162,2,90,2|2|2,1:2|0:2|0:2,0:0:0:0:
249,76,69711,2,0,P|191:180|127:256,1,202.500007724762,2|0,1:2|0:0,0:0:0:0:
136,324,70065,38,0,P|66:280|73:211,1,119.699995068512,2|0,1:2|0:0,0:0:0:0:
58,113,70419,2,0,P|73:71|118:30,1,90,2|0,1:2|0:0,0:0:0:0:
187,26,70596,1,2,0:2:0:0:
317,188,70773,5,2,1:2:0:0:
234,150,70950,1,2,3:2:0:0:
396,235,71127,37,2,1:2:0:0:
479,197,71304,1,2,0:2:0:0:
316,274,71481,5,2,1:2:0:0:
233,236,71658,1,2,0:2:0:0:
389,329,71835,37,2,1:2:0:0:
472,291,72012,1,2,0:2:0:0:
433,126,72189,6,0,P|392:95|309:109,1,135.000005149842,2|0,1:2|0:0,0:0:0:0:
272,325,72543,2,0,P|331:257|362:173,1,180,2|2,1:2|0:2,0:0:0:0:
264,0,72897,38,0,P|307:76|314:147,1,119.699995068512,2|0,1:2|0:0,0:0:0:0:
219,251,73251,2,0,P|119:259|52:132,1,236.250002253056,2|0,1:2|0:0,0:0:0:0:
49,155,73605,5,2,1:2:0:0:
79,24,73782,1,2,3:2:0:0:
149,171,73959,38,0,B|179:191|223:137|188:103|188:103|142:59,1,157.500001502037,2|0,1:2|0:0,0:0:0:0:
58,282,74313,2,0,B|13:296|-9:223|37:207|37:207|158:167,1,236.250002253056,2|0,1:2|0:0,0:0:0:0:
183,172,74667,5,2,1:2:0:0:
183,172,74755,1,2,0:0:0:0:
265,335,75021,38,0,B|341:316|339:232|339:232|343:157|418:137,1,270,2|0,1:2|0:0,0:0:0:0:
439,138,75375,1,2,1:2:0:0:
443,251,75552,2,0,P|440:281|426:340,1,67.5000025749208,2|0,0:2|0:0,0:0:0:0:
439,138,75729,6,0,P|380:109|346:40,1,119.699995068512,2|0,1:2|0:0,0:0:0:0:
257,249,76083,2,0,P|360:219|453:219,1,157.500001502037,2|0,1:2|0:0,0:0:0:0:
181,91,76437,37,2,1:2:0:0:
196,182,76614,1,2,3:2:0:0:
97,327,76791,5,2,1:2:0:0:
168,268,76968,1,2,0:2:0:0:
344,282,77145,37,2,1:2:0:0:
257,249,77322,1,2,0:2:0:0:
181,91,77499,5,2,1:2:0:0:
196,182,77676,1,2,0:2:0:0:
181,91,77853,38,0,B|255:76|255:76|339:147|339:147|446:125,1,270,2|8,1:2|0:0,0:0:0:0:
397,44,78207,2,0,B|314:63|314:63|268:163|268:163|195:181,1,270,2|0,1:2|0:0,0:0:0:0:
60,114,78561,6,0,B|94:75|96:-12|96:-12|124:76|214:104,1,270,2|0,1:2|0:0,0:0:0:0:
195,181,78915,2,0,B|160:219|158:307|158:307|130:218|40:190,1,270,2|0,1:2|0:0,0:0:0:0:
0,172,79269,37,2,0:2:0:0:
0,172,79623,2,0,P|25:103|122:92,1,180,6|8,1:2|0:2,0:0:0:0:
206,116,79888,1,0,0:0:0:0:
213,127,79977,2,0,P|211:155|194:180,2,59.8499975342561,2|0|0,1:2|0:0|3:2,0:0:0:0:
392,82,80331,6,0,B|388:27|313:8|313:8|263:70|301:119,1,236.250002253056,2|0,1:2|0:0,0:0:0:0:
362,178,80685,38,0,P|381:205|377:172,2,90,2|2|2,1:2|0:2|3:2,0:0:0:0:
303,121,81039,2,0,P|278:193|312:264,1,135.000005149842,2|10,1:2|0:2,0:0:0:0:
340,322,81304,5,0,0:0:0:0:
348,312,81393,2,0,P|282:252|188:249,1,179.549992602768,2|8,1:2|0:2,0:0:0:0:
123,271,81747,38,0,L|130:360,1,90,2|0,1:2|0:0,0:0:0:0:
140,367,81924,1,10,0:2:0:0:
29,240,82101,5,2,1:2:0:0:
57,155,82278,1,2,3:2:0:0:
123,271,82455,37,2,1:2:0:0:
200,205,82631,1,10,0:2:0:0:
351,275,82809,5,2,1:2:0:0:
292,206,82985,1,2,3:2:0:0:
440,246,83162,37,2,1:2:0:0:
430,156,83339,1,10,0:2:0:0:
440,246,83517,6,0,P|387:277|303:290,1,135.000005149842,2|2,1:2|3:2,0:0:0:0:
164,301,83871,2,0,B|265:286|227:386|333:371,1,180,2|10,1:2|0:2,0:0:0:0:
404,374,84136,1,0,0:0:0:0:
420,363,84225,38,0,P|436:305|439:245,1,119.699995068512,2|0,1:2|3:2,0:0:0:0:
283,134,84579,2,0,B|338:154|343:226|343:226|367:158|444:153,1,236.250002253056,2|0,1:2|0:0,0:0:0:0:
430,155,84933,5,2,1:2:0:0:
369,43,85110,1,2,3:2:0:0:
265,26,85286,2,0,B|184:16|184:16|115:7|110:110|189:101,1,236.250002253056,2|0,1:2|0:0,0:0:0:0:
193,105,85640,2,0,B|266:96|261:199|192:190|192:190|111:181,1,236.250002253056,2|8,1:2|0:2,0:0:0:0:
80,178,85994,37,2,1:2:0:0:
80,178,86083,1,2,0:0:0:0:
18,310,86348,6,0,B|80:261|144:313|144:313|206:356|268:309,1,270,2|8,1:2|0:2,0:0:0:0:
277,300,86702,1,2,1:2:0:0:
385,357,86879,2,0,L|394:289,1,67.5000025749208,10|0,0:2|0:0,0:0:0:0:
464,212,87056,38,0,P|381:195|310:205,1,119.699995068512,2|0,1:2|3:2,0:0:0:0:
209,157,87410,2,0,P|283:131|349:88,1,157.500001502037,2|8,1:2|0:2,0:0:0:0:
118,11,87764,5,2,1:2:0:0:
89,99,87941,1,2,3:2:0:0:
209,157,88118,37,2,1:2:0:0:
199,66,88295,1,10,0:2:0:0:
348,88,88472,5,2,1:2:0:0:
305,168,88649,1,2,3:2:0:0:
449,102,88826,37,2,1:2:0:0:
411,20,89003,1,10,0:2:0:0:
449,102,89180,6,0,B|376:114|368:198|368:198|306:252|235:220,1,270,2|8,1:2|0:2,0:0:0:0:
240,137,89534,2,0,B|311:124|348:199|348:199|423:230|480:175,1,270,2|0,1:2|0:0,0:0:0:0:
449,102,89888,38,0,B|482:53|457:-37|361:-16|361:-16|375:64,1,270,2|8,1:2|0:2,0:0:0:0:
240,137,90242,2,0,B|190:102|183:8|280:-3|280:-3|294:77,1,270,2|0,1:2|0:0,0:0:0:0:
