osu file format v14

[General]
AudioFilename: audio.mp3
AudioLeadIn: 0
PreviewTime: 22285
Countdown: 0
SampleSet: Soft
StackLeniency: 0.7
Mode: 0
LetterboxInBreaks: 0
WidescreenStoryboard: 1

[Editor]
Bookmarks: 11312,22639,33967,45294,56622,67949,79277
DistanceSpacing: 0.3
BeatDivisor: 4
GridSize: 16
TimelineZoom: 1.699999

[Metadata]
Title:astrid
TitleUnicode:astrid
Artist:glaive
ArtistUnicode:glaive
Creator:jamesjan3
Version:hard
Source:
Tags:hyperpop glitchcore cypress grove rap pop hip hop hip-hop english electronic sylas thekoala some hero
BeatmapID:2652045
BeatmapSetID:1275747

[Difficulty]
HPDrainRate:5
CircleSize:3.4
OverallDifficulty:6.5
ApproachRate:8
SliderMultiplier:1.6
SliderTickRate:1

[Events]
//Background and Video events
0,0,"jr-korpa-9XngoIpxcEo-unsplash.jpg",0,0
//Break Periods
2,45486,53032
//Storyboard Layer 0 (Background)
//Storyboard Layer 1 (Fail)
//Storyboard Layer 2 (Pass)
//Storyboard Layer 3 (Foreground)
//Storyboard Layer 4 (Overlay)
//Storyboard Sound Samples

[TimingPoints]
-23,353.982300884956,4,2,0,50,1,0
11304,-100,4,2,1,60,0,0
22277,-133.333333333333,4,2,1,60,0,0
22631,-80,4,2,2,70,0,0
34313,-80,4,2,2,80,0,0
45286,-80,4,2,1,60,0,0
53782,-80,4,2,1,65,0,0
54490,-80,4,2,1,70,0,0
55198,-80,4,2,1,75,0,0
55906,-80,4,2,1,80,0,0
56260,-80,4,2,1,60,0,0
56614,-100,4,2,1,60,0,0
61569,-80,4,2,1,60,0,0
62277,-100,4,2,1,60,0,0
66525,-66.6666666666667,4,2,1,60,0,0
67056,-66.6666666666667,4,2,3,70,0,0
67233,-100,4,2,3,70,0,0
67587,-100,4,2,3,80,0,0
67941,-80,4,2,2,70,0,0
79623,-80,4,2,2,80,0,0

[Colours]
Combo1 : 136,148,225
Combo2 : 255,36,123
Combo3 : 231,88,91
Combo4 : 170,136,217

[HitObjects]
201,140,11304,38,0,P|158:105|74:116,2,120,2|0|2,3:2|1:2|1:2,0:0:0:0:
282,153,12012,2,0,P|272:193|233:215,1,80,2|2,0:2|3:2,0:0:0:0:
159,214,12366,1,2,1:2:0:0:
185,313,12543,6,0,L|173:360,2,40,2|0|2,1:2|1:2|3:2,0:0:0:0:
265,303,12897,2,0,L|375:291,1,80,2|0,0:2|0:0,0:0:0:0:
424,282,13251,1,2,1:2:0:0:
471,215,13428,2,0,P|440:162|336:177,1,160,2|2,0:2|1:2,0:0:0:0:
276,211,13959,1,0,1:2:0:0:
276,211,14047,1,0,1:2:0:0:
276,211,14136,38,0,P|231:208|185:192,1,80,2|2,3:2|0:2,0:0:0:0:
150,102,14490,2,0,P|105:104|62:118,1,80,2|2,0:2|1:2,0:0:0:0:
30,205,14844,2,0,P|74:202|117:188,1,80,2|2,0:2|3:2,0:0:0:0:
150,102,15198,2,0,P|194:104|237:118,1,80,2|2,1:2|1:2,0:0:0:0:
252,125,15463,1,0,1:2:0:0:
252,125,15552,6,0,P|337:118|424:76,1,160,2|2,3:2|0:2,0:0:0:0:
473,20,16083,1,2,1:2:0:0:
512,104,16260,2,0,P|509:151|497:207,1,80,2|0,3:2|1:2,0:0:0:0:
463,265,16614,1,2,1:2:0:0:
396,322,16791,38,0,L|405:368,2,40,0|0|2,1:2|1:2|3:2,0:0:0:0:
345,252,17145,1,2,0:2:0:0:
275,205,17322,2,0,L|93:229,1,160,2|2,3:2|0:2,0:0:0:0:
44,287,17853,1,2,3:2:0:0:
23,200,18030,1,2,1:2:0:0:
95,142,18207,1,2,1:2:0:0:
95,142,18295,1,0,1:2:0:0:
95,142,18384,6,0,L|184:129,2,80,2|2|2,3:2|0:2|0:2,0:0:0:0:
108,43,18915,1,2,1:2:0:0:
202,46,19092,2,0,B|240:50|257:98|257:98|274:143|327:141,1,160,2|2,0:2|1:2,0:0:0:0:
400,79,19623,38,0,L|394:24,2,40,0|0|2,1:2|1:2|3:2,0:0:0:0:
413,157,19977,1,2,0:2:0:0:
509,176,20153,2,0,P|513:220|507:265,1,80,2|2,0:2|1:2,0:0:0:0:
455,332,20507,1,2,0:2:0:0:
405,253,20684,1,2,3:2:0:0:
323,297,20861,1,2,1:2:0:0:
260,234,21038,1,2,1:2:0:0:
260,234,21127,1,0,1:2:0:0:
260,234,21215,6,0,P|205:242|158:263,1,80,2|2,3:2|0:2,0:0:0:0:
123,187,21569,2,0,P|68:179|21:158,1,80,2|2,0:2|1:2,0:0:0:0:
8,83,21923,1,2,0:2:0:0:
8,83,22277,2,0,L|84:66,1,60.0000022888184,2|2,0:2|0:2,0:0:0:0:
146,22,22631,6,0,B|193:12|210:45|210:45|234:87|286:68,1,150,2|8,1:2|0:2,0:0:0:0:
274,72,22985,2,0,P|208:119|206:172,1,100,2|0,1:2|0:0,0:0:0:0:
196,253,23339,1,2,1:2:0:0:
412,134,23693,1,2,1:2:0:0:
381,355,24047,5,2,1:2:0:0:
381,355,24136,1,2,0:2:0:0:
381,355,24224,2,0,L|367:214,2,100,2|2|2,0:2|1:2|0:2,0:0:0:0:
271,384,24755,1,2,1:2:0:0:
211,144,25109,1,2,1:2:0:0:
134,191,25286,1,2,0:2:0:0:
136,282,25463,38,0,P|188:296|257:276,1,100,2|2,1:2|3:2,0:0:0:0:
298,186,25817,2,0,P|245:172|196:120,1,100,2|2,1:2|0:2,0:0:0:0:
122,98,26171,2,0,L|144:-13,2,100,2|2|2,1:2|0:2|1:2,0:0:0:0:
34,44,26702,1,2,0:2:0:0:
0,142,26879,6,0,L|15:219,1,50,2|0,1:2|0:0,0:0:0:0:
59,346,27233,2,0,L|81:287,1,50,2|0,1:2|0:0,0:0:0:0:
144,130,27587,2,0,L|198:176,1,50,2|0,1:2|0:0,0:0:0:0:
303,261,27941,2,0,L|372:213,1,50,2|0,1:2|0:0,0:0:0:0:
512,171,28295,37,2,1:2:0:0:
401,133,28472,1,2,3:2:0:0:
512,171,28649,2,0,B|485:160|465:178|465:211|465:211|459:295,1,150,2|0,1:2|0:0,0:0:0:0:
460,285,29003,2,0,P|413:336|348:341,1,100,2|0,1:2|0:0,0:0:0:0:
259,314,29357,2,0,L|252:373,1,50,2|2,1:2|0:0,0:0:0:0:
163,202,29711,6,0,B|167:123|167:123|166:94|199:80|219:100,1,150,2|0,1:2|0:0,0:0:0:0:
217,98,30065,2,0,L|308:191,1,100,2|2,1:2|0:2,0:0:0:0:
365,246,30419,1,2,1:2:0:0:
408,46,30773,1,2,1:2:0:0:
486,217,31127,38,0,P|479:276|435:326,1,100,2|2,1:2|3:2,0:0:0:0:
357,291,31481,2,0,P|302:315|237:303,1,100,2|2,1:2|0:2,0:0:0:0:
228,216,31835,2,0,P|179:181|157:118,2,100,2|2|2,1:2|0:2|1:2,0:0:0:0:
321,207,32366,1,2,0:2:0:0:
416,155,32543,6,0,B|424:107|389:86|389:86|351:67|369:18,1,150,2|0,1:2|0:0,0:0:0:0:
367,25,32897,2,0,B|360:63|315:66|315:66|274:66|259:112,1,150,2|0,1:2|0:0,0:0:0:0:
259,111,33251,38,0,L|269:245,1,100,2|0,1:2|3:2,0:0:0:0:
407,147,33605,2,0,L|350:238,1,100,2|2,1:2|0:2,0:0:0:0:
291,294,33959,5,2,0:2:0:0:
291,294,34313,2,0,P|244:291|188:342,1,100,6|8,1:2|0:2,0:0:0:0:
171,321,34578,1,0,0:0:0:0:
171,321,34667,2,0,P|185:264|190:217,1,100,2|0,1:2|3:2,0:0:0:0:
196,120,35021,1,2,1:2:0:0:
359,257,35375,37,2,1:2:0:0:
359,257,35464,1,2,0:2:0:0:
359,257,35552,2,0,P|361:315|373:398,2,100,2|2|10,3:2|1:2|0:2,0:0:0:0:
378,159,36083,1,2,1:2:0:0:
153,216,36437,1,2,1:2:0:0:
153,216,36614,1,10,0:2:0:0:
134,300,36791,6,0,P|175:304|231:248,1,100,2|2,1:2|3:2,0:0:0:0:
254,175,37145,2,0,P|252:110|244:53,1,100,2|10,1:2|0:2,0:0:0:0:
164,27,37499,2,0,P|115:25|76:55,2,100,2|2|2,1:2|3:2|1:2,0:0:0:0:
248,76,38030,1,8,0:2:0:0:
340,45,38207,38,0,P|347:69|348:117,1,50,2|0,1:2|0:0,0:0:0:0:
438,248,38561,2,0,P|440:223|447:199,1,50,2|0,1:2|0:0,0:0:0:0:
240,158,38915,2,0,P|215:160|191:167,1,50,2|0,1:2|0:0,0:0:0:0:
313,289,39269,2,0,P|337:291|361:298,1,50,2|0,1:2|0:0,0:0:0:0:
112,291,39623,5,2,1:2:0:0:
212,252,39800,1,2,3:2:0:0:
112,291,39976,2,0,P|129:212|131:118,1,150,2|0,1:2|0:0,0:0:0:0:
132,143,40330,2,0,P|85:103|15:112,1,100,2|0,1:2|3:2,0:0:0:0:
1,193,40684,2,0,P|4:222|21:252,1,50,2|2,1:2|0:0,0:0:0:0:
182,348,41038,38,0,B|215:326|259:352|259:352|294:377|347:344,1,150,2|8,1:2|0:2,0:0:0:0:
324,355,41393,2,0,P|314:310|320:218,1,100,2|10,1:2|0:2,0:0:0:0:
406,168,41747,1,2,1:2:0:0:
209,55,42100,1,2,1:2:0:0:
406,168,42455,6,0,L|390:283,1,100,2|2,1:2|3:2,0:0:0:0:
305,354,42808,2,0,L|289:239,1,100,2|10,1:2|0:2,0:0:0:0:
237,147,43162,2,0,L|250:47,2,100,2|2|2,1:2|3:2|1:2,0:0:0:0:
188,254,43694,1,8,0:2:0:0:
143,166,43870,38,0,P|98:229|95:322,1,150,2|8,1:2|0:2,0:0:0:0:
91,300,44224,2,0,P|63:231|5:184,1,150,2|0,1:2|0:0,0:0:0:0:
6,184,44578,6,0,P|13:116|5:74,1,100,2|0,1:2|3:2,0:0:0:0:
136,158,44932,2,0,P|112:114|99:65,1,100,2|8,1:2|0:2,0:0:0:0:
37,11,45286,1,4,0:3:0:0:
256,192,53782,12,0,55906,0:0:0:0:
134,250,56260,21,0,0:0:0:0:
134,250,56614,2,0,P|140:196|204:216,2,120,2|0|0,3:2|1:2|1:2,0:0:0:0:
219,283,57322,2,0,P|283:270|369:341,1,160,2|0,0:2|1:2,0:0:0:0:
449,358,57853,1,0,1:2:0:0:
449,358,57941,1,0,1:2:0:0:
449,358,58030,38,0,P|441:276|451:218,1,120,2|0,3:2|1:2,0:0:0:0:
459,228,58384,1,2,0:2:0:0:
487,146,58561,2,0,P|442:142|405:163,1,80,2|0,1:2|0:0,0:0:0:0:
347,212,58915,2,0,P|357:173|341:50,1,160,2|0,3:2|1:2,0:0:0:0:
320,43,59357,1,0,1:2:0:0:
290,33,59446,6,0,L|193:49,1,80,2|2,3:2|0:2,0:0:0:0:
147,119,59800,2,0,L|50:103,1,80,2|2,0:2|1:2,0:0:0:0:
28,22,60153,2,0,P|76:17|112:25,1,80,2|2,0:2|1:2,0:0:0:0:
147,119,60507,2,0,P|179:146|200:188,1,80,2|2,1:2|1:2,0:0:0:0:
202,200,60773,1,0,1:2:0:0:
207,224,60861,38,0,B|191:321|191:321|181:381|73:370|108:282,1,240,2|2,3:2|1:2,0:0:0:0:
207,224,61569,2,0,B|295:214|295:214|351:209|366:306|280:296,1,200,0|0,3:2|1:2,0:0:0:0:
254,348,62100,1,0,1:2:0:0:
254,348,62189,1,0,1:2:0:0:
254,348,62277,6,0,P|308:349|367:388,1,120,2|0,3:2|1:2,0:0:0:0:
363,384,62631,2,0,B|345:306|406:275|406:275|456:245|455:162,1,240,2|2,3:2|3:2,0:0:0:0:
452,87,63339,1,2,1:2:0:0:
384,24,63516,1,2,1:2:0:0:
384,24,63605,1,0,1:2:0:0:
384,24,63693,38,0,P|310:53|271:130,1,160,2|2,3:2|0:2,0:0:0:0:
222,199,64224,2,0,P|226:132|185:39,1,160,2|2,1:2|3:2,0:0:0:0:
107,21,64755,1,0,1:2:0:0:
94,113,64932,6,0,L|100:161,2,40,0|0|2,1:2|1:2|3:2,0:0:0:0:
11,72,65286,1,2,0:2:0:0:
11,72,65463,2,0,P|1:139|5:162,1,80,2|2,0:2|1:2,0:0:0:0:
50,221,65817,2,0,P|25:284|10:301,1,80,2|2,0:2|3:2,0:0:0:0:
57,374,66171,1,2,1:2:0:0:
143,333,66348,1,2,1:2:0:0:
232,350,66525,38,0,B|285:377|327:314|289:274|289:274|242:232|257:150|314:120|400:149|374:207,1,360.000013732911,2|2,3:2|3:2,0:0:0:0:
382,197,67145,1,0,3:2:0:0:
385,222,67233,2,0,L|373:280,2,40,0|0|2,1:2|3:2|1:2,0:0:0:0:
477,190,67587,6,0,L|470:130,1,40,10|10,3:2|3:2,0:0:0:0:
498,120,67764,2,0,L|490:70,1,40,10|10,3:2|3:2,0:0:0:0:
484,48,67941,6,0,B|438:33|418:65|418:65|390:105|340:81,1,150,2|8,1:2|0:2,0:0:0:0:
351,86,68295,2,0,L|225:109,1,100,2|0,1:2|0:0,0:0:0:0:
173,43,68649,1,2,1:2:0:0:
112,290,69003,1,2,1:2:0:0:
26,97,69357,5,2,1:2:0:0:
26,97,69446,1,2,0:2:0:0:
26,97,69534,2,0,P|30:47|67:-6,2,100,2|2|2,0:2|1:2|0:2,0:0:0:0:
46,194,70065,1,2,1:2:0:0:
46,194,70419,1,2,1:2:0:0:
148,184,70596,1,2,0:2:0:0:
215,250,70773,38,0,P|209:299|183:341,1,100,2|2,1:2|3:2,0:0:0:0:
117,275,71127,2,0,P|122:225|148:183,1,100,2|2,1:2|0:2,0:0:0:0:
222,119,71481,2,0,L|200:8,2,100,2|2|2,1:2|0:2|1:2,0:0:0:0:
297,189,72012,1,2,0:2:0:0:
331,91,72189,6,0,P|350:72|375:61,1,50,2|0,1:2|0:0,0:0:0:0:
501,183,72543,2,0,P|482:202|457:213,1,50,2|0,1:2|0:0,0:0:0:0:
297,189,72897,2,0,P|278:170|267:145,1,50,2|0,1:2|0:0,0:0:0:0:
387,303,73251,2,0,P|375:325|358:342,1,50,2|0,1:2|0:0,0:0:0:0:
161,343,73605,37,2,1:2:0:0:
190,228,73782,1,2,3:2:0:0:
161,343,73959,2,0,P|92:340|34:263,1,150,2|0,1:2|0:0,0:0:0:0:
39,283,74313,2,0,P|62:209|56:166,1,100,2|0,1:2|0:0,0:0:0:0:
15,84,74667,2,0,L|20:31,1,50,2|2,1:2|0:0,0:0:0:0:
172,151,75021,6,0,B|247:155|247:155|286:156|304:122|297:94,1,150,2|0,1:2|0:0,0:0:0:0:
298,110,75375,2,0,P|263:70|191:70,1,100,2|2,1:2|0:2,0:0:0:0:
109,79,75729,1,2,1:2:0:0:
227,280,76083,1,2,1:2:0:0:
464,152,76437,38,0,L|445:36,1,100,2|2,1:2|3:2,0:0:0:0:
344,72,76791,2,0,L|248:3,1,100,2|2,1:2|0:2,0:0:0:0:
202,100,77145,2,0,L|85:119,2,100,2|2|2,1:2|0:2|1:2,0:0:0:0:
291,163,77676,1,2,0:2:0:0:
248,265,77853,6,0,P|243:317|338:366,1,150,2|8,1:2|0:0,0:0:0:0:
323,378,78207,2,0,P|366:348|342:244,1,150,2|0,1:2|0:0,0:0:0:0:
361,259,78561,38,0,L|379:141,1,100,2|0,1:2|0:0,0:0:0:0:
248,265,78915,2,0,L|203:154,1,100,2|2,1:2|0:2,0:0:0:0:
288,115,79269,5,2,0:2:0:0:
288,115,79623,38,0,P|265:65|205:49,1,100,6|8,1:2|0:2,0:0:0:0:
183,51,79888,1,0,0:0:0:0:
183,51,79977,2,0,P|147:100|69:104,1,100,2|0,1:2|3:2,0:0:0:0:
31,45,80331,1,2,1:2:0:0:
44,232,80685,5,2,1:2:0:0:
44,232,80774,1,2,0:2:0:0:
44,232,80862,2,0,L|58:351,2,100,2|2|10,3:2|1:2|0:2,0:0:0:0:
28,137,81393,1,2,1:2:0:0:
166,267,81747,1,2,1:2:0:0:
251,223,81924,1,10,0:2:0:0:
259,133,82101,38,0,P|210:138|175:174,1,100,2|2,1:2|3:2,0:0:0:0:
166,267,82454,2,0,P|195:306|243:319,1,100,2|10,1:2|0:2,0:0:0:0:
328,280,82808,2,0,P|347:234|334:186,2,100,2|2|2,1:2|3:2|1:2,0:0:0:0:
323,368,83340,1,10,0:2:0:0:
437,354,83517,6,0,L|451:277,1,50,2|0,1:2|0:0,0:0:0:0:
512,182,83871,2,0,L|501:130,1,50,2|0,1:2|0:0,0:0:0:0:
377,43,84224,2,0,L|391:120,1,50,2|0,1:2|0:0,0:0:0:0:
338,231,84578,2,0,L|327:283,1,50,2|0,1:2|0:0,0:0:0:0:
198,343,84933,37,2,1:2:0:0:
288,384,85110,1,2,3:2:0:0:
198,343,85286,2,0,P|179:272|217:170,1,150,2|0,1:2|0:0,0:0:0:0:
196,199,85640,2,0,P|154:250|93:258,1,100,2|0,1:2|3:2,0:0:0:0:
30,252,85994,2,0,P|33:223|50:193,1,50,2|2,1:2|0:0,0:0:0:0:
28,85,86348,6,0,B|93:39|93:39|128:14|181:47,1,150,2|8,1:2|0:2,0:0:0:0:
159,35,86702,2,0,L|268:77,1,100,2|10,1:2|0:2,0:0:0:0:
349,109,87057,1,2,1:2:0:0:
390,280,87410,1,2,1:2:0:0:
451,142,87765,38,0,P|453:89|429:36,1,100,2|2,1:2|3:2,0:0:0:0:
349,109,88118,2,0,P|341:165|313:208,1,100,2|10,1:2|0:2,0:0:0:0:
236,246,88472,2,0,P|231:292|249:346,2,100,2|2|2,1:2|3:2|1:2,0:0:0:0:
222,154,89004,1,10,0:2:0:0:
137,238,89180,6,0,L|27:359,1,150,2|8,1:2|0:2,0:0:0:0:
35,349,89534,2,0,L|3:200,1,150,2|0,1:2|0:0,0:0:0:0:
3,202,89888,38,0,P|34:152|48:101,1,100,2|0,1:2|3:2,0:0:0:0:
130,230,90242,2,0,P|119:178|127:129,1,100,2|8,1:2|0:2,0:0:0:0:
