osu file format v14

[General]
AudioFilename: audio.mp3
AudioLeadIn: 0
PreviewTime: 22285
Countdown: 0
SampleSet: Soft
StackLeniency: 0.7
Mode: 0
LetterboxInBreaks: 0
WidescreenStoryboard: 0

[Editor]
Bookmarks: 11312,22639,33967,45294,56622,67949,79277
DistanceSpacing: 0.6
BeatDivisor: 16
GridSize: 8
TimelineZoom: 1.699999

[Metadata]
Title:astrid
TitleUnicode:astrid
Artist:glaive
ArtistUnicode:glaive
Creator:jamesjan3
Version:from the heart
Source:
Tags:hyperpop glitchcore cypress grove rap pop hip hop hip-hop english electronic sylas thekoala some hero
BeatmapID:2650657
BeatmapSetID:1275747

[Difficulty]
HPDrainRate:6
CircleSize:3.8
OverallDifficulty:8
ApproachRate:9.2
SliderMultiplier:2
SliderTickRate:1

[Events]
//Background and Video events
0,0,"jr-korpa-9XngoIpxcEo-unsplash.jpg",0,0
//Break Periods
2,45486,53212
//Storyboard Layer 0 (Background)
//Storyboard Layer 1 (Fail)
//Storyboard Layer 2 (Pass)
//Storyboard Layer 3 (Foreground)
//Storyboard Layer 4 (Overlay)
//Storyboard Sound Samples

[TimingPoints]
-23,353.982300884956,4,2,0,50,1,0
11304,-100,4,2,1,60,0,0
22277,-500,4,2,1,60,0,0
22631,-50,4,2,2,70,0,0
23339,-75.187969924812,4,2,2,70,0,0
23693,-57.1428571428571,4,2,2,70,0,0
24047,-50,4,2,2,70,0,0
24313,-66.6666666666667,4,2,2,70,0,0
24755,-75.187969924812,4,2,2,70,0,0
25109,-50,4,2,2,70,0,0
25286,-66.6666666666667,4,2,2,70,0,0
25640,-100,4,2,2,70,0,0
26702,-66.6666666666667,4,2,2,70,0,0
26968,-100,4,2,2,70,0,0
27233,-50,4,2,2,70,0,0
27410,-66.6666666666667,4,2,2,70,0,0
27587,-75.187969924812,4,2,2,70,0,0
27941,-57.1428571428571,4,2,2,70,0,0
29446,-100,4,2,2,70,0,0
29711,-50,4,2,2,70,0,0
30242,-66.6666666666667,4,2,2,70,0,0
30419,-75.187969924812,4,2,2,70,0,0
30773,-57.1428571428571,4,2,2,70,0,0
31304,-100,4,2,2,70,0,0
32366,-66.6666666666667,4,2,2,70,0,0
32543,-50,4,2,2,70,0,0
33959,-166.666666666667,4,2,2,70,0,0
34003,-333.333333333333,4,2,2,5,0,0
34313,-45.4545454545455,4,2,2,80,0,0
34667,-75.187969924812,4,2,2,80,0,0
35021,-50,4,2,2,80,0,0
35375,-45.4545454545455,4,2,2,80,0,0
35641,-66.6666666666667,4,2,2,80,0,0
36083,-75.187969924812,4,2,2,80,0,0
36437,-45.4545454545455,4,2,2,80,0,0
36614,-66.6666666666667,4,2,2,80,0,0
36968,-100,4,2,2,80,0,0
38030,-66.6666666666667,4,2,2,80,0,0
38561,-45.4545454545455,4,2,2,80,0,0
38738,-66.6666666666667,4,2,2,80,0,0
38915,-50,4,2,2,80,0,0
39269,-100,4,2,2,80,0,0
39623,-50,4,2,2,80,0,0
40773,-100,4,2,2,80,0,0
41038,-45.4545454545455,4,2,2,80,0,0
41569,-50,4,2,2,80,0,0
41746,-57.8034682080925,4,2,2,80,0,0
42100,-50,4,2,2,80,0,0
42631,-100,4,2,2,80,0,0
43693,-66.6666666666667,4,2,2,80,0,0
43870,-37.037037037037,4,2,2,80,0,0
44578,-40,4,2,2,80,0,0
45286,-45.4545454545455,4,2,1,60,0,0
53782,-45.4545454545455,4,2,1,65,0,0
54490,-45.4545454545455,4,2,1,70,0,0
55198,-45.4545454545455,4,2,1,75,0,0
55906,-45.4545454545455,4,2,1,80,0,0
56260,-200,4,2,1,60,0,0
56614,-80,4,2,1,60,0,0
57322,-100,4,2,1,60,0,0
61569,-66.6666666666667,4,2,1,60,0,0
62277,-100,4,2,1,60,0,0
63693,-80,4,2,1,60,0,0
66525,-66.6666666666667,4,2,1,60,0,0
67056,-66.6666666666667,4,2,3,70,0,0
67587,-66.6666666666667,4,2,3,80,0,0
67940,-50,4,2,2,70,0,0
68648,-75.187969924812,4,2,2,70,0,0
69002,-57.1428571428571,4,2,2,70,0,0
69356,-50,4,2,2,70,0,0
69622,-66.6666666666667,4,2,2,70,0,0
70064,-75.187969924812,4,2,2,70,0,0
70418,-50,4,2,2,70,0,0
70595,-66.6666666666667,4,2,2,70,0,0
70949,-100,4,2,2,70,0,0
72011,-66.6666666666667,4,2,2,70,0,0
72277,-100,4,2,2,70,0,0
72542,-50,4,2,2,70,0,0
72719,-66.6666666666667,4,2,2,70,0,0
72896,-75.187969924812,4,2,2,70,0,0
73250,-57.1428571428571,4,2,2,70,0,0
74755,-100,4,2,2,70,0,0
75020,-50,4,2,2,70,0,0
75551,-66.6666666666667,4,2,2,70,0,0
75728,-75.187969924812,4,2,2,70,0,0
76082,-57.1428571428571,4,2,2,70,0,0
76613,-100,4,2,2,70,0,0
77675,-66.6666666666667,4,2,2,70,0,0
77852,-50,4,2,2,70,0,0
78561,-43.4782608695652,4,2,2,70,0,0
79269,-166.666666666667,4,2,2,70,0,0
79313,-333.333333333333,4,2,2,5,0,0
79623,-45.4545454545455,4,2,2,80,0,0
79977,-75.187969924812,4,2,2,80,0,0
80330,-50,4,2,2,80,0,0
80684,-45.4545454545455,4,2,2,80,0,0
80950,-66.6666666666667,4,2,2,80,0,0
81392,-75.187969924812,4,2,2,80,0,0
81746,-45.4545454545455,4,2,2,80,0,0
81923,-66.6666666666667,4,2,2,80,0,0
82277,-100,4,2,2,80,0,0
83339,-66.6666666666667,4,2,2,80,0,0
83605,-66.6666666666667,4,2,2,80,0,0
83870,-45.4545454545455,4,2,2,80,0,0
84047,-66.6666666666667,4,2,2,80,0,0
84224,-50,4,2,2,80,0,0
84578,-100,4,2,2,80,0,0
84932,-50,4,2,2,80,0,0
86082,-100,4,2,2,80,0,0
86347,-45.4545454545455,4,2,2,80,0,0
86878,-50,4,2,2,80,0,0
87055,-57.8034682080925,4,2,2,80,0,0
87409,-50,4,2,2,80,0,0
87940,-100,4,2,2,80,0,0
89179,-37.037037037037,4,2,2,80,0,0
89888,-45.4545454545455,4,2,2,80,0,0

[Colours]
Combo1 : 136,148,225
Combo2 : 255,36,123
Combo3 : 231,88,91
Combo4 : 170,136,217

[HitObjects]
100,226,11304,37,2,3:2:0:0:
150,47,11569,1,0,1:2:0:0:
325,128,11835,1,2,1:2:0:0:
247,167,12012,6,0,P|200:150|138:141,1,100,2|2,0:2|3:2,0:0:0:0:
365,53,12366,1,2,1:2:0:0:
315,213,12543,37,2,1:2:0:0:
316,237,12631,1,0,1:2:0:0:
319,260,12720,2,0,P|365:276|415:285,1,100,2|2,3:2|0:2,0:0:0:0:
477,240,12985,2,0,P|448:192|400:203,1,100,2|0,1:2|0:0,0:0:0:0:
401,205,13251,5,2,1:2:0:0:
317,353,13428,2,0,B|257:346|242:303|242:303|220:241|159:251,1,200,2|2,0:2|1:2,0:0:0:0:
89,354,13959,37,0,1:2:0:0:
130,362,14047,1,0,1:2:0:0:
164,335,14136,1,2,3:2:0:0:
159,167,14313,1,2,0:2:0:0:
56,148,14490,1,2,0:2:0:0:
16,215,14667,1,2,1:2:0:0:
81,273,14844,5,2,0:2:0:0:
198,255,15021,1,2,3:2:0:0:
271,102,15198,1,2,1:2:0:0:
227,38,15375,37,2,1:2:0:0:
195,68,15463,1,0,1:2:0:0:
192,112,15552,1,2,3:2:0:0:
360,160,15729,2,0,P|351:83|351:32,1,100,2|2,0:2|0:2,0:0:0:0:
279,189,16083,1,2,1:2:0:0:
451,105,16260,6,0,P|448:154|441:204,1,100,2|0,3:2|1:2,0:0:0:0:
380,327,16614,1,2,1:2:0:0:
499,280,16791,38,0,P|472:282|413:297,1,50,0|0,1:2|1:2,0:0:0:0:
299,347,16968,2,0,P|265:344|192:325,1,100,2|2,3:2|0:2,0:0:0:0:
208,99,17322,6,0,P|270:100|291:193,1,150,2|0,3:2|0:0,0:0:0:0:
296,187,17676,2,0,L|244:196,2,50,2|0|2,0:2|0:0|3:2,0:0:0:0:
361,76,18030,1,2,1:2:0:0:
140,45,18207,37,2,1:2:0:0:
127,77,18295,1,0,1:2:0:0:
124,111,18384,2,0,P|124:169|134:239,1,100,2|2,3:2|0:2,0:0:0:0:
117,287,18649,2,0,P|184:278|196:235,1,100,0|0,1:2|0:0,0:0:0:0:
202,237,18915,5,2,1:2:0:0:
34,91,19092,2,0,P|32:188|13:321,1,200,2|2,0:2|1:2,0:0:0:0:
110,380,19623,37,0,1:2:0:0:
159,376,19711,1,0,1:2:0:0:
204,355,19800,1,2,3:2:0:0:
288,184,19977,1,2,0:2:0:0:
128,136,20153,1,2,0:2:0:0:
127,214,20330,1,2,1:2:0:0:
302,283,20507,5,2,0:2:0:0:
453,166,20684,1,2,3:2:0:0:
275,97,20861,1,2,1:2:0:0:
227,238,21038,37,2,1:2:0:0:
218,198,21127,1,0,1:2:0:0:
211,159,21215,1,2,3:2:0:0:
367,108,21392,1,2,0:2:0:0:
415,297,21569,1,2,0:2:0:0:
334,206,21746,1,2,1:2:0:0:
370,25,21923,6,0,B|410:21|434:51|434:51|463:94|512:79,1,150,2|0,0:2|0:0,0:0:0:0:
512,61,22277,38,0,L|484:64,1,20,2|2,0:2|0:2,0:0:0:0:
305,118,22631,22,0,B|329:158|265:193|231:148|231:148|179:82,1,200,2|0,1:2|3:2,0:0:0:0:
281,20,22985,2,0,B|244:170|244:170|230:232|148:234|141:159,1,300,2|0,1:2|0:0,0:0:0:0:
12,20,23339,6,0,B|66:7|95:55|95:55|123:103|186:86,1,199.499991780854,2|0,1:2|0:0,0:0:0:0:
166,7,23693,2,0,L|8:111,1,175.00000166893,2|0,1:2|0:0,0:0:0:0:
51,329,24047,38,0,P|94:368|146:360,1,100,2|2,1:2|0:2,0:0:0:0:
206,312,24224,1,2,0:2:0:0:
206,312,24313,2,0,P|238:290|250:242,2,75.0000028610231,2|2|0,0:0|1:2|0:0,0:0:0:0:
136,369,24578,1,2,0:2:0:0:
100,182,24755,6,0,B|68:127|107:88|107:88|146:47|119:-1,1,200,2|0,1:2|0:0,0:0:0:0:
43,45,25109,2,0,P|84:83|147:87,1,100,2|0,1:2|0:0,0:0:0:0:
188,170,25286,2,0,P|232:159|258:111,1,75.0000028610231,2|0,0:2|0:0,0:0:0:0:
421,39,25463,37,2,1:2:0:0:
325,24,25640,2,0,L|338:81,1,50,2|8,3:2|0:0,0:0:0:0:
428,293,25817,5,2,1:2:0:0:
490,218,25994,2,0,L|434:200,1,50,2|0,0:2|0:0,0:0:0:0:
188,170,26171,37,2,1:2:0:0:
231,256,26348,2,0,L|273:216,1,50,2|0,0:2|0:0,0:0:0:0:
421,39,26525,6,0,L|386:95,1,50,2|0,1:2|0:0,0:0:0:0:
353,171,26702,2,0,L|289:120,1,75.0000028610231,2|0,0:2|0:0,0:0:0:0:
139,7,26879,37,2,1:2:0:0:
139,7,26968,2,0,P|144:38|143:6,1,100,2|8,0:0|0:2,0:0:0:0:
47,33,27233,6,0,P|11:69|9:136,1,100,2|0,1:2|0:0,0:0:0:0:
131,157,27410,2,0,P|155:188|155:230,1,75.0000028610231,2|0,0:2|0:0,0:0:0:0:
5,269,27587,38,0,B|52:241|97:284|97:284|138:323|192:300,1,199.499991780854,2|0,1:2|0:0,0:0:0:0:
157,222,27941,2,0,L|30:343,1,175.00000166893,2|0,1:2|0:0,0:0:0:0:
391,303,28295,5,2,1:2:0:0:
346,77,28472,1,2,3:2:0:0:
391,303,28649,38,0,P|409:243|500:177,1,175.00000166893,2|0,1:2|0:0,0:0:0:0:
466,374,29003,2,0,P|433:288|254:237,1,262.500002503395,2|0,1:2|0:0,0:0:0:0:
222,291,29357,5,2,1:2:0:0:
222,291,29446,2,0,P|201:303|227:293,1,100,2|0,0:0|0:0,0:0:0:0:
282,229,29711,38,0,B|316:114|316:114|334:56|283:0|198:55|232:106,1,300,2|0,1:2|0:0,0:0:0:0:
209,178,30065,5,2,1:2:0:0:
477,119,30242,2,0,P|449:104|392:111,1,75.0000028610231,2|0,0:2|0:0,0:0:0:0:
209,178,30419,38,0,B|157:196|161:258|161:258|164:314|112:341,1,199.499991780854,2|0,1:2|0:0,0:0:0:0:
74,269,30773,2,0,L|248:241,1,175.00000166893,2|0,1:2|0:0,0:0:0:0:
489,16,31127,5,2,1:2:0:0:
408,29,31304,2,0,L|395:97,1,50,2|8,3:2|0:0,0:0:0:0:
246,241,31481,37,2,1:2:0:0:
338,257,31658,2,0,L|328:207,1,50,2|0,0:2|0:0,0:0:0:0:
184,23,31835,5,2,1:2:0:0:
104,43,32012,2,0,L|94:92,1,50,2|0,0:2|0:0,0:0:0:0:
158,299,32189,38,0,L|126:260,1,50,2|0,1:2|0:0,0:0:0:0:
11,198,32366,2,0,L|108:177,1,75.0000028610231,2|0,0:2|0:0,0:0:0:0:
238,97,32543,6,0,B|319:84|358:169|358:169|393:247|481:245,1,300,2|0,1:2|0:0,0:0:0:0:
499,153,32897,2,0,B|429:108|359:170|359:170|295:227|215:189,1,300,2|0,1:2|0:0,0:0:0:0:
238,97,33251,38,0,B|252:29|344:49|329:116|329:116|296:270,1,300,2|8,1:2|0:2,0:0:0:0:
499,153,33605,2,0,B|513:85|421:65|407:133|407:133|378:273,1,300,2|0,1:2|0:0,0:0:0:0:
324,333,33959,6,0,L|320:348,1,14.9999995422363,2|0,0:2|0:0,0:0:0:0:
324,333,34313,38,0,B|362:322|341:251|292:257|292:257|180:274,1,220.000006713867,6|8,1:2|0:2,0:0:0:0:
173,350,34578,1,0,0:0:0:0:
184,350,34667,2,0,L|271:338,1,66.4999972602845,2|0,1:2|0:0,0:0:0:0:
244,188,34844,2,0,L|331:176,1,66.4999972602845,0|8,3:2|0:2,0:0:0:0:
84,124,35021,6,0,B|32:113|60:-2|171:12|227:144|122:220,1,300,2|0,1:2|0:0,0:0:0:0:
119,277,35375,2,0,P|64:248|64:198,1,110.000003356934,2|2,1:2|0:2,0:0:0:0:
258,89,35552,37,2,3:2:0:0:
256,101,35640,1,8,0:2:0:0:
254,113,35729,2,0,L|242:200,1,75.0000028610231,2|0,1:2|0:0,0:0:0:0:
271,260,35906,2,0,P|312:238|312:200,1,75.0000028610231,10|0,0:2|0:0,0:0:0:0:
286,20,36083,6,0,B|236:-4|195:42|195:42|158:84|102:66,1,199.499991780854,2|8,1:2|0:2,0:0:0:0:
97,58,36437,2,0,P|135:20|204:42,1,110.000003356934,2|0,1:2|0:0,0:0:0:0:
336,108,36614,2,0,P|364:134|417:120,1,75.0000028610231,10|0,0:2|0:0,0:0:0:0:
463,84,36791,37,2,1:2:0:0:
389,1,36968,2,0,P|387:34|397:75,1,50,2|8,3:2|0:2,0:0:0:0:
408,269,37145,5,2,1:2:0:0:
490,195,37322,2,0,P|457:193|416:203,1,50,10|0,0:2|0:0,0:0:0:0:
223,214,37499,37,2,1:2:0:0:
297,297,37676,2,0,P|299:264|289:223,1,50,2|8,3:2|0:2,0:0:0:0:
278,29,37853,6,0,P|280:53|279:80,1,50,2|0,1:2|0:0,0:0:0:0:
316,149,38030,2,0,L|390:143,1,75.0000028610231,8|0,0:2|0:0,0:0:0:0:
119,33,38207,37,2,1:2:0:0:
77,96,38295,2,0,P|109:107|194:36,1,150.000005722046,2|8,0:0|0:2,0:0:0:0:
119,33,38561,6,0,L|128:166,1,110.000003356934,2|0,1:2|0:0,0:0:0:0:
132,219,38738,2,0,L|141:352,1,75.0000028610231,10|0,0:2|0:0,0:0:0:0:
316,149,38915,38,0,B|335:124|335:103|335:103|396:145|392:292|261:321,1,300,2|8,1:2|0:2,0:0:0:0:
231,255,39269,6,0,B|196:222|222:160|238:154|238:154|236:171|256:196,1,150,2|0,1:2|0:0,0:0:0:0:
225,341,39623,37,2,1:2:0:0:
316,149,39800,2,0,P|326:215|301:251,1,100,2|8,3:2|0:2,0:0:0:0:
225,341,39977,6,0,P|132:296|12:278,1,200,2|8,1:2|0:2,0:0:0:0:
39,38,40330,2,0,P|53:154|205:99,1,300,2|8,1:2|0:2,0:0:0:0:
210,43,40684,37,2,1:2:0:0:
210,43,40773,2,0,P|193:13|204:45,1,100,2|0,0:0|0:0,0:0:0:0:
116,84,41038,6,0,B|213:32|284:121|256:124|333:209|441:121,1,330.000010070801,2|8,1:2|0:2,0:0:0:0:
469,45,41392,37,2,1:2:0:0:
480,275,41569,2,0,B|475:292|442:282|445:259|445:259|453:207,1,100,10|0,0:2|0:0,0:0:0:0:
469,45,41746,6,0,B|463:9|395:24|404:74|404:74|420:182,1,173.000004223633,2|0,1:2|3:2,0:0:0:0:
372,206,42012,1,8,0:2:0:0:
369,216,42100,2,0,B|363:252|295:237|304:186|304:186|320:78,1,200,2|8,1:2|0:2,0:0:0:0:
248,26,42366,1,0,0:0:0:0:
234,33,42454,37,2,1:2:0:0:
238,111,42631,2,0,P|210:110|184:95,1,50,2|8,3:2|0:2,0:0:0:0:
24,10,42808,5,2,1:2:0:0:
104,7,42985,2,0,P|103:35|88:61,1,50,10|0,0:2|0:0,0:0:0:0:
3,221,43162,37,2,1:2:0:0:
0,141,43339,2,0,P|28:142|54:157,1,50,2|8,3:2|0:2,0:0:0:0:
237,281,43516,6,0,P|214:291|189:291,1,50,2|0,1:2|0:0,0:0:0:0:
114,298,43693,2,0,P|115:270|145:226,1,75.0000028610231,8|0,0:2|0:0,0:0:0:0:
384,92,43870,38,0,B|395:156|395:156|321:272|321:272|333:338,1,270.000001029968,2|2,1:2|3:2,0:0:0:0:
426,333,44136,1,8,0:2:0:0:
423,318,44224,2,0,B|412:253|412:253|302:169|302:169|290:103,1,270.000001029968,2|10,1:2|0:2,0:0:0:0:
451,53,44490,5,0,0:0:0:0:
465,57,44578,2,0,B|527:71|527:71|509:156|509:156|446:142|446:142|261:98,1,375,2|8,1:2|0:2,0:0:0:0:
205,90,44932,2,0,B|147:120|147:120|187:197|187:197|244:167|244:167|412:77,1,375,2|0,1:2|0:0,0:0:0:0:
328,31,45286,37,4,0:3:0:0:
256,192,53782,12,0,55906,0:0:0:0:
281,76,56260,22,0,L|273:141,1,50,2|2,0:2|0:2,0:0:0:0:
284,79,56614,6,0,B|202:45|209:165|83:116,2,187.5,2|0|0,3:2|1:2|1:2,0:0:0:0:
409,242,57322,2,0,P|351:229|349:135,1,150,2|0,0:2|0:0,0:0:0:0:
338,148,57676,1,0,1:2:0:0:
488,208,57853,37,0,1:2:0:0:
496,248,57941,1,0,1:2:0:0:
480,285,58030,2,0,P|389:288|306:334,1,150,2|0,3:2|1:2,0:0:0:0:
319,339,58384,1,2,0:2:0:0:
138,322,58561,6,0,P|201:332|219:290,1,100,2|0,1:2|0:0,0:0:0:0:
178,141,58915,2,0,P|166:207|170:270,1,100,2|0,3:2|1:2,0:0:0:0:
25,358,59269,1,0,1:2:0:0:
45,328,59357,1,0,1:2:0:0:
54,293,59446,1,2,3:2:0:0:
0,154,59623,1,2,0:2:0:0:
73,72,59800,1,2,0:2:0:0:
38,1,59977,1,2,1:2:0:0:
56,88,60153,37,2,0:2:0:0:
146,119,60330,1,2,1:2:0:0:
273,88,60507,1,2,1:2:0:0:
313,14,60684,5,2,1:2:0:0:
272,3,60773,1,0,1:2:0:0:
238,18,60861,2,0,P|213:66|192:179,1,150,2|0,3:2|1:2,0:0:0:0:
201,196,61215,1,2,0:2:0:0:
243,317,61392,2,0,P|251:274|250:256,1,50,2|0,1:2|0:0,0:0:0:0:
195,162,61569,38,0,P|208:88|240:20,1,150.000005722046,0|2,3:2|1:2,0:0:0:0:
401,260,61923,1,0,1:2:0:0:
479,201,62100,1,0,1:2:0:0:
473,166,62189,1,0,1:2:0:0:
447,136,62277,6,0,P|389:131|267:157,1,150,2|0,3:2|1:2,0:0:0:0:
299,145,62631,2,0,P|373:148|447:135,1,150,2|0,3:2|0:0,0:0:0:0:
476,104,62985,1,2,0:2:0:0:
412,37,63162,1,2,3:2:0:0:
288,26,63339,1,2,1:2:0:0:
221,72,63516,37,2,1:2:0:0:
247,95,63605,1,0,1:2:0:0:
285,106,63693,2,0,P|267:63|133:84,1,187.5,2|0,3:2|1:2,0:0:0:0:
130,96,64047,1,2,0:2:0:0:
192,241,64224,2,0,P|210:175|205:103,1,125,2|0,1:2|0:0,0:0:0:0:
107,258,64578,2,0,P|109:316|168:324,1,125,2|0,3:2|1:2,0:0:0:0:
350,207,64932,5,0,1:2:0:0:
397,220,65021,1,0,1:2:0:0:
437,249,65109,2,0,P|470:314|475:376,2,125,2|2|2,3:2|0:2|0:2,0:0:0:0:
360,119,65640,1,2,1:2:0:0:
224,218,65817,1,2,0:2:0:0:
290,340,65994,1,2,3:2:0:0:
248,137,66171,37,2,1:2:0:0:
102,219,66348,1,2,1:2:0:0:
71,142,66525,2,0,B|103:132|138:133|169:173|169:173|215:245|309:254|389:168|330:51|258:57,1,450.000017166138,2|2,3:2|3:2,0:0:0:0:
267,57,67145,5,0,3:2:0:0:
267,57,67233,1,0,1:2:0:0:
263,98,67322,1,0,3:2:0:0:
248,137,67410,1,2,1:2:0:0:
234,177,67499,1,0,1:2:0:0:
221,217,67587,37,10,3:2:0:0:
274,225,67676,1,10,3:2:0:0:
282,278,67764,1,10,3:2:0:0:
234,302,67853,1,10,3:2:0:0:
197,264,67941,22,0,B|147:240|111:298|111:298|71:360|-19:318,1,200,2|0,1:2|3:2,0:0:0:0:
192,368,68295,2,0,B|221:292|147:247|147:247|69:197|122:82,1,300,2|0,1:2|0:0,0:0:0:0:
268,72,68649,6,0,B|289:81|328:29|292:-13|242:2|242:2|169:25,1,199.499991780854,2|0,1:2|0:0,0:0:0:0:
100,25,69003,2,0,L|303:82,1,175.00000166893,2|0,1:2|0:0,0:0:0:0:
447,31,69357,38,0,P|447:79|481:114,1,100,2|2,1:2|0:2,0:0:0:0:
460,189,69534,1,2,0:2:0:0:
460,189,69623,2,0,P|436:220|388:230,2,75.0000028610231,2|2|0,0:0|1:2|0:0,0:0:0:0:
482,115,69888,1,2,0:2:0:0:
453,349,70065,6,0,P|373:313|253:291,1,199.499991780854,2|0,1:2|0:0,0:0:0:0:
185,279,70419,2,0,P|181:323|235:365,1,100,2|0,1:2|0:0,0:0:0:0:
327,216,70596,2,0,P|330:180|289:139,1,75.0000028610231,2|0,0:2|0:0,0:0:0:0:
125,36,70773,37,2,1:2:0:0:
93,107,70950,2,0,P|70:96|56:76,1,50,2|8,3:2|0:0,0:0:0:0:
298,147,71127,5,2,1:2:0:0:
251,83,71304,2,0,P|272:69|297:67,1,50,2|0,0:2|0:0,0:0:0:0:
114,240,71481,37,2,1:2:0:0:
193,231,71658,2,0,P|195:256|185:279,1,50,2|0,0:2|0:0,0:0:0:0:
125,36,71835,2,0,P|147:45|161:66,1,50,2|0,1:2|0:0,0:0:0:0:
72,178,72012,2,0,L|-25:201,1,75.0000028610231,2|0,0:2|0:0,0:0:0:0:
296,209,72189,5,2,1:2:0:0:
296,209,72277,2,0,P|291:240|292:208,1,100,2|0,0:0|0:0,0:0:0:0:
206,174,72543,38,0,P|240:137|288:123,1,100,2|0,1:2|0:0,0:0:0:0:
286,323,72720,2,0,P|248:312|219:286,1,75.0000028610231,2|0,0:2|0:0,0:0:0:0:
318,52,72897,6,0,B|308:30|361:-8|403:28|387:77|387:77|364:150,1,199.499991780854,2|0,1:2|0:0,0:0:0:0:
503,164,73251,2,0,B|456:151|428:190|428:190|400:230|348:216,1,175.00000166893,2|0,1:2|0:0,0:0:0:0:
151,44,73605,37,2,1:2:0:0:
213,263,73782,1,2,3:2:0:0:
151,44,73959,6,0,P|188:106|280:164,1,175.00000166893,2|0,1:2|0:0,0:0:0:0:
83,363,74313,2,0,P|44:238|51:108,1,262.500002503395,2|0,1:2|0:0,0:0:0:0:
65,33,74667,37,2,1:2:0:0:
65,33,74755,2,0,P|65:-2|54:31,1,100,2|0,0:0|0:0,0:0:0:0:
151,44,75021,6,0,B|266:10|266:10|324:-8|380:43|325:128|274:94,1,300,2|0,1:2|0:0,0:0:0:0:
208,109,75375,37,2,1:2:0:0:
464,166,75552,2,0,P|420:170|371:154,1,75.0000028610231,2|0,0:2|0:0,0:0:0:0:
208,109,75729,6,0,B|213:172|267:181|267:181|323:193|328:248,1,200,2|0,1:2|0:0,0:0:0:0:
320,341,76083,2,0,P|245:343|298:254,1,175.00000166893,2|0,1:2|0:0,0:0:0:0:
386,59,76437,37,2,1:2:0:0:
293,102,76614,2,0,P|317:106|339:118,1,50,2|0,0:2|0:0,0:0:0:0:
413,345,76791,5,2,1:2:0:0:
422,242,76968,2,0,P|406:261|384:274,1,50,2|0,0:2|0:0,0:0:0:0:
151,225,77145,37,2,1:2:0:0:
236,284,77322,2,0,P|227:260|226:235,1,50,2|0,0:2|0:0,0:0:0:0:
183,55,77499,2,0,P|191:78|206:97,1,50,2|0,1:2|0:0,0:0:0:0:
427,135,77676,2,0,L|353:149,1,75.0000028610231,2|0,0:2|0:0,0:0:0:0:
110,320,77853,6,0,P|144:176|308:141,1,300,2|8,1:2|0:0,0:0:0:0:
301,208,78207,2,0,P|159:234|63:128,1,300,2|0,1:2|0:0,0:0:0:0:
110,50,78561,38,0,B|152:24|202:69|180:124|180:124|99:348,1,345.000006580353,2|0,1:2|0:0,0:0:0:0:
199,363,78915,2,0,B|248:363|268:299|222:262|222:262|63:128,1,345.000006580353,2|0,1:2|0:0,0:0:0:0:
42,230,79269,6,0,L|56:225,1,14.9999995422363,2|0,0:2|0:0,0:0:0:0:
42,230,79623,38,0,B|41:269|115:270|124:221|124:221|140:109,1,220.000006713867,6|8,1:2|0:2,0:0:0:0:
219,54,79888,1,0,0:0:0:0:
211,65,79977,2,0,L|222:132,1,66.4999972602845,2|0,1:2|0:0,0:0:0:0:
325,255,80153,1,0,3:2:0:0:
320,269,80242,1,8,0:2:0:0:
314,280,80330,2,0,B|291:314|241:308|241:308|211:222|287:159|358:170,1,300,2|0,1:2|0:0,0:0:0:0:
383,95,80684,2,0,P|431:137|439:186,1,110.000003356934,2|2,1:2|0:2,0:0:0:0:
507,315,80861,5,2,3:2:0:0:
494,328,80950,2,0,L|398:334,2,75.0000028610231,8|2|0,0:2|1:2|0:0,0:0:0:0:
356,169,81215,2,0,P|315:191|315:229,1,75.0000028610231,10|0,0:2|0:0,0:0:0:0:
265,353,81392,38,0,B|320:359|343:302|343:302|365:250|423:249,1,199.499991780854,2|8,1:2|0:2,0:0:0:0:
419,332,81746,2,0,P|376:365|310:334,1,110.000003356934,2|0,1:2|0:0,0:0:0:0:
242,267,81923,2,0,P|214:241|161:255,1,75.0000028610231,10|0,0:2|0:0,0:0:0:0:
49,300,82100,5,2,1:2:0:0:
127,327,82277,2,0,L|131:377,1,50,2|8,3:2|0:2,0:0:0:0:
172,145,82454,37,2,1:2:0:0:
93,172,82631,2,0,L|89:221,1,50,10|0,0:2|0:0,0:0:0:0:
23,18,82808,5,2,1:2:0:0:
102,45,82985,2,0,L|105:94,1,50,2|8,3:2|0:2,0:0:0:0:
255,237,83162,2,0,L|201:228,1,50,2|0,1:2|0:0,0:0:0:0:
29,267,83339,2,0,L|92:218,1,75.0000028610231,10|0,0:2|0:0,0:0:0:0:
271,74,83516,37,2,1:2:0:0:
269,156,83605,2,0,P|225:142|198:43,1,150,2|0,0:0|0:0,0:0:0:0:
425,22,83870,6,0,P|479:38|516:89,1,110.000003356934,2|0,1:2|0:0,0:0:0:0:
415,118,84047,2,0,P|391:128|358:171,1,75.0000028610231,10|0,0:2|0:0,0:0:0:0:
420,355,84224,38,0,B|453:383|453:383|543:346|544:214|428:194,1,300,2|8,1:2|0:2,0:0:0:0:
308,248,84578,6,0,B|330:290|397:281|407:267|407:267|390:264|371:239,1,150,2|0,1:2|0:0,0:0:0:0:
360,164,84932,37,2,1:2:0:0:
213,265,85109,2,0,P|199:310|197:377,1,100,2|8,3:2|0:2,0:0:0:0:
360,164,85286,6,0,P|323:66|214:34,1,200,2|8,1:2|0:2,0:0:0:0:
158,70,85552,1,0,0:0:0:0:
145,80,85640,2,0,B|126:241|126:241|123:310|209:312|212:261,1,300,2|8,1:2|0:2,0:0:0:0:
255,179,85994,37,2,1:2:0:0:
255,179,86083,2,0,P|248:145|262:176,1,100,2|0,0:0|0:0,0:0:0:0:
216,268,86348,6,0,P|147:175|292:60,1,330.000010070801,2|8,1:2|0:2,0:0:0:0:
351,106,86702,37,2,1:2:0:0:
382,336,86879,2,0,P|427:320|431:260,1,100,10|0,0:2|0:0,0:0:0:0:
351,106,87056,6,0,B|309:78|271:117|271:117|241:154|192:143,1,173.000004223633,2|0,1:2|3:2,0:0:0:0:
180,56,87322,1,8,0:2:0:0:
199,50,87410,2,0,B|343:200,1,200,2|8,1:2|0:2,0:0:0:0:
291,265,87676,1,0,0:0:0:0:
271,278,87764,37,2,1:2:0:0:
197,235,87941,2,0,L|148:244,1,50,2|8,3:2|0:2,0:0:0:0:
471,179,88118,5,2,1:2:0:0:
437,104,88295,2,0,L|455:58,1,50,10|0,0:2|0:0,0:0:0:0:
464,383,88472,37,2,1:2:0:0:
388,269,88649,2,0,L|417:314,1,50,2|8,3:2|0:2,0:0:0:0:
253,299,88826,2,0,L|246:243,1,50,2|0,1:2|0:0,0:0:0:0:
479,183,89003,2,0,L|439:141,1,50,10|0,0:2|0:0,0:0:0:0:
219,40,89180,6,0,B|237:36|259:54|253:88|253:88|247:116|245:183|315:205|370:160|359:122,1,270.000001029968,2|8,1:2|0:2,0:0:0:0:
342,44,89446,1,8,0:2:0:0:
329,51,89534,2,0,B|310:43|285:55|283:91|283:91|283:119|270:185|198:192|153:137|172:102,1,270.000001029968,0|0,1:3|0:3,0:3:0:0:
206,30,89800,1,0,0:0:0:0:
219,40,89888,38,0,P|258:112|278:355,1,330.000010070801,2|8,1:2|0:2,0:0:0:0:
277,355,90242,1,2,1:2:0:0:
