osu file format v14

[General]
AudioFilename: audio.mp3
AudioLeadIn: 0
PreviewTime: 29787
Countdown: 0
SampleSet: Soft
StackLeniency: 0.7
Mode: 0
LetterboxInBreaks: 0
WidescreenStoryboard: 1

[Editor]
Bookmarks: 53489
DistanceSpacing: 1
BeatDivisor: 3
GridSize: 16
TimelineZoom: 1.1

[Metadata]
Title:2009
TitleUnicode:2009
Artist:glaive
ArtistUnicode:glaive
Creator:ellae
Version:min's hard
Source:
Tags:hyperpop glitchcore pop hip-hop hip hop english cypress grove flowziee li syaoran MinNin jamesjan jamesjan3 Kyairie NotABox
BeatmapID:2799998
BeatmapSetID:1348654

[Difficulty]
HPDrainRate:5
CircleSize:4.2
OverallDifficulty:7.5
ApproachRate:8
SliderMultiplier:2.74
SliderTickRate:1

[Events]
//Background and Video events
0,0,"--min.png",0,0
//Break Periods
2,54633,65766
//Storyboard Layer 0 (Background)
//Storyboard Layer 1 (Fail)
//Storyboard Layer 2 (Pass)
//Storyboard Layer 3 (Foreground)
//Storyboard Layer 4 (Overlay)
//Storyboard Sound Samples

[TimingPoints]
6101,755.191944619257,4,2,1,45,1,0
18184,-125,4,2,1,60,0,0
30267,-80,4,2,1,70,0,0
54433,-80,4,2,1,50,0,0
66516,-100,4,2,1,60,0,0
78599,-80,4,2,1,70,0,1
102765,-80,4,2,1,45,0,0

[Colours]
Combo1 : 255,255,185
Combo2 : 255,170,130
Combo3 : 255,136,136

[HitObjects]
58,50,6101,6,0,B|127:37|127:37|140:39|140:39|218:23,2,137,2|10|2,0:0|0:0|0:0,0:0:0:0:
60,55,7044,1,0,0:0:0:0:
129,157,7422,2,0,B|172:126|172:126|270:106,3,137,2|2|2|0,0:0|0:0|0:0|0:0,0:0:0:0:
304,170,8744,2,0,L|397:183,1,68.5,10|2,0:0|0:0,0:0:0:0:
449,234,9121,6,0,B|442:166|442:166|445:158|445:158|439:89,2,137,2|10|2,0:0|0:0|0:0,0:0:0:0:
449,234,10065,1,0,0:0:0:0:
350,294,10443,2,0,B|258:279|258:279|215:304,3,137,2|2|2|0,0:0|0:0|0:0|0:0,0:0:0:0:
69,249,12142,6,0,B|93:230|93:230|105:148|105:148|128:124,3,137,2|10|2|10,0:0|0:0|0:0|0:0,0:0:0:0:
195,164,13464,2,0,P|169:113|275:29,1,205.5,2|10,0:0|0:0,0:0:0:0:
297,91,14219,2,0,B|365:116|365:116|419:65,1,137,2|0,0:0|0:0,0:0:0:0:
411,71,14785,1,10,0:0:0:0:
481,203,15163,6,0,B|474:271|474:271|477:279|477:279|471:348,2,137,2|10|2,0:0|0:0|0:0,0:0:0:0:
481,203,16107,1,2,0:0:0:0:
374,282,16484,2,0,P|327:311|253:259,1,137,2|2,0:0|0:0,0:0:0:0:
259,276,17051,1,10,0:0:0:0:
176,247,17240,2,0,P|184:325|166:400,1,137,2|2,0:0|0:0,0:0:0:0:
173,382,17806,1,10,0:0:0:0:
16,234,18184,6,0,B|68:215|68:215|104:37,1,219.2,6|10,3:0|0:0,0:0:0:0:
211,22,19316,1,2,0:0:0:0:
211,22,19505,1,6,3:0:0:0:
279,60,19694,2,0,L|512:25,1,219.2,2|2,0:0|0:0,0:0:0:0:
486,114,20638,1,6,3:0:0:0:
486,114,20827,1,6,3:0:0:0:
486,114,21016,1,6,3:0:0:0:
512,201,21204,6,0,P|446:215|383:359,1,219.2,6|10,3:0|0:0,0:0:0:0:
262,290,22337,1,2,0:0:0:0:
191,320,22526,1,10,0:0:0:0:
191,320,22715,2,0,L|19:291,1,146.133333333333,2|2,0:0|0:0,0:0:0:0:
28,294,23470,1,2,0:0:0:0:
53,220,23659,1,6,3:0:0:0:
53,220,23848,1,6,3:0:0:0:
53,220,24036,1,6,3:0:0:0:
25,133,24225,6,0,B|168:107|99:194|255:162,1,219.2,6|2,3:0|0:0,0:0:0:0:
343,84,25358,1,2,0:0:0:0:
419,59,25547,1,6,3:0:0:0:
419,59,25735,2,0,P|446:166|431:220,1,146.133333333333,2|2,0:0|0:0,0:0:0:0:
434,216,26491,1,2,0:0:0:0:
360,213,26679,1,6,3:0:0:0:
296,261,26868,1,6,3:0:0:0:
296,261,27057,1,6,3:0:0:0:
256,192,27246,12,2,29511,0:0:0:0:
170,22,30267,6,0,P|158:120|120:203,1,171.25,6|10,0:0|0:0,0:0:0:0:
57,208,30833,1,0,3:0:0:0:
57,208,31022,2,0,P|52:268|77:325,1,85.625,2|2,0:0|0:0,0:0:0:0:
123,334,31399,1,10,0:0:0:0:
201,283,31588,6,0,L|294:296,1,85.625,2|2,3:0|0:0,0:0:0:0:
345,241,31966,1,2,0:0:0:0:
345,241,32155,1,10,0:0:0:0:
300,176,32343,2,0,P|304:121|316:67,1,85.625,2|2,0:0|0:0,0:0:0:0:
370,32,32721,1,2,3:0:0:0:
284,22,32910,1,10,0:0:0:0:
198,12,33099,1,10,0:0:0:0:
140,85,33287,6,0,P|175:145|179:252,1,171.25,2|10,3:0|0:0,0:0:0:0:
121,297,33854,1,2,0:0:0:0:
185,344,34043,2,0,P|231:335|278:330,1,85.625,2|2,0:0|3:0,0:0:0:0:
324,282,34420,1,10,0:0:0:0:
422,303,34609,6,0,B|468:310|468:310|507:278,1,85.625,2|2,3:0|0:0,0:0:0:0:
447,229,34987,1,2,0:0:0:0:
483,158,35175,1,10,0:0:0:0:
403,114,35364,2,0,P|358:116|303:122,1,85.625,2|2,0:0|0:0,0:0:0:0:
342,19,35742,1,2,3:0:0:0:
425,37,35931,1,10,0:0:0:0:
507,58,36119,1,10,0:0:0:0:
415,120,36308,6,0,P|423:214|449:298,1,171.25,2|10,3:0|0:0,0:0:0:0:
387,340,36875,1,0,3:0:0:0:
319,303,37063,2,0,P|271:291|216:287,1,85.625,2|2,0:0|0:0,0:0:0:0:
166,325,37441,1,10,0:0:0:0:
97,270,37630,6,0,L|108:175,1,85.625,2|2,3:0|0:0,0:0:0:0:
169,136,38007,1,2,0:0:0:0:
121,80,38196,1,10,0:0:0:0:
172,26,38385,2,0,P|221:23|278:7,1,85.625,2|2,0:0|0:0,0:0:0:0:
338,51,38763,1,2,3:0:0:0:
325,135,38951,1,10,0:0:0:0:
314,220,39140,1,10,0:0:0:0:
349,317,39329,6,0,P|351:258|446:214,1,171.25,2|10,3:0|0:0,0:0:0:0:
494,151,39895,1,0,0:0:0:0:
447,88,40084,2,0,P|451:36|470:0,2,85.625,2|2|10,0:0|3:0|0:0,0:0:0:0:
372,48,40651,6,0,B|333:27|333:27|279:37,1,85.625,2|2,3:0|0:0,0:0:0:0:
230,75,41028,1,2,0:0:0:0:
230,75,41217,2,0,P|187:79|147:94,1,85.625,10|2,0:0|0:0,0:0:0:0:
80,55,41595,1,2,0:0:0:0:
16,130,41783,1,2,3:0:0:0:
30,214,41972,1,2,0:0:0:0:
46,298,42161,1,2,0:0:0:0:
159,362,42350,6,0,B|273:363|213:321|326:318,1,171.25,6|10,0:0|0:0,0:0:0:0:
369,261,42916,1,0,3:0:0:0:
327,196,43105,2,0,P|331:150|352:99,1,85.625,2|2,0:0|0:0,0:0:0:0:
416,83,43483,1,10,0:0:0:0:
369,6,43671,6,0,L|264:17,1,85.625,2|2,3:0|0:0,0:0:0:0:
244,85,44049,1,2,0:0:0:0:
244,85,44238,1,10,0:0:0:0:
295,143,44426,2,0,P|306:194|299:239,1,85.625,2|2,0:0|0:0,0:0:0:0:
216,292,44804,1,2,3:0:0:0:
299,310,44993,1,10,0:0:0:0:
382,329,45182,1,10,0:0:0:0:
454,266,45370,6,0,P|442:197|460:62,1,171.25,2|10,3:0|0:0,0:0:0:0:
387,52,45937,1,2,0:0:0:0:
313,81,46126,2,0,P|255:90|206:114,1,85.625,2|2,0:0|3:0,0:0:0:0:
177,44,46503,1,10,0:0:0:0:
97,107,46692,6,0,B|79:150|79:150|112:196,1,85.625,2|2,3:0|0:0,0:0:0:0:
164,230,47070,1,2,0:0:0:0:
164,230,47258,1,10,0:0:0:0:
107,282,47447,2,0,P|55:269|14:265,1,85.625,2|2,0:0|0:0,0:0:0:0:
107,368,47825,1,2,3:0:0:0:
189,343,48014,1,10,0:0:0:0:
271,319,48202,1,10,0:0:0:0:
348,381,48391,6,0,P|311:323|314:184,1,171.25,2|10,3:0|0:0,0:0:0:0:
356,168,48958,1,0,3:0:0:0:
356,168,49146,1,2,0:0:0:0:
409,115,49335,2,0,P|417:69|414:23,1,85.625,2|10,0:0|0:0,0:0:0:0:
310,74,49713,6,0,L|208:49,1,85.625,2|2,3:0|0:0,0:0:0:0:
163,87,50090,1,2,0:0:0:0:
163,87,50279,1,10,0:0:0:0:
201,149,50468,2,0,P|209:201|199:266,1,85.625,2|2,0:0|0:0,0:0:0:0:
163,319,50846,1,2,3:0:0:0:
246,301,51034,1,10,0:0:0:0:
329,283,51223,1,10,0:0:0:0:
287,200,51412,6,0,P|291:134|337:26,1,171.25,2|10,3:0|0:0,0:0:0:0:
247,3,51978,1,0,0:0:0:0:
192,55,52167,2,0,P|140:68|76:59,2,85.625,2|2|10,0:0|3:0|0:0,0:0:0:0:
218,138,52734,6,0,P|202:188|211:250,1,85.625,2|2,3:0|0:0,0:0:0:0:
258,298,53111,1,2,0:0:0:0:
181,329,53300,1,10,0:0:0:0:
116,277,53489,2,0,P|115:234|100:194,1,85.625,2|2,0:0|0:0,0:0:0:0:
21,142,53866,1,2,3:0:0:0:
104,124,54055,1,10,0:0:0:0:
188,107,54244,1,10,0:0:0:0:
281,184,54433,5,0,0:0:0:0:
384,14,66516,6,0,P|371:50|371:100,1,68.5,6|0,3:0|0:0,0:0:0:0:
311,127,66893,2,0,P|323:158|326:192,1,68.5,2|8,0:0|0:0,0:0:0:0:
280,252,67271,1,2,0:0:0:0:
280,252,67460,2,0,P|232:285|220:316,1,68.5,2|0,0:0|0:0,0:0:0:0:
161,248,67837,2,0,P|131:154|75:127,1,137,6|2,3:0|0:0,0:0:0:0:
58,76,68404,1,0,0:0:0:0:
58,76,68593,1,2,0:0:0:0:
162,25,68970,1,6,3:0:0:0:
235,48,69159,2,6,P|279:40|328:-6,2,68.5,6|6|6,3:0|3:0|3:0,3:0:0:0:
347,123,69914,6,0,P|377:154|398:205,1,68.5,2|8,0:0|0:0,0:0:0:0:
373,252,70292,1,2,0:0:0:0:
373,252,70481,1,2,0:0:0:0:
252,269,70858,2,0,B|147:287|147:287|123:330,2,137,6|2|2,3:0|0:0|3:0,0:0:0:0:
232,137,71991,1,6,3:0:0:0:
232,137,72180,2,6,P|252:84|250:36,1,68.5,6|6,3:0|3:0,3:0:0:0:
179,10,72557,6,0,P|141:41|89:39,1,68.5,6|0,3:0|0:0,0:0:0:0:
50,23,72935,1,2,0:0:0:0:
64,127,73313,1,2,0:0:0:0:
89,230,73690,1,2,0:0:0:0:
89,230,73879,1,6,3:0:0:0:
48,296,74068,1,2,0:0:0:0:
48,296,74257,2,0,P|92:320|134:320,1,68.5,2|0,0:0|0:0,0:0:0:0:
180,295,74634,1,2,0:0:0:0:
279,345,75012,1,6,3:0:0:0:
352,324,75201,1,6,3:0:0:0:
427,303,75389,1,6,3:0:0:0:
427,303,75578,5,6,3:0:0:0:
256,192,75767,12,0,77844,0:0:0:0:
145,24,78599,6,0,P|132:74|147:133,1,85.625,6|0,0:0|0:0,0:0:0:0:
219,146,78977,2,0,P|223:188|211:229,1,85.625,10|0,0:0|3:0,0:0:0:0:
143,273,79354,1,2,0:0:0:0:
216,245,79543,1,2,0:0:0:0:
282,286,79732,1,10,0:0:0:0:
341,213,79921,6,0,L|324:103,1,85.625,2|2,3:0|0:0,0:0:0:0:
373,69,80298,1,2,0:0:0:0:
373,69,80487,1,10,0:0:0:0:
425,134,80676,2,0,P|469:143|516:122,1,85.625,2|2,0:0|0:0,0:0:0:0:
456,49,81053,1,2,3:0:0:0:
373,69,81242,1,10,0:0:0:0:
290,88,81431,1,10,0:0:0:0:
205,36,81620,6,0,P|131:10|21:0,1,171.25,2|10,3:0|0:0,0:0:0:0:
70,74,82186,1,2,0:0:0:0:
25,134,82375,2,0,P|17:186|50:232,1,85.625,2|2,0:0|3:0,0:0:0:0:
106,194,82752,1,10,0:0:0:0:
151,267,82941,6,0,L|248:274,1,85.625,2|2,3:0|0:0,0:0:0:0:
294,226,83319,1,2,0:0:0:0:
294,226,83508,1,10,0:0:0:0:
347,283,83696,2,0,P|360:340|364:379,1,85.625,2|2,0:0|0:0,0:0:0:0:
443,340,84074,1,2,3:0:0:0:
449,254,84263,1,10,0:0:0:0:
454,168,84452,1,10,0:0:0:0:
365,115,84640,6,0,P|433:125|462:27,1,171.25,2|2,3:0|0:0,0:0:0:0:
403,12,85207,1,0,3:0:0:0:
335,45,85396,2,0,P|285:50|229:19,1,85.625,2|2,0:0|0:0,0:0:0:0:
185,2,85773,1,10,0:0:0:0:
112,73,85962,6,0,L|3:86,1,85.625,2|2,3:0|0:0,0:0:0:0:
55,155,86340,1,2,0:0:0:0:
16,222,86528,1,10,0:0:0:0:
74,273,86717,2,0,P|93:326|90:370,1,85.625,2|2,0:0|0:0,0:0:0:0:
172,295,87095,1,2,3:0:0:0:
255,319,87284,1,10,0:0:0:0:
336,346,87472,1,10,0:0:0:0:
407,269,87661,6,0,P|387:200|382:68,1,171.25,2|8,3:0|0:0,0:0:0:0:
428,45,88228,1,0,0:0:0:0:
368,96,88416,2,0,P|317:79|286:53,2,85.625,2|2|10,0:0|3:0|0:0,0:0:0:0:
285,172,88983,6,0,L|268:269,1,85.625,2|2,3:0|0:0,0:0:0:0:
309,323,89360,1,2,0:0:0:0:
233,344,89549,1,10,0:0:0:0:
166,307,89738,2,0,P|116:296|57:324,1,85.625,2|2,0:0|0:0,0:0:0:0:
108,223,90116,1,2,3:0:0:0:
96,138,90304,1,10,0:0:0:0:
82,53,90493,1,10,0:0:0:0:
176,95,90682,6,0,B|271:93|232:36|351:41,1,171.25,6|10,0:0|0:0,0:0:0:0:
395,85,91248,1,0,3:0:0:0:
363,155,91437,2,0,P|364:222|390:264,1,85.625,2|2,0:0|0:0,0:0:0:0:
447,254,91815,1,10,0:0:0:0:
383,326,92004,6,0,L|287:314,1,85.625,2|2,3:0|0:0,0:0:0:0:
256,249,92381,1,2,0:0:0:0:
182,275,92570,1,10,0:0:0:0:
110,246,92759,2,0,P|54:267|27:301,1,85.625,2|2,0:0|0:0,0:0:0:0:
39,186,93136,1,2,3:0:0:0:
54,101,93325,1,10,0:0:0:0:
66,16,93514,1,10,0:0:0:0:
145,80,93703,6,0,P|166:138|182:278,1,171.25,2|10,3:0|0:0,0:0:0:0:
142,309,94269,1,2,0:0:0:0:
202,354,94458,2,0,P|253:362|294:386,1,85.625,2|2,0:0|3:0,0:0:0:0:
352,336,94836,1,10,0:0:0:0:
287,262,95024,6,0,B|263:220|263:220|281:162,1,85.625,2|2,3:0|0:0,0:0:0:0:
319,124,95402,1,2,0:0:0:0:
382,168,95591,1,10,0:0:0:0:
438,115,95780,2,0,P|432:62|414:19,1,85.625,2|2,0:0|0:0,0:0:0:0:
330,50,96157,1,2,3:0:0:0:
246,33,96346,1,10,0:0:0:0:
162,18,96535,1,10,0:0:0:0:
198,114,96724,6,0,P|115:136|6:141,1,171.25,2|2,3:0|0:0,0:0:0:0:
78,216,97290,1,0,3:0:0:0:
31,277,97479,2,0,P|26:332|36:375,1,85.625,2|2,0:0|0:0,0:0:0:0:
100,336,97856,1,10,0:0:0:0:
187,375,98045,6,0,L|284:365,1,85.625,2|2,3:0|0:0,0:0:0:0:
324,313,98423,1,2,0:0:0:0:
271,262,98612,1,10,0:0:0:0:
304,194,98800,2,0,P|312:146|299:90,1,85.625,2|2,0:0|0:0,0:0:0:0:
244,34,99178,1,2,3:0:0:0:
330,24,99367,1,10,0:0:0:0:
416,18,99556,1,10,0:0:0:0:
384,104,99744,6,0,P|408:164|414:289,1,171.25,2|8,3:0|0:0,0:0:0:0:
359,323,100311,1,0,0:0:0:0:
290,288,100499,2,0,P|236:296|188:325,2,85.625,2|2|10,0:0|3:0|0:0,0:0:0:0:
338,203,101066,6,0,L|324:104,1,85.625,2|2,3:0|0:0,0:0:0:0:
267,71,101443,1,2,0:0:0:0:
198,95,101632,1,10,0:0:0:0:
140,44,101821,2,0,P|97:34|43:39,1,85.625,2|2,0:0|0:0,0:0:0:0:
88,118,102199,1,2,3:0:0:0:
76,202,102387,1,10,0:0:0:0:
63,286,102576,1,10,0:0:0:0:
115,374,102765,5,2,0:0:0:0:
