osu file format v14

[General]
AudioFilename: audio.mp3
AudioLeadIn: 0
PreviewTime: 29787
Countdown: 0
SampleSet: None
StackLeniency: 0.4
Mode: 0
LetterboxInBreaks: 0
WidescreenStoryboard: 1

[Editor]
Bookmarks: 38574
DistanceSpacing: 0.7
BeatDivisor: 12
GridSize: 16
TimelineZoom: 2.6

[Metadata]
Title:2009
TitleUnicode:2009
Artist:glaive
ArtistUnicode:glaive
Creator:ellae
Version:jamesjan's insane
Source:
Tags:hyperpop glitchcore pop hip-hop hip hop english cypress grove flowziee li syaoran MinNin jamesjan jamesjan3 Kyairie NotABox
BeatmapID:3240096
BeatmapSetID:1348654

[Difficulty]
HPDrainRate:6
CircleSize:3
OverallDifficulty:8
ApproachRate:9
SliderMultiplier:3.04
SliderTickRate:1

[Events]
//Background and Video events
0,0,"--min.png",0,0
//Break Periods
2,54637,65916
//Storyboard Layer 0 (Background)
//Storyboard Layer 1 (Fail)
//Storyboard Layer 2 (Pass)
//Storyboard Layer 3 (Foreground)
//Storyboard Layer 4 (Overlay)
//Storyboard Sound Samples

[TimingPoints]
6101,755.191944619257,4,2,1,45,1,0
18184,-80,4,2,1,60,0,0
29889,-133.333333333333,4,2,1,60,0,0
30267,-50,4,2,1,70,0,0
30644,-66.6666666666667,4,2,1,70,0,0
31777,-50,4,2,1,70,0,0
32343,-66.6666666666667,4,2,1,70,0,0
32721,-50,4,2,1,70,0,0
32910,-66.6666666666667,4,2,1,70,0,0
33287,-50,4,2,1,70,0,0
33665,-66.6666666666667,4,2,1,70,0,0
34798,-50,4,2,1,70,0,0
35364,-66.6666666666667,4,2,1,70,0,0
35742,-50,4,2,1,70,0,0
35931,-66.6666666666667,4,2,1,70,0,0
36308,-50,4,2,1,70,0,0
36686,-66.6666666666667,4,2,1,70,0,0
37819,-50,4,2,1,70,0,0
38385,-66.6666666666667,4,2,1,70,0,0
38763,-50,4,2,1,70,0,0
38951,-66.6666666666667,4,2,1,70,0,0
39329,-50,4,2,1,70,0,0
42727,-66.6666666666667,4,2,1,70,0,0
44804,-50,4,2,1,70,0,0
44993,-66.6666666666667,4,2,1,70,0,0
45370,-50,4,2,1,70,0,0
47447,-66.6666666666667,4,2,1,70,0,0
47825,-50,4,2,1,70,0,0
48014,-66.6666666666667,4,2,1,70,0,0
48391,-50,4,2,1,70,0,0
48769,-100,4,2,1,70,0,0
49146,-66.6666666666667,4,2,1,70,0,0
51412,-50,4,2,1,70,0,0
54433,-50,4,2,1,50,0,0
66516,-111.111111111111,4,2,1,60,0,0
77277,-80,4,2,1,60,0,0
78221,-133.333333333333,4,2,1,60,0,0
78599,-50,4,2,1,70,0,0
78977,-66.6666666666667,4,2,1,70,0,0
80109,-50,4,2,1,70,0,0
80676,-66.6666666666667,4,2,1,70,0,0
81053,-50,4,2,1,70,0,0
81242,-66.6666666666667,4,2,1,70,0,0
81620,-50,4,2,1,70,0,0
81997,-66.6666666666667,4,2,1,70,0,0
83130,-50,4,2,1,70,0,0
83696,-66.6666666666667,4,2,1,70,0,0
84074,-50,4,2,1,70,0,0
84263,-66.6666666666667,4,2,1,70,0,0
84640,-50,4,2,1,70,0,0
85018,-66.6666666666667,4,2,1,70,0,0
86151,-50,4,2,1,70,0,0
86717,-66.6666666666667,4,2,1,70,0,0
87095,-50,4,2,1,70,0,0
87284,-66.6666666666667,4,2,1,70,0,0
87661,-50,4,2,1,70,0,0
91060,-66.6666666666667,4,2,1,70,0,0
92192,-50,4,2,1,70,0,0
92759,-66.6666666666667,4,2,1,70,0,0
93136,-50,4,2,1,70,0,0
93325,-66.6666666666667,4,2,1,70,0,0
93703,-50,4,2,1,70,0,0
95780,-66.6666666666667,4,2,1,70,0,0
96157,-50,4,2,1,70,0,0
96346,-66.6666666666667,4,2,1,70,0,0
96724,-50,4,2,1,70,0,0
97101,-100,4,2,1,70,0,0
98234,-50,4,2,1,70,0,0
98800,-66.6666666666667,4,2,1,70,0,0
99178,-50,4,2,1,70,0,0
99367,-66.6666666666667,4,2,1,70,0,0
99744,-50,4,2,1,70,0,0
102765,-50,4,2,1,45,0,0

[Colours]
Combo1 : 255,255,185
Combo2 : 255,170,130
Combo3 : 255,136,136

[HitObjects]
64,163,5723,5,2,0:0:0:0:
64,146,5911,1,2,0:0:0:0:
54,133,6101,2,0,P|26:174|25:296,1,152,2|10,0:0|0:0,0:0:0:0:
182,356,6856,2,0,L|301:320,1,114,2|0,0:0|0:0,0:0:0:0:
295,326,7233,2,0,B|309:288|309:288|286:243,1,76,10|2,0:0|0:0,0:0:0:0:
226,189,7611,6,0,P|183:184|152:159,1,76,2|2,0:0|0:0,0:0:0:0:
288,121,7988,1,10,0:0:0:0:
292,256,8177,2,0,P|311:217|345:196,1,76,2|2,0:0|0:0,0:0:0:0:
481,43,8744,5,10,0:0:0:0:
470,31,8932,1,2,0:0:0:0:
477,18,9121,2,0,P|468:71|374:62,1,152,2|10,0:0|0:0,0:0:0:0:
191,23,9876,2,0,P|266:34|317:59,1,114,2|0,0:0|0:0,0:0:0:0:
304,55,10254,2,0,B|320:89|320:89|285:121,1,76,10|2,0:0|0:0,0:0:0:0:
132,162,10632,6,0,P|110:137|70:126,1,76,2|2,0:0|0:0,0:0:0:0:
201,100,11009,1,10,0:0:0:0:
225,188,11198,2,0,P|200:225|195:259,1,76,2|2,0:0|0:0,0:0:0:0:
428,371,11764,5,10,0:0:0:0:
447,360,11953,1,2,0:0:0:0:
458,342,12142,2,0,P|420:327|306:369,2,152,2|10|2,0:0|0:0|0:0,0:0:0:0:
507,275,13086,1,2,0:0:0:0:
512,259,13275,2,0,P|506:217|480:182,1,76,10|2,0:0|0:0,0:0:0:0:
437,105,13652,6,0,L|346:131,1,76,2|2,0:0|0:0,0:0:0:0:
281,161,14030,1,10,0:0:0:0:
256,8,14219,2,0,P|281:35|286:72,1,76,2|2,0:0|0:0,0:0:0:0:
62,283,14785,5,10,0:0:0:0:
103,181,14974,1,2,0:0:0:0:
45,288,15163,6,0,P|17:257|17:211,1,76,2|2,0:0|0:0,0:0:0:0:
138,89,15540,1,10,0:0:0:0:
44,133,15729,2,0,L|109:186,1,76,2|2,0:0|0:0,0:0:0:0:
147,278,16107,1,2,0:0:0:0:
219,230,16296,2,0,P|183:237|160:267,1,76,10|2,0:0|0:0,0:0:0:0:
216,379,16673,5,2,0:0:0:0:
277,300,16862,1,2,0:0:0:0:
369,306,17051,1,10,0:0:0:0:
219,230,17240,6,0,B|211:165|277:129|277:129|284:166,2,152,2|2|0,0:0|0:0|0:0,0:0:0:0:
373,336,18184,6,0,L|484:314,1,95,6|2,3:0|0:0,0:0:0:0:
274,307,18561,2,0,L|212:220,1,95,2|2,0:0|0:0,0:0:0:0:
336,102,18939,6,0,P|369:171|350:251,1,142.5,10|0,0:0|0:0,0:0:0:0:
355,230,19316,2,0,P|348:196|371:166,1,47.5,2|0,0:0|0:0,0:0:0:0:
422,134,19505,1,6,3:0:0:0:
428,141,19694,6,0,L|507:159,1,47.5,2|0,0:0|0:0,0:0:0:0:
406,46,19883,2,0,L|518:67,1,95,2|0,0:0|0:0,0:0:0:0:
502,72,20166,1,2,0:0:0:0:
227,60,20449,5,2,0:0:0:0:
65,212,20638,5,6,3:0:0:0:
27,58,20827,1,6,3:0:0:0:
143,158,21016,1,6,3:0:0:0:
73,350,21204,6,0,P|54:285|67:205,1,142.5,6|0,3:0|0:0,0:0:0:0:
64,211,21582,1,2,0:0:0:0:
193,255,21771,1,2,0:0:0:0:
294,204,21960,6,0,P|243:193|222:294,1,142.5,10|0,0:0|0:0,0:0:0:0:
165,338,22337,2,0,P|198:350|228:342,1,47.5,2|0,0:0|0:0,0:0:0:0:
291,296,22526,1,10,0:0:0:0:
407,252,22715,5,2,0:0:0:0:
398,236,22809,1,2,0:0:0:0:
387,221,22904,2,0,L|281:201,1,95,2|2,0:0|0:0,0:0:0:0:
283,193,23187,1,0,0:0:0:0:
477,37,23470,5,2,0:0:0:0:
214,29,23659,5,6,3:0:0:0:
385,50,23848,1,6,3:0:0:0:
221,128,24036,1,6,3:0:0:0:
52,49,24225,6,0,P|116:69|120:147,1,142.5,6|0,3:0|0:0,0:0:0:0:
117,144,24603,2,0,P|72:171|66:222,1,95,2|8,0:0|0:0,0:0:0:0:
128,363,24980,6,0,P|152:302|136:194,1,142.5,2|0,0:0|0:0,0:0:0:0:
72,165,25358,1,2,0:0:0:0:
72,165,25452,2,0,P|73:223|83:230,1,47.5,0|6,0:0|3:0,0:0:0:0:
224,269,25735,5,2,0:0:0:0:
233,254,25830,1,2,0:0:0:0:
242,242,25924,2,0,L|133:223,1,95,2|0,0:0|0:0,0:0:0:0:
309,307,26239,2,0,L|371:284,1,63.3333333333333,2|0,0:0|0:0,0:0:0:0:
433,210,26491,5,2,0:0:0:0:
368,13,26679,5,6,3:0:0:0:
230,168,26868,1,6,3:0:0:0:
431,101,27057,1,6,3:0:0:0:
203,42,27246,6,0,P|144:87|113:168,1,142.5,6|0,3:0|0:0,0:0:0:0:
34,187,27623,2,0,P|45:231|83:267,1,95,2|10,0:0|0:0,0:0:0:0:
164,345,28001,5,2,0:0:0:0:
369,216,28190,1,2,0:0:0:0:
300,288,28379,5,2,0:0:0:0:
116,148,28567,1,6,3:0:0:0:
152,234,28756,5,10,0:0:0:0:
354,140,28945,1,2,0:0:0:0:
206,86,29134,1,8,0:0:0:0:
300,288,29323,1,2,0:0:0:0:
256,192,29511,5,8,0:0:0:0:
256,192,29889,6,0,L|262:145,1,28.5000000000001,2|0,0:0|0:0,0:0:0:0:
66,73,30267,6,0,B|50:91|24:87|24:87|49:29|160:40|177:146,1,228,6|0,0:0|0:0,0:0:0:0:
174,199,30644,2,0,P|122:207|105:137,1,114,10|0,0:0|3:0,0:0:0:0:
415,124,31022,6,0,L|459:141,2,28.5000010871888,2|2|2,0:0|0:0|0:0,0:0:0:0:
290,83,31211,1,2,0:0:0:0:
306,175,31399,1,10,0:0:0:0:
366,19,31588,1,2,3:0:0:0:
203,136,31777,6,0,B|166:139|145:100|145:100|139:63|184:35,2,152,2|2|10,0:0|0:0|0:0,0:0:0:0:
343,168,32343,2,0,B|263:152|278:238|179:219,1,171,2|2,0:0|0:0,0:0:0:0:
103,174,32721,6,0,P|116:141|155:118,1,76,2|0,3:0|0:0,0:0:0:0:
148,143,32910,2,0,P|130:164|96:174,1,57,10|0,0:0|0:0,0:0:0:0:
51,80,33099,1,10,0:0:0:0:
61,77,33287,6,0,P|93:115|163:292,1,228,2|0,3:0|0:0,0:0:0:0:
121,357,33665,2,0,P|89:348|77:274,1,114,10|2,0:0|0:0,0:0:0:0:
248,176,34043,6,0,L|292:189,2,28.5000010871888,2|2|2,0:0|0:0|0:0,0:0:0:0:
132,145,34231,1,2,3:0:0:0:
161,277,34420,1,10,0:0:0:0:
241,54,34609,1,2,3:0:0:0:
425,220,34798,6,0,B|393:240|387:283|387:283|345:263|310:284,2,152,2|2|10,0:0|0:0|0:0,0:0:0:0:
398,56,35364,2,0,B|360:58|360:58|312:109|330:188,1,171,2|2,0:0|0:0,0:0:0:0:
362,264,35742,6,0,P|401:235|413:200,1,76,2|0,3:0|0:0,0:0:0:0:
448,172,35931,2,0,P|415:200|411:226,1,57,10|0,0:0|0:0,0:0:0:0:
460,348,36119,1,10,0:0:0:0:
470,341,36308,6,0,B|460:256|384:259|406:267|334:262|329:179,1,228,2|0,3:0|0:0,0:0:0:0:
241,165,36686,2,0,P|249:112|302:100,1,114,10|0,0:0|3:0,0:0:0:0:
468,51,37063,6,0,L|504:60,2,28.5000010871888,2|2|2,0:0|0:0|0:0,0:0:0:0:
375,15,37252,1,2,0:0:0:0:
500,147,37441,1,10,0:0:0:0:
302,100,37630,1,2,3:0:0:0:
351,254,37819,6,0,P|379:196|403:102,2,152,2|2|10,0:0|0:0|0:0,0:0:0:0:
155,281,38385,2,0,B|170:237|170:237|234:217|264:272|256:306,1,171,2|2,0:0|0:0,0:0:0:0:
189,342,38763,6,0,P|153:288|166:253,1,76,2|0,3:0|0:0,0:0:0:0:
60,235,38951,2,0,P|72:202|107:188,1,57,10|0,0:0|0:0,0:0:0:0:
142,111,39140,1,10,0:0:0:0:
155,116,39329,6,0,B|231:89|270:154|238:138|285:214|364:173,1,228,2|0,3:0|0:0,0:0:0:0:
402,95,39707,1,10,0:0:0:0:
395,100,40084,5,2,0:0:0:0:
186,197,40273,1,2,3:0:0:0:
155,116,40462,5,10,0:0:0:0:
355,176,40651,1,2,3:0:0:0:
275,218,40839,5,2,0:0:0:0:
269,12,41028,1,2,0:0:0:0:
269,12,41123,2,0,P|299:50|293:75,1,76,0|10,0:0|0:0,0:0:0:0:
186,196,41406,6,0,B|197:89|294:74|294:74|300:152|355:177,1,304,2|2,0:0|3:0,0:0:0:0:
426,63,41972,1,2,0:0:0:0:
272,249,42161,1,2,0:0:0:0:
111,83,42350,6,0,L|127:0,3,76,6|0|0|0,0:0|0:0|0:0|0:0,0:0:0:0:
27,132,42727,2,0,P|42:185|91:210,1,114,10|0,0:0|3:0,0:0:0:0:
256,259,43105,6,0,L|300:247,2,28.5000010871888,2|2|2,0:0|0:0|0:0,0:0:0:0:
190,331,43294,1,2,0:0:0:0:
162,331,43388,1,0,0:0:0:0:
141,320,43483,2,0,P|136:276|174:204,1,114,10|2,0:0|3:0,0:0:0:0:
306,100,43860,5,2,0:0:0:0:
244,255,44049,1,2,0:0:0:0:
84,250,44238,1,10,0:0:0:0:
215,123,44426,6,0,P|264:129|371:198,1,171,2|2,0:0|0:0,0:0:0:0:
432,249,44804,2,0,P|475:225|495:199,1,76,2|0,3:0|0:0,0:0:0:0:
411,164,44993,2,0,P|371:181|360:212,1,57,10|0,0:0|0:0,0:0:0:0:
331,281,45182,5,10,0:0:0:0:
335,303,45276,1,0,0:0:0:0:
346,322,45370,2,0,B|389:338|389:338|437:288|410:160,1,228,2|0,3:0|0:0,0:0:0:0:
391,76,45748,2,0,P|355:88|331:117,1,76,10|0,0:0|0:0,0:0:0:0:
248,150,45937,1,2,0:0:0:0:
410,163,46126,1,2,0:0:0:0:
181,85,46314,5,2,3:0:0:0:
26,119,46503,1,10,0:0:0:0:
135,234,46692,1,2,3:0:0:0:
113,146,46881,6,0,P|96:113|4:26,2,152,2|2|10,0:0|0:0|0:0,0:0:0:0:
135,249,47353,1,0,0:0:0:0:
122,264,47447,2,0,B|101:270|83:266|83:266|60:180|123:139,1,171,2|2,0:0|0:0,0:0:0:0:
177,80,47825,6,0,P|214:103|220:150,1,76,2|0,3:0|0:0,0:0:0:0:
314,176,48014,2,0,P|291:191|278:220,1,57,10|0,0:0|0:0,0:0:0:0:
233,294,48202,5,10,0:0:0:0:
239,311,48297,1,0,0:0:0:0:
255,321,48391,2,0,P|268:260|145:287,1,228,2|0,3:0|0:0,0:0:0:0:
75,307,48769,2,0,L|83:350,2,38,10|0|0,0:0|0:0|3:0,0:0:0:0:
87,98,49146,6,0,L|93:65,2,28.5000010871888,2|2|2,0:0|0:0|0:0,0:0:0:0:
75,185,49335,1,2,0:0:0:0:
47,183,49430,1,0,0:0:0:0:
29,172,49524,2,0,P|6:144|9:59,1,114,10|2,0:0|3:0,0:0:0:0:
210,50,49902,5,2,0:0:0:0:
217,216,50090,1,2,0:0:0:0:
75,307,50279,1,10,0:0:0:0:
163,133,50468,6,0,P|216:150|323:239,1,171,2|2,0:0|0:0,0:0:0:0:
392,191,50846,2,0,P|410:169|414:141,1,57,2|0,3:0|0:0,0:0:0:0:
307,218,51034,2,0,P|289:240|285:268,1,57,10|0,0:0|0:0,0:0:0:0:
213,322,51223,5,10,0:0:0:0:
230,343,51318,1,0,0:0:0:0:
248,354,51412,2,0,P|256:281|247:105,1,228,2|0,3:0|0:0,0:0:0:0:
263,43,51790,1,10,0:0:0:0:
255,36,52167,5,2,0:0:0:0:
102,138,52356,1,2,3:0:0:0:
256,134,52545,5,10,0:0:0:0:
429,227,52734,1,2,3:0:0:0:
244,231,52922,5,2,0:0:0:0:
270,384,53111,1,2,0:0:0:0:
270,384,53206,2,0,P|308:371|316:333,1,76,0|10,0:0|0:0,0:0:0:0:
256,134,53489,6,0,B|157:119|134:232|158:195|142:309|24:302,1,304,2|2,0:0|3:0,0:0:0:0:
60,145,54055,1,10,0:0:0:0:
230,295,54244,1,10,0:0:0:0:
143,219,54433,5,0,0:0:0:0:
383,67,66516,6,0,P|335:126|321:190,2,136.8,6|2|2,3:0|0:0|0:0,0:0:0:0:
478,44,67460,1,2,0:0:0:0:
287,277,67837,6,0,P|246:252|228:219,1,68.4000000000001,6|0,3:0|0:0,0:0:0:0:
379,263,68215,2,0,P|377:311|328:360,1,102.6,2|0,0:0|0:0,0:0:0:0:
338,358,68593,1,2,0:0:0:0:
124,30,68970,5,6,3:0:0:0:
302,28,69159,1,6,3:0:0:0:
173,157,69348,1,6,3:0:0:0:
18,148,69537,1,6,3:0:0:0:
26,164,69914,6,0,P|9:196|3:234,1,68.4000000000001,2|8,0:0|0:0,0:0:0:0:
137,311,70292,1,2,0:0:0:0:
144,284,70481,2,0,P|127:253|104:228,1,68.4000000000001,2|0,0:0|0:0,0:0:0:0:
220,355,70858,6,0,L|361:333,2,136.8,6|2|2,3:0|0:0|3:0,0:0:0:0:
250,59,71991,5,6,3:0:0:0:
237,234,72180,1,6,3:0:0:0:
385,153,72369,1,6,3:0:0:0:
399,0,72557,6,0,P|352:51|331:103,1,102.6,6|0,3:0|0:0,0:0:0:0:
320,95,72935,2,0,P|309:149|315:174,1,68.4000000000001,2|8,0:0|0:0,0:0:0:0:
444,313,73313,6,0,P|462:287|401:223,1,136.8,2|2,0:0|0:0,0:0:0:0:
313,259,73879,1,6,3:0:0:0:
290,350,74068,5,2,0:0:0:0:
317,267,74257,2,0,P|272:248|230:288,1,102.6,2|0,0:0|0:0,0:0:0:0:
232,279,74634,1,2,0:0:0:0:
0,260,75012,5,6,3:0:0:0:
168,202,75201,1,6,3:0:0:0:
199,37,75389,1,6,3:0:0:0:
42,97,75578,6,0,P|66:144|80:252,1,136.8,6|0,3:0|0:0,0:0:0:0:
150,362,76145,2,0,P|137:340|141:277,1,68.4000000000001,10|0,0:0|0:0,0:0:0:0:
168,202,76522,1,2,0:0:0:0:
195,219,76711,2,0,P|221:241|257:240,1,68.4000000000001,2|6,0:0|3:0,0:0:0:0:
334,188,77089,1,2,0:0:0:0:
283,55,77277,6,0,P|256:147|254:250,1,190,2|2,0:0|0:0,0:0:0:0:
253,240,78221,6,0,P|258:205|248:174,1,57.0000000000001,2|0,0:0|0:0,0:0:0:0:
43,305,78599,6,0,B|22:318|22:318|51:394|147:356|151:296|111:249,1,228,6|0,0:0|0:0,0:0:0:0:
59,197,78977,2,0,P|35:265|43:307,1,114,10|0,0:0|3:0,0:0:0:0:
232,371,79354,5,2,0:0:0:0:
310,168,79543,1,2,0:0:0:0:
226,231,79732,5,10,0:0:0:0:
403,356,79921,1,2,3:0:0:0:
487,205,80109,6,0,P|468:117|410:87,2,152,2|2|10,0:0|0:0|0:0,0:0:0:0:
324,265,80676,2,0,B|284:243|294:188|336:140|432:170|425:209,1,171,2|2,0:0|0:0,0:0:0:0:
487,205,81053,6,0,P|450:253|425:266,1,76,2|0,3:0|0:0,0:0:0:0:
324,265,81242,2,0,P|306:295|301:326,1,57,10|0,0:0|0:0,0:0:0:0:
231,382,81431,1,10,0:0:0:0:
395,346,81620,6,0,P|315:278|194:302,1,228,2|0,3:0|0:0,0:0:0:0:
117,262,81997,2,0,P|80:320|77:370,1,114,10|2,0:0|0:0,0:0:0:0:
44,199,82375,5,2,0:0:0:0:
200,296,82564,1,2,3:0:0:0:
317,178,82752,1,10,0:0:0:0:
156,80,82941,1,2,3:0:0:0:
205,164,83130,6,0,B|257:134|262:60|262:60|226:30,2,152,2|2|10,0:0|0:0|0:0,0:0:0:0:
23,94,83696,2,0,P|62:48|159:88,1,171,2|2,0:0|0:0,0:0:0:0:
240,42,84074,2,0,P|246:102|203:133,1,76,2|0,3:0|0:0,0:0:0:0:
168,164,84263,2,0,P|173:192|194:211,1,57,10|0,0:0|0:0,0:0:0:0:
279,230,84452,1,10,0:0:0:0:
462,132,84640,6,0,B|443:40|443:40|395:27|343:62|358:117,1,228,2|0,3:0|0:0,0:0:0:0:
361,119,85018,2,0,L|386:236,1,114,2|0,0:0|3:0,0:0:0:0:
419,384,85396,5,2,0:0:0:0:
504,225,85584,1,2,0:0:0:0:
361,119,85773,5,10,0:0:0:0:
459,303,85962,1,2,3:0:0:0:
286,366,86151,6,0,P|201:354|164:281,2,152,2|2|10,0:0|0:0|0:0,0:0:0:0:
362,228,86717,2,0,B|328:203|276:206|243:244|243:244|255:293,1,171,2|2,0:0|0:0,0:0:0:0:
247,302,87095,6,0,P|262:340|298:374,1,76,2|0,3:0|0:0,0:0:0:0:
365,283,87284,2,0,P|366:245|338:195,1,57,10|0,0:0|0:0,0:0:0:0:
317,131,87472,1,10,0:0:0:0:
143,212,87661,6,0,B|100:152|173:86|173:86|190:132|242:143,1,228,2|0,3:0|0:0,0:0:0:0:
317,131,88039,1,8,0:0:0:0:
331,124,88416,5,2,0:0:0:0:
175,290,88605,1,2,3:0:0:0:
233,141,88794,5,10,0:0:0:0:
413,246,88983,1,2,3:0:0:0:
303,329,89172,5,2,0:0:0:0:
267,58,89360,1,2,0:0:0:0:
267,58,89455,2,0,P|308:82|314:116,1,76,0|10,0:0|0:0,0:0:0:0:
303,329,89738,6,0,B|239:352|185:306|185:306|184:196|244:228|232:134,1,304,2|2,0:0|3:0,0:0:0:0:
155,62,90304,1,10,0:0:0:0:
315,234,90493,1,10,0:0:0:0:
83,203,90682,6,0,P|53:147|53:123,3,76,6|0|0|0,0:0|0:0|0:0|0:0,0:0:0:0:
92,294,91060,2,0,P|147:306|198:271,1,114,10|0,0:0|3:0,0:0:0:0:
295,96,91437,1,2,0:0:0:0:
265,103,91532,1,0,0:0:0:0:
249,127,91626,1,2,0:0:0:0:
315,234,91815,1,10,0:0:0:0:
251,347,92004,1,2,3:0:0:0:
157,355,92192,6,0,P|142:310|251:294,2,152,2|2|10,0:0|0:0|0:0,0:0:0:0:
251,347,92664,1,0,0:0:0:0:
273,354,92759,2,0,P|349:318|464:290,1,171,2|2,0:0|0:0,0:0:0:0:
509,263,93136,6,0,P|513:308|500:342,1,76,2|0,3:0|0:0,0:0:0:0:
434,213,93325,2,0,P|440:155|477:123,1,57,10|0,0:0|0:0,0:0:0:0:
494,58,93514,5,10,0:0:0:0:
501,74,93608,1,0,0:0:0:0:
502,94,93703,2,0,B|483:129|483:129|385:161|315:72,1,228,2|0,3:0|0:0,0:0:0:0:
232,99,94080,2,0,P|227:69|251:4,2,76,10|0|2,0:0|0:0|0:0,0:0:0:0:
303,241,94458,5,2,0:0:0:0:
102,243,94647,1,2,3:0:0:0:
203,191,94836,1,10,0:0:0:0:
100,345,95024,1,2,3:0:0:0:
118,152,95213,6,0,P|104:122|-6:56,2,152,2|2|10,0:0|0:0|0:0,0:0:0:0:
125,343,95685,1,0,0:0:0:0:
100,345,95780,2,0,B|20:338|15:255|15:255|68:228,1,171,2|2,0:0|0:0,0:0:0:0:
48,243,96157,6,0,P|90:243|128:262,1,76,2|0,3:0|0:0,0:0:0:0:
187,200,96346,2,0,P|204:230|204:280,1,57,10|0,0:0|0:0,0:0:0:0:
191,335,96535,5,10,0:0:0:0:
199,353,96629,1,0,0:0:0:0:
217,361,96724,2,0,B|335:335|270:245|380:217,1,228,2|0,3:0|0:0,0:0:0:0:
457,255,97101,2,0,L|445:312,2,38,2|0|0,0:0|0:0|3:0,0:0:0:0:
512,53,97479,5,2,0:0:0:0:
314,107,97668,1,2,0:0:0:0:
378,217,97856,5,10,0:0:0:0:
389,20,98045,1,2,3:0:0:0:
249,34,98234,6,0,B|213:42|193:81|193:81|198:133|245:149,2,152,2|2|10,0:0|0:0|0:0,0:0:0:0:
389,20,98706,1,0,0:0:0:0:
405,25,98800,2,0,B|426:45|427:69|427:69|373:69|309:111,1,171,2|2,0:0|0:0,0:0:0:0:
231,143,99178,6,0,P|231:177|244:228,1,76,2|0,3:0|0:0,0:0:0:0:
315,270,99367,2,0,P|297:325|286:340,1,57,10|0,0:0|0:0,0:0:0:0:
215,365,99556,1,10,0:0:0:0:
203,356,99650,1,0,0:0:0:0:
193,341,99744,2,0,B|238:288|304:271|365:309|365:309|386:365,1,228,2|0,3:0|0:0,0:0:0:0:
458,377,100122,5,8,0:0:0:0:
467,369,100499,5,2,0:0:0:0:
402,148,100688,1,2,3:0:0:0:
255,338,100877,5,10,0:0:0:0:
257,142,101066,1,2,3:0:0:0:
45,369,101255,5,2,0:0:0:0:
120,150,101443,1,2,0:0:0:0:
120,150,101538,2,0,P|81:185|90:226,1,76,0|10,0:0|0:0,0:0:0:0:
255,338,101821,6,0,P|268:232|265:11,1,304,2|2,0:0|3:0,0:0:0:0:
173,232,102387,1,10,0:0:0:0:
363,115,102576,1,10,0:0:0:0:
