osu file format v14

[General]
AudioFilename: audio.mp3
AudioLeadIn: 0
PreviewTime: 29793
Countdown: 0
SampleSet: Normal
StackLeniency: 0.7
Mode: 1
LetterboxInBreaks: 0
WidescreenStoryboard: 0

[Editor]
DistanceSpacing: 0.6
BeatDivisor: 4
GridSize: 32
TimelineZoom: 1.5

[Metadata]
Title:2009
TitleUnicode:2009
Artist:glaive
ArtistUnicode:glaive
Creator:Lexa14
Version:monochromatic
Source:
Tags:hyperpop pop hiphop hip-hop english cypress grove rox roxorotto
BeatmapID:3242224
BeatmapSetID:1431597

[Difficulty]
HPDrainRate:5
CircleSize:2
OverallDifficulty:5.5
ApproachRate:10
SliderMultiplier:1.4
SliderTickRate:1

[Events]
//Background and Video events
0,0,"a1cef526ff3a391.jpg",0,0
//Break Periods
//Storyboard Layer 0 (Background)
//Storyboard Layer 1 (Fail)
//Storyboard Layer 2 (Pass)
//Storyboard Layer 3 (Foreground)
//Storyboard Layer 4 (Overlay)
//Storyboard Sound Samples

[TimingPoints]
58,377.595972309629,4,1,0,65,1,0
58,-125,4,1,0,65,0,0
5691,-120.0000048,4,1,0,65,0,0
5880,-115.384616272189,4,1,0,65,0,0
6069,-111.111111111111,4,1,0,65,0,0
17586,-112.359550561798,4,1,0,65,0,0
17775,-113.636363636364,4,1,0,65,0,0
17963,-114.942528735632,4,1,0,65,0,0
18152,-116.279069767442,4,1,0,75,0,0
18341,-117.647058823529,4,1,0,75,0,0
29858,-103.092783505155,4,1,0,75,0,0
30046,-94.3396226415094,4,1,0,75,0,0
30265,-86.9565217391304,4,1,0,90,0,1
54213,-88.4955752212389,4,1,0,90,0,1
54431,-90.0900900900901,4,1,0,75,0,0
54779,-97.0873786407767,4,1,0,75,0,0
54968,-102.040816326531,4,1,0,75,0,0
55345,-111.111111111111,4,1,0,75,0,0
55534,-116.279069767442,4,1,0,75,0,0
55723,-121.951219512195,4,1,0,75,0,0
55912,-123.456790123457,4,1,0,75,0,0
56101,-125,4,1,0,75,0,0
65918,-121.212121212121,4,1,0,75,0,0
66107,-117.647058823529,4,1,0,75,0,0
66296,-114.285714285714,4,1,0,75,0,0
66484,-111.111111111111,4,1,0,80,0,0
78597,-86.9565217391304,4,1,0,90,0,1
101601,-89.2857142857143,4,1,0,90,0,1
101790,-91.743119266055,4,1,0,90,0,1
101978,-94.3396226415094,4,1,0,90,0,1
102167,-97.0873786407767,4,1,0,90,0,1
102356,-100,4,1,0,90,0,1
102764,-100,4,1,0,70,0,0

[HitObjects]
256,192,5721,5,8,0:0:0:0:
256,192,5910,1,8,0:0:0:0:
256,192,6099,1,0,0:0:0:0:
256,192,6477,1,8,0:0:0:0:
256,192,6854,1,0,0:0:0:0:
256,192,7232,1,8,0:0:0:0:
256,192,7421,1,8,0:0:0:0:
256,192,7609,1,0,0:0:0:0:
256,192,7798,1,0,0:0:0:0:
256,192,7987,1,8,0:0:0:0:
256,192,8176,1,0,0:0:0:0:
256,192,8365,1,8,0:0:0:0:
256,192,8742,1,0,0:0:0:0:
256,192,8931,1,0,0:0:0:0:
256,192,9120,1,8,0:0:0:0:
256,192,9497,1,8,0:0:0:0:
256,192,9686,1,0,0:0:0:0:
256,192,9875,1,8,0:0:0:0:
256,192,10253,1,0,0:0:0:0:
256,192,10441,1,0,0:0:0:0:
256,192,10630,1,8,0:0:0:0:
256,192,10819,1,0,0:0:0:0:
256,192,11008,1,8,0:0:0:0:
256,192,11197,1,8,0:0:0:0:
256,192,11385,1,0,0:0:0:0:
256,192,11763,1,0,0:0:0:0:
256,192,11952,1,0,0:0:0:0:
256,192,12141,1,8,0:0:0:0:
256,192,12518,1,8,0:0:0:0:
256,192,12896,1,0,0:0:0:0:
256,192,13085,1,0,0:0:0:0:
256,192,13273,1,8,0:0:0:0:
256,192,13462,1,0,0:0:0:0:
256,192,13651,1,8,0:0:0:0:
256,192,13840,1,0,0:0:0:0:
256,192,14029,1,8,0:0:0:0:
256,192,14217,1,8,0:0:0:0:
256,192,14406,1,0,0:0:0:0:
256,192,14784,1,8,0:0:0:0:
256,192,14973,1,0,0:0:0:0:
256,192,15161,1,8,0:0:0:0:
256,192,15350,1,0,0:0:0:0:
256,192,15539,1,0,0:0:0:0:
256,192,15728,1,8,0:0:0:0:
256,192,15917,1,8,0:0:0:0:
256,192,16105,1,0,0:0:0:0:
256,192,16294,1,8,0:0:0:0:
256,192,16672,1,8,0:0:0:0:
256,192,16861,1,8,0:0:0:0:
256,192,17049,1,0,0:0:0:0:
256,192,17238,1,8,0:0:0:0:
256,192,17616,1,8,0:0:0:0:
256,192,17805,1,0,0:0:0:0:
256,192,17993,1,0,0:0:0:0:
256,192,18182,1,8,0:0:0:0:
256,192,18371,1,0,0:0:0:0:
256,192,18560,1,8,0:0:0:0:
256,192,18937,1,0,0:0:0:0:
256,192,19315,1,0,0:0:0:0:
256,192,19692,1,8,0:0:0:0:
256,192,19881,1,0,0:0:0:0:
256,192,19976,1,0,0:0:0:0:
256,192,20164,1,0,0:0:0:0:
256,192,20448,1,8,0:0:0:0:
256,192,20636,1,0,0:0:0:0:
256,192,20825,1,8,0:0:0:0:
256,192,21014,1,8,0:0:0:0:
256,192,21203,1,0,0:0:0:0:
256,192,21580,1,0,0:0:0:0:
256,192,21769,1,0,0:0:0:0:
256,192,21958,1,8,0:0:0:0:
256,192,22336,1,8,0:0:0:0:
256,192,22524,1,8,0:0:0:0:
256,192,22713,1,0,0:0:0:0:
256,192,22902,1,0,0:0:0:0:
256,192,22996,1,8,0:0:0:0:
256,192,23185,1,0,0:0:0:0:
256,192,23468,1,8,0:0:0:0:
256,192,23657,1,0,0:0:0:0:
256,192,23846,1,8,0:0:0:0:
256,192,24035,1,8,0:0:0:0:
256,192,24224,1,0,0:0:0:0:
256,192,24601,1,0,0:0:0:0:
256,192,24979,1,8,0:0:0:0:
256,192,25356,1,0,0:0:0:0:
256,192,25451,1,0,0:0:0:0:
256,192,25545,1,0,0:0:0:0:
256,192,25734,1,8,0:0:0:0:
256,192,25828,1,0,0:0:0:0:
256,192,26017,1,8,0:0:0:0:
256,192,26253,1,8,0:0:0:0:
256,192,26489,1,0,0:0:0:0:
256,192,26678,1,0,0:0:0:0:
256,192,26867,1,8,0:0:0:0:
256,192,27056,1,0,0:0:0:0:
256,192,27244,1,8,0:0:0:0:
256,192,27622,1,8,0:0:0:0:
256,192,27811,1,8,0:0:0:0:
256,192,28000,1,0,0:0:0:0:
256,192,28188,1,0,0:0:0:0:
256,192,28377,1,8,0:0:0:0:
256,192,28566,1,0,0:0:0:0:
256,192,28755,1,8,0:0:0:0:
256,192,28944,1,8,0:0:0:0:
256,192,29132,1,0,0:0:0:0:
256,192,29321,1,8,0:0:0:0:
256,192,29510,1,0,0:0:0:0:
256,192,29888,1,0,0:0:0:0:
256,192,30076,1,0,0:0:0:0:
256,192,30265,1,12,0:0:0:0:
256,192,30643,1,8,0:0:0:0:
256,192,30832,1,0,0:0:0:0:
256,192,31020,1,8,0:0:0:0:
256,192,31115,1,8,0:0:0:0:
256,192,31209,1,0,0:0:0:0:
256,192,31398,1,8,0:0:0:0:
256,192,31587,1,8,0:0:0:0:
256,192,31776,1,0,0:0:0:0:
256,192,31964,1,0,0:0:0:0:
256,192,32153,1,8,0:0:0:0:
256,192,32342,1,8,0:0:0:0:
256,192,32436,1,8,0:0:0:0:
256,192,32531,1,0,0:0:0:0:
256,192,32720,1,0,0:0:0:0:
256,192,32814,1,0,0:0:0:0:
256,192,32908,1,8,0:0:0:0:
256,192,33003,1,8,0:0:0:0:
256,192,33097,1,0,0:0:0:0:
256,192,33286,1,12,0:0:0:0:
256,192,33664,1,8,0:0:0:0:
256,192,33852,1,0,0:0:0:0:
256,192,34041,1,8,0:0:0:0:
256,192,34136,1,0,0:0:0:0:
256,192,34230,1,8,0:0:0:0:
256,192,34419,1,8,0:0:0:0:
256,192,34608,1,0,0:0:0:0:
256,192,34796,1,0,0:0:0:0:
256,192,34891,1,0,0:0:0:0:
256,192,34985,1,0,0:0:0:0:
256,192,35174,1,8,0:0:0:0:
256,192,35363,1,8,0:0:0:0:
256,192,35552,1,0,0:0:0:0:
256,192,35740,1,8,0:0:0:0:
256,192,35835,1,0,0:0:0:0:
256,192,35929,1,8,0:0:0:0:
256,192,36024,1,8,0:0:0:0:
256,192,36118,1,0,0:0:0:0:
256,192,36307,1,12,0:0:0:0:
256,192,36684,1,0,0:0:0:0:
256,192,36873,1,0,0:0:0:0:
256,192,37062,1,8,0:0:0:0:
256,192,37156,1,8,0:0:0:0:
256,192,37251,1,0,0:0:0:0:
256,192,37440,1,8,0:0:0:0:
256,192,37628,1,8,0:0:0:0:
256,192,37817,1,0,0:0:0:0:
256,192,37911,1,8,0:0:0:0:
256,192,38006,1,0,0:0:0:0:
256,192,38100,1,0,0:0:0:0:
256,192,38195,1,8,0:0:0:0:
256,192,38383,1,0,0:0:0:0:
256,192,38572,1,8,0:0:0:0:
256,192,38761,1,8,0:0:0:0:
256,192,38855,1,0,0:0:0:0:
256,192,38950,1,8,0:0:0:0:
256,192,39139,1,0,0:0:0:0:
256,192,39327,1,12,0:0:0:0:
256,192,39705,1,8,0:0:0:0:
256,192,40083,1,0,0:0:0:0:
256,192,40271,1,0,0:0:0:0:
256,192,40460,1,8,0:0:0:0:
256,192,40555,1,8,0:0:0:0:
256,192,40649,1,0,0:0:0:0:
256,192,40838,1,8,0:0:0:0:
256,192,41027,1,0,0:0:0:0:
256,192,41215,1,8,0:0:0:0:
256,192,41404,1,0,0:0:0:0:
256,192,41593,1,0,0:0:0:0:
256,192,41782,1,8,0:0:0:0:
256,192,41971,1,0,0:0:0:0:
256,192,42065,1,8,0:0:0:0:
256,192,42159,1,0,0:0:0:0:
256,192,42254,1,0,0:0:0:0:
256,192,42348,1,12,0:0:0:0:
256,192,42726,1,8,0:0:0:0:
256,192,42915,1,0,0:0:0:0:
256,192,43103,1,8,0:0:0:0:
256,192,43198,1,8,0:0:0:0:
256,192,43292,1,0,0:0:0:0:
256,192,43481,1,8,0:0:0:0:
256,192,43575,1,0,0:0:0:0:
256,192,43670,1,8,0:0:0:0:
256,192,43859,1,0,0:0:0:0:
256,192,44047,1,0,0:0:0:0:
256,192,44236,1,8,0:0:0:0:
256,192,44425,1,0,0:0:0:0:
256,192,44519,1,0,0:0:0:0:
256,192,44614,1,8,0:0:0:0:
256,192,44803,1,8,0:0:0:0:
256,192,44897,1,8,0:0:0:0:
256,192,44991,1,0,0:0:0:0:
256,192,45086,1,8,0:0:0:0:
256,192,45180,1,0,0:0:0:0:
256,192,45369,1,12,0:0:0:0:
256,192,45747,1,8,0:0:0:0:
256,192,45935,1,0,0:0:0:0:
256,192,46030,1,0,0:0:0:0:
256,192,46124,1,8,0:0:0:0:
256,192,46313,1,0,0:0:0:0:
256,192,46502,1,8,0:0:0:0:
256,192,46596,1,8,0:0:0:0:
256,192,46691,1,0,0:0:0:0:
256,192,46879,1,8,0:0:0:0:
256,192,47068,1,0,0:0:0:0:
256,192,47257,1,8,0:0:0:0:
256,192,47446,1,8,0:0:0:0:
256,192,47635,1,0,0:0:0:0:
256,192,47823,1,0,0:0:0:0:
256,192,47918,1,0,0:0:0:0:
256,192,48012,1,8,0:0:0:0:
256,192,48107,1,8,0:0:0:0:
256,192,48201,1,0,0:0:0:0:
256,192,48390,1,12,0:0:0:0:
256,192,48767,1,8,0:0:0:0:
256,192,48956,1,0,0:0:0:0:
256,192,49145,1,0,0:0:0:0:
256,192,49239,1,8,0:0:0:0:
256,192,49334,1,0,0:0:0:0:
256,192,49523,1,8,0:0:0:0:
256,192,49617,1,0,0:0:0:0:
256,192,49711,1,8,0:0:0:0:
256,192,49900,1,0,0:0:0:0:
256,192,50089,1,0,0:0:0:0:
256,192,50278,1,8,0:0:0:0:
256,192,50372,1,8,0:0:0:0:
256,192,50467,1,0,0:0:0:0:
256,192,50561,1,0,0:0:0:0:
256,192,50655,1,8,0:0:0:0:
256,192,50844,1,0,0:0:0:0:
256,192,51033,1,8,0:0:0:0:
256,192,51127,1,8,0:0:0:0:
256,192,51222,1,0,0:0:0:0:
256,192,51411,1,12,0:0:0:0:
256,192,51788,1,8,0:0:0:0:
256,192,51977,1,0,0:0:0:0:
256,192,52166,1,8,0:0:0:0:
256,192,52260,1,8,0:0:0:0:
256,192,52355,1,0,0:0:0:0:
256,192,52543,1,8,0:0:0:0:
256,192,52638,1,0,0:0:0:0:
256,192,52732,1,8,0:0:0:0:
256,192,52921,1,0,0:0:0:0:
256,192,53110,1,0,0:0:0:0:
256,192,53299,1,8,0:0:0:0:
256,192,53393,1,8,0:0:0:0:
256,192,53487,1,0,0:0:0:0:
256,192,53582,1,8,0:0:0:0:
256,192,53676,1,0,0:0:0:0:
256,192,53865,1,8,0:0:0:0:
256,192,53959,1,0,0:0:0:0:
256,192,54054,1,8,0:0:0:0:
256,192,54243,1,8,0:0:0:0:
256,192,54431,1,0,0:0:0:0:
256,192,54809,1,0,0:0:0:0:
256,192,54998,1,8,0:0:0:0:
256,192,55375,1,0,0:0:0:0:
256,192,55564,1,0,0:0:0:0:
256,192,55753,1,8,0:0:0:0:
256,192,56131,1,8,0:0:0:0:
256,192,56319,1,8,0:0:0:0:
256,192,56508,1,0,0:0:0:0:
256,192,56886,1,8,0:0:0:0:
256,192,57074,1,0,0:0:0:0:
256,192,57263,1,8,0:0:0:0:
256,192,57830,1,0,0:0:0:0:
256,192,58207,1,8,0:0:0:0:
256,192,58585,1,0,0:0:0:0:
256,192,58774,1,8,0:0:0:0:
256,192,59151,1,0,0:0:0:0:
256,192,59340,1,0,0:0:0:0:
256,192,59529,1,8,0:0:0:0:
256,192,59906,1,0,0:0:0:0:
256,192,60095,1,8,0:0:0:0:
256,192,60284,1,0,0:0:0:0:
256,192,60850,1,8,0:0:0:0:
256,192,61228,1,8,0:0:0:0:
256,192,61417,1,0,0:0:0:0:
256,192,61606,1,0,0:0:0:0:
256,192,61794,1,8,0:0:0:0:
256,192,62172,1,8,0:0:0:0:
256,192,62361,1,8,0:0:0:0:
256,192,62550,1,0,0:0:0:0:
256,192,62927,1,8,0:0:0:0:
256,192,63116,1,8,0:0:0:0:
256,192,63305,1,0,0:0:0:0:
256,192,63494,1,8,0:0:0:0:
256,192,63871,1,0,0:0:0:0:
256,192,64060,1,8,0:0:0:0:
256,192,64438,1,0,0:0:0:0:
256,192,64626,1,8,0:0:0:0:
256,192,65004,1,0,0:0:0:0:
256,192,65193,1,0,0:0:0:0:
256,192,65382,1,8,0:0:0:0:
256,192,65570,1,0,0:0:0:0:
256,192,65948,1,8,0:0:0:0:
256,192,66137,1,8,0:0:0:0:
256,192,66326,1,0,0:0:0:0:
256,192,66514,1,8,0:0:0:0:
256,192,66892,1,0,0:0:0:0:
256,192,67270,1,8,0:0:0:0:
256,192,67458,1,8,0:0:0:0:
256,192,67647,1,0,0:0:0:0:
256,192,67836,1,8,0:0:0:0:
256,192,68214,1,0,0:0:0:0:
256,192,68591,1,8,0:0:0:0:
256,192,68780,1,0,0:0:0:0:
256,192,68969,1,0,0:0:0:0:
256,192,69158,1,8,0:0:0:0:
256,192,69535,1,0,0:0:0:0:
256,192,69913,1,8,0:0:0:0:
256,192,70290,1,8,0:0:0:0:
256,192,70479,1,0,0:0:0:0:
256,192,70857,1,8,0:0:0:0:
256,192,71234,1,0,0:0:0:0:
256,192,71423,1,0,0:0:0:0:
256,192,71612,1,8,0:0:0:0:
256,192,71990,1,0,0:0:0:0:
256,192,72178,1,0,0:0:0:0:
256,192,72367,1,0,0:0:0:0:
256,192,72556,1,8,0:0:0:0:
256,192,72934,1,8,0:0:0:0:
256,192,73122,1,0,0:0:0:0:
256,192,73311,1,8,0:0:0:0:
256,192,73689,1,8,0:0:0:0:
256,192,73878,1,0,0:0:0:0:
256,192,74066,1,8,0:0:0:0:
256,192,74255,1,0,0:0:0:0:
256,192,74633,1,8,0:0:0:0:
256,192,75010,1,0,0:0:0:0:
256,192,75199,1,0,0:0:0:0:
256,192,75388,1,0,0:0:0:0:
256,192,75577,1,8,0:0:0:0:
256,192,75765,1,8,0:0:0:0:
256,192,75954,1,0,0:0:0:0:
256,192,76143,1,8,0:0:0:0:
256,192,76521,1,0,0:0:0:0:
256,192,76709,1,8,0:0:0:0:
256,192,76898,1,8,0:0:0:0:
256,192,77087,1,0,0:0:0:0:
256,192,77276,1,0,0:0:0:0:
256,192,77653,1,8,0:0:0:0:
256,192,78220,1,0,0:0:0:0:
256,192,78597,1,12,0:0:0:0:
256,192,78975,1,8,0:0:0:0:
256,192,79164,1,0,0:0:0:0:
256,192,79258,1,0,0:0:0:0:
256,192,79353,1,8,0:0:0:0:
256,192,79447,1,8,0:0:0:0:
256,192,79541,1,0,0:0:0:0:
256,192,79730,1,8,0:0:0:0:
256,192,79825,1,0,0:0:0:0:
256,192,79919,1,8,0:0:0:0:
256,192,80108,1,0,0:0:0:0:
256,192,80297,1,0,0:0:0:0:
256,192,80485,1,8,0:0:0:0:
256,192,80674,1,8,0:0:0:0:
256,192,80863,1,0,0:0:0:0:
256,192,81052,1,0,0:0:0:0:
256,192,81146,1,0,0:0:0:0:
256,192,81241,1,8,0:0:0:0:
256,192,81335,1,0,0:0:0:0:
256,192,81429,1,8,0:0:0:0:
256,192,81618,1,4,0:0:0:0:
256,192,81996,1,8,0:0:0:0:
256,192,82185,1,0,0:0:0:0:
256,192,82373,1,8,0:0:0:0:
256,192,82468,1,0,0:0:0:0:
256,192,82562,1,0,0:0:0:0:
256,192,82751,1,8,0:0:0:0:
256,192,82940,1,0,0:0:0:0:
256,192,83129,1,0,0:0:0:0:
256,192,83223,1,0,0:0:0:0:
256,192,83317,1,0,0:0:0:0:
256,192,83506,1,8,0:0:0:0:
256,192,83695,1,0,0:0:0:0:
256,192,83789,1,8,0:0:0:0:
256,192,83884,1,0,0:0:0:0:
256,192,84073,1,0,0:0:0:0:
256,192,84167,1,0,0:0:0:0:
256,192,84261,1,8,0:0:0:0:
256,192,84356,1,0,0:0:0:0:
256,192,84450,1,8,0:0:0:0:
256,192,84639,1,12,0:0:0:0:
256,192,85017,1,8,0:0:0:0:
256,192,85205,1,0,0:0:0:0:
256,192,85394,1,0,0:0:0:0:
256,192,85489,1,8,0:0:0:0:
256,192,85583,1,0,0:0:0:0:
256,192,85772,1,8,0:0:0:0:
256,192,85866,1,0,0:0:0:0:
256,192,85961,1,8,0:0:0:0:
256,192,86055,1,8,0:0:0:0:
256,192,86149,1,0,0:0:0:0:
256,192,86338,1,0,0:0:0:0:
256,192,86527,1,8,0:0:0:0:
256,192,86716,1,0,0:0:0:0:
256,192,86810,1,8,0:0:0:0:
256,192,86905,1,0,0:0:0:0:
256,192,87093,1,8,0:0:0:0:
256,192,87282,1,0,0:0:0:0:
256,192,87377,1,0,0:0:0:0:
256,192,87471,1,8,0:0:0:0:
256,192,87565,1,8,0:0:0:0:
256,192,87660,1,4,0:0:0:0:
256,192,88037,1,0,0:0:0:0:
256,192,88226,1,0,0:0:0:0:
256,192,88415,1,8,0:0:0:0:
256,192,88509,1,8,0:0:0:0:
256,192,88604,1,0,0:0:0:0:
256,192,88793,1,8,0:0:0:0:
256,192,88981,1,0,0:0:0:0:
256,192,89170,1,8,0:0:0:0:
256,192,89265,1,0,0:0:0:0:
256,192,89359,1,8,0:0:0:0:
256,192,89548,1,8,0:0:0:0:
256,192,89737,1,0,0:0:0:0:
256,192,90114,1,0,0:0:0:0:
256,192,90303,1,8,0:0:0:0:
256,192,90397,1,8,0:0:0:0:
256,192,90492,1,0,0:0:0:0:
256,192,90681,1,12,0:0:0:0:
256,192,91058,1,0,0:0:0:0:
256,192,91247,1,8,0:0:0:0:
256,192,91436,1,0,0:0:0:0:
256,192,91530,1,8,0:0:0:0:
256,192,91625,1,0,0:0:0:0:
256,192,91813,1,8,0:0:0:0:
256,192,91908,1,0,0:0:0:0:
256,192,92002,1,8,0:0:0:0:
256,192,92191,1,0,0:0:0:0:
256,192,92380,1,0,0:0:0:0:
256,192,92569,1,8,0:0:0:0:
256,192,92757,1,0,0:0:0:0:
256,192,92946,1,8,0:0:0:0:
256,192,93135,1,0,0:0:0:0:
256,192,93229,1,0,0:0:0:0:
256,192,93324,1,8,0:0:0:0:
256,192,93418,1,8,0:0:0:0:
256,192,93513,1,0,0:0:0:0:
256,192,93701,1,4,0:0:0:0:
256,192,94079,1,0,0:0:0:0:
256,192,94173,1,8,0:0:0:0:
256,192,94268,1,0,0:0:0:0:
256,192,94456,1,8,0:0:0:0:
256,192,94645,1,0,0:0:0:0:
256,192,94834,1,8,0:0:0:0:
256,192,94928,1,0,0:0:0:0:
256,192,95023,1,8,0:0:0:0:
256,192,95212,1,0,0:0:0:0:
256,192,95400,1,0,0:0:0:0:
256,192,95589,1,8,0:0:0:0:
256,192,95778,1,0,0:0:0:0:
256,192,95967,1,8,0:0:0:0:
256,192,96156,1,0,0:0:0:0:
256,192,96250,1,0,0:0:0:0:
256,192,96344,1,8,0:0:0:0:
256,192,96439,1,0,0:0:0:0:
256,192,96533,1,8,0:0:0:0:
256,192,96722,1,12,0:0:0:0:
256,192,97100,1,8,0:0:0:0:
256,192,97288,1,0,0:0:0:0:
256,192,97477,1,8,0:0:0:0:
256,192,97572,1,8,0:0:0:0:
256,192,97666,1,0,0:0:0:0:
256,192,97855,1,8,0:0:0:0:
256,192,98044,1,8,0:0:0:0:
256,192,98232,1,0,0:0:0:0:
256,192,98421,1,0,0:0:0:0:
256,192,98516,1,0,0:0:0:0:
256,192,98610,1,8,0:0:0:0:
256,192,98799,1,0,0:0:0:0:
256,192,98988,1,8,0:0:0:0:
256,192,99176,1,0,0:0:0:0:
256,192,99271,1,0,0:0:0:0:
256,192,99365,1,8,0:0:0:0:
256,192,99460,1,0,0:0:0:0:
256,192,99554,1,8,0:0:0:0:
256,192,99743,1,4,0:0:0:0:
256,192,100120,1,8,0:0:0:0:
256,192,100498,1,0,0:0:0:0:
256,192,100687,1,0,0:0:0:0:
256,192,100876,1,8,0:0:0:0:
256,192,100970,1,0,0:0:0:0:
256,192,101064,1,8,0:0:0:0:
256,192,101253,1,0,0:0:0:0:
256,192,101631,1,8,0:0:0:0:
256,192,101820,1,0,0:0:0:0:
256,192,102008,1,0,0:0:0:0:
256,192,102197,1,8,0:0:0:0:
256,192,102386,1,8,0:0:0:0:
256,192,102764,1,0,0:0:0:0:
