osu file format v14

[General]
AudioFilename: audio.mp3
AudioLeadIn: 0
PreviewTime: 29793
Countdown: 0
SampleSet: Normal
StackLeniency: 0.7
Mode: 1
LetterboxInBreaks: 0
WidescreenStoryboard: 0

[Editor]
DistanceSpacing: 0.6
BeatDivisor: 4
GridSize: 32
TimelineZoom: 1.199999

[Metadata]
Title:2009
TitleUnicode:2009
Artist:glaive
ArtistUnicode:glaive
Creator:Lexa14
Version:muzukashii
Source:
Tags:hyperpop pop hiphop hip-hop english cypress grove rox roxorotto
BeatmapID:3243851
BeatmapSetID:1431597

[Difficulty]
HPDrainRate:6
CircleSize:2
OverallDifficulty:5
ApproachRate:10
SliderMultiplier:1.4
SliderTickRate:1

[Events]
//Background and Video events
0,0,"a1cef526ff3a391.jpg",0,0
//Break Periods
//Storyboard Layer 0 (Background)
//Storyboard Layer 1 (Fail)
//Storyboard Layer 2 (Pass)
//Storyboard Layer 3 (Foreground)
//Storyboard Layer 4 (Overlay)
//Storyboard Sound Samples

[TimingPoints]
58,377.595972309629,4,1,0,65,1,0
18152,-100,4,1,0,75,0,0
29858,-96.1538461538461,4,1,0,75,0,0
30046,-93.4579439252336,4,1,0,75,0,0
30265,-90.9090909090909,4,1,0,90,0,1
53835,-96.1538461538461,4,1,0,90,0,1
54024,-98.0392156862745,4,1,0,90,0,1
54431,-100,4,1,0,75,0,0
66484,-100,4,1,0,80,0,0
78597,-90.9090909090909,4,1,0,90,0,1
101601,-92.5925925925926,4,1,0,90,0,1
101790,-93.8967136150235,4,1,0,90,0,1
102167,-97.0873786407767,4,1,0,90,0,1
102356,-98.5221674876847,4,1,0,90,0,1
102764,-100,4,1,0,70,0,0

[HitObjects]
256,192,5721,5,8,0:0:0:0:
256,192,5910,1,8,0:0:0:0:
256,192,6099,1,0,0:0:0:0:
256,192,6477,1,8,0:0:0:0:
256,192,6854,1,0,0:0:0:0:
256,192,7232,1,8,0:0:0:0:
256,192,7421,1,8,0:0:0:0:
256,192,7609,1,0,0:0:0:0:
256,192,7987,1,8,0:0:0:0:
256,192,8176,1,0,0:0:0:0:
256,192,8365,1,8,0:0:0:0:
256,192,9120,1,8,0:0:0:0:
256,192,9497,1,0,0:0:0:0:
256,192,9686,1,0,0:0:0:0:
256,192,9875,1,8,0:0:0:0:
256,192,10253,1,0,0:0:0:0:
256,192,10441,1,0,0:0:0:0:
256,192,10630,1,8,0:0:0:0:
256,192,11008,1,8,0:0:0:0:
256,192,11385,1,0,0:0:0:0:
256,192,12141,1,8,0:0:0:0:
256,192,12518,1,8,0:0:0:0:
256,192,12896,1,0,0:0:0:0:
256,192,13085,1,0,0:0:0:0:
256,192,13273,1,8,0:0:0:0:
256,192,13462,1,0,0:0:0:0:
256,192,13651,1,8,0:0:0:0:
256,192,14029,1,0,0:0:0:0:
256,192,14217,1,8,0:0:0:0:
256,192,14406,1,0,0:0:0:0:
256,192,14784,1,0,0:0:0:0:
256,192,15161,1,8,0:0:0:0:
256,192,15539,1,0,0:0:0:0:
256,192,15728,1,8,0:0:0:0:
256,192,15917,1,8,0:0:0:0:
256,192,16294,1,8,0:0:0:0:
256,192,16672,1,8,0:0:0:0:
256,192,16861,1,0,0:0:0:0:
256,192,17049,1,0,0:0:0:0:
256,192,17238,1,8,0:0:0:0:
256,192,17616,1,8,0:0:0:0:
256,192,18182,1,8,0:0:0:0:
256,192,18371,1,0,0:0:0:0:
256,192,18560,1,8,0:0:0:0:
256,192,18937,1,0,0:0:0:0:
256,192,19315,1,0,0:0:0:0:
256,192,19692,1,8,0:0:0:0:
256,192,20448,1,8,0:0:0:0:
256,192,20825,1,8,0:0:0:0:
256,192,21014,1,0,0:0:0:0:
256,192,21203,1,8,0:0:0:0:
256,192,21580,1,0,0:0:0:0:
256,192,21769,1,0,0:0:0:0:
256,192,21958,1,8,0:0:0:0:
256,192,22336,1,8,0:0:0:0:
256,192,22524,1,8,0:0:0:0:
256,192,22713,1,0,0:0:0:0:
256,192,23468,1,8,0:0:0:0:
256,192,23846,1,8,0:0:0:0:
256,192,24035,1,0,0:0:0:0:
256,192,24224,1,8,0:0:0:0:
256,192,24601,1,0,0:0:0:0:
256,192,24979,1,8,0:0:0:0:
256,192,25356,1,0,0:0:0:0:
256,192,25734,1,8,0:0:0:0:
256,192,26489,1,0,0:0:0:0:
256,192,26867,1,0,0:0:0:0:
256,192,27056,1,0,0:0:0:0:
256,192,27244,1,8,0:0:0:0:
256,192,27622,1,8,0:0:0:0:
256,192,28000,1,0,0:0:0:0:
256,192,28377,1,8,0:0:0:0:
256,192,28566,1,0,0:0:0:0:
256,192,28755,1,8,0:0:0:0:
256,192,29510,1,0,0:0:0:0:
256,192,29888,1,0,0:0:0:0:
256,192,30076,1,0,0:0:0:0:
256,192,30265,1,12,0:0:0:0:
256,192,30643,1,8,0:0:0:0:
256,192,31020,1,0,0:0:0:0:
256,192,31115,1,0,0:0:0:0:
256,192,31209,1,0,0:0:0:0:
256,192,31398,1,8,0:0:0:0:
256,192,31587,1,8,0:0:0:0:
256,192,31776,1,0,0:0:0:0:
256,192,32153,1,8,0:0:0:0:
256,192,32342,1,0,0:0:0:0:
256,192,32720,1,8,0:0:0:0:
256,192,32908,1,0,0:0:0:0:
256,192,33003,1,0,0:0:0:0:
256,192,33097,1,0,0:0:0:0:
256,192,33286,1,12,0:0:0:0:
256,192,33664,1,8,0:0:0:0:
256,192,33852,1,0,0:0:0:0:
256,192,34041,1,8,0:0:0:0:
256,192,34136,1,8,0:0:0:0:
256,192,34230,1,8,0:0:0:0:
256,192,34419,1,0,0:0:0:0:
256,192,34608,1,8,0:0:0:0:
256,192,34796,1,0,0:0:0:0:
256,192,35363,1,8,0:0:0:0:
256,192,35740,1,8,0:0:0:0:
256,192,35929,1,0,0:0:0:0:
256,192,36024,1,0,0:0:0:0:
256,192,36118,1,0,0:0:0:0:
256,192,36307,1,12,0:0:0:0:
256,192,36684,1,0,0:0:0:0:
256,192,37062,1,8,0:0:0:0:
256,192,37251,1,0,0:0:0:0:
256,192,37440,1,8,0:0:0:0:
256,192,37628,1,8,0:0:0:0:
256,192,37817,1,0,0:0:0:0:
256,192,38195,1,8,0:0:0:0:
256,192,38383,1,0,0:0:0:0:
256,192,38761,1,0,0:0:0:0:
256,192,38950,1,0,0:0:0:0:
256,192,39044,1,0,0:0:0:0:
256,192,39139,1,0,0:0:0:0:
256,192,39327,1,12,0:0:0:0:
256,192,39705,1,8,0:0:0:0:
256,192,40083,1,0,0:0:0:0:
256,192,40271,1,8,0:0:0:0:
256,192,40460,1,0,0:0:0:0:
256,192,40555,1,0,0:0:0:0:
256,192,40649,1,0,0:0:0:0:
256,192,40838,1,8,0:0:0:0:
256,192,41027,1,0,0:0:0:0:
256,192,41215,1,0,0:0:0:0:
256,192,41404,1,8,0:0:0:0:
256,192,41971,1,0,0:0:0:0:
256,192,42065,1,0,0:0:0:0:
256,192,42159,1,0,0:0:0:0:
256,192,42348,1,12,0:0:0:0:
256,192,42726,1,0,0:0:0:0:
256,192,43103,1,8,0:0:0:0:
256,192,43292,1,0,0:0:0:0:
256,192,43481,1,8,0:0:0:0:
256,192,43575,1,8,0:0:0:0:
256,192,43670,1,8,0:0:0:0:
256,192,43859,1,0,0:0:0:0:
256,192,44236,1,8,0:0:0:0:
256,192,44425,1,0,0:0:0:0:
256,192,44803,1,8,0:0:0:0:
256,192,44991,1,0,0:0:0:0:
256,192,45086,1,0,0:0:0:0:
256,192,45180,1,0,0:0:0:0:
256,192,45369,1,12,0:0:0:0:
256,192,45747,1,8,0:0:0:0:
256,192,45935,1,0,0:0:0:0:
256,192,46124,1,0,0:0:0:0:
256,192,46219,1,0,0:0:0:0:
256,192,46313,1,0,0:0:0:0:
256,192,46502,1,8,0:0:0:0:
256,192,46691,1,8,0:0:0:0:
256,192,46879,1,0,0:0:0:0:
256,192,47446,1,8,0:0:0:0:
256,192,47823,1,0,0:0:0:0:
256,192,48012,1,0,0:0:0:0:
256,192,48107,1,0,0:0:0:0:
256,192,48201,1,0,0:0:0:0:
256,192,48390,1,12,0:0:0:0:
256,192,48767,1,0,0:0:0:0:
256,192,49145,1,8,0:0:0:0:
256,192,49334,1,0,0:0:0:0:
256,192,49523,1,8,0:0:0:0:
256,192,49617,1,8,0:0:0:0:
256,192,49711,1,8,0:0:0:0:
256,192,49900,1,0,0:0:0:0:
256,192,50278,1,8,0:0:0:0:
256,192,50467,1,0,0:0:0:0:
256,192,50844,1,8,0:0:0:0:
256,192,51033,1,0,0:0:0:0:
256,192,51127,1,0,0:0:0:0:
256,192,51222,1,0,0:0:0:0:
256,192,51411,1,12,0:0:0:0:
256,192,51788,1,8,0:0:0:0:
256,192,52166,1,0,0:0:0:0:
256,192,52355,1,8,0:0:0:0:
256,192,52543,1,8,0:0:0:0:
256,192,52638,1,8,0:0:0:0:
256,192,52732,1,8,0:0:0:0:
256,192,52921,1,0,0:0:0:0:
256,192,53110,1,0,0:0:0:0:
256,192,53299,1,8,0:0:0:0:
256,192,53487,1,0,0:0:0:0:
256,192,54054,1,8,0:0:0:0:
256,192,54431,1,0,0:0:0:0:
256,192,54809,1,0,0:0:0:0:
256,192,54998,1,8,0:0:0:0:
256,192,55375,1,8,0:0:0:0:
256,192,55564,1,0,0:0:0:0:
256,192,55753,1,8,0:0:0:0:
256,192,56131,1,8,0:0:0:0:
256,192,56508,1,0,0:0:0:0:
256,192,56886,1,8,0:0:0:0:
256,192,57074,1,0,0:0:0:0:
256,192,57263,1,8,0:0:0:0:
256,192,57830,1,0,0:0:0:0:
256,192,58207,1,8,0:0:0:0:
256,192,58585,1,0,0:0:0:0:
256,192,58774,1,8,0:0:0:0:
256,192,59151,1,0,0:0:0:0:
256,192,59529,1,8,0:0:0:0:
256,192,59906,1,0,0:0:0:0:
256,192,60095,1,8,0:0:0:0:
256,192,60284,1,0,0:0:0:0:
256,192,60850,1,8,0:0:0:0:
256,192,61228,1,8,0:0:0:0:
256,192,61417,1,0,0:0:0:0:
256,192,61606,1,0,0:0:0:0:
256,192,61794,1,8,0:0:0:0:
256,192,62172,1,8,0:0:0:0:
256,192,62550,1,0,0:0:0:0:
256,192,62927,1,8,0:0:0:0:
256,192,63116,1,8,0:0:0:0:
256,192,63305,1,0,0:0:0:0:
256,192,63494,1,8,0:0:0:0:
256,192,63871,1,0,0:0:0:0:
256,192,64060,1,8,0:0:0:0:
256,192,64438,1,0,0:0:0:0:
256,192,64626,1,8,0:0:0:0:
256,192,65004,1,0,0:0:0:0:
256,192,65570,1,0,0:0:0:0:
256,192,65948,1,8,0:0:0:0:
256,192,66326,1,0,0:0:0:0:
256,192,66514,1,8,0:0:0:0:
256,192,66892,1,0,0:0:0:0:
256,192,67270,1,8,0:0:0:0:
256,192,67458,1,0,0:0:0:0:
256,192,67836,1,8,0:0:0:0:
256,192,68214,1,0,0:0:0:0:
256,192,68591,1,8,0:0:0:0:
256,192,68969,1,0,0:0:0:0:
256,192,69158,1,8,0:0:0:0:
256,192,69913,1,8,0:0:0:0:
256,192,70290,1,8,0:0:0:0:
256,192,70479,1,0,0:0:0:0:
256,192,70857,1,8,0:0:0:0:
256,192,71234,1,0,0:0:0:0:
256,192,71423,1,0,0:0:0:0:
256,192,71612,1,8,0:0:0:0:
256,192,71990,1,0,0:0:0:0:
256,192,72178,1,0,0:0:0:0:
256,192,72556,1,8,0:0:0:0:
256,192,72934,1,8,0:0:0:0:
256,192,73122,1,0,0:0:0:0:
256,192,73311,1,8,0:0:0:0:
256,192,73689,1,8,0:0:0:0:
256,192,73878,1,0,0:0:0:0:
256,192,74066,1,8,0:0:0:0:
256,192,74255,1,0,0:0:0:0:
256,192,74633,1,8,0:0:0:0:
256,192,75010,1,0,0:0:0:0:
256,192,75199,1,0,0:0:0:0:
256,192,75577,1,8,0:0:0:0:
256,192,75765,1,8,0:0:0:0:
256,192,75954,1,0,0:0:0:0:
256,192,76143,1,8,0:0:0:0:
256,192,76521,1,0,0:0:0:0:
256,192,76709,1,8,0:0:0:0:
256,192,76898,1,8,0:0:0:0:
256,192,77087,1,0,0:0:0:0:
256,192,77276,1,0,0:0:0:0:
256,192,77653,1,8,0:0:0:0:
256,192,78220,1,0,0:0:0:0:
256,192,78597,1,12,0:0:0:0:
256,192,78975,1,8,0:0:0:0:
256,192,79353,1,0,0:0:0:0:
256,192,79541,1,0,0:0:0:0:
256,192,79730,1,8,0:0:0:0:
256,192,79825,1,8,0:0:0:0:
256,192,79919,1,8,0:0:0:0:
256,192,80108,1,0,0:0:0:0:
256,192,80485,1,8,0:0:0:0:
256,192,80674,1,0,0:0:0:0:
256,192,81052,1,0,0:0:0:0:
256,192,81241,1,8,0:0:0:0:
256,192,81335,1,8,0:0:0:0:
256,192,81429,1,8,0:0:0:0:
256,192,81618,1,4,0:0:0:0:
256,192,81996,1,8,0:0:0:0:
256,192,82185,1,0,0:0:0:0:
256,192,82373,1,0,0:0:0:0:
256,192,82468,1,0,0:0:0:0:
256,192,82562,1,0,0:0:0:0:
256,192,82751,1,8,0:0:0:0:
256,192,83129,1,0,0:0:0:0:
256,192,83695,1,0,0:0:0:0:
256,192,84073,1,8,0:0:0:0:
256,192,84261,1,0,0:0:0:0:
256,192,84356,1,0,0:0:0:0:
256,192,84450,1,0,0:0:0:0:
256,192,84639,1,12,0:0:0:0:
256,192,85017,1,8,0:0:0:0:
256,192,85394,1,0,0:0:0:0:
256,192,85583,1,0,0:0:0:0:
256,192,85772,1,8,0:0:0:0:
256,192,85866,1,8,0:0:0:0:
256,192,85961,1,8,0:0:0:0:
256,192,86149,1,0,0:0:0:0:
256,192,86527,1,8,0:0:0:0:
256,192,86716,1,0,0:0:0:0:
256,192,87093,1,8,0:0:0:0:
256,192,87282,1,8,0:0:0:0:
256,192,87377,1,8,0:0:0:0:
256,192,87471,1,8,0:0:0:0:
256,192,87660,1,4,0:0:0:0:
256,192,88037,1,0,0:0:0:0:
256,192,88415,1,8,0:0:0:0:
256,192,88604,1,0,0:0:0:0:
256,192,88793,1,8,0:0:0:0:
256,192,88887,1,8,0:0:0:0:
256,192,88981,1,8,0:0:0:0:
256,192,89170,1,0,0:0:0:0:
256,192,89359,1,0,0:0:0:0:
256,192,89548,1,8,0:0:0:0:
256,192,89737,1,0,0:0:0:0:
256,192,90303,1,8,0:0:0:0:
256,192,90492,1,0,0:0:0:0:
256,192,90681,1,12,0:0:0:0:
256,192,91058,1,8,0:0:0:0:
256,192,91436,1,0,0:0:0:0:
256,192,91625,1,0,0:0:0:0:
256,192,91813,1,8,0:0:0:0:
256,192,91908,1,8,0:0:0:0:
256,192,92002,1,8,0:0:0:0:
256,192,92191,1,0,0:0:0:0:
256,192,92569,1,8,0:0:0:0:
256,192,92757,1,0,0:0:0:0:
256,192,93135,1,0,0:0:0:0:
256,192,93324,1,8,0:0:0:0:
256,192,93418,1,8,0:0:0:0:
256,192,93513,1,8,0:0:0:0:
256,192,93701,1,4,0:0:0:0:
256,192,94079,1,0,0:0:0:0:
256,192,94268,1,0,0:0:0:0:
256,192,94456,1,8,0:0:0:0:
256,192,94551,1,8,0:0:0:0:
256,192,94645,1,8,0:0:0:0:
256,192,94834,1,0,0:0:0:0:
256,192,95023,1,8,0:0:0:0:
256,192,95212,1,0,0:0:0:0:
256,192,95778,1,0,0:0:0:0:
256,192,96156,1,8,0:0:0:0:
256,192,96344,1,0,0:0:0:0:
256,192,96439,1,0,0:0:0:0:
256,192,96533,1,0,0:0:0:0:
256,192,96722,1,12,0:0:0:0:
256,192,97100,1,8,0:0:0:0:
256,192,97477,1,8,0:0:0:0:
256,192,97666,1,0,0:0:0:0:
256,192,97855,1,8,0:0:0:0:
256,192,98044,1,8,0:0:0:0:
256,192,98232,1,0,0:0:0:0:
256,192,98610,1,8,0:0:0:0:
256,192,98799,1,0,0:0:0:0:
256,192,98988,1,8,0:0:0:0:
256,192,99176,1,0,0:0:0:0:
256,192,99271,1,0,0:0:0:0:
256,192,99365,1,0,0:0:0:0:
256,192,99554,1,8,0:0:0:0:
256,192,99743,1,4,0:0:0:0:
256,192,100120,1,8,0:0:0:0:
256,192,100498,1,0,0:0:0:0:
256,192,100687,1,0,0:0:0:0:
256,192,100876,1,8,0:0:0:0:
256,192,100970,1,8,0:0:0:0:
256,192,101064,1,8,0:0:0:0:
256,192,101253,1,0,0:0:0:0:
256,192,101631,1,8,0:0:0:0:
256,192,101820,1,0,0:0:0:0:
256,192,102197,1,8,0:0:0:0:
256,192,102386,1,8,0:0:0:0:
256,192,102764,1,0,0:0:0:0:
