osu file format v14

[General]
AudioFilename: audio.mp3
AudioLeadIn: 0
PreviewTime: 29700
Countdown: 0
SampleSet: Soft
StackLeniency: 0.7
Mode: 0
LetterboxInBreaks: 0
EpilepsyWarning: 1
WidescreenStoryboard: 1

[Editor]
Bookmarks: 16296,44992
DistanceSpacing: 1.5
BeatDivisor: 8
GridSize: 16
TimelineZoom: 2.199999

[Metadata]
Title:2009
TitleUnicode:2009
Artist:glaive
ArtistUnicode:glaive
Creator:Le Mirai
Version:hakashii's hard
Source:
Tags:hyperpop glitchcore pop hiphop hip-hop english cypress grove Mirai SirMirai Cacturne 0ppInOsu Elinor Mildly Accurate Seolv [_L_u_k_a_s_] VenerableNyanta TheSword hakashii
BeatmapID:3182679
BeatmapSetID:1540229

[Difficulty]
HPDrainRate:5
CircleSize:3.8
OverallDifficulty:7
ApproachRate:7.7
SliderMultiplier:2.5
SliderTickRate:1

[Events]
//Background and Video events
0,0,"mark-rabe-JP5ruTrnaEs-unsplash.jpg",0,0
//Break Periods
2,54443,65720
//Storyboard Layer 0 (Background)
//Storyboard Layer 1 (Fail)
//Storyboard Layer 2 (Pass)
//Storyboard Layer 3 (Foreground)
Sprite,Foreground,Centre,"sb\fontScript2\_014.png",320,99 F,0,103519,,0.1 R,0,103519,,-0.09 S,0,103519,108806,0.12,0.1308 F,0,103619,,0.17 F,0,103642,,0.1 F,0,103678,,0.44 F,0,103709,,0.1 F,0,103760,,0.62 F,0,103788,,0.1 F,0,103826,,0.74 F,0,108386,108806,0.47,0
Sprite,Foreground,Centre,"sb\particle.png",0,0 F,0,78598,,0.66 C,0,78598,,245,218,66 P,0,78598,,A M,7,78598,79318,536,266,523,216 S,6,78598,79318,0.3628992,0
Sprite,Foreground,Centre,"sb\particle.png",0,0 F,0,78598,,0.66 C,0,78598,,245,218,66 P,0,78598,,A M,7,78598,79318,536,266,531,252 S,6,78598,79318,0.3075538,0
Sprite,Foreground,Centre,"sb\particle.png",0,0 F,0,78598,,0.66 C,0,78598,,245,218,66 P,0,78598,,A M,7,78598,79318,536,266,562,273 S,6,78598,79318,-0.1633489,0
Sprite,Foreground,Centre,"sb\particle.png",0,0 F,0,78598,,0.66 C,0,78598,,245,218,66 P,0,78598,,A M,7,78598,79318,536,266,504,291 S,6,78598,79318,0.3295515,0
Sprite,Foreground,Centre,"sb\particle.png",0,0 F,0,78598,,0.66 C,0,78598,,245,218,66 P,0,78598,,A M,7,78598,79318,536,266,494,222 S,6,78598,79318,0.005624536,0
Sprite,Foreground,Centre,"sb\particle.png",0,0 F,0,78598,,0.66 C,0,78598,,245,218,66 P,0,78598,,A M,7,78598,79318,536,266,494,217 S,6,78598,79318,0.1457802,0
Sprite,Foreground,Centre,"sb\particle.png",0,0 F,0,78598,,0.66 C,0,78598,,245,218,66 P,0,78598,,A M,7,78598,79318,536,266,538,283 S,6,78598,79318,-0.1991033,0
Sprite,Foreground,Centre,"sb\particle.png",0,0 F,0,78598,,0.66 C,0,78598,,255,232,99 P,0,78598,,A M,7,78598,79318,536,266,536,277 S,6,78598,79318,0.1953921,0
Sprite,Foreground,Centre,"sb\particle.png",0,0 F,0,78598,,0.66 C,0,78598,,255,232,99 P,0,78598,,A M,7,78598,79318,536,266,537,244 S,6,78598,79318,0.4950643,0
Sprite,Foreground,Centre,"sb\particle.png",0,0 F,0,78598,,0.66 C,0,78598,,255,232,99 P,0,78598,,A M,7,78598,79318,536,266,515,282 S,6,78598,79318,-0.1383298,0
Sprite,Foreground,Centre,"sb\particle.png",0,0 F,0,78598,,0.66 C,0,78598,,255,232,99 P,0,78598,,A M,7,78598,79318,536,266,508,261 S,6,78598,79318,0.4856367,0
Sprite,Foreground,Centre,"sb\particle.png",0,0 F,0,78598,,0.66 C,0,78598,,255,232,99 P,0,78598,,A M,7,78598,79318,536,266,500,288 S,6,78598,79318,-0.00938205,0
Sprite,Foreground,Centre,"sb\particle.png",0,0 F,0,78598,,0.66 C,0,78598,,255,232,99 P,0,78598,,A M,7,78598,79318,536,266,530,307 S,6,78598,79318,-0.08947691,0
Sprite,Foreground,Centre,"sb\particle.png",0,0 F,0,78598,,0.66 C,0,78598,,255,232,99 P,0,78598,,A M,7,78598,79318,536,266,495,244 S,6,78598,79318,-0.236147,0
Sprite,Foreground,Centre,"sb\particle.png",0,0 F,0,78598,,0.66 C,0,78598,,255,232,99 P,0,78598,,A M,7,78598,79318,536,266,520,245 S,6,78598,79318,0.3521214,0
Sprite,Foreground,Centre,"sb\particle.png",0,0 F,0,78598,,0.66 C,0,78598,,255,232,99 P,0,78598,,A M,7,78598,79318,536,266,482,263 S,6,78598,79318,0.4030673,0
Sprite,Foreground,Centre,"sb\particle.png",0,0 F,0,78598,,0.66 C,0,78598,,255,232,99 P,0,78598,,A M,7,78598,79318,536,266,563,287 S,6,78598,79318,-0.1026519,0
Sprite,Foreground,Centre,"sb\particle.png",0,0 F,0,79164,,0.66 C,0,79164,,245,218,66 P,0,79164,,A M,7,79164,79884,457,84,483,41 S,6,79164,79884,0.1127005,0
Sprite,Foreground,Centre,"sb\particle.png",0,0 F,0,79164,,0.66 C,0,79164,,245,218,66 P,0,79164,,A M,7,79164,79884,457,84,431,75 S,6,79164,79884,0.1678812,0
Sprite,Foreground,Centre,"sb\particle.png",0,0 F,0,79164,,0.66 C,0,79164,,245,218,66 P,0,79164,,A M,7,79164,79884,457,84,496,99 S,6,79164,79884,0.3972194,0
Sprite,Foreground,Centre,"sb\particle.png",0,0 F,0,79164,,0.66 C,0,79164,,245,218,66 P,0,79164,,A M,7,79164,79884,457,84,447,37 S,6,79164,79884,0.01169736,0
Sprite,Foreground,Centre,"sb\particle.png",0,0 F,0,79164,,0.66 C,0,79164,,245,218,66 P,0,79164,,A M,7,79164,79884,457,84,420,99 S,6,79164,79884,-0.1046608,0
Sprite,Foreground,Centre,"sb\particle.png",0,0 F,0,79164,,0.66 C,0,79164,,245,218,66 P,0,79164,,A M,7,79164,79884,457,84,482,47 S,6,79164,79884,0.3920067,0
Sprite,Foreground,Centre,"sb\particle.png",0,0 F,0,79164,,0.66 C,0,79164,,245,218,66 P,0,79164,,A M,7,79164,79884,457,84,421,64 S,6,79164,79884,0.1581442,0
Sprite,Foreground,Centre,"sb\particle.png",0,0 F,0,79164,,0.66 C,0,79164,,255,232,99 P,0,79164,,A M,7,79164,79884,457,84,477,71 S,6,79164,79884,0.3641597,0
Sprite,Foreground,Centre,"sb\particle.png",0,0 F,0,79164,,0.66 C,0,79164,,255,232,99 P,0,79164,,A M,7,79164,79884,457,84,481,43 S,6,79164,79884,0.3482839,0
Sprite,Foreground,Centre,"sb\particle.png",0,0 F,0,79164,,0.66 C,0,79164,,255,232,99 P,0,79164,,A M,7,79164,79884,457,84,433,98 S,6,79164,79884,-0.2934732,0
Sprite,Foreground,Centre,"sb\particle.png",0,0 F,0,79164,,0.66 C,0,79164,,255,232,99 P,0,79164,,A M,7,79164,79884,457,84,430,112 S,6,79164,79884,0.4460005,0
Sprite,Foreground,Centre,"sb\particle.png",0,0 F,0,79164,,0.66 C,0,79164,,255,232,99 P,0,79164,,A M,7,79164,79884,457,84,510,67 S,6,79164,79884,0.08910841,0
Sprite,Foreground,Centre,"sb\particle.png",0,0 F,0,79164,,0.66 C,0,79164,,255,232,99 P,0,79164,,A M,7,79164,79884,457,84,425,37 S,6,79164,79884,0.4591614,0
Sprite,Foreground,Centre,"sb\particle.png",0,0 F,0,79164,,0.66 C,0,79164,,255,232,99 P,0,79164,,A M,7,79164,79884,457,84,421,39 S,6,79164,79884,0.3064271,0
Sprite,Foreground,Centre,"sb\particle.png",0,0 F,0,79164,,0.66 C,0,79164,,255,232,99 P,0,79164,,A M,7,79164,79884,457,84,418,60 S,6,79164,79884,0.05189261,0
Sprite,Foreground,Centre,"sb\particle.png",0,0 F,0,79164,,0.66 C,0,79164,,255,232,99 P,0,79164,,A M,7,79164,79884,457,84,475,136 S,6,79164,79884,-0.2521419,0
Sprite,Foreground,Centre,"sb\particle.png",0,0 F,0,79164,,0.66 C,0,79164,,255,232,99 P,0,79164,,A M,7,79164,79884,457,84,467,53 S,6,79164,79884,0.384391,0
Sprite,Foreground,Centre,"sb\particle.png",0,0 F,0,79353,,0.66 C,0,79353,,245,218,66 P,0,79353,,A M,7,79353,80073,365,131,317,97 S,6,79353,80073,-0.1081185,0
Sprite,Foreground,Centre,"sb\particle.png",0,0 F,0,79353,,0.66 C,0,79353,,245,218,66 P,0,79353,,A M,7,79353,80073,365,131,361,162 S,6,79353,80073,0.005170561,0
Sprite,Foreground,Centre,"sb\particle.png",0,0 F,0,79353,,0.66 C,0,79353,,245,218,66 P,0,79353,,A M,7,79353,80073,365,131,409,171 S,6,79353,80073,-0.2121322,0
Sprite,Foreground,Centre,"sb\particle.png",0,0 F,0,79353,,0.66 C,0,79353,,245,218,66 P,0,79353,,A M,7,79353,80073,365,131,352,101 S,6,79353,80073,0.3928112,0
Sprite,Foreground,Centre,"sb\particle.png",0,0 F,0,79353,,0.66 C,0,79353,,245,218,66 P,0,79353,,A M,7,79353,80073,365,131,385,141 S,6,79353,80073,0.1019089,0
Sprite,Foreground,Centre,"sb\particle.png",0,0 F,0,79353,,0.66 C,0,79353,,245,218,66 P,0,79353,,A M,7,79353,80073,365,131,359,95 S,6,79353,80073,-0.02395951,0
Sprite,Foreground,Centre,"sb\particle.png",0,0 F,0,79353,,0.66 C,0,79353,,245,218,66 P,0,79353,,A M,7,79353,80073,365,131,414,157 S,6,79353,80073,0.03678323,0
Sprite,Foreground,Centre,"sb\particle.png",0,0 F,0,79353,,0.66 C,0,79353,,255,232,99 P,0,79353,,A M,7,79353,80073,365,131,368,152 S,6,79353,80073,0.05690456,0
Sprite,Foreground,Centre,"sb\particle.png",0,0 F,0,79353,,0.66 C,0,79353,,255,232,99 P,0,79353,,A M,7,79353,80073,365,131,313,131 S,6,79353,80073,0.119688,0
Sprite,Foreground,Centre,"sb\particle.png",0,0 F,0,79353,,0.66 C,0,79353,,255,232,99 P,0,79353,,A M,7,79353,80073,365,131,387,85 S,6,79353,80073,0.3914895,0
Sprite,Foreground,Centre,"sb\particle.png",0,0 F,0,79353,,0.66 C,0,79353,,255,232,99 P,0,79353,,A M,7,79353,80073,365,131,343,170 S,6,79353,80073,0.4747521,0
Sprite,Foreground,Centre,"sb\particle.png",0,0 F,0,79353,,0.66 C,0,79353,,255,232,99 P,0,79353,,A M,7,79353,80073,365,131,363,125 S,6,79353,80073,-0.06588305,0
Sprite,Foreground,Centre,"sb\particle.png",0,0 F,0,79353,,0.66 C,0,79353,,255,232,99 P,0,79353,,A M,7,79353,80073,365,131,381,119 S,6,79353,80073,0.3124672,0
Sprite,Foreground,Centre,"sb\particle.png",0,0 F,0,79353,,0.66 C,0,79353,,255,232,99 P,0,79353,,A M,7,79353,80073,365,131,401,181 S,6,79353,80073,-0.162705,0
Sprite,Foreground,Centre,"sb\particle.png",0,0 F,0,79353,,0.66 C,0,79353,,255,232,99 P,0,79353,,A M,7,79353,80073,365,131,376,136 S,6,79353,80073,0.3817568,0
Sprite,Foreground,Centre,"sb\particle.png",0,0 F,0,79353,,0.66 C,0,79353,,255,232,99 P,0,79353,,A M,7,79353,80073,365,131,357,95 S,6,79353,80073,0.1215222,0
Sprite,Foreground,Centre,"sb\particle.png",0,0 F,0,79353,,0.66 C,0,79353,,255,232,99 P,0,79353,,A M,7,79353,80073,365,131,347,158 S,6,79353,80073,-0.01134388,0
Sprite,Foreground,Centre,"sb\particle.png",0,0 F,0,79920,,0.66 C,0,79920,,245,218,66 P,0,79920,,A M,7,79920,80640,133,62,120,92 S,6,79920,80640,-0.2717454,0
Sprite,Foreground,Centre,"sb\particle.png",0,0 F,0,79920,,0.66 C,0,79920,,245,218,66 P,0,79920,,A M,7,79920,80640,133,62,146,63 S,6,79920,80640,-0.2986782,0
Sprite,Foreground,Centre,"sb\particle.png",0,0 F,0,79920,,0.66 C,0,79920,,245,218,66 P,0,79920,,A M,7,79920,80640,133,62,120,87 S,6,79920,80640,0.093216,0
Sprite,Foreground,Centre,"sb\particle.png",0,0 F,0,79920,,0.66 C,0,79920,,245,218,66 P,0,79920,,A M,7,79920,80640,133,62,79,30 S,6,79920,80640,0.3890521,0
Sprite,Foreground,Centre,"sb\particle.png",0,0 F,0,79920,,0.66 C,0,79920,,245,218,66 P,0,79920,,A M,7,79920,80640,133,62,150,11 S,6,79920,80640,-0.2803374,0
Sprite,Foreground,Centre,"sb\particle.png",0,0 F,0,79920,,0.66 C,0,79920,,245,218,66 P,0,79920,,A M,7,79920,80640,133,62,130,13 S,6,79920,80640,0.2749994,0
Sprite,Foreground,Centre,"sb\particle.png",0,0 F,0,79920,,0.66 C,0,79920,,245,218,66 P,0,79920,,A M,7,79920,80640,133,62,151,59 S,6,79920,80640,0.2749374,0
Sprite,Foreground,Centre,"sb\particle.png",0,0 F,0,79920,,0.66 C,0,79920,,255,232,99 P,0,79920,,A M,7,79920,80640,133,62,183,107 S,6,79920,80640,0.3670439,0
Sprite,Foreground,Centre,"sb\particle.png",0,0 F,0,79920,,0.66 C,0,79920,,255,232,99 P,0,79920,,A M,7,79920,80640,133,62,153,105 S,6,79920,80640,0.3492045,0
Sprite,Foreground,Centre,"sb\particle.png",0,0 F,0,79920,,0.66 C,0,79920,,255,232,99 P,0,79920,,A M,7,79920,80640,133,62,101,60 S,6,79920,80640,0.1203372,0
Sprite,Foreground,Centre,"sb\particle.png",0,0 F,0,79920,,0.66 C,0,79920,,255,232,99 P,0,79920,,A M,7,79920,80640,133,62,133,45 S,6,79920,80640,0.1903046,0
Sprite,Foreground,Centre,"sb\particle.png",0,0 F,0,79920,,0.66 C,0,79920,,255,232,99 P,0,79920,,A M,7,79920,80640,133,62,94,65 S,6,79920,80640,-0.2193235,0
Sprite,Foreground,Centre,"sb\particle.png",0,0 F,0,79920,,0.66 C,0,79920,,255,232,99 P,0,79920,,A M,7,79920,80640,133,62,152,106 S,6,79920,80640,0.183412,0
Sprite,Foreground,Centre,"sb\particle.png",0,0 F,0,79920,,0.66 C,0,79920,,255,232,99 P,0,79920,,A M,7,79920,80640,133,62,167,9 S,6,79920,80640,0.02794511,0
Sprite,Foreground,Centre,"sb\particle.png",0,0 F,0,79920,,0.66 C,0,79920,,255,232,99 P,0,79920,,A M,7,79920,80640,133,62,84,55 S,6,79920,80640,0.3924164,0
Sprite,Foreground,Centre,"sb\particle.png",0,0 F,0,79920,,0.66 C,0,79920,,255,232,99 P,0,79920,,A M,7,79920,80640,133,62,148,39 S,6,79920,80640,0.03250949,0
Sprite,Foreground,Centre,"sb\particle.png",0,0 F,0,79920,,0.66 C,0,79920,,255,232,99 P,0,79920,,A M,7,79920,80640,133,62,152,69 S,6,79920,80640,-0.04970875,0
Sprite,Foreground,Centre,"sb\particle.png",0,0 F,0,80108,,0.66 C,0,80108,,245,218,66 P,0,80108,,A M,7,80108,80828,77,148,84,127 S,6,80108,80828,-0.2939547,0
Sprite,Foreground,Centre,"sb\particle.png",0,0 F,0,80108,,0.66 C,0,80108,,245,218,66 P,0,80108,,A M,7,80108,80828,77,148,120,201 S,6,80108,80828,-0.03128512,0
Sprite,Foreground,Centre,"sb\particle.png",0,0 F,0,80108,,0.66 C,0,80108,,245,218,66 P,0,80108,,A M,7,80108,80828,77,148,40,168 S,6,80108,80828,-0.2875596,0
Sprite,Foreground,Centre,"sb\particle.png",0,0 F,0,80108,,0.66 C,0,80108,,245,218,66 P,0,80108,,A M,7,80108,80828,77,148,124,141 S,6,80108,80828,0.1630521,0
Sprite,Foreground,Centre,"sb\particle.png",0,0 F,0,80108,,0.66 C,0,80108,,245,218,66 P,0,80108,,A M,7,80108,80828,77,148,84,148 S,6,80108,80828,0.3416907,0
Sprite,Foreground,Centre,"sb\particle.png",0,0 F,0,80108,,0.66 C,0,80108,,245,218,66 P,0,80108,,A M,7,80108,80828,77,148,90,120 S,6,80108,80828,0.3896765,0
Sprite,Foreground,Centre,"sb\particle.png",0,0 F,0,80108,,0.66 C,0,80108,,245,218,66 P,0,80108,,A M,7,80108,80828,77,148,32,182 S,6,80108,80828,-0.1562986,0
Sprite,Foreground,Centre,"sb\particle.png",0,0 F,0,80108,,0.66 C,0,80108,,255,232,99 P,0,80108,,A M,7,80108,80828,77,148,63,95 S,6,80108,80828,-0.1590783,0
Sprite,Foreground,Centre,"sb\particle.png",0,0 F,0,80108,,0.66 C,0,80108,,255,232,99 P,0,80108,,A M,7,80108,80828,77,148,48,119 S,6,80108,80828,0.2151607,0
Sprite,Foreground,Centre,"sb\particle.png",0,0 F,0,80108,,0.66 C,0,80108,,255,232,99 P,0,80108,,A M,7,80108,80828,77,148,27,158 S,6,80108,80828,0.0345548,0
Sprite,Foreground,Centre,"sb\particle.png",0,0 F,0,80108,,0.66 C,0,80108,,255,232,99 P,0,80108,,A M,7,80108,80828,77,148,108,164 S,6,80108,80828,0.2380337,0
Sprite,Foreground,Centre,"sb\particle.png",0,0 F,0,80108,,0.66 C,0,80108,,255,232,99 P,0,80108,,A M,7,80108,80828,77,148,99,132 S,6,80108,80828,-0.1956877,0
Sprite,Foreground,Centre,"sb\particle.png",0,0 F,0,80108,,0.66 C,0,80108,,255,232,99 P,0,80108,,A M,7,80108,80828,77,148,65,131 S,6,80108,80828,-0.2175235,0
Sprite,Foreground,Centre,"sb\particle.png",0,0 F,0,80108,,0.66 C,0,80108,,255,232,99 P,0,80108,,A M,7,80108,80828,77,148,61,143 S,6,80108,80828,0.3720281,0
Sprite,Foreground,Centre,"sb\particle.png",0,0 F,0,80108,,0.66 C,0,80108,,255,232,99 P,0,80108,,A M,7,80108,80828,77,148,108,161 S,6,80108,80828,0.3903909,0
Sprite,Foreground,Centre,"sb\particle.png",0,0 F,0,80108,,0.66 C,0,80108,,255,232,99 P,0,80108,,A M,7,80108,80828,77,148,37,162 S,6,80108,80828,-0.1387221,0
Sprite,Foreground,Centre,"sb\particle.png",0,0 F,0,80108,,0.66 C,0,80108,,255,232,99 P,0,80108,,A M,7,80108,80828,77,148,111,155 S,6,80108,80828,-0.2188324,0
Sprite,Foreground,Centre,"sb\particle.png",0,0 F,0,80675,,0.66 C,0,80675,,245,218,66 P,0,80675,,A M,7,80675,81395,94,316,95,368 S,6,80675,81395,0.03772777,0
Sprite,Foreground,Centre,"sb\particle.png",0,0 F,0,80675,,0.66 C,0,80675,,245,218,66 P,0,80675,,A M,7,80675,81395,94,316,49,304 S,6,80675,81395,-0.1715027,0
Sprite,Foreground,Centre,"sb\particle.png",0,0 F,0,80675,,0.66 C,0,80675,,245,218,66 P,0,80675,,A M,7,80675,81395,94,316,123,354 S,6,80675,81395,0.06756978,0
Sprite,Foreground,Centre,"sb\particle.png",0,0 F,0,80675,,0.66 C,0,80675,,245,218,66 P,0,80675,,A M,7,80675,81395,94,316,69,323 S,6,80675,81395,-0.1750738,0
Sprite,Foreground,Centre,"sb\particle.png",0,0 F,0,80675,,0.66 C,0,80675,,245,218,66 P,0,80675,,A M,7,80675,81395,94,316,143,276 S,6,80675,81395,0.3633584,0
Sprite,Foreground,Centre,"sb\particle.png",0,0 F,0,80675,,0.66 C,0,80675,,245,218,66 P,0,80675,,A M,7,80675,81395,94,316,79,329 S,6,80675,81395,-0.03249685,0
Sprite,Foreground,Centre,"sb\particle.png",0,0 F,0,80675,,0.66 C,0,80675,,245,218,66 P,0,80675,,A M,7,80675,81395,94,316,135,339 S,6,80675,81395,0.1079422,0
Sprite,Foreground,Centre,"sb\particle.png",0,0 F,0,80675,,0.66 C,0,80675,,255,232,99 P,0,80675,,A M,7,80675,81395,94,316,42,355 S,6,80675,81395,-0.03035107,0
Sprite,Foreground,Centre,"sb\particle.png",0,0 F,0,80675,,0.66 C,0,80675,,255,232,99 P,0,80675,,A M,7,80675,81395,94,316,124,369 S,6,80675,81395,0.09568558,0
Sprite,Foreground,Centre,"sb\particle.png",0,0 F,0,80675,,0.66 C,0,80675,,255,232,99 P,0,80675,,A M,7,80675,81395,94,316,51,277 S,6,80675,81395,-0.2618766,0
Sprite,Foreground,Centre,"sb\particle.png",0,0 F,0,80675,,0.66 C,0,80675,,255,232,99 P,0,80675,,A M,7,80675,81395,94,316,55,324 S,6,80675,81395,0.4777769,0
Sprite,Foreground,Centre,"sb\particle.png",0,0 F,0,80675,,0.66 C,0,80675,,255,232,99 P,0,80675,,A M,7,80675,81395,94,316,41,327 S,6,80675,81395,0.1021082,0
Sprite,Foreground,Centre,"sb\particle.png",0,0 F,0,80675,,0.66 C,0,80675,,255,232,99 P,0,80675,,A M,7,80675,81395,94,316,81,364 S,6,80675,81395,0.1143763,0
Sprite,Foreground,Centre,"sb\particle.png",0,0 F,0,80675,,0.66 C,0,80675,,255,232,99 P,0,80675,,A M,7,80675,81395,94,316,118,321 S,6,80675,81395,-0.05676858,0
Sprite,Foreground,Centre,"sb\particle.png",0,0 F,0,80675,,0.66 C,0,80675,,255,232,99 P,0,80675,,A M,7,80675,81395,94,316,129,334 S,6,80675,81395,-0.22067,0
Sprite,Foreground,Centre,"sb\particle.png",0,0 F,0,80675,,0.66 C,0,80675,,255,232,99 P,0,80675,,A M,7,80675,81395,94,316,103,345 S,6,80675,81395,0.09473708,0
Sprite,Foreground,Centre,"sb\particle.png",0,0 F,0,80675,,0.66 C,0,80675,,255,232,99 P,0,80675,,A M,7,80675,81395,94,316,46,328 S,6,80675,81395,0.002651322,0
Sprite,Foreground,Centre,"sb\particle.png",0,0 F,0,80864,,0.66 C,0,80864,,245,218,66 P,0,80864,,A M,7,80864,81584,171,371,147,352 S,6,80864,81584,-0.04527318,0
Sprite,Foreground,Centre,"sb\particle.png",0,0 F,0,80864,,0.66 C,0,80864,,245,218,66 P,0,80864,,A M,7,80864,81584,171,371,196,367 S,6,80864,81584,-0.2131972,0
Sprite,Foreground,Centre,"sb\particle.png",0,0 F,0,80864,,0.66 C,0,80864,,245,218,66 P,0,80864,,A M,7,80864,81584,171,371,204,377 S,6,80864,81584,0.4948407,0
Sprite,Foreground,Centre,"sb\particle.png",0,0 F,0,80864,,0.66 C,0,80864,,245,218,66 P,0,80864,,A M,7,80864,81584,171,371,199,387 S,6,80864,81584,-0.04484657,0
Sprite,Foreground,Centre,"sb\particle.png",0,0 F,0,80864,,0.66 C,0,80864,,245,218,66 P,0,80864,,A M,7,80864,81584,171,371,158,362 S,6,80864,81584,0.1501887,0
Sprite,Foreground,Centre,"sb\particle.png",0,0 F,0,80864,,0.66 C,0,80864,,245,218,66 P,0,80864,,A M,7,80864,81584,171,371,221,369 S,6,80864,81584,-0.07193575,0
Sprite,Foreground,Centre,"sb\particle.png",0,0 F,0,80864,,0.66 C,0,80864,,245,218,66 P,0,80864,,A M,7,80864,81584,171,371,145,401 S,6,80864,81584,-0.2184914,0
Sprite,Foreground,Centre,"sb\particle.png",0,0 F,0,80864,,0.66 C,0,80864,,255,232,99 P,0,80864,,A M,7,80864,81584,171,371,205,340 S,6,80864,81584,0.3934056,0
Sprite,Foreground,Centre,"sb\particle.png",0,0 F,0,80864,,0.66 C,0,80864,,255,232,99 P,0,80864,,A M,7,80864,81584,171,371,146,364 S,6,80864,81584,-0.277589,0
Sprite,Foreground,Centre,"sb\particle.png",0,0 F,0,80864,,0.66 C,0,80864,,255,232,99 P,0,80864,,A M,7,80864,81584,171,371,155,353 S,6,80864,81584,0.4364198,0
Sprite,Foreground,Centre,"sb\particle.png",0,0 F,0,80864,,0.66 C,0,80864,,255,232,99 P,0,80864,,A M,7,80864,81584,171,371,135,416 S,6,80864,81584,-0.2502686,0
Sprite,Foreground,Centre,"sb\particle.png",0,0 F,0,80864,,0.66 C,0,80864,,255,232,99 P,0,80864,,A M,7,80864,81584,171,371,201,380 S,6,80864,81584,-0.168979,0
Sprite,Foreground,Centre,"sb\particle.png",0,0 F,0,80864,,0.66 C,0,80864,,255,232,99 P,0,80864,,A M,7,80864,81584,171,371,150,411 S,6,80864,81584,-0.2421658,0
Sprite,Foreground,Centre,"sb\particle.png",0,0 F,0,80864,,0.66 C,0,80864,,255,232,99 P,0,80864,,A M,7,80864,81584,171,371,190,416 S,6,80864,81584,-0.2769632,0
Sprite,Foreground,Centre,"sb\particle.png",0,0 F,0,80864,,0.66 C,0,80864,,255,232,99 P,0,80864,,A M,7,80864,81584,171,371,173,385 S,6,80864,81584,-0.08463389,0
Sprite,Foreground,Centre,"sb\particle.png",0,0 F,0,80864,,0.66 C,0,80864,,255,232,99 P,0,80864,,A M,7,80864,81584,171,371,146,406 S,6,80864,81584,0.06793725,0
Sprite,Foreground,Centre,"sb\particle.png",0,0 F,0,80864,,0.66 C,0,80864,,255,232,99 P,0,80864,,A M,7,80864,81584,171,371,181,318 S,6,80864,81584,0.3685647,0
Sprite,Foreground,Centre,"sb\particle.png",0,0 F,0,81241,,0.66 C,0,81241,,245,218,66 P,0,81241,,A M,7,81241,81961,324,296,354,303 S,6,81241,81961,0.2210601,0
Sprite,Foreground,Centre,"sb\particle.png",0,0 F,0,81241,,0.66 C,0,81241,,245,218,66 P,0,81241,,A M,7,81241,81961,324,296,292,274 S,6,81241,81961,0.01873358,0
Sprite,Foreground,Centre,"sb\particle.png",0,0 F,0,81241,,0.66 C,0,81241,,245,218,66 P,0,81241,,A M,7,81241,81961,324,296,292,296 S,6,81241,81961,0.4186012,0
Sprite,Foreground,Centre,"sb\particle.png",0,0 F,0,81241,,0.66 C,0,81241,,245,218,66 P,0,81241,,A M,7,81241,81961,324,296,310,287 S,6,81241,81961,0.1031308,0
Sprite,Foreground,Centre,"sb\particle.png",0,0 F,0,81241,,0.66 C,0,81241,,245,218,66 P,0,81241,,A M,7,81241,81961,324,296,281,279 S,6,81241,81961,-0.1161015,0
Sprite,Foreground,Centre,"sb\particle.png",0,0 F,0,81241,,0.66 C,0,81241,,245,218,66 P,0,81241,,A M,7,81241,81961,324,296,356,339 S,6,81241,81961,-0.1105389,0
Sprite,Foreground,Centre,"sb\particle.png",0,0 F,0,81241,,0.66 C,0,81241,,245,218,66 P,0,81241,,A M,7,81241,81961,324,296,351,344 S,6,81241,81961,0.4029863,0
Sprite,Foreground,Centre,"sb\particle.png",0,0 F,0,81241,,0.66 C,0,81241,,255,232,99 P,0,81241,,A M,7,81241,81961,324,296,312,345 S,6,81241,81961,-0.2847333,0
Sprite,Foreground,Centre,"sb\particle.png",0,0 F,0,81241,,0.66 C,0,81241,,255,232,99 P,0,81241,,A M,7,81241,81961,324,296,280,272 S,6,81241,81961,-0.255447,0
Sprite,Foreground,Centre,"sb\particle.png",0,0 F,0,81241,,0.66 C,0,81241,,255,232,99 P,0,81241,,A M,7,81241,81961,324,296,275,264 S,6,81241,81961,0.08461352,0
Sprite,Foreground,Centre,"sb\particle.png",0,0 F,0,81241,,0.66 C,0,81241,,255,232,99 P,0,81241,,A M,7,81241,81961,324,296,333,307 S,6,81241,81961,0.2273305,0
Sprite,Foreground,Centre,"sb\particle.png",0,0 F,0,81241,,0.66 C,0,81241,,255,232,99 P,0,81241,,A M,7,81241,81961,324,296,363,320 S,6,81241,81961,-0.1588399,0
Sprite,Foreground,Centre,"sb\particle.png",0,0 F,0,81241,,0.66 C,0,81241,,255,232,99 P,0,81241,,A M,7,81241,81961,324,296,284,261 S,6,81241,81961,-0.1827623,0
Sprite,Foreground,Centre,"sb\particle.png",0,0 F,0,81241,,0.66 C,0,81241,,255,232,99 P,0,81241,,A M,7,81241,81961,324,296,369,331 S,6,81241,81961,-0.2627557,0
Sprite,Foreground,Centre,"sb\particle.png",0,0 F,0,81241,,0.66 C,0,81241,,255,232,99 P,0,81241,,A M,7,81241,81961,324,296,341,264 S,6,81241,81961,0.2195068,0
Sprite,Foreground,Centre,"sb\particle.png",0,0 F,0,81241,,0.66 C,0,81241,,255,232,99 P,0,81241,,A M,7,81241,81961,324,296,373,300 S,6,81241,81961,0.01016156,0
Sprite,Foreground,Centre,"sb\particle.png",0,0 F,0,81241,,0.66 C,0,81241,,255,232,99 P,0,81241,,A M,7,81241,81961,324,296,300,332 S,6,81241,81961,-0.05650914,0
Sprite,Foreground,Centre,"sb\particle.png",0,0 F,0,81619,,0.66 C,0,81619,,245,218,66 P,0,81619,,A M,7,81619,82339,467,389,429,427 S,6,81619,82339,0.254951,0
Sprite,Foreground,Centre,"sb\particle.png",0,0 F,0,81619,,0.66 C,0,81619,,245,218,66 P,0,81619,,A M,7,81619,82339,467,389,455,374 S,6,81619,82339,-0.2814827,0
Sprite,Foreground,Centre,"sb\particle.png",0,0 F,0,81619,,0.66 C,0,81619,,245,218,66 P,0,81619,,A M,7,81619,82339,467,389,468,414 S,6,81619,82339,-0.1893953,0
Sprite,Foreground,Centre,"sb\particle.png",0,0 F,0,81619,,0.66 C,0,81619,,245,218,66 P,0,81619,,A M,7,81619,82339,467,389,421,361 S,6,81619,82339,-0.004224909,0
Sprite,Foreground,Centre,"sb\particle.png",0,0 F,0,81619,,0.66 C,0,81619,,245,218,66 P,0,81619,,A M,7,81619,82339,467,389,475,381 S,6,81619,82339,0.2560958,0
Sprite,Foreground,Centre,"sb\particle.png",0,0 F,0,81619,,0.66 C,0,81619,,245,218,66 P,0,81619,,A M,7,81619,82339,467,389,432,424 S,6,81619,82339,0.2356988,0
Sprite,Foreground,Centre,"sb\particle.png",0,0 F,0,81619,,0.66 C,0,81619,,245,218,66 P,0,81619,,A M,7,81619,82339,467,389,451,355 S,6,81619,82339,-0.002202614,0
Sprite,Foreground,Centre,"sb\particle.png",0,0 F,0,81619,,0.66 C,0,81619,,255,232,99 P,0,81619,,A M,7,81619,82339,467,389,504,399 S,6,81619,82339,-0.07567038,0
Sprite,Foreground,Centre,"sb\particle.png",0,0 F,0,81619,,0.66 C,0,81619,,255,232,99 P,0,81619,,A M,7,81619,82339,467,389,514,371 S,6,81619,82339,0.4790318,0
Sprite,Foreground,Centre,"sb\particle.png",0,0 F,0,81619,,0.66 C,0,81619,,255,232,99 P,0,81619,,A M,7,81619,82339,467,389,501,411 S,6,81619,82339,0.457737,0
Sprite,Foreground,Centre,"sb\particle.png",0,0 F,0,81619,,0.66 C,0,81619,,255,232,99 P,0,81619,,A M,7,81619,82339,467,389,447,358 S,6,81619,82339,0.04948466,0
Sprite,Foreground,Centre,"sb\particle.png",0,0 F,0,81619,,0.66 C,0,81619,,255,232,99 P,0,81619,,A M,7,81619,82339,467,389,494,426 S,6,81619,82339,-0.150088,0
Sprite,Foreground,Centre,"sb\particle.png",0,0 F,0,81619,,0.66 C,0,81619,,255,232,99 P,0,81619,,A M,7,81619,82339,467,389,511,357 S,6,81619,82339,0.164684,0
Sprite,Foreground,Centre,"sb\particle.png",0,0 F,0,81619,,0.66 C,0,81619,,255,232,99 P,0,81619,,A M,7,81619,82339,467,389,436,378 S,6,81619,82339,-0.09051739,0
Sprite,Foreground,Centre,"sb\particle.png",0,0 F,0,81619,,0.66 C,0,81619,,255,232,99 P,0,81619,,A M,7,81619,82339,467,389,435,420 S,6,81619,82339,-0.2285169,0
Sprite,Foreground,Centre,"sb\particle.png",0,0 F,0,81619,,0.66 C,0,81619,,255,232,99 P,0,81619,,A M,7,81619,82339,467,389,513,395 S,6,81619,82339,-0.05475225,0
Sprite,Foreground,Centre,"sb\particle.png",0,0 F,0,81619,,0.66 C,0,81619,,255,232,99 P,0,81619,,A M,7,81619,82339,467,389,422,350 S,6,81619,82339,-0.2322616,0
Sprite,Foreground,Centre,"sb\particle.png",0,0 F,0,82185,,0.66 C,0,82185,,245,218,66 P,0,82185,,A M,7,82185,82905,545,186,549,141 S,6,82185,82905,0.04747242,0
Sprite,Foreground,Centre,"sb\particle.png",0,0 F,0,82185,,0.66 C,0,82185,,245,218,66 P,0,82185,,A M,7,82185,82905,545,186,559,177 S,6,82185,82905,0.03803809,0
Sprite,Foreground,Centre,"sb\particle.png",0,0 F,0,82185,,0.66 C,0,82185,,245,218,66 P,0,82185,,A M,7,82185,82905,545,186,519,155 S,6,82185,82905,0.2330137,0
Sprite,Foreground,Centre,"sb\particle.png",0,0 F,0,82185,,0.66 C,0,82185,,245,218,66 P,0,82185,,A M,7,82185,82905,545,186,527,174 S,6,82185,82905,0.4312845,0
Sprite,Foreground,Centre,"sb\particle.png",0,0 F,0,82185,,0.66 C,0,82185,,245,218,66 P,0,82185,,A M,7,82185,82905,545,186,509,173 S,6,82185,82905,-0.1678119,0
Sprite,Foreground,Centre,"sb\particle.png",0,0 F,0,82185,,0.66 C,0,82185,,245,218,66 P,0,82185,,A M,7,82185,82905,545,186,586,206 S,6,82185,82905,0.4722149,0
Sprite,Foreground,Centre,"sb\particle.png",0,0 F,0,82185,,0.66 C,0,82185,,245,218,66 P,0,82185,,A M,7,82185,82905,545,186,504,226 S,6,82185,82905,0.4822696,0
Sprite,Foreground,Centre,"sb\particle.png",0,0 F,0,82185,,0.66 C,0,82185,,255,232,99 P,0,82185,,A M,7,82185,82905,545,186,510,173 S,6,82185,82905,0.2267818,0
Sprite,Foreground,Centre,"sb\particle.png",0,0 F,0,82185,,0.66 C,0,82185,,255,232,99 P,0,82185,,A M,7,82185,82905,545,186,532,170 S,6,82185,82905,-0.2568235,0
Sprite,Foreground,Centre,"sb\particle.png",0,0 F,0,82185,,0.66 C,0,82185,,255,232,99 P,0,82185,,A M,7,82185,82905,545,186,522,210 S,6,82185,82905,0.2628671,0
Sprite,Foreground,Centre,"sb\particle.png",0,0 F,0,82185,,0.66 C,0,82185,,255,232,99 P,0,82185,,A M,7,82185,82905,545,186,501,210 S,6,82185,82905,0.07916722,0
Sprite,Foreground,Centre,"sb\particle.png",0,0 F,0,82185,,0.66 C,0,82185,,255,232,99 P,0,82185,,A M,7,82185,82905,545,186,593,189 S,6,82185,82905,-0.2999509,0
Sprite,Foreground,Centre,"sb\particle.png",0,0 F,0,82185,,0.66 C,0,82185,,255,232,99 P,0,82185,,A M,7,82185,82905,545,186,555,207 S,6,82185,82905,0.3999391,0
Sprite,Foreground,Centre,"sb\particle.png",0,0 F,0,82185,,0.66 C,0,82185,,255,232,99 P,0,82185,,A M,7,82185,82905,545,186,567,159 S,6,82185,82905,0.3135054,0
Sprite,Foreground,Centre,"sb\particle.png",0,0 F,0,82185,,0.66 C,0,82185,,255,232,99 P,0,82185,,A M,7,82185,82905,545,186,536,194 S,6,82185,82905,-0.1315185,0
Sprite,Foreground,Centre,"sb\particle.png",0,0 F,0,82185,,0.66 C,0,82185,,255,232,99 P,0,82185,,A M,7,82185,82905,545,186,502,232 S,6,82185,82905,-0.01518918,0
Sprite,Foreground,Centre,"sb\particle.png",0,0 F,0,82185,,0.66 C,0,82185,,255,232,99 P,0,82185,,A M,7,82185,82905,545,186,573,233 S,6,82185,82905,-0.2719079,0
Sprite,Foreground,Centre,"sb\particle.png",0,0 F,0,82374,,0.66 C,0,82374,,245,218,66 P,0,82374,,A M,7,82374,83094,466,119,434,166 S,6,82374,83094,0.4551794,0
Sprite,Foreground,Centre,"sb\particle.png",0,0 F,0,82374,,0.66 C,0,82374,,245,218,66 P,0,82374,,A M,7,82374,83094,466,119,474,75 S,6,82374,83094,-0.1315826,0
Sprite,Foreground,Centre,"sb\particle.png",0,0 F,0,82374,,0.66 C,0,82374,,245,218,66 P,0,82374,,A M,7,82374,83094,466,119,419,136 S,6,82374,83094,0.099383,0
Sprite,Foreground,Centre,"sb\particle.png",0,0 F,0,82374,,0.66 C,0,82374,,245,218,66 P,0,82374,,A M,7,82374,83094,466,119,450,88 S,6,82374,83094,-0.2868628,0
Sprite,Foreground,Centre,"sb\particle.png",0,0 F,0,82374,,0.66 C,0,82374,,245,218,66 P,0,82374,,A M,7,82374,83094,466,119,425,161 S,6,82374,83094,-0.07466907,0
Sprite,Foreground,Centre,"sb\particle.png",0,0 F,0,82374,,0.66 C,0,82374,,245,218,66 P,0,82374,,A M,7,82374,83094,466,119,496,150 S,6,82374,83094,0.1961754,0
Sprite,Foreground,Centre,"sb\particle.png",0,0 F,0,82374,,0.66 C,0,82374,,245,218,66 P,0,82374,,A M,7,82374,83094,466,119,482,108 S,6,82374,83094,-0.299599,0
Sprite,Foreground,Centre,"sb\particle.png",0,0 F,0,82374,,0.66 C,0,82374,,255,232,99 P,0,82374,,A M,7,82374,83094,466,119,463,120 S,6,82374,83094,-0.2144046,0
Sprite,Foreground,Centre,"sb\particle.png",0,0 F,0,82374,,0.66 C,0,82374,,255,232,99 P,0,82374,,A M,7,82374,83094,466,119,495,123 S,6,82374,83094,0.01902379,0
Sprite,Foreground,Centre,"sb\particle.png",0,0 F,0,82374,,0.66 C,0,82374,,255,232,99 P,0,82374,,A M,7,82374,83094,466,119,469,98 S,6,82374,83094,0.2384491,0
Sprite,Foreground,Centre,"sb\particle.png",0,0 F,0,82374,,0.66 C,0,82374,,255,232,99 P,0,82374,,A M,7,82374,83094,466,119,418,167 S,6,82374,83094,0.2212895,0
Sprite,Foreground,Centre,"sb\particle.png",0,0 F,0,82374,,0.66 C,0,82374,,255,232,99 P,0,82374,,A M,7,82374,83094,466,119,444,97 S,6,82374,83094,-0.2618799,0
Sprite,Foreground,Centre,"sb\particle.png",0,0 F,0,82374,,0.66 C,0,82374,,255,232,99 P,0,82374,,A M,7,82374,83094,466,119,440,98 S,6,82374,83094,-0.2482736,0
Sprite,Foreground,Centre,"sb\particle.png",0,0 F,0,82374,,0.66 C,0,82374,,255,232,99 P,0,82374,,A M,7,82374,83094,466,119,445,82 S,6,82374,83094,0.3601379,0
Sprite,Foreground,Centre,"sb\particle.png",0,0 F,0,82374,,0.66 C,0,82374,,255,232,99 P,0,82374,,A M,7,82374,83094,466,119,473,163 S,6,82374,83094,-0.01323402,0
Sprite,Foreground,Centre,"sb\particle.png",0,0 F,0,82374,,0.66 C,0,82374,,255,232,99 P,0,82374,,A M,7,82374,83094,466,119,415,132 S,6,82374,83094,0.2856077,0
Sprite,Foreground,Centre,"sb\particle.png",0,0 F,0,82374,,0.66 C,0,82374,,255,232,99 P,0,82374,,A M,7,82374,83094,466,119,519,134 S,6,82374,83094,0.05000674,0
Sprite,Foreground,Centre,"sb\particle.png",0,0 F,0,82751,,0.66 C,0,82751,,245,218,66 P,0,82751,,A M,7,82751,83471,363,240,381,190 S,6,82751,83471,-0.1486112,0
Sprite,Foreground,Centre,"sb\particle.png",0,0 F,0,82751,,0.66 C,0,82751,,245,218,66 P,0,82751,,A M,7,82751,83471,363,240,371,259 S,6,82751,83471,-0.02531184,0
Sprite,Foreground,Centre,"sb\particle.png",0,0 F,0,82751,,0.66 C,0,82751,,245,218,66 P,0,82751,,A M,7,82751,83471,363,240,315,288 S,6,82751,83471,0.3367866,0
Sprite,Foreground,Centre,"sb\particle.png",0,0 F,0,82751,,0.66 C,0,82751,,245,218,66 P,0,82751,,A M,7,82751,83471,363,240,361,201 S,6,82751,83471,-0.04213477,0
Sprite,Foreground,Centre,"sb\particle.png",0,0 F,0,82751,,0.66 C,0,82751,,245,218,66 P,0,82751,,A M,7,82751,83471,363,240,373,225 S,6,82751,83471,0.2497016,0
Sprite,Foreground,Centre,"sb\particle.png",0,0 F,0,82751,,0.66 C,0,82751,,245,218,66 P,0,82751,,A M,7,82751,83471,363,240,321,212 S,6,82751,83471,-0.1081755,0
Sprite,Foreground,Centre,"sb\particle.png",0,0 F,0,82751,,0.66 C,0,82751,,245,218,66 P,0,82751,,A M,7,82751,83471,363,240,334,287 S,6,82751,83471,0.4709958,0
Sprite,Foreground,Centre,"sb\particle.png",0,0 F,0,82751,,0.66 C,0,82751,,255,232,99 P,0,82751,,A M,7,82751,83471,363,240,361,271 S,6,82751,83471,-0.1273731,0
Sprite,Foreground,Centre,"sb\particle.png",0,0 F,0,82751,,0.66 C,0,82751,,255,232,99 P,0,82751,,A M,7,82751,83471,363,240,313,230 S,6,82751,83471,0.2147442,0
Sprite,Foreground,Centre,"sb\particle.png",0,0 F,0,82751,,0.66 C,0,82751,,255,232,99 P,0,82751,,A M,7,82751,83471,363,240,310,267 S,6,82751,83471,-0.08635071,0
Sprite,Foreground,Centre,"sb\particle.png",0,0 F,0,82751,,0.66 C,0,82751,,255,232,99 P,0,82751,,A M,7,82751,83471,363,240,309,251 S,6,82751,83471,-0.2372664,0
Sprite,Foreground,Centre,"sb\particle.png",0,0 F,0,82751,,0.66 C,0,82751,,255,232,99 P,0,82751,,A M,7,82751,83471,363,240,360,259 S,6,82751,83471,-0.01140787,0
Sprite,Foreground,Centre,"sb\particle.png",0,0 F,0,82751,,0.66 C,0,82751,,255,232,99 P,0,82751,,A M,7,82751,83471,363,240,312,267 S,6,82751,83471,-0.235992,0
Sprite,Foreground,Centre,"sb\particle.png",0,0 F,0,82751,,0.66 C,0,82751,,255,232,99 P,0,82751,,A M,7,82751,83471,363,240,416,293 S,6,82751,83471,-0.02201046,0
Sprite,Foreground,Centre,"sb\particle.png",0,0 F,0,82751,,0.66 C,0,82751,,255,232,99 P,0,82751,,A M,7,82751,83471,363,240,375,204 S,6,82751,83471,-0.2575824,0
Sprite,Foreground,Centre,"sb\particle.png",0,0 F,0,82751,,0.66 C,0,82751,,255,232,99 P,0,82751,,A M,7,82751,83471,363,240,360,272 S,6,82751,83471,-0.1524914,0
Sprite,Foreground,Centre,"sb\particle.png",0,0 F,0,82751,,0.66 C,0,82751,,255,232,99 P,0,82751,,A M,7,82751,83471,363,240,359,234 S,6,82751,83471,-0.06222684,0
Sprite,Foreground,Centre,"sb\particle.png",0,0 F,0,83129,,0.66 C,0,83129,,245,218,66 P,0,83129,,A M,7,83129,83849,215,157,205,107 S,6,83129,83849,-0.26615,0
Sprite,Foreground,Centre,"sb\particle.png",0,0 F,0,83129,,0.66 C,0,83129,,245,218,66 P,0,83129,,A M,7,83129,83849,215,157,181,116 S,6,83129,83849,-0.2557841,0
Sprite,Foreground,Centre,"sb\particle.png",0,0 F,0,83129,,0.66 C,0,83129,,245,218,66 P,0,83129,,A M,7,83129,83849,215,157,225,185 S,6,83129,83849,-0.261176,0
Sprite,Foreground,Centre,"sb\particle.png",0,0 F,0,83129,,0.66 C,0,83129,,245,218,66 P,0,83129,,A M,7,83129,83849,215,157,207,121 S,6,83129,83849,0.3066555,0
Sprite,Foreground,Centre,"sb\particle.png",0,0 F,0,83129,,0.66 C,0,83129,,245,218,66 P,0,83129,,A M,7,83129,83849,215,157,255,115 S,6,83129,83849,-0.1307814,0
Sprite,Foreground,Centre,"sb\particle.png",0,0 F,0,83129,,0.66 C,0,83129,,245,218,66 P,0,83129,,A M,7,83129,83849,215,157,239,185 S,6,83129,83849,0.2284715,0
Sprite,Foreground,Centre,"sb\particle.png",0,0 F,0,83129,,0.66 C,0,83129,,245,218,66 P,0,83129,,A M,7,83129,83849,215,157,206,126 S,6,83129,83849,-0.2836447,0
Sprite,Foreground,Centre,"sb\particle.png",0,0 F,0,83129,,0.66 C,0,83129,,255,232,99 P,0,83129,,A M,7,83129,83849,215,157,211,163 S,6,83129,83849,0.1898569,0
Sprite,Foreground,Centre,"sb\particle.png",0,0 F,0,83129,,0.66 C,0,83129,,255,232,99 P,0,83129,,A M,7,83129,83849,215,157,211,130 S,6,83129,83849,0.2995585,0
Sprite,Foreground,Centre,"sb\particle.png",0,0 F,0,83129,,0.66 C,0,83129,,255,232,99 P,0,83129,,A M,7,83129,83849,215,157,229,152 S,6,83129,83849,-0.05215456,0
Sprite,Foreground,Centre,"sb\particle.png",0,0 F,0,83129,,0.66 C,0,83129,,255,232,99 P,0,83129,,A M,7,83129,83849,215,157,195,159 S,6,83129,83849,0.4895014,0
Sprite,Foreground,Centre,"sb\particle.png",0,0 F,0,83129,,0.66 C,0,83129,,255,232,99 P,0,83129,,A M,7,83129,83849,215,157,257,172 S,6,83129,83849,-0.1163545,0
Sprite,Foreground,Centre,"sb\particle.png",0,0 F,0,83129,,0.66 C,0,83129,,255,232,99 P,0,83129,,A M,7,83129,83849,215,157,193,149 S,6,83129,83849,-0.1550694,0
Sprite,Foreground,Centre,"sb\particle.png",0,0 F,0,83129,,0.66 C,0,83129,,255,232,99 P,0,83129,,A M,7,83129,83849,215,157,261,172 S,6,83129,83849,-0.09020768,0
Sprite,Foreground,Centre,"sb\particle.png",0,0 F,0,83129,,0.66 C,0,83129,,255,232,99 P,0,83129,,A M,7,83129,83849,215,157,210,156 S,6,83129,83849,-0.1047253,0
Sprite,Foreground,Centre,"sb\particle.png",0,0 F,0,83129,,0.66 C,0,83129,,255,232,99 P,0,83129,,A M,7,83129,83849,215,157,190,184 S,6,83129,83849,0.4549457,0
Sprite,Foreground,Centre,"sb\particle.png",0,0 F,0,83129,,0.66 C,0,83129,,255,232,99 P,0,83129,,A M,7,83129,83849,215,157,216,200 S,6,83129,83849,0.1687638,0
Sprite,Foreground,Centre,"sb\particle.png",0,0 F,0,83695,,0.66 C,0,83695,,245,218,66 P,0,83695,,A M,7,83695,84415,71,338,108,352 S,6,83695,84415,0.175455,0
Sprite,Foreground,Centre,"sb\particle.png",0,0 F,0,83695,,0.66 C,0,83695,,245,218,66 P,0,83695,,A M,7,83695,84415,71,338,40,342 S,6,83695,84415,0.05881001,0
Sprite,Foreground,Centre,"sb\particle.png",0,0 F,0,83695,,0.66 C,0,83695,,245,218,66 P,0,83695,,A M,7,83695,84415,71,338,76,348 S,6,83695,84415,0.3983351,0
Sprite,Foreground,Centre,"sb\particle.png",0,0 F,0,83695,,0.66 C,0,83695,,245,218,66 P,0,83695,,A M,7,83695,84415,71,338,25,367 S,6,83695,84415,0.3134943,0
Sprite,Foreground,Centre,"sb\particle.png",0,0 F,0,83695,,0.66 C,0,83695,,245,218,66 P,0,83695,,A M,7,83695,84415,71,338,37,313 S,6,83695,84415,0.1740454,0
Sprite,Foreground,Centre,"sb\particle.png",0,0 F,0,83695,,0.66 C,0,83695,,245,218,66 P,0,83695,,A M,7,83695,84415,71,338,67,312 S,6,83695,84415,0.4658158,0
Sprite,Foreground,Centre,"sb\particle.png",0,0 F,0,83695,,0.66 C,0,83695,,245,218,66 P,0,83695,,A M,7,83695,84415,71,338,51,388 S,6,83695,84415,0.1351267,0
Sprite,Foreground,Centre,"sb\particle.png",0,0 F,0,83695,,0.66 C,0,83695,,255,232,99 P,0,83695,,A M,7,83695,84415,71,338,44,377 S,6,83695,84415,0.3733864,0
Sprite,Foreground,Centre,"sb\particle.png",0,0 F,0,83695,,0.66 C,0,83695,,255,232,99 P,0,83695,,A M,7,83695,84415,71,338,77,389 S,6,83695,84415,0.3719001,0
Sprite,Foreground,Centre,"sb\particle.png",0,0 F,0,83695,,0.66 C,0,83695,,255,232,99 P,0,83695,,A M,7,83695,84415,71,338,25,326 S,6,83695,84415,0.4660049,0
Sprite,Foreground,Centre,"sb\particle.png",0,0 F,0,83695,,0.66 C,0,83695,,255,232,99 P,0,83695,,A M,7,83695,84415,71,338,81,322 S,6,83695,84415,0.2637106,0
Sprite,Foreground,Centre,"sb\particle.png",0,0 F,0,83695,,0.66 C,0,83695,,255,232,99 P,0,83695,,A M,7,83695,84415,71,338,121,334 S,6,83695,84415,-0.02711099,0
Sprite,Foreground,Centre,"sb\particle.png",0,0 F,0,83695,,0.66 C,0,83695,,255,232,99 P,0,83695,,A M,7,83695,84415,71,338,59,324 S,6,83695,84415,0.003169065,0
Sprite,Foreground,Centre,"sb\particle.png",0,0 F,0,83695,,0.66 C,0,83695,,255,232,99 P,0,83695,,A M,7,83695,84415,71,338,121,286 S,6,83695,84415,0.2473725,0
Sprite,Foreground,Centre,"sb\particle.png",0,0 F,0,83695,,0.66 C,0,83695,,255,232,99 P,0,83695,,A M,7,83695,84415,71,338,68,307 S,6,83695,84415,0.1361504,0
Sprite,Foreground,Centre,"sb\particle.png",0,0 F,0,83695,,0.66 C,0,83695,,255,232,99 P,0,83695,,A M,7,83695,84415,71,338,21,351 S,6,83695,84415,0.1734204,0
Sprite,Foreground,Centre,"sb\particle.png",0,0 F,0,83695,,0.66 C,0,83695,,255,232,99 P,0,83695,,A M,7,83695,84415,71,338,92,349 S,6,83695,84415,0.412902,0
Sprite,Foreground,Centre,"sb\particle.png",0,0 F,0,83884,,0.66 C,0,83884,,245,218,66 P,0,83884,,A M,7,83884,84604,148,406,171,389 S,6,83884,84604,0.0823972,0
Sprite,Foreground,Centre,"sb\particle.png",0,0 F,0,83884,,0.66 C,0,83884,,245,218,66 P,0,83884,,A M,7,83884,84604,148,406,197,426 S,6,83884,84604,0.3474894,0
Sprite,Foreground,Centre,"sb\particle.png",0,0 F,0,83884,,0.66 C,0,83884,,245,218,66 P,0,83884,,A M,7,83884,84604,148,406,158,451 S,6,83884,84604,-0.2895731,0
Sprite,Foreground,Centre,"sb\particle.png",0,0 F,0,83884,,0.66 C,0,83884,,245,218,66 P,0,83884,,A M,7,83884,84604,148,406,201,412 S,6,83884,84604,0.4925717,0
Sprite,Foreground,Centre,"sb\particle.png",0,0 F,0,83884,,0.66 C,0,83884,,245,218,66 P,0,83884,,A M,7,83884,84604,148,406,199,436 S,6,83884,84604,-0.162381,0
Sprite,Foreground,Centre,"sb\particle.png",0,0 F,0,83884,,0.66 C,0,83884,,245,218,66 P,0,83884,,A M,7,83884,84604,148,406,152,403 S,6,83884,84604,0.1906704,0
Sprite,Foreground,Centre,"sb\particle.png",0,0 F,0,83884,,0.66 C,0,83884,,245,218,66 P,0,83884,,A M,7,83884,84604,148,406,94,440 S,6,83884,84604,0.4957113,0
Sprite,Foreground,Centre,"sb\particle.png",0,0 F,0,83884,,0.66 C,0,83884,,255,232,99 P,0,83884,,A M,7,83884,84604,148,406,161,412 S,6,83884,84604,-0.1908902,0
Sprite,Foreground,Centre,"sb\particle.png",0,0 F,0,83884,,0.66 C,0,83884,,255,232,99 P,0,83884,,A M,7,83884,84604,148,406,130,414 S,6,83884,84604,0.3645649,0
Sprite,Foreground,Centre,"sb\particle.png",0,0 F,0,83884,,0.66 C,0,83884,,255,232,99 P,0,83884,,A M,7,83884,84604,148,406,105,458 S,6,83884,84604,0.2818559,0
Sprite,Foreground,Centre,"sb\particle.png",0,0 F,0,83884,,0.66 C,0,83884,,255,232,99 P,0,83884,,A M,7,83884,84604,148,406,201,384 S,6,83884,84604,0.42906,0
Sprite,Foreground,Centre,"sb\particle.png",0,0 F,0,83884,,0.66 C,0,83884,,255,232,99 P,0,83884,,A M,7,83884,84604,148,406,139,354 S,6,83884,84604,-0.2648048,0
Sprite,Foreground,Centre,"sb\particle.png",0,0 F,0,83884,,0.66 C,0,83884,,255,232,99 P,0,83884,,A M,7,83884,84604,148,406,166,456 S,6,83884,84604,0.08274393,0
Sprite,Foreground,Centre,"sb\particle.png",0,0 F,0,83884,,0.66 C,0,83884,,255,232,99 P,0,83884,,A M,7,83884,84604,148,406,176,455 S,6,83884,84604,0.396018,0
Sprite,Foreground,Centre,"sb\particle.png",0,0 F,0,83884,,0.66 C,0,83884,,255,232,99 P,0,83884,,A M,7,83884,84604,148,406,99,383 S,6,83884,84604,0.4014763,0
Sprite,Foreground,Centre,"sb\particle.png",0,0 F,0,83884,,0.66 C,0,83884,,255,232,99 P,0,83884,,A M,7,83884,84604,148,406,190,376 S,6,83884,84604,-0.2290475,0
Sprite,Foreground,Centre,"sb\particle.png",0,0 F,0,83884,,0.66 C,0,83884,,255,232,99 P,0,83884,,A M,7,83884,84604,148,406,153,412 S,6,83884,84604,0.0779322,0
Sprite,Foreground,Centre,"sb\particle.png",0,0 F,0,84451,,0.66 C,0,84451,,245,218,66 P,0,84451,,A M,7,84451,85171,341,411,369,422 S,6,84451,85171,-0.2797712,0
Sprite,Foreground,Centre,"sb\particle.png",0,0 F,0,84451,,0.66 C,0,84451,,245,218,66 P,0,84451,,A M,7,84451,85171,341,411,312,406 S,6,84451,85171,-0.08928417,0
Sprite,Foreground,Centre,"sb\particle.png",0,0 F,0,84451,,0.66 C,0,84451,,245,218,66 P,0,84451,,A M,7,84451,85171,341,411,392,408 S,6,84451,85171,0.1110289,0
Sprite,Foreground,Centre,"sb\particle.png",0,0 F,0,84451,,0.66 C,0,84451,,245,218,66 P,0,84451,,A M,7,84451,85171,341,411,342,418 S,6,84451,85171,-0.1448981,0
Sprite,Foreground,Centre,"sb\particle.png",0,0 F,0,84451,,0.66 C,0,84451,,245,218,66 P,0,84451,,A M,7,84451,85171,341,411,391,422 S,6,84451,85171,-0.2798934,0
Sprite,Foreground,Centre,"sb\particle.png",0,0 F,0,84451,,0.66 C,0,84451,,245,218,66 P,0,84451,,A M,7,84451,85171,341,411,391,453 S,6,84451,85171,0.0505297,0
Sprite,Foreground,Centre,"sb\particle.png",0,0 F,0,84451,,0.66 C,0,84451,,245,218,66 P,0,84451,,A M,7,84451,85171,341,411,374,376 S,6,84451,85171,0.2527451,0
Sprite,Foreground,Centre,"sb\particle.png",0,0 F,0,84451,,0.66 C,0,84451,,255,232,99 P,0,84451,,A M,7,84451,85171,341,411,345,404 S,6,84451,85171,-0.2088501,0
Sprite,Foreground,Centre,"sb\particle.png",0,0 F,0,84451,,0.66 C,0,84451,,255,232,99 P,0,84451,,A M,7,84451,85171,341,411,340,453 S,6,84451,85171,-0.1273111,0
Sprite,Foreground,Centre,"sb\particle.png",0,0 F,0,84451,,0.66 C,0,84451,,255,232,99 P,0,84451,,A M,7,84451,85171,341,411,324,418 S,6,84451,85171,-0.2694226,0
Sprite,Foreground,Centre,"sb\particle.png",0,0 F,0,84451,,0.66 C,0,84451,,255,232,99 P,0,84451,,A M,7,84451,85171,341,411,333,436 S,6,84451,85171,0.2167168,0
Sprite,Foreground,Centre,"sb\particle.png",0,0 F,0,84451,,0.66 C,0,84451,,255,232,99 P,0,84451,,A M,7,84451,85171,341,411,313,378 S,6,84451,85171,-0.06715236,0
Sprite,Foreground,Centre,"sb\particle.png",0,0 F,0,84451,,0.66 C,0,84451,,255,232,99 P,0,84451,,A M,7,84451,85171,341,411,325,429 S,6,84451,85171,0.1346307,0
Sprite,Foreground,Centre,"sb\particle.png",0,0 F,0,84451,,0.66 C,0,84451,,255,232,99 P,0,84451,,A M,7,84451,85171,341,411,315,442 S,6,84451,85171,0.397084,0
Sprite,Foreground,Centre,"sb\particle.png",0,0 F,0,84451,,0.66 C,0,84451,,255,232,99 P,0,84451,,A M,7,84451,85171,341,411,299,452 S,6,84451,85171,-0.000524238,0
Sprite,Foreground,Centre,"sb\particle.png",0,0 F,0,84451,,0.66 C,0,84451,,255,232,99 P,0,84451,,A M,7,84451,85171,341,411,371,418 S,6,84451,85171,-0.1244098,0
Sprite,Foreground,Centre,"sb\particle.png",0,0 F,0,84451,,0.66 C,0,84451,,255,232,99 P,0,84451,,A M,7,84451,85171,341,411,324,366 S,6,84451,85171,0.3130158,0
Sprite,Foreground,Centre,"sb\particle.png",0,0 F,0,84639,,0.66 C,0,84639,,245,218,66 P,0,84639,,A M,7,84639,85359,424,350,452,303 S,6,84639,85359,0.4553913,0
Sprite,Foreground,Centre,"sb\particle.png",0,0 F,0,84639,,0.66 C,0,84639,,245,218,66 P,0,84639,,A M,7,84639,85359,424,350,374,319 S,6,84639,85359,-0.1754755,0
Sprite,Foreground,Centre,"sb\particle.png",0,0 F,0,84639,,0.66 C,0,84639,,245,218,66 P,0,84639,,A M,7,84639,85359,424,350,427,389 S,6,84639,85359,0.354529,0
Sprite,Foreground,Centre,"sb\particle.png",0,0 F,0,84639,,0.66 C,0,84639,,245,218,66 P,0,84639,,A M,7,84639,85359,424,350,453,322 S,6,84639,85359,-0.1467359,0
Sprite,Foreground,Centre,"sb\particle.png",0,0 F,0,84639,,0.66 C,0,84639,,245,218,66 P,0,84639,,A M,7,84639,85359,424,350,426,348 S,6,84639,85359,-0.2814963,0
Sprite,Foreground,Centre,"sb\particle.png",0,0 F,0,84639,,0.66 C,0,84639,,245,218,66 P,0,84639,,A M,7,84639,85359,424,350,458,305 S,6,84639,85359,0.01250752,0
Sprite,Foreground,Centre,"sb\particle.png",0,0 F,0,84639,,0.66 C,0,84639,,245,218,66 P,0,84639,,A M,7,84639,85359,424,350,437,330 S,6,84639,85359,-0.1144188,0
Sprite,Foreground,Centre,"sb\particle.png",0,0 F,0,84639,,0.66 C,0,84639,,255,232,99 P,0,84639,,A M,7,84639,85359,424,350,405,353 S,6,84639,85359,-0.1186574,0
Sprite,Foreground,Centre,"sb\particle.png",0,0 F,0,84639,,0.66 C,0,84639,,255,232,99 P,0,84639,,A M,7,84639,85359,424,350,420,306 S,6,84639,85359,-0.08446337,0
Sprite,Foreground,Centre,"sb\particle.png",0,0 F,0,84639,,0.66 C,0,84639,,255,232,99 P,0,84639,,A M,7,84639,85359,424,350,429,402 S,6,84639,85359,0.4247531,0
Sprite,Foreground,Centre,"sb\particle.png",0,0 F,0,84639,,0.66 C,0,84639,,255,232,99 P,0,84639,,A M,7,84639,85359,424,350,393,396 S,6,84639,85359,0.02959778,0
Sprite,Foreground,Centre,"sb\particle.png",0,0 F,0,84639,,0.66 C,0,84639,,255,232,99 P,0,84639,,A M,7,84639,85359,424,350 S,6,84639,85359,0.01902107,0
Sprite,Foreground,Centre,"sb\particle.png",0,0 F,0,84639,,0.66 C,0,84639,,255,232,99 P,0,84639,,A M,7,84639,85359,424,350,375,375 S,6,84639,85359,-0.02111026,0
Sprite,Foreground,Centre,"sb\particle.png",0,0 F,0,84639,,0.66 C,0,84639,,255,232,99 P,0,84639,,A M,7,84639,85359,424,350,465,396 S,6,84639,85359,0.3066835,0
Sprite,Foreground,Centre,"sb\particle.png",0,0 F,0,84639,,0.66 C,0,84639,,255,232,99 P,0,84639,,A M,7,84639,85359,424,350,412,304 S,6,84639,85359,-0.2810434,0
Sprite,Foreground,Centre,"sb\particle.png",0,0 F,0,84639,,0.66 C,0,84639,,255,232,99 P,0,84639,,A M,7,84639,85359,424,350,427,373 S,6,84639,85359,0.04706606,0
Sprite,Foreground,Centre,"sb\particle.png",0,0 F,0,84639,,0.66 C,0,84639,,255,232,99 P,0,84639,,A M,7,84639,85359,424,350,476,349 S,6,84639,85359,0.2501094,0
Sprite,Foreground,Centre,"sb\particle.png",0,0 F,0,85206,,0.66 C,0,85206,,245,218,66 P,0,85206,,A M,7,85206,85926,328,134,302,178 S,6,85206,85926,0.3645415,0
Sprite,Foreground,Centre,"sb\particle.png",0,0 F,0,85206,,0.66 C,0,85206,,245,218,66 P,0,85206,,A M,7,85206,85926,328,134,372,154 S,6,85206,85926,-0.07148899,0
Sprite,Foreground,Centre,"sb\particle.png",0,0 F,0,85206,,0.66 C,0,85206,,245,218,66 P,0,85206,,A M,7,85206,85926,328,134,306,140 S,6,85206,85926,-0.2058559,0
Sprite,Foreground,Centre,"sb\particle.png",0,0 F,0,85206,,0.66 C,0,85206,,245,218,66 P,0,85206,,A M,7,85206,85926,328,134,308,152 S,6,85206,85926,0.4082443,0
Sprite,Foreground,Centre,"sb\particle.png",0,0 F,0,85206,,0.66 C,0,85206,,245,218,66 P,0,85206,,A M,7,85206,85926,328,134,298,153 S,6,85206,85926,0.09747454,0
Sprite,Foreground,Centre,"sb\particle.png",0,0 F,0,85206,,0.66 C,0,85206,,245,218,66 P,0,85206,,A M,7,85206,85926,328,134,348,131 S,6,85206,85926,-0.2186664,0
Sprite,Foreground,Centre,"sb\particle.png",0,0 F,0,85206,,0.66 C,0,85206,,245,218,66 P,0,85206,,A M,7,85206,85926,328,134,296,111 S,6,85206,85926,0.03423408,0
Sprite,Foreground,Centre,"sb\particle.png",0,0 F,0,85206,,0.66 C,0,85206,,255,232,99 P,0,85206,,A M,7,85206,85926,328,134,294,101 S,6,85206,85926,0.3830432,0
Sprite,Foreground,Centre,"sb\particle.png",0,0 F,0,85206,,0.66 C,0,85206,,255,232,99 P,0,85206,,A M,7,85206,85926,328,134,294,169 S,6,85206,85926,0.2466355,0
Sprite,Foreground,Centre,"sb\particle.png",0,0 F,0,85206,,0.66 C,0,85206,,255,232,99 P,0,85206,,A M,7,85206,85926,328,134,373,130 S,6,85206,85926,0.1524818,0
Sprite,Foreground,Centre,"sb\particle.png",0,0 F,0,85206,,0.66 C,0,85206,,255,232,99 P,0,85206,,A M,7,85206,85926,328,134,326,182 S,6,85206,85926,-0.1219864,0
Sprite,Foreground,Centre,"sb\particle.png",0,0 F,0,85206,,0.66 C,0,85206,,255,232,99 P,0,85206,,A M,7,85206,85926,328,134,320,182 S,6,85206,85926,-0.04032645,0
Sprite,Foreground,Centre,"sb\particle.png",0,0 F,0,85206,,0.66 C,0,85206,,255,232,99 P,0,85206,,A M,7,85206,85926,328,134,343,161 S,6,85206,85926,-0.236546,0
Sprite,Foreground,Centre,"sb\particle.png",0,0 F,0,85206,,0.66 C,0,85206,,255,232,99 P,0,85206,,A M,7,85206,85926,328,134,311,168 S,6,85206,85926,-0.2700399,0
Sprite,Foreground,Centre,"sb\particle.png",0,0 F,0,85206,,0.66 C,0,85206,,255,232,99 P,0,85206,,A M,7,85206,85926,328,134,354,86 S,6,85206,85926,0.2561038,0
Sprite,Foreground,Centre,"sb\particle.png",0,0 F,0,85206,,0.66 C,0,85206,,255,232,99 P,0,85206,,A M,7,85206,85926,328,134,303,158 S,6,85206,85926,-0.2442662,0
Sprite,Foreground,Centre,"sb\particle.png",0,0 F,0,85206,,0.66 C,0,85206,,255,232,99 P,0,85206,,A M,7,85206,85926,328,134,364,105 S,6,85206,85926,-0.2222076,0
Sprite,Foreground,Centre,"sb\particle.png",0,0 F,0,85395,,0.66 C,0,85395,,245,218,66 P,0,85395,,A M,7,85395,86115,412,74,424,38 S,6,85395,86115,0.2168506,0
Sprite,Foreground,Centre,"sb\particle.png",0,0 F,0,85395,,0.66 C,0,85395,,245,218,66 P,0,85395,,A M,7,85395,86115,412,74,444,101 S,6,85395,86115,-0.04423749,0
Sprite,Foreground,Centre,"sb\particle.png",0,0 F,0,85395,,0.66 C,0,85395,,245,218,66 P,0,85395,,A M,7,85395,86115,412,74,437,98 S,6,85395,86115,-0.2821564,0
Sprite,Foreground,Centre,"sb\particle.png",0,0 F,0,85395,,0.66 C,0,85395,,245,218,66 P,0,85395,,A M,7,85395,86115,412,74,438,47 S,6,85395,86115,0.2342178,0
Sprite,Foreground,Centre,"sb\particle.png",0,0 F,0,85395,,0.66 C,0,85395,,245,218,66 P,0,85395,,A M,7,85395,86115,412,74,453,90 S,6,85395,86115,0.2338737,0
Sprite,Foreground,Centre,"sb\particle.png",0,0 F,0,85395,,0.66 C,0,85395,,245,218,66 P,0,85395,,A M,7,85395,86115,412,74,443,80 S,6,85395,86115,0.1086478,0
Sprite,Foreground,Centre,"sb\particle.png",0,0 F,0,85395,,0.66 C,0,85395,,245,218,66 P,0,85395,,A M,7,85395,86115,412,74,410,24 S,6,85395,86115,0.2561412,0
Sprite,Foreground,Centre,"sb\particle.png",0,0 F,0,85395,,0.66 C,0,85395,,255,232,99 P,0,85395,,A M,7,85395,86115,412,74,425,58 S,6,85395,86115,0.1205952,0
Sprite,Foreground,Centre,"sb\particle.png",0,0 F,0,85395,,0.66 C,0,85395,,255,232,99 P,0,85395,,A M,7,85395,86115,412,74,448,108 S,6,85395,86115,0.320409,0
Sprite,Foreground,Centre,"sb\particle.png",0,0 F,0,85395,,0.66 C,0,85395,,255,232,99 P,0,85395,,A M,7,85395,86115,412,74,464,63 S,6,85395,86115,-0.01886438,0
Sprite,Foreground,Centre,"sb\particle.png",0,0 F,0,85395,,0.66 C,0,85395,,255,232,99 P,0,85395,,A M,7,85395,86115,412,74,374,79 S,6,85395,86115,0.4956888,0
Sprite,Foreground,Centre,"sb\particle.png",0,0 F,0,85395,,0.66 C,0,85395,,255,232,99 P,0,85395,,A M,7,85395,86115,412,74,387,89 S,6,85395,86115,0.1921904,0
Sprite,Foreground,Centre,"sb\particle.png",0,0 F,0,85395,,0.66 C,0,85395,,255,232,99 P,0,85395,,A M,7,85395,86115,412,74,359,101 S,6,85395,86115,-0.2964637,0
Sprite,Foreground,Centre,"sb\particle.png",0,0 F,0,85395,,0.66 C,0,85395,,255,232,99 P,0,85395,,A M,7,85395,86115,412,74,362,98 S,6,85395,86115,0.1820017,0
Sprite,Foreground,Centre,"sb\particle.png",0,0 F,0,85395,,0.66 C,0,85395,,255,232,99 P,0,85395,,A M,7,85395,86115,412,74,388,36 S,6,85395,86115,0.3404122,0
Sprite,Foreground,Centre,"sb\particle.png",0,0 F,0,85395,,0.66 C,0,85395,,255,232,99 P,0,85395,,A M,7,85395,86115,412,74,401,84 S,6,85395,86115,0.4914679,0
Sprite,Foreground,Centre,"sb\particle.png",0,0 F,0,85395,,0.66 C,0,85395,,255,232,99 P,0,85395,,A M,7,85395,86115,412,74,382,119 S,6,85395,86115,0.08555858,0
Sprite,Foreground,Centre,"sb\particle.png",0,0 F,0,85772,,0.66 C,0,85772,,245,218,66 P,0,85772,,A M,7,85772,86492,542,173,591,124 S,6,85772,86492,0.1939464,0
Sprite,Foreground,Centre,"sb\particle.png",0,0 F,0,85772,,0.66 C,0,85772,,245,218,66 P,0,85772,,A M,7,85772,86492,542,173,556,148 S,6,85772,86492,-0.04691779,0
Sprite,Foreground,Centre,"sb\particle.png",0,0 F,0,85772,,0.66 C,0,85772,,245,218,66 P,0,85772,,A M,7,85772,86492,542,173,567,129 S,6,85772,86492,0.1266984,0
Sprite,Foreground,Centre,"sb\particle.png",0,0 F,0,85772,,0.66 C,0,85772,,245,218,66 P,0,85772,,A M,7,85772,86492,542,173,503,179 S,6,85772,86492,-0.111531,0
Sprite,Foreground,Centre,"sb\particle.png",0,0 F,0,85772,,0.66 C,0,85772,,245,218,66 P,0,85772,,A M,7,85772,86492,542,173,582,177 S,6,85772,86492,0.4511314,0
Sprite,Foreground,Centre,"sb\particle.png",0,0 F,0,85772,,0.66 C,0,85772,,245,218,66 P,0,85772,,A M,7,85772,86492,542,173,577,155 S,6,85772,86492,0.2774197,0
Sprite,Foreground,Centre,"sb\particle.png",0,0 F,0,85772,,0.66 C,0,85772,,245,218,66 P,0,85772,,A M,7,85772,86492,542,173,571,205 S,6,85772,86492,0.4977562,0
Sprite,Foreground,Centre,"sb\particle.png",0,0 F,0,85772,,0.66 C,0,85772,,255,232,99 P,0,85772,,A M,7,85772,86492,542,173,555,127 S,6,85772,86492,-0.09821793,0
Sprite,Foreground,Centre,"sb\particle.png",0,0 F,0,85772,,0.66 C,0,85772,,255,232,99 P,0,85772,,A M,7,85772,86492,542,173,569,152 S,6,85772,86492,-0.02845443,0
Sprite,Foreground,Centre,"sb\particle.png",0,0 F,0,85772,,0.66 C,0,85772,,255,232,99 P,0,85772,,A M,7,85772,86492,542,173,496,134 S,6,85772,86492,-0.06804386,0
Sprite,Foreground,Centre,"sb\particle.png",0,0 F,0,85772,,0.66 C,0,85772,,255,232,99 P,0,85772,,A M,7,85772,86492,542,173,549,120 S,6,85772,86492,0.01817013,0
Sprite,Foreground,Centre,"sb\particle.png",0,0 F,0,85772,,0.66 C,0,85772,,255,232,99 P,0,85772,,A M,7,85772,86492,542,173,528,175 S,6,85772,86492,0.4567421,0
Sprite,Foreground,Centre,"sb\particle.png",0,0 F,0,85772,,0.66 C,0,85772,,255,232,99 P,0,85772,,A M,7,85772,86492,542,173,495,130 S,6,85772,86492,-0.1873181,0
Sprite,Foreground,Centre,"sb\particle.png",0,0 F,0,85772,,0.66 C,0,85772,,255,232,99 P,0,85772,,A M,7,85772,86492,542,173,515,172 S,6,85772,86492,0.07051986,0
Sprite,Foreground,Centre,"sb\particle.png",0,0 F,0,85772,,0.66 C,0,85772,,255,232,99 P,0,85772,,A M,7,85772,86492,542,173,505,170 S,6,85772,86492,0.04409201,0
Sprite,Foreground,Centre,"sb\particle.png",0,0 F,0,85772,,0.66 C,0,85772,,255,232,99 P,0,85772,,A M,7,85772,86492,542,173,540,141 S,6,85772,86492,-0.02888186,0
Sprite,Foreground,Centre,"sb\particle.png",0,0 F,0,85772,,0.66 C,0,85772,,255,232,99 P,0,85772,,A M,7,85772,86492,542,173,490,172 S,6,85772,86492,0.1471016,0
Sprite,Foreground,Centre,"sb\particle.png",0,0 F,0,86150,,0.66 C,0,86150,,245,218,66 P,0,86150,,A M,7,86150,86870,403,215,391,263 S,6,86150,86870,0.01099102,0
Sprite,Foreground,Centre,"sb\particle.png",0,0 F,0,86150,,0.66 C,0,86150,,245,218,66 P,0,86150,,A M,7,86150,86870,403,215,427,213 S,6,86150,86870,0.4565128,0
Sprite,Foreground,Centre,"sb\particle.png",0,0 F,0,86150,,0.66 C,0,86150,,245,218,66 P,0,86150,,A M,7,86150,86870,403,215,381,218 S,6,86150,86870,-0.1847196,0
Sprite,Foreground,Centre,"sb\particle.png",0,0 F,0,86150,,0.66 C,0,86150,,245,218,66 P,0,86150,,A M,7,86150,86870,403,215,382,262 S,6,86150,86870,-0.02012622,0
Sprite,Foreground,Centre,"sb\particle.png",0,0 F,0,86150,,0.66 C,0,86150,,245,218,66 P,0,86150,,A M,7,86150,86870,403,215,438,203 S,6,86150,86870,0.4113238,0
Sprite,Foreground,Centre,"sb\particle.png",0,0 F,0,86150,,0.66 C,0,86150,,245,218,66 P,0,86150,,A M,7,86150,86870,403,215,352,162 S,6,86150,86870,0.4855241,0
Sprite,Foreground,Centre,"sb\particle.png",0,0 F,0,86150,,0.66 C,0,86150,,245,218,66 P,0,86150,,A M,7,86150,86870,403,215,354,242 S,6,86150,86870,-0.2705397,0
Sprite,Foreground,Centre,"sb\particle.png",0,0 F,0,86150,,0.66 C,0,86150,,255,232,99 P,0,86150,,A M,7,86150,86870,403,215,442,234 S,6,86150,86870,0.4013194,0
Sprite,Foreground,Centre,"sb\particle.png",0,0 F,0,86150,,0.66 C,0,86150,,255,232,99 P,0,86150,,A M,7,86150,86870,403,215,357,267 S,6,86150,86870,0.1806342,0
Sprite,Foreground,Centre,"sb\particle.png",0,0 F,0,86150,,0.66 C,0,86150,,255,232,99 P,0,86150,,A M,7,86150,86870,403,215,446,210 S,6,86150,86870,-0.2620459,0
Sprite,Foreground,Centre,"sb\particle.png",0,0 F,0,86150,,0.66 C,0,86150,,255,232,99 P,0,86150,,A M,7,86150,86870,403,215,456,252 S,6,86150,86870,0.2443123,0
Sprite,Foreground,Centre,"sb\particle.png",0,0 F,0,86150,,0.66 C,0,86150,,255,232,99 P,0,86150,,A M,7,86150,86870,403,215,393,171 S,6,86150,86870,0.2831737,0
Sprite,Foreground,Centre,"sb\particle.png",0,0 F,0,86150,,0.66 C,0,86150,,255,232,99 P,0,86150,,A M,7,86150,86870,403,215,383,205 S,6,86150,86870,0.3819891,0
Sprite,Foreground,Centre,"sb\particle.png",0,0 F,0,86150,,0.66 C,0,86150,,255,232,99 P,0,86150,,A M,7,86150,86870,403,215,353,252 S,6,86150,86870,0.1764786,0
Sprite,Foreground,Centre,"sb\particle.png",0,0 F,0,86150,,0.66 C,0,86150,,255,232,99 P,0,86150,,A M,7,86150,86870,403,215,381,264 S,6,86150,86870,-0.08722188,0
Sprite,Foreground,Centre,"sb\particle.png",0,0 F,0,86150,,0.66 C,0,86150,,255,232,99 P,0,86150,,A M,7,86150,86870,403,215,405,190 S,6,86150,86870,0.12372,0
Sprite,Foreground,Centre,"sb\particle.png",0,0 F,0,86150,,0.66 C,0,86150,,255,232,99 P,0,86150,,A M,7,86150,86870,403,215,415,204 S,6,86150,86870,0.3946367,0
Sprite,Foreground,Centre,"sb\particle.png",0,0 F,0,86716,,0.66 C,0,86716,,245,218,66 P,0,86716,,A M,7,86716,87436,184,237,206,290 S,6,86716,87436,0.2505475,0
Sprite,Foreground,Centre,"sb\particle.png",0,0 F,0,86716,,0.66 C,0,86716,,245,218,66 P,0,86716,,A M,7,86716,87436,184,237,217,187 S,6,86716,87436,-0.05808035,0
Sprite,Foreground,Centre,"sb\particle.png",0,0 F,0,86716,,0.66 C,0,86716,,245,218,66 P,0,86716,,A M,7,86716,87436,184,237,220,241 S,6,86716,87436,-0.1606386,0
Sprite,Foreground,Centre,"sb\particle.png",0,0 F,0,86716,,0.66 C,0,86716,,245,218,66 P,0,86716,,A M,7,86716,87436,184,237,230,218 S,6,86716,87436,0.1538885,0
Sprite,Foreground,Centre,"sb\particle.png",0,0 F,0,86716,,0.66 C,0,86716,,245,218,66 P,0,86716,,A M,7,86716,87436,184,237,164,205 S,6,86716,87436,0.1968286,0
Sprite,Foreground,Centre,"sb\particle.png",0,0 F,0,86716,,0.66 C,0,86716,,245,218,66 P,0,86716,,A M,7,86716,87436,184,237,165,222 S,6,86716,87436,-0.1943575,0
Sprite,Foreground,Centre,"sb\particle.png",0,0 F,0,86716,,0.66 C,0,86716,,245,218,66 P,0,86716,,A M,7,86716,87436,184,237,232,186 S,6,86716,87436,0.2531968,0
Sprite,Foreground,Centre,"sb\particle.png",0,0 F,0,86716,,0.66 C,0,86716,,255,232,99 P,0,86716,,A M,7,86716,87436,184,237,199,283 S,6,86716,87436,0.01221349,0
Sprite,Foreground,Centre,"sb\particle.png",0,0 F,0,86716,,0.66 C,0,86716,,255,232,99 P,0,86716,,A M,7,86716,87436,184,237,213,208 S,6,86716,87436,0.2780123,0
Sprite,Foreground,Centre,"sb\particle.png",0,0 F,0,86716,,0.66 C,0,86716,,255,232,99 P,0,86716,,A M,7,86716,87436,184,237,159,203 S,6,86716,87436,0.23846,0
Sprite,Foreground,Centre,"sb\particle.png",0,0 F,0,86716,,0.66 C,0,86716,,255,232,99 P,0,86716,,A M,7,86716,87436,184,237,208,256 S,6,86716,87436,0.204692,0
Sprite,Foreground,Centre,"sb\particle.png",0,0 F,0,86716,,0.66 C,0,86716,,255,232,99 P,0,86716,,A M,7,86716,87436,184,237,134,236 S,6,86716,87436,0.09463662,0
Sprite,Foreground,Centre,"sb\particle.png",0,0 F,0,86716,,0.66 C,0,86716,,255,232,99 P,0,86716,,A M,7,86716,87436,184,237,175,242 S,6,86716,87436,-0.003756371,0
Sprite,Foreground,Centre,"sb\particle.png",0,0 F,0,86716,,0.66 C,0,86716,,255,232,99 P,0,86716,,A M,7,86716,87436,184,237,136,285 S,6,86716,87436,0.4208127,0
Sprite,Foreground,Centre,"sb\particle.png",0,0 F,0,86716,,0.66 C,0,86716,,255,232,99 P,0,86716,,A M,7,86716,87436,184,237,151,280 S,6,86716,87436,0.1675911,0
Sprite,Foreground,Centre,"sb\particle.png",0,0 F,0,86716,,0.66 C,0,86716,,255,232,99 P,0,86716,,A M,7,86716,87436,184,237,149,268 S,6,86716,87436,-0.2512969,0
Sprite,Foreground,Centre,"sb\particle.png",0,0 F,0,86716,,0.66 C,0,86716,,255,232,99 P,0,86716,,A M,7,86716,87436,184,237,200,241 S,6,86716,87436,0.1234428,0
Sprite,Foreground,Centre,"sb\particle.png",0,0 F,0,86905,,0.66 C,0,86905,,245,218,66 P,0,86905,,A M,7,86905,87625,120,318,78,287 S,6,86905,87625,0.491119,0
Sprite,Foreground,Centre,"sb\particle.png",0,0 F,0,86905,,0.66 C,0,86905,,245,218,66 P,0,86905,,A M,7,86905,87625,120,318,114,269 S,6,86905,87625,0.4154285,0
Sprite,Foreground,Centre,"sb\particle.png",0,0 F,0,86905,,0.66 C,0,86905,,245,218,66 P,0,86905,,A M,7,86905,87625,120,318,129,321 S,6,86905,87625,0.4274514,0
Sprite,Foreground,Centre,"sb\particle.png",0,0 F,0,86905,,0.66 C,0,86905,,245,218,66 P,0,86905,,A M,7,86905,87625,120,318,155,343 S,6,86905,87625,-0.2283284,0
Sprite,Foreground,Centre,"sb\particle.png",0,0 F,0,86905,,0.66 C,0,86905,,245,218,66 P,0,86905,,A M,7,86905,87625,120,318,115,316 S,6,86905,87625,-0.1880315,0
Sprite,Foreground,Centre,"sb\particle.png",0,0 F,0,86905,,0.66 C,0,86905,,245,218,66 P,0,86905,,A M,7,86905,87625,120,318,67,319 S,6,86905,87625,0.3244665,0
Sprite,Foreground,Centre,"sb\particle.png",0,0 F,0,86905,,0.66 C,0,86905,,245,218,66 P,0,86905,,A M,7,86905,87625,120,318,84,312 S,6,86905,87625,0.3559403,0
Sprite,Foreground,Centre,"sb\particle.png",0,0 F,0,86905,,0.66 C,0,86905,,255,232,99 P,0,86905,,A M,7,86905,87625,120,318,154,310 S,6,86905,87625,-0.296764,0
Sprite,Foreground,Centre,"sb\particle.png",0,0 F,0,86905,,0.66 C,0,86905,,255,232,99 P,0,86905,,A M,7,86905,87625,120,318,160,361 S,6,86905,87625,0.23012,0
Sprite,Foreground,Centre,"sb\particle.png",0,0 F,0,86905,,0.66 C,0,86905,,255,232,99 P,0,86905,,A M,7,86905,87625,120,318,76,334 S,6,86905,87625,0.071243,0
Sprite,Foreground,Centre,"sb\particle.png",0,0 F,0,86905,,0.66 C,0,86905,,255,232,99 P,0,86905,,A M,7,86905,87625,120,318,95,265 S,6,86905,87625,0.04599822,0
Sprite,Foreground,Centre,"sb\particle.png",0,0 F,0,86905,,0.66 C,0,86905,,255,232,99 P,0,86905,,A M,7,86905,87625,120,318,165,326 S,6,86905,87625,0.1216535,0
Sprite,Foreground,Centre,"sb\particle.png",0,0 F,0,86905,,0.66 C,0,86905,,255,232,99 P,0,86905,,A M,7,86905,87625,120,318,173,302 S,6,86905,87625,-0.006175488,0
Sprite,Foreground,Centre,"sb\particle.png",0,0 F,0,86905,,0.66 C,0,86905,,255,232,99 P,0,86905,,A M,7,86905,87625,120,318,77,283 S,6,86905,87625,-0.2705286,0
Sprite,Foreground,Centre,"sb\particle.png",0,0 F,0,86905,,0.66 C,0,86905,,255,232,99 P,0,86905,,A M,7,86905,87625,120,318,70,323 S,6,86905,87625,-0.1372258,0
Sprite,Foreground,Centre,"sb\particle.png",0,0 F,0,86905,,0.66 C,0,86905,,255,232,99 P,0,86905,,A M,7,86905,87625,120,318,142,307 S,6,86905,87625,-0.06425194,0
Sprite,Foreground,Centre,"sb\particle.png",0,0 F,0,86905,,0.66 C,0,86905,,255,232,99 P,0,86905,,A M,7,86905,87625,120,318,71,264 S,6,86905,87625,-0.2880789,0
Sprite,Foreground,Centre,"sb\particle.png",0,0 F,0,87471,,0.66 C,0,87471,,245,218,66 P,0,87471,,A M,7,87471,88191,297,369,343,317 S,6,87471,88191,-0.09322266,0
Sprite,Foreground,Centre,"sb\particle.png",0,0 F,0,87471,,0.66 C,0,87471,,245,218,66 P,0,87471,,A M,7,87471,88191,297,369,349,384 S,6,87471,88191,0.2004286,0
Sprite,Foreground,Centre,"sb\particle.png",0,0 F,0,87471,,0.66 C,0,87471,,245,218,66 P,0,87471,,A M,7,87471,88191,297,369,262,365 S,6,87471,88191,0.2601789,0
Sprite,Foreground,Centre,"sb\particle.png",0,0 F,0,87471,,0.66 C,0,87471,,245,218,66 P,0,87471,,A M,7,87471,88191,297,369,290,323 S,6,87471,88191,0.3869952,0
Sprite,Foreground,Centre,"sb\particle.png",0,0 F,0,87471,,0.66 C,0,87471,,245,218,66 P,0,87471,,A M,7,87471,88191,297,369,312,357 S,6,87471,88191,0.06706625,0
Sprite,Foreground,Centre,"sb\particle.png",0,0 F,0,87471,,0.66 C,0,87471,,245,218,66 P,0,87471,,A M,7,87471,88191,297,369,312,361 S,6,87471,88191,0.1939552,0
Sprite,Foreground,Centre,"sb\particle.png",0,0 F,0,87471,,0.66 C,0,87471,,245,218,66 P,0,87471,,A M,7,87471,88191,297,369,329,403 S,6,87471,88191,0.1321411,0
Sprite,Foreground,Centre,"sb\particle.png",0,0 F,0,87471,,0.66 C,0,87471,,255,232,99 P,0,87471,,A M,7,87471,88191,297,369,254,365 S,6,87471,88191,-0.03051606,0
Sprite,Foreground,Centre,"sb\particle.png",0,0 F,0,87471,,0.66 C,0,87471,,255,232,99 P,0,87471,,A M,7,87471,88191,297,369,249,384 S,6,87471,88191,0.08917592,0
Sprite,Foreground,Centre,"sb\particle.png",0,0 F,0,87471,,0.66 C,0,87471,,255,232,99 P,0,87471,,A M,7,87471,88191,297,369,289,330 S,6,87471,88191,0.0001147875,0
Sprite,Foreground,Centre,"sb\particle.png",0,0 F,0,87471,,0.66 C,0,87471,,255,232,99 P,0,87471,,A M,7,87471,88191,297,369,297,318 S,6,87471,88191,0.2865839,0
Sprite,Foreground,Centre,"sb\particle.png",0,0 F,0,87471,,0.66 C,0,87471,,255,232,99 P,0,87471,,A M,7,87471,88191,297,369,284,372 S,6,87471,88191,0.2087557,0
Sprite,Foreground,Centre,"sb\particle.png",0,0 F,0,87471,,0.66 C,0,87471,,255,232,99 P,0,87471,,A M,7,87471,88191,297,369,279,332 S,6,87471,88191,0.1839338,0
Sprite,Foreground,Centre,"sb\particle.png",0,0 F,0,87471,,0.66 C,0,87471,,255,232,99 P,0,87471,,A M,7,87471,88191,297,369,330,411 S,6,87471,88191,-0.09956378,0
Sprite,Foreground,Centre,"sb\particle.png",0,0 F,0,87471,,0.66 C,0,87471,,255,232,99 P,0,87471,,A M,7,87471,88191,297,369,313,353 S,6,87471,88191,-0.1176628,0
Sprite,Foreground,Centre,"sb\particle.png",0,0 F,0,87471,,0.66 C,0,87471,,255,232,99 P,0,87471,,A M,7,87471,88191,297,369,294,395 S,6,87471,88191,0.3569613,0
Sprite,Foreground,Centre,"sb\particle.png",0,0 F,0,87471,,0.66 C,0,87471,,255,232,99 P,0,87471,,A M,7,87471,88191,297,369,275,385 S,6,87471,88191,0.1517523,0
Sprite,Foreground,Centre,"sb\particle.png",0,0 F,0,87660,,0.66 C,0,87660,,245,218,66 P,0,87660,,A M,7,87660,88380,382,426,402,389 S,6,87660,88380,0.1441374,0
Sprite,Foreground,Centre,"sb\particle.png",0,0 F,0,87660,,0.66 C,0,87660,,245,218,66 P,0,87660,,A M,7,87660,88380,382,426,426,442 S,6,87660,88380,0.0868804,0
Sprite,Foreground,Centre,"sb\particle.png",0,0 F,0,87660,,0.66 C,0,87660,,245,218,66 P,0,87660,,A M,7,87660,88380,382,426,343,410 S,6,87660,88380,-0.2782655,0
Sprite,Foreground,Centre,"sb\particle.png",0,0 F,0,87660,,0.66 C,0,87660,,245,218,66 P,0,87660,,A M,7,87660,88380,382,426,340,447 S,6,87660,88380,-0.1111903,0
Sprite,Foreground,Centre,"sb\particle.png",0,0 F,0,87660,,0.66 C,0,87660,,245,218,66 P,0,87660,,A M,7,87660,88380,382,426,345,400 S,6,87660,88380,0.002944291,0
Sprite,Foreground,Centre,"sb\particle.png",0,0 F,0,87660,,0.66 C,0,87660,,245,218,66 P,0,87660,,A M,7,87660,88380,382,426,396,386 S,6,87660,88380,-0.2997772,0
Sprite,Foreground,Centre,"sb\particle.png",0,0 F,0,87660,,0.66 C,0,87660,,245,218,66 P,0,87660,,A M,7,87660,88380,382,426,418,419 S,6,87660,88380,-0.05538267,0
Sprite,Foreground,Centre,"sb\particle.png",0,0 F,0,87660,,0.66 C,0,87660,,255,232,99 P,0,87660,,A M,7,87660,88380,382,426,342,378 S,6,87660,88380,-0.2667251,0
Sprite,Foreground,Centre,"sb\particle.png",0,0 F,0,87660,,0.66 C,0,87660,,255,232,99 P,0,87660,,A M,7,87660,88380,382,426,395,404 S,6,87660,88380,0.4534316,0
Sprite,Foreground,Centre,"sb\particle.png",0,0 F,0,87660,,0.66 C,0,87660,,255,232,99 P,0,87660,,A M,7,87660,88380,382,426,336,437 S,6,87660,88380,-0.2683487,0
Sprite,Foreground,Centre,"sb\particle.png",0,0 F,0,87660,,0.66 C,0,87660,,255,232,99 P,0,87660,,A M,7,87660,88380,382,426,379,479 S,6,87660,88380,0.3251551,0
Sprite,Foreground,Centre,"sb\particle.png",0,0 F,0,87660,,0.66 C,0,87660,,255,232,99 P,0,87660,,A M,7,87660,88380,382,426,402,460 S,6,87660,88380,0.06177942,0
Sprite,Foreground,Centre,"sb\particle.png",0,0 F,0,87660,,0.66 C,0,87660,,255,232,99 P,0,87660,,A M,7,87660,88380,382,426,352,437 S,6,87660,88380,0.128491,0
Sprite,Foreground,Centre,"sb\particle.png",0,0 F,0,87660,,0.66 C,0,87660,,255,232,99 P,0,87660,,A M,7,87660,88380,382,426,432,388 S,6,87660,88380,-0.2231643,0
Sprite,Foreground,Centre,"sb\particle.png",0,0 F,0,87660,,0.66 C,0,87660,,255,232,99 P,0,87660,,A M,7,87660,88380,382,426,348,418 S,6,87660,88380,0.3914767,0
Sprite,Foreground,Centre,"sb\particle.png",0,0 F,0,87660,,0.66 C,0,87660,,255,232,99 P,0,87660,,A M,7,87660,88380,382,426,355,426 S,6,87660,88380,0.148441,0
Sprite,Foreground,Centre,"sb\particle.png",0,0 F,0,87660,,0.66 C,0,87660,,255,232,99 P,0,87660,,A M,7,87660,88380,382,426,393,378 S,6,87660,88380,0.3842605,0
Sprite,Foreground,Centre,"sb\particle.png",0,0 F,0,88227,,0.66 C,0,88227,,245,218,66 P,0,88227,,A M,7,88227,88947,560,304,528,335 S,6,88227,88947,0.03336408,0
Sprite,Foreground,Centre,"sb\particle.png",0,0 F,0,88227,,0.66 C,0,88227,,245,218,66 P,0,88227,,A M,7,88227,88947,560,304,601,317 S,6,88227,88947,-0.1428416,0
Sprite,Foreground,Centre,"sb\particle.png",0,0 F,0,88227,,0.66 C,0,88227,,245,218,66 P,0,88227,,A M,7,88227,88947,560,304,580,279 S,6,88227,88947,0.426741,0
Sprite,Foreground,Centre,"sb\particle.png",0,0 F,0,88227,,0.66 C,0,88227,,245,218,66 P,0,88227,,A M,7,88227,88947,560,304,593,287 S,6,88227,88947,-0.05120127,0
Sprite,Foreground,Centre,"sb\particle.png",0,0 F,0,88227,,0.66 C,0,88227,,245,218,66 P,0,88227,,A M,7,88227,88947,560,304,547,252 S,6,88227,88947,0.2581547,0
Sprite,Foreground,Centre,"sb\particle.png",0,0 F,0,88227,,0.66 C,0,88227,,245,218,66 P,0,88227,,A M,7,88227,88947,560,304,557,339 S,6,88227,88947,0.4680953,0
Sprite,Foreground,Centre,"sb\particle.png",0,0 F,0,88227,,0.66 C,0,88227,,245,218,66 P,0,88227,,A M,7,88227,88947,560,304,542,346 S,6,88227,88947,-0.263769,0
Sprite,Foreground,Centre,"sb\particle.png",0,0 F,0,88227,,0.66 C,0,88227,,255,232,99 P,0,88227,,A M,7,88227,88947,560,304,561,300 S,6,88227,88947,0.04156517,0
Sprite,Foreground,Centre,"sb\particle.png",0,0 F,0,88227,,0.66 C,0,88227,,255,232,99 P,0,88227,,A M,7,88227,88947,560,304,563,289 S,6,88227,88947,-6.908202E-05,0
Sprite,Foreground,Centre,"sb\particle.png",0,0 F,0,88227,,0.66 C,0,88227,,255,232,99 P,0,88227,,A M,7,88227,88947,560,304,583,348 S,6,88227,88947,-0.243349,0
Sprite,Foreground,Centre,"sb\particle.png",0,0 F,0,88227,,0.66 C,0,88227,,255,232,99 P,0,88227,,A M,7,88227,88947,560,304,576,310 S,6,88227,88947,0.3453376,0
Sprite,Foreground,Centre,"sb\particle.png",0,0 F,0,88227,,0.66 C,0,88227,,255,232,99 P,0,88227,,A M,7,88227,88947,560,304,576,253 S,6,88227,88947,0.2530533,0
Sprite,Foreground,Centre,"sb\particle.png",0,0 F,0,88227,,0.66 C,0,88227,,255,232,99 P,0,88227,,A M,7,88227,88947,560,304,526,346 S,6,88227,88947,0.002589646,0
Sprite,Foreground,Centre,"sb\particle.png",0,0 F,0,88227,,0.66 C,0,88227,,255,232,99 P,0,88227,,A M,7,88227,88947,560,304,596,286 S,6,88227,88947,0.1489802,0
Sprite,Foreground,Centre,"sb\particle.png",0,0 F,0,88227,,0.66 C,0,88227,,255,232,99 P,0,88227,,A M,7,88227,88947,560,304,515,279 S,6,88227,88947,0.274987,0
Sprite,Foreground,Centre,"sb\particle.png",0,0 F,0,88227,,0.66 C,0,88227,,255,232,99 P,0,88227,,A M,7,88227,88947,560,304,593,280 S,6,88227,88947,0.2542434,0
Sprite,Foreground,Centre,"sb\particle.png",0,0 F,0,88227,,0.66 C,0,88227,,255,232,99 P,0,88227,,A M,7,88227,88947,560,304,526,357 S,6,88227,88947,0.231604,0
Sprite,Foreground,Centre,"sb\particle.png",0,0 F,0,88415,,0.66 C,0,88415,,245,218,66 P,0,88415,,A M,7,88415,89135,485,233,464,237 S,6,88415,89135,0.4989787,0
Sprite,Foreground,Centre,"sb\particle.png",0,0 F,0,88415,,0.66 C,0,88415,,245,218,66 P,0,88415,,A M,7,88415,89135,485,233,495,246 S,6,88415,89135,-0.1078523,0
Sprite,Foreground,Centre,"sb\particle.png",0,0 F,0,88415,,0.66 C,0,88415,,245,218,66 P,0,88415,,A M,7,88415,89135,485,233,509,229 S,6,88415,89135,-0.06414312,0
Sprite,Foreground,Centre,"sb\particle.png",0,0 F,0,88415,,0.66 C,0,88415,,245,218,66 P,0,88415,,A M,7,88415,89135,485,233,478,181 S,6,88415,89135,-0.05217537,0
Sprite,Foreground,Centre,"sb\particle.png",0,0 F,0,88415,,0.66 C,0,88415,,245,218,66 P,0,88415,,A M,7,88415,89135,485,233,500,280 S,6,88415,89135,-0.1807452,0
Sprite,Foreground,Centre,"sb\particle.png",0,0 F,0,88415,,0.66 C,0,88415,,245,218,66 P,0,88415,,A M,7,88415,89135,485,233,477,209 S,6,88415,89135,-0.2645171,0
Sprite,Foreground,Centre,"sb\particle.png",0,0 F,0,88415,,0.66 C,0,88415,,245,218,66 P,0,88415,,A M,7,88415,89135,485,233,487,188 S,6,88415,89135,0.02507523,0
Sprite,Foreground,Centre,"sb\particle.png",0,0 F,0,88415,,0.66 C,0,88415,,255,232,99 P,0,88415,,A M,7,88415,89135,485,233,442,197 S,6,88415,89135,0.1981483,0
Sprite,Foreground,Centre,"sb\particle.png",0,0 F,0,88415,,0.66 C,0,88415,,255,232,99 P,0,88415,,A M,7,88415,89135,485,233,515,232 S,6,88415,89135,-0.03947834,0
Sprite,Foreground,Centre,"sb\particle.png",0,0 F,0,88415,,0.66 C,0,88415,,255,232,99 P,0,88415,,A M,7,88415,89135,485,233,518,255 S,6,88415,89135,-0.1966826,0
Sprite,Foreground,Centre,"sb\particle.png",0,0 F,0,88415,,0.66 C,0,88415,,255,232,99 P,0,88415,,A M,7,88415,89135,485,233,447,210 S,6,88415,89135,-0.1488841,0
Sprite,Foreground,Centre,"sb\particle.png",0,0 F,0,88415,,0.66 C,0,88415,,255,232,99 P,0,88415,,A M,7,88415,89135,485,233,515,228 S,6,88415,89135,-0.000514911,0
Sprite,Foreground,Centre,"sb\particle.png",0,0 F,0,88415,,0.66 C,0,88415,,255,232,99 P,0,88415,,A M,7,88415,89135,485,233,459,222 S,6,88415,89135,0.2130352,0
Sprite,Foreground,Centre,"sb\particle.png",0,0 F,0,88415,,0.66 C,0,88415,,255,232,99 P,0,88415,,A M,7,88415,89135,485,233,515,264 S,6,88415,89135,0.2287747,0
Sprite,Foreground,Centre,"sb\particle.png",0,0 F,0,88415,,0.66 C,0,88415,,255,232,99 P,0,88415,,A M,7,88415,89135,485,233,459,184 S,6,88415,89135,-0.2124607,0
Sprite,Foreground,Centre,"sb\particle.png",0,0 F,0,88415,,0.66 C,0,88415,,255,232,99 P,0,88415,,A M,7,88415,89135,485,233,458,286 S,6,88415,89135,-0.1352849,0
Sprite,Foreground,Centre,"sb\particle.png",0,0 F,0,88415,,0.66 C,0,88415,,255,232,99 P,0,88415,,A M,7,88415,89135,485,233,431,197 S,6,88415,89135,0.06329603,0
Sprite,Foreground,Centre,"sb\particle.png",0,0 F,0,88793,,0.66 C,0,88793,,245,218,66 P,0,88793,,A M,7,88793,89513,352,325,341,348 S,6,88793,89513,0.1678024,0
Sprite,Foreground,Centre,"sb\particle.png",0,0 F,0,88793,,0.66 C,0,88793,,245,218,66 P,0,88793,,A M,7,88793,89513,352,325,363,294 S,6,88793,89513,-0.1554927,0
Sprite,Foreground,Centre,"sb\particle.png",0,0 F,0,88793,,0.66 C,0,88793,,245,218,66 P,0,88793,,A M,7,88793,89513,352,325,350,340 S,6,88793,89513,0.1517603,0
Sprite,Foreground,Centre,"sb\particle.png",0,0 F,0,88793,,0.66 C,0,88793,,245,218,66 P,0,88793,,A M,7,88793,89513,352,325,403,280 S,6,88793,89513,-0.09066626,0
Sprite,Foreground,Centre,"sb\particle.png",0,0 F,0,88793,,0.66 C,0,88793,,245,218,66 P,0,88793,,A M,7,88793,89513,352,325,314,377 S,6,88793,89513,-0.2947555,0
Sprite,Foreground,Centre,"sb\particle.png",0,0 F,0,88793,,0.66 C,0,88793,,245,218,66 P,0,88793,,A M,7,88793,89513,352,325,391,368 S,6,88793,89513,-0.1527514,0
Sprite,Foreground,Centre,"sb\particle.png",0,0 F,0,88793,,0.66 C,0,88793,,245,218,66 P,0,88793,,A M,7,88793,89513,352,325,375,360 S,6,88793,89513,-0.1850272,0
Sprite,Foreground,Centre,"sb\particle.png",0,0 F,0,88793,,0.66 C,0,88793,,255,232,99 P,0,88793,,A M,7,88793,89513,352,325,327,280 S,6,88793,89513,0.3902376,0
Sprite,Foreground,Centre,"sb\particle.png",0,0 F,0,88793,,0.66 C,0,88793,,255,232,99 P,0,88793,,A M,7,88793,89513,352,325,312,349 S,6,88793,89513,0.3288418,0
Sprite,Foreground,Centre,"sb\particle.png",0,0 F,0,88793,,0.66 C,0,88793,,255,232,99 P,0,88793,,A M,7,88793,89513,352,325,299,311 S,6,88793,89513,0.2459896,0
Sprite,Foreground,Centre,"sb\particle.png",0,0 F,0,88793,,0.66 C,0,88793,,255,232,99 P,0,88793,,A M,7,88793,89513,352,325,369,340 S,6,88793,89513,0.2453209,0
Sprite,Foreground,Centre,"sb\particle.png",0,0 F,0,88793,,0.66 C,0,88793,,255,232,99 P,0,88793,,A M,7,88793,89513,352,325,301,274 S,6,88793,89513,-0.1917703,0
Sprite,Foreground,Centre,"sb\particle.png",0,0 F,0,88793,,0.66 C,0,88793,,255,232,99 P,0,88793,,A M,7,88793,89513,352,325,308,287 S,6,88793,89513,-0.07272326,0
Sprite,Foreground,Centre,"sb\particle.png",0,0 F,0,88793,,0.66 C,0,88793,,255,232,99 P,0,88793,,A M,7,88793,89513,352,325,311,345 S,6,88793,89513,-0.09871574,0
Sprite,Foreground,Centre,"sb\particle.png",0,0 F,0,88793,,0.66 C,0,88793,,255,232,99 P,0,88793,,A M,7,88793,89513,352,325,334,320 S,6,88793,89513,-0.1634548,0
Sprite,Foreground,Centre,"sb\particle.png",0,0 F,0,88793,,0.66 C,0,88793,,255,232,99 P,0,88793,,A M,7,88793,89513,352,325,331,312 S,6,88793,89513,-0.198215,0
Sprite,Foreground,Centre,"sb\particle.png",0,0 F,0,88793,,0.66 C,0,88793,,255,232,99 P,0,88793,,A M,7,88793,89513,352,325,335,285 S,6,88793,89513,-0.2612603,0
Sprite,Foreground,Centre,"sb\particle.png",0,0 F,0,89171,,0.66 C,0,89171,,245,218,66 P,0,89171,,A M,7,89171,89891,207,263,229,275 S,6,89171,89891,-0.1510191,0
Sprite,Foreground,Centre,"sb\particle.png",0,0 F,0,89171,,0.66 C,0,89171,,245,218,66 P,0,89171,,A M,7,89171,89891,207,263,209,216 S,6,89171,89891,0.1633442,0
Sprite,Foreground,Centre,"sb\particle.png",0,0 F,0,89171,,0.66 C,0,89171,,245,218,66 P,0,89171,,A M,7,89171,89891,207,263,206,245 S,6,89171,89891,-0.2944593,0
Sprite,Foreground,Centre,"sb\particle.png",0,0 F,0,89171,,0.66 C,0,89171,,245,218,66 P,0,89171,,A M,7,89171,89891,207,263,243,233 S,6,89171,89891,-0.1823577,0
Sprite,Foreground,Centre,"sb\particle.png",0,0 F,0,89171,,0.66 C,0,89171,,245,218,66 P,0,89171,,A M,7,89171,89891,207,263,215,233 S,6,89171,89891,0.4929413,0
Sprite,Foreground,Centre,"sb\particle.png",0,0 F,0,89171,,0.66 C,0,89171,,245,218,66 P,0,89171,,A M,7,89171,89891,207,263,186,316 S,6,89171,89891,-0.1682398,0
Sprite,Foreground,Centre,"sb\particle.png",0,0 F,0,89171,,0.66 C,0,89171,,245,218,66 P,0,89171,,A M,7,89171,89891,207,263,218,227 S,6,89171,89891,-0.0718639,0
Sprite,Foreground,Centre,"sb\particle.png",0,0 F,0,89171,,0.66 C,0,89171,,255,232,99 P,0,89171,,A M,7,89171,89891,207,263,188,293 S,6,89171,89891,-0.2790253,0
Sprite,Foreground,Centre,"sb\particle.png",0,0 F,0,89171,,0.66 C,0,89171,,255,232,99 P,0,89171,,A M,7,89171,89891,207,263,184,239 S,6,89171,89891,-0.2764308,0
Sprite,Foreground,Centre,"sb\particle.png",0,0 F,0,89171,,0.66 C,0,89171,,255,232,99 P,0,89171,,A M,7,89171,89891,207,263,211,303 S,6,89171,89891,-0.1703478,0
Sprite,Foreground,Centre,"sb\particle.png",0,0 F,0,89171,,0.66 C,0,89171,,255,232,99 P,0,89171,,A M,7,89171,89891,207,263,209,269 S,6,89171,89891,0.4280334,0
Sprite,Foreground,Centre,"sb\particle.png",0,0 F,0,89171,,0.66 C,0,89171,,255,232,99 P,0,89171,,A M,7,89171,89891,207,263,234,305 S,6,89171,89891,0.3326662,0
Sprite,Foreground,Centre,"sb\particle.png",0,0 F,0,89171,,0.66 C,0,89171,,255,232,99 P,0,89171,,A M,7,89171,89891,207,263,179,247 S,6,89171,89891,0.1056783,0
Sprite,Foreground,Centre,"sb\particle.png",0,0 F,0,89171,,0.66 C,0,89171,,255,232,99 P,0,89171,,A M,7,89171,89891,207,263,255,299 S,6,89171,89891,-0.04461811,0
Sprite,Foreground,Centre,"sb\particle.png",0,0 F,0,89171,,0.66 C,0,89171,,255,232,99 P,0,89171,,A M,7,89171,89891,207,263,241,277 S,6,89171,89891,-0.1587859,0
Sprite,Foreground,Centre,"sb\particle.png",0,0 F,0,89171,,0.66 C,0,89171,,255,232,99 P,0,89171,,A M,7,89171,89891,207,263,235,238 S,6,89171,89891,0.002769072,0
Sprite,Foreground,Centre,"sb\particle.png",0,0 F,0,89171,,0.66 C,0,89171,,255,232,99 P,0,89171,,A M,7,89171,89891,207,263,158,225 S,6,89171,89891,-0.07306425,0
Sprite,Foreground,Centre,"sb\particle.png",0,0 F,0,89737,,0.66 C,0,89737,,245,218,66 P,0,89737,,A M,7,89737,90457,180,72,175,125 S,6,89737,90457,-0.1923783,0
Sprite,Foreground,Centre,"sb\particle.png",0,0 F,0,89737,,0.66 C,0,89737,,245,218,66 P,0,89737,,A M,7,89737,90457,180,72,143,91 S,6,89737,90457,0.4879901,0
Sprite,Foreground,Centre,"sb\particle.png",0,0 F,0,89737,,0.66 C,0,89737,,245,218,66 P,0,89737,,A M,7,89737,90457,180,72,132,89 S,6,89737,90457,0.1339155,0
Sprite,Foreground,Centre,"sb\particle.png",0,0 F,0,89737,,0.66 C,0,89737,,245,218,66 P,0,89737,,A M,7,89737,90457,180,72,171,26 S,6,89737,90457,0.02580159,0
Sprite,Foreground,Centre,"sb\particle.png",0,0 F,0,89737,,0.66 C,0,89737,,245,218,66 P,0,89737,,A M,7,89737,90457,180,72,213,25 S,6,89737,90457,0.4441112,0
Sprite,Foreground,Centre,"sb\particle.png",0,0 F,0,89737,,0.66 C,0,89737,,245,218,66 P,0,89737,,A M,7,89737,90457,180,72,135,75 S,6,89737,90457,0.123249,0
Sprite,Foreground,Centre,"sb\particle.png",0,0 F,0,89737,,0.66 C,0,89737,,245,218,66 P,0,89737,,A M,7,89737,90457,180,72,162,37 S,6,89737,90457,0.08917602,0
Sprite,Foreground,Centre,"sb\particle.png",0,0 F,0,89737,,0.66 C,0,89737,,255,232,99 P,0,89737,,A M,7,89737,90457,180,72,168,19 S,6,89737,90457,0.15955,0
Sprite,Foreground,Centre,"sb\particle.png",0,0 F,0,89737,,0.66 C,0,89737,,255,232,99 P,0,89737,,A M,7,89737,90457,180,72,222,72 S,6,89737,90457,0.2478494,0
Sprite,Foreground,Centre,"sb\particle.png",0,0 F,0,89737,,0.66 C,0,89737,,255,232,99 P,0,89737,,A M,7,89737,90457,180,72,208,25 S,6,89737,90457,0.1085178,0
Sprite,Foreground,Centre,"sb\particle.png",0,0 F,0,89737,,0.66 C,0,89737,,255,232,99 P,0,89737,,A M,7,89737,90457,180,72,211,107 S,6,89737,90457,-0.2118781,0
Sprite,Foreground,Centre,"sb\particle.png",0,0 F,0,89737,,0.66 C,0,89737,,255,232,99 P,0,89737,,A M,7,89737,90457,180,72,163,78 S,6,89737,90457,-0.07385727,0
Sprite,Foreground,Centre,"sb\particle.png",0,0 F,0,89737,,0.66 C,0,89737,,255,232,99 P,0,89737,,A M,7,89737,90457,180,72,209,99 S,6,89737,90457,0.01945426,0
Sprite,Foreground,Centre,"sb\particle.png",0,0 F,0,89737,,0.66 C,0,89737,,255,232,99 P,0,89737,,A M,7,89737,90457,180,72,137,78 S,6,89737,90457,0.3664924,0
Sprite,Foreground,Centre,"sb\particle.png",0,0 F,0,89737,,0.66 C,0,89737,,255,232,99 P,0,89737,,A M,7,89737,90457,180,72,157,50 S,6,89737,90457,0.3905854,0
Sprite,Foreground,Centre,"sb\particle.png",0,0 F,0,89737,,0.66 C,0,89737,,255,232,99 P,0,89737,,A M,7,89737,90457,180,72,212,116 S,6,89737,90457,-0.2442053,0
Sprite,Foreground,Centre,"sb\particle.png",0,0 F,0,89737,,0.66 C,0,89737,,255,232,99 P,0,89737,,A M,7,89737,90457,180,72,137,26 S,6,89737,90457,-0.224158,0
Sprite,Foreground,Centre,"sb\particle.png",0,0 F,0,89926,,0.66 C,0,89926,,245,218,66 P,0,89926,,A M,7,89926,90646,99,137,85,176 S,6,89926,90646,0.07765873,0
Sprite,Foreground,Centre,"sb\particle.png",0,0 F,0,89926,,0.66 C,0,89926,,245,218,66 P,0,89926,,A M,7,89926,90646,99,137,107,117 S,6,89926,90646,0.4172838,0
Sprite,Foreground,Centre,"sb\particle.png",0,0 F,0,89926,,0.66 C,0,89926,,245,218,66 P,0,89926,,A M,7,89926,90646,99,137,47,108 S,6,89926,90646,-0.2698763,0
Sprite,Foreground,Centre,"sb\particle.png",0,0 F,0,89926,,0.66 C,0,89926,,245,218,66 P,0,89926,,A M,7,89926,90646,99,137,102,128 S,6,89926,90646,-0.1559679,0
Sprite,Foreground,Centre,"sb\particle.png",0,0 F,0,89926,,0.66 C,0,89926,,245,218,66 P,0,89926,,A M,7,89926,90646,99,137,50,118 S,6,89926,90646,0.2882524,0
Sprite,Foreground,Centre,"sb\particle.png",0,0 F,0,89926,,0.66 C,0,89926,,245,218,66 P,0,89926,,A M,7,89926,90646,99,137,135,109 S,6,89926,90646,0.2239936,0
Sprite,Foreground,Centre,"sb\particle.png",0,0 F,0,89926,,0.66 C,0,89926,,245,218,66 P,0,89926,,A M,7,89926,90646,99,137,87,84 S,6,89926,90646,0.04442762,0
Sprite,Foreground,Centre,"sb\particle.png",0,0 F,0,89926,,0.66 C,0,89926,,255,232,99 P,0,89926,,A M,7,89926,90646,99,137,86,187 S,6,89926,90646,-0.1888248,0
Sprite,Foreground,Centre,"sb\particle.png",0,0 F,0,89926,,0.66 C,0,89926,,255,232,99 P,0,89926,,A M,7,89926,90646,99,137,109,188 S,6,89926,90646,0.3500635,0
Sprite,Foreground,Centre,"sb\particle.png",0,0 F,0,89926,,0.66 C,0,89926,,255,232,99 P,0,89926,,A M,7,89926,90646,99,137,48,171 S,6,89926,90646,0.2532538,0
Sprite,Foreground,Centre,"sb\particle.png",0,0 F,0,89926,,0.66 C,0,89926,,255,232,99 P,0,89926,,A M,7,89926,90646,99,137,89,165 S,6,89926,90646,-0.05619235,0
Sprite,Foreground,Centre,"sb\particle.png",0,0 F,0,89926,,0.66 C,0,89926,,255,232,99 P,0,89926,,A M,7,89926,90646,99,137,133,108 S,6,89926,90646,0.3961448,0
Sprite,Foreground,Centre,"sb\particle.png",0,0 F,0,89926,,0.66 C,0,89926,,255,232,99 P,0,89926,,A M,7,89926,90646,99,137,130,130 S,6,89926,90646,0.3074479,0
Sprite,Foreground,Centre,"sb\particle.png",0,0 F,0,89926,,0.66 C,0,89926,,255,232,99 P,0,89926,,A M,7,89926,90646,99,137,102,130 S,6,89926,90646,-0.2504926,0
Sprite,Foreground,Centre,"sb\particle.png",0,0 F,0,89926,,0.66 C,0,89926,,255,232,99 P,0,89926,,A M,7,89926,90646,99,137,70,162 S,6,89926,90646,-0.2251468,0
Sprite,Foreground,Centre,"sb\particle.png",0,0 F,0,89926,,0.66 C,0,89926,,255,232,99 P,0,89926,,A M,7,89926,90646,99,137,116,111 S,6,89926,90646,0.4905454,0
Sprite,Foreground,Centre,"sb\particle.png",0,0 F,0,89926,,0.66 C,0,89926,,255,232,99 P,0,89926,,A M,7,89926,90646,99,137,64,157 S,6,89926,90646,-0.06051887,0
Sprite,Foreground,Centre,"sb\particle.png",0,0 F,0,90303,,0.66 C,0,90303,,245,218,66 P,0,90303,,A M,7,90303,91023,207,263,175,231 S,6,90303,91023,-0.1280691,0
Sprite,Foreground,Centre,"sb\particle.png",0,0 F,0,90303,,0.66 C,0,90303,,245,218,66 P,0,90303,,A M,7,90303,91023,207,263,161,251 S,6,90303,91023,0.09077821,0
Sprite,Foreground,Centre,"sb\particle.png",0,0 F,0,90303,,0.66 C,0,90303,,245,218,66 P,0,90303,,A M,7,90303,91023,207,263,221,269 S,6,90303,91023,-0.01421198,0
Sprite,Foreground,Centre,"sb\particle.png",0,0 F,0,90303,,0.66 C,0,90303,,245,218,66 P,0,90303,,A M,7,90303,91023,207,263,218,310 S,6,90303,91023,0.3650151,0
Sprite,Foreground,Centre,"sb\particle.png",0,0 F,0,90303,,0.66 C,0,90303,,245,218,66 P,0,90303,,A M,7,90303,91023,207,263,209,246 S,6,90303,91023,0.4923513,0
Sprite,Foreground,Centre,"sb\particle.png",0,0 F,0,90303,,0.66 C,0,90303,,245,218,66 P,0,90303,,A M,7,90303,91023,207,263,208,227 S,6,90303,91023,-0.2830241,0
Sprite,Foreground,Centre,"sb\particle.png",0,0 F,0,90303,,0.66 C,0,90303,,245,218,66 P,0,90303,,A M,7,90303,91023,207,263,200,284 S,6,90303,91023,0.2876703,0
Sprite,Foreground,Centre,"sb\particle.png",0,0 F,0,90303,,0.66 C,0,90303,,255,232,99 P,0,90303,,A M,7,90303,91023,207,263,160,313 S,6,90303,91023,0.1837678,0
Sprite,Foreground,Centre,"sb\particle.png",0,0 F,0,90303,,0.66 C,0,90303,,255,232,99 P,0,90303,,A M,7,90303,91023,207,263,198,247 S,6,90303,91023,0.1109733,0
Sprite,Foreground,Centre,"sb\particle.png",0,0 F,0,90303,,0.66 C,0,90303,,255,232,99 P,0,90303,,A M,7,90303,91023,207,263,219,251 S,6,90303,91023,-0.1175417,0
Sprite,Foreground,Centre,"sb\particle.png",0,0 F,0,90303,,0.66 C,0,90303,,255,232,99 P,0,90303,,A M,7,90303,91023,207,263,224,248 S,6,90303,91023,0.1644378,0
Sprite,Foreground,Centre,"sb\particle.png",0,0 F,0,90303,,0.66 C,0,90303,,255,232,99 P,0,90303,,A M,7,90303,91023,207,263,226,260 S,6,90303,91023,0.4778435,0
Sprite,Foreground,Centre,"sb\particle.png",0,0 F,0,90303,,0.66 C,0,90303,,255,232,99 P,0,90303,,A M,7,90303,91023,207,263,229,233 S,6,90303,91023,0.201737,0
Sprite,Foreground,Centre,"sb\particle.png",0,0 F,0,90303,,0.66 C,0,90303,,255,232,99 P,0,90303,,A M,7,90303,91023,207,263,234,273 S,6,90303,91023,0.2390631,0
Sprite,Foreground,Centre,"sb\particle.png",0,0 F,0,90303,,0.66 C,0,90303,,255,232,99 P,0,90303,,A M,7,90303,91023,207,263,204,288 S,6,90303,91023,0.08782521,0
Sprite,Foreground,Centre,"sb\particle.png",0,0 F,0,90303,,0.66 C,0,90303,,255,232,99 P,0,90303,,A M,7,90303,91023,207,263,213,225 S,6,90303,91023,-0.1933907,0
Sprite,Foreground,Centre,"sb\particle.png",0,0 F,0,90303,,0.66 C,0,90303,,255,232,99 P,0,90303,,A M,7,90303,91023,207,263,238,276 S,6,90303,91023,-0.2484289,0
Sprite,Foreground,Centre,"sb\particle.png",0,0 F,0,90681,,0.66 C,0,90681,,245,218,66 P,0,90681,,A M,7,90681,91401,78,372,37,368 S,6,90681,91401,0.4738691,0
Sprite,Foreground,Centre,"sb\particle.png",0,0 F,0,90681,,0.66 C,0,90681,,245,218,66 P,0,90681,,A M,7,90681,91401,78,372,83,352 S,6,90681,91401,0.1825568,0
Sprite,Foreground,Centre,"sb\particle.png",0,0 F,0,90681,,0.66 C,0,90681,,245,218,66 P,0,90681,,A M,7,90681,91401,78,372,117,423 S,6,90681,91401,0.3058555,0
Sprite,Foreground,Centre,"sb\particle.png",0,0 F,0,90681,,0.66 C,0,90681,,245,218,66 P,0,90681,,A M,7,90681,91401,78,372,27,381 S,6,90681,91401,-0.02943842,0
Sprite,Foreground,Centre,"sb\particle.png",0,0 F,0,90681,,0.66 C,0,90681,,245,218,66 P,0,90681,,A M,7,90681,91401,78,372,74,398 S,6,90681,91401,0.1052067,0
Sprite,Foreground,Centre,"sb\particle.png",0,0 F,0,90681,,0.66 C,0,90681,,245,218,66 P,0,90681,,A M,7,90681,91401,78,372,53,346 S,6,90681,91401,0.4709602,0
Sprite,Foreground,Centre,"sb\particle.png",0,0 F,0,90681,,0.66 C,0,90681,,245,218,66 P,0,90681,,A M,7,90681,91401,78,372,89,319 S,6,90681,91401,0.2409318,0
Sprite,Foreground,Centre,"sb\particle.png",0,0 F,0,90681,,0.66 C,0,90681,,255,232,99 P,0,90681,,A M,7,90681,91401,78,372,108,363 S,6,90681,91401,0.4543137,0
Sprite,Foreground,Centre,"sb\particle.png",0,0 F,0,90681,,0.66 C,0,90681,,255,232,99 P,0,90681,,A M,7,90681,91401,78,372,32,379 S,6,90681,91401,0.02906851,0
Sprite,Foreground,Centre,"sb\particle.png",0,0 F,0,90681,,0.66 C,0,90681,,255,232,99 P,0,90681,,A M,7,90681,91401,78,372,127,328 S,6,90681,91401,0.4738791,0
Sprite,Foreground,Centre,"sb\particle.png",0,0 F,0,90681,,0.66 C,0,90681,,255,232,99 P,0,90681,,A M,7,90681,91401,78,372,78,413 S,6,90681,91401,0.2898503,0
Sprite,Foreground,Centre,"sb\particle.png",0,0 F,0,90681,,0.66 C,0,90681,,255,232,99 P,0,90681,,A M,7,90681,91401,78,372,31,369 S,6,90681,91401,0.3204397,0
Sprite,Foreground,Centre,"sb\particle.png",0,0 F,0,90681,,0.66 C,0,90681,,255,232,99 P,0,90681,,A M,7,90681,91401,78,372,122,413 S,6,90681,91401,0.05793836,0
Sprite,Foreground,Centre,"sb\particle.png",0,0 F,0,90681,,0.66 C,0,90681,,255,232,99 P,0,90681,,A M,7,90681,91401,78,372,103,353 S,6,90681,91401,-0.2533958,0
Sprite,Foreground,Centre,"sb\particle.png",0,0 F,0,90681,,0.66 C,0,90681,,255,232,99 P,0,90681,,A M,7,90681,91401,78,372,117,424 S,6,90681,91401,0.3238149,0
Sprite,Foreground,Centre,"sb\particle.png",0,0 F,0,90681,,0.66 C,0,90681,,255,232,99 P,0,90681,,A M,7,90681,91401,78,372,65,329 S,6,90681,91401,-0.02725646,0
Sprite,Foreground,Centre,"sb\particle.png",0,0 F,0,90681,,0.66 C,0,90681,,255,232,99 P,0,90681,,A M,7,90681,91401,78,372,65,323 S,6,90681,91401,0.1218915,0
Sprite,Foreground,Centre,"sb\particle.png",0,0 F,0,91247,,0.66 C,0,91247,,245,218,66 P,0,91247,,A M,7,91247,91967,287,355,281,319 S,6,91247,91967,0.225969,0
Sprite,Foreground,Centre,"sb\particle.png",0,0 F,0,91247,,0.66 C,0,91247,,245,218,66 P,0,91247,,A M,7,91247,91967,287,355,269,369 S,6,91247,91967,-0.003317541,0
Sprite,Foreground,Centre,"sb\particle.png",0,0 F,0,91247,,0.66 C,0,91247,,245,218,66 P,0,91247,,A M,7,91247,91967,287,355,337,393 S,6,91247,91967,0.01943861,0
Sprite,Foreground,Centre,"sb\particle.png",0,0 F,0,91247,,0.66 C,0,91247,,245,218,66 P,0,91247,,A M,7,91247,91967,287,355,318,357 S,6,91247,91967,0.412669,0
Sprite,Foreground,Centre,"sb\particle.png",0,0 F,0,91247,,0.66 C,0,91247,,245,218,66 P,0,91247,,A M,7,91247,91967,287,355,323,303 S,6,91247,91967,0.3322852,0
Sprite,Foreground,Centre,"sb\particle.png",0,0 F,0,91247,,0.66 C,0,91247,,245,218,66 P,0,91247,,A M,7,91247,91967,287,355,301,355 S,6,91247,91967,0.07154704,0
Sprite,Foreground,Centre,"sb\particle.png",0,0 F,0,91247,,0.66 C,0,91247,,245,218,66 P,0,91247,,A M,7,91247,91967,287,355,322,366 S,6,91247,91967,0.0157559,0
Sprite,Foreground,Centre,"sb\particle.png",0,0 F,0,91247,,0.66 C,0,91247,,255,232,99 P,0,91247,,A M,7,91247,91967,287,355,279,381 S,6,91247,91967,-0.06306948,0
Sprite,Foreground,Centre,"sb\particle.png",0,0 F,0,91247,,0.66 C,0,91247,,255,232,99 P,0,91247,,A M,7,91247,91967,287,355,326,399 S,6,91247,91967,0.07168264,0
Sprite,Foreground,Centre,"sb\particle.png",0,0 F,0,91247,,0.66 C,0,91247,,255,232,99 P,0,91247,,A M,7,91247,91967,287,355,306,383 S,6,91247,91967,-0.2326673,0
Sprite,Foreground,Centre,"sb\particle.png",0,0 F,0,91247,,0.66 C,0,91247,,255,232,99 P,0,91247,,A M,7,91247,91967,287,355,298,351 S,6,91247,91967,-0.09276143,0
Sprite,Foreground,Centre,"sb\particle.png",0,0 F,0,91247,,0.66 C,0,91247,,255,232,99 P,0,91247,,A M,7,91247,91967,287,355,244,356 S,6,91247,91967,0.4054317,0
Sprite,Foreground,Centre,"sb\particle.png",0,0 F,0,91247,,0.66 C,0,91247,,255,232,99 P,0,91247,,A M,7,91247,91967,287,355,304,378 S,6,91247,91967,-0.2441897,0
Sprite,Foreground,Centre,"sb\particle.png",0,0 F,0,91247,,0.66 C,0,91247,,255,232,99 P,0,91247,,A M,7,91247,91967,287,355,315,384 S,6,91247,91967,0.1783542,0
Sprite,Foreground,Centre,"sb\particle.png",0,0 F,0,91247,,0.66 C,0,91247,,255,232,99 P,0,91247,,A M,7,91247,91967,287,355,309,358 S,6,91247,91967,0.3156737,0
Sprite,Foreground,Centre,"sb\particle.png",0,0 F,0,91247,,0.66 C,0,91247,,255,232,99 P,0,91247,,A M,7,91247,91967,287,355,247,318 S,6,91247,91967,-0.2806424,0
Sprite,Foreground,Centre,"sb\particle.png",0,0 F,0,91247,,0.66 C,0,91247,,255,232,99 P,0,91247,,A M,7,91247,91967,287,355,269,346 S,6,91247,91967,0.1072672,0
Sprite,Foreground,Centre,"sb\particle.png",0,0 F,0,91436,,0.66 C,0,91436,,245,218,66 P,0,91436,,A M,7,91436,92156,378,403,378,387 S,6,91436,92156,0.2064141,0
Sprite,Foreground,Centre,"sb\particle.png",0,0 F,0,91436,,0.66 C,0,91436,,245,218,66 P,0,91436,,A M,7,91436,92156,378,403,398,439 S,6,91436,92156,0.3453363,0
Sprite,Foreground,Centre,"sb\particle.png",0,0 F,0,91436,,0.66 C,0,91436,,245,218,66 P,0,91436,,A M,7,91436,92156,378,403,348,409 S,6,91436,92156,-0.01580109,0
Sprite,Foreground,Centre,"sb\particle.png",0,0 F,0,91436,,0.66 C,0,91436,,245,218,66 P,0,91436,,A M,7,91436,92156,378,403,336,375 S,6,91436,92156,-0.0130953,0
Sprite,Foreground,Centre,"sb\particle.png",0,0 F,0,91436,,0.66 C,0,91436,,245,218,66 P,0,91436,,A M,7,91436,92156,378,403,426,419 S,6,91436,92156,0.2427142,0
Sprite,Foreground,Centre,"sb\particle.png",0,0 F,0,91436,,0.66 C,0,91436,,245,218,66 P,0,91436,,A M,7,91436,92156,378,403,428,358 S,6,91436,92156,-0.1654775,0
Sprite,Foreground,Centre,"sb\particle.png",0,0 F,0,91436,,0.66 C,0,91436,,245,218,66 P,0,91436,,A M,7,91436,92156,378,403,340,405 S,6,91436,92156,0.1725832,0
Sprite,Foreground,Centre,"sb\particle.png",0,0 F,0,91436,,0.66 C,0,91436,,255,232,99 P,0,91436,,A M,7,91436,92156,378,403,424,446 S,6,91436,92156,-0.22737,0
Sprite,Foreground,Centre,"sb\particle.png",0,0 F,0,91436,,0.66 C,0,91436,,255,232,99 P,0,91436,,A M,7,91436,92156,378,403,423,384 S,6,91436,92156,-0.1582551,0
Sprite,Foreground,Centre,"sb\particle.png",0,0 F,0,91436,,0.66 C,0,91436,,255,232,99 P,0,91436,,A M,7,91436,92156,378,403,414,393 S,6,91436,92156,0.2387306,0
Sprite,Foreground,Centre,"sb\particle.png",0,0 F,0,91436,,0.66 C,0,91436,,255,232,99 P,0,91436,,A M,7,91436,92156,378,403,380,397 S,6,91436,92156,-0.2792485,0
Sprite,Foreground,Centre,"sb\particle.png",0,0 F,0,91436,,0.66 C,0,91436,,255,232,99 P,0,91436,,A M,7,91436,92156,378,403,364,415 S,6,91436,92156,-0.1374572,0
Sprite,Foreground,Centre,"sb\particle.png",0,0 F,0,91436,,0.66 C,0,91436,,255,232,99 P,0,91436,,A M,7,91436,92156,378,403,350,353 S,6,91436,92156,0.1691816,0
Sprite,Foreground,Centre,"sb\particle.png",0,0 F,0,91436,,0.66 C,0,91436,,255,232,99 P,0,91436,,A M,7,91436,92156,378,403,336,374 S,6,91436,92156,0.0634214,0
Sprite,Foreground,Centre,"sb\particle.png",0,0 F,0,91436,,0.66 C,0,91436,,255,232,99 P,0,91436,,A M,7,91436,92156,378,403,330,385 S,6,91436,92156,0.347021,0
Sprite,Foreground,Centre,"sb\particle.png",0,0 F,0,91436,,0.66 C,0,91436,,255,232,99 P,0,91436,,A M,7,91436,92156,378,403,423,379 S,6,91436,92156,0.155549,0
Sprite,Foreground,Centre,"sb\particle.png",0,0 F,0,91436,,0.66 C,0,91436,,255,232,99 P,0,91436,,A M,7,91436,92156,378,403,405,410 S,6,91436,92156,0.4078913,0
Sprite,Foreground,Centre,"sb\particle.png",0,0 F,0,91814,,0.66 C,0,91814,,245,218,66 P,0,91814,,A M,7,91814,92534,419,240,370,210 S,6,91814,92534,0.4554701,0
Sprite,Foreground,Centre,"sb\particle.png",0,0 F,0,91814,,0.66 C,0,91814,,245,218,66 P,0,91814,,A M,7,91814,92534,419,240,466,230 S,6,91814,92534,0.2481741,0
Sprite,Foreground,Centre,"sb\particle.png",0,0 F,0,91814,,0.66 C,0,91814,,245,218,66 P,0,91814,,A M,7,91814,92534,419,240,410,207 S,6,91814,92534,0.06985764,0
Sprite,Foreground,Centre,"sb\particle.png",0,0 F,0,91814,,0.66 C,0,91814,,245,218,66 P,0,91814,,A M,7,91814,92534,419,240,402,192 S,6,91814,92534,0.3334335,0
Sprite,Foreground,Centre,"sb\particle.png",0,0 F,0,91814,,0.66 C,0,91814,,245,218,66 P,0,91814,,A M,7,91814,92534,419,240,467,246 S,6,91814,92534,0.1403024,0
Sprite,Foreground,Centre,"sb\particle.png",0,0 F,0,91814,,0.66 C,0,91814,,245,218,66 P,0,91814,,A M,7,91814,92534,419,240,434,257 S,6,91814,92534,0.07851151,0
Sprite,Foreground,Centre,"sb\particle.png",0,0 F,0,91814,,0.66 C,0,91814,,245,218,66 P,0,91814,,A M,7,91814,92534,419,240,387,278 S,6,91814,92534,0.2631961,0
Sprite,Foreground,Centre,"sb\particle.png",0,0 F,0,91814,,0.66 C,0,91814,,255,232,99 P,0,91814,,A M,7,91814,92534,419,240,455,280 S,6,91814,92534,0.1704886,0
Sprite,Foreground,Centre,"sb\particle.png",0,0 F,0,91814,,0.66 C,0,91814,,255,232,99 P,0,91814,,A M,7,91814,92534,419,240,407,225 S,6,91814,92534,-0.2455415,0
Sprite,Foreground,Centre,"sb\particle.png",0,0 F,0,91814,,0.66 C,0,91814,,255,232,99 P,0,91814,,A M,7,91814,92534,419,240,413,255 S,6,91814,92534,-0.2902838,0
Sprite,Foreground,Centre,"sb\particle.png",0,0 F,0,91814,,0.66 C,0,91814,,255,232,99 P,0,91814,,A M,7,91814,92534,419,240,470,194 S,6,91814,92534,-0.06131491,0
Sprite,Foreground,Centre,"sb\particle.png",0,0 F,0,91814,,0.66 C,0,91814,,255,232,99 P,0,91814,,A M,7,91814,92534,419,240,434,280 S,6,91814,92534,0.4382191,0
Sprite,Foreground,Centre,"sb\particle.png",0,0 F,0,91814,,0.66 C,0,91814,,255,232,99 P,0,91814,,A M,7,91814,92534,419,240,472,272 S,6,91814,92534,0.2685838,0
Sprite,Foreground,Centre,"sb\particle.png",0,0 F,0,91814,,0.66 C,0,91814,,255,232,99 P,0,91814,,A M,7,91814,92534,419,240,391,235 S,6,91814,92534,-0.005618464,0
Sprite,Foreground,Centre,"sb\particle.png",0,0 F,0,91814,,0.66 C,0,91814,,255,232,99 P,0,91814,,A M,7,91814,92534,419,240,464,272 S,6,91814,92534,0.4145635,0
Sprite,Foreground,Centre,"sb\particle.png",0,0 F,0,91814,,0.66 C,0,91814,,255,232,99 P,0,91814,,A M,7,91814,92534,419,240,384,202 S,6,91814,92534,-0.1264614,0
Sprite,Foreground,Centre,"sb\particle.png",0,0 F,0,91814,,0.66 C,0,91814,,255,232,99 P,0,91814,,A M,7,91814,92534,419,240,453,249 S,6,91814,92534,-0.06420848,0
Sprite,Foreground,Centre,"sb\particle.png",0,0 F,0,92191,,0.66 C,0,92191,,245,218,66 P,0,92191,,A M,7,92191,92911,283,239,267,256 S,6,92191,92911,0.3525501,0
Sprite,Foreground,Centre,"sb\particle.png",0,0 F,0,92191,,0.66 C,0,92191,,245,218,66 P,0,92191,,A M,7,92191,92911,283,239,280,250 S,6,92191,92911,0.3237173,0
Sprite,Foreground,Centre,"sb\particle.png",0,0 F,0,92191,,0.66 C,0,92191,,245,218,66 P,0,92191,,A M,7,92191,92911,283,239,333,237 S,6,92191,92911,0.1508281,0
Sprite,Foreground,Centre,"sb\particle.png",0,0 F,0,92191,,0.66 C,0,92191,,245,218,66 P,0,92191,,A M,7,92191,92911,283,239,312,223 S,6,92191,92911,0.3625643,0
Sprite,Foreground,Centre,"sb\particle.png",0,0 F,0,92191,,0.66 C,0,92191,,245,218,66 P,0,92191,,A M,7,92191,92911,283,239,259,218 S,6,92191,92911,0.4253559,0
Sprite,Foreground,Centre,"sb\particle.png",0,0 F,0,92191,,0.66 C,0,92191,,245,218,66 P,0,92191,,A M,7,92191,92911,283,239,289,280 S,6,92191,92911,0.2134823,0
Sprite,Foreground,Centre,"sb\particle.png",0,0 F,0,92191,,0.66 C,0,92191,,245,218,66 P,0,92191,,A M,7,92191,92911,283,239,242,198 S,6,92191,92911,-0.2569444,0
Sprite,Foreground,Centre,"sb\particle.png",0,0 F,0,92191,,0.66 C,0,92191,,255,232,99 P,0,92191,,A M,7,92191,92911,283,239,258,202 S,6,92191,92911,-0.01817883,0
Sprite,Foreground,Centre,"sb\particle.png",0,0 F,0,92191,,0.66 C,0,92191,,255,232,99 P,0,92191,,A M,7,92191,92911,283,239,321,290 S,6,92191,92911,0.2023094,0
Sprite,Foreground,Centre,"sb\particle.png",0,0 F,0,92191,,0.66 C,0,92191,,255,232,99 P,0,92191,,A M,7,92191,92911,283,239,305,268 S,6,92191,92911,-0.2413927,0
Sprite,Foreground,Centre,"sb\particle.png",0,0 F,0,92191,,0.66 C,0,92191,,255,232,99 P,0,92191,,A M,7,92191,92911,283,239,257,212 S,6,92191,92911,-0.1589863,0
Sprite,Foreground,Centre,"sb\particle.png",0,0 F,0,92191,,0.66 C,0,92191,,255,232,99 P,0,92191,,A M,7,92191,92911,283,239,253,257 S,6,92191,92911,0.3072824,0
Sprite,Foreground,Centre,"sb\particle.png",0,0 F,0,92191,,0.66 C,0,92191,,255,232,99 P,0,92191,,A M,7,92191,92911,283,239,315,224 S,6,92191,92911,-0.1771734,0
Sprite,Foreground,Centre,"sb\particle.png",0,0 F,0,92191,,0.66 C,0,92191,,255,232,99 P,0,92191,,A M,7,92191,92911,283,239,291,214 S,6,92191,92911,-0.08066069,0
Sprite,Foreground,Centre,"sb\particle.png",0,0 F,0,92191,,0.66 C,0,92191,,255,232,99 P,0,92191,,A M,7,92191,92911,283,239,300,235 S,6,92191,92911,0.2541489,0
Sprite,Foreground,Centre,"sb\particle.png",0,0 F,0,92191,,0.66 C,0,92191,,255,232,99 P,0,92191,,A M,7,92191,92911,283,239,255,233 S,6,92191,92911,-0.2350109,0
Sprite,Foreground,Centre,"sb\particle.png",0,0 F,0,92191,,0.66 C,0,92191,,255,232,99 P,0,92191,,A M,7,92191,92911,283,239,256,195 S,6,92191,92911,0.438098,0
Sprite,Foreground,Centre,"sb\particle.png",0,0 F,0,92758,,0.66 C,0,92758,,245,218,66 P,0,92758,,A M,7,92758,93478,78,127,60,136 S,6,92758,93478,0.3348923,0
Sprite,Foreground,Centre,"sb\particle.png",0,0 F,0,92758,,0.66 C,0,92758,,245,218,66 P,0,92758,,A M,7,92758,93478,78,127,101,143 S,6,92758,93478,0.303957,0
Sprite,Foreground,Centre,"sb\particle.png",0,0 F,0,92758,,0.66 C,0,92758,,245,218,66 P,0,92758,,A M,7,92758,93478,78,127,26,79 S,6,92758,93478,0.06946595,0
Sprite,Foreground,Centre,"sb\particle.png",0,0 F,0,92758,,0.66 C,0,92758,,245,218,66 P,0,92758,,A M,7,92758,93478,78,127,119,149 S,6,92758,93478,0.02962266,0
Sprite,Foreground,Centre,"sb\particle.png",0,0 F,0,92758,,0.66 C,0,92758,,245,218,66 P,0,92758,,A M,7,92758,93478,78,127,63,121 S,6,92758,93478,0.2489035,0
Sprite,Foreground,Centre,"sb\particle.png",0,0 F,0,92758,,0.66 C,0,92758,,245,218,66 P,0,92758,,A M,7,92758,93478,78,127,114,112 S,6,92758,93478,0.1555694,0
Sprite,Foreground,Centre,"sb\particle.png",0,0 F,0,92758,,0.66 C,0,92758,,245,218,66 P,0,92758,,A M,7,92758,93478,78,127,66,81 S,6,92758,93478,0.4905793,0
Sprite,Foreground,Centre,"sb\particle.png",0,0 F,0,92758,,0.66 C,0,92758,,255,232,99 P,0,92758,,A M,7,92758,93478,78,127,41,140 S,6,92758,93478,0.3053594,0
Sprite,Foreground,Centre,"sb\particle.png",0,0 F,0,92758,,0.66 C,0,92758,,255,232,99 P,0,92758,,A M,7,92758,93478,78,127,91,112 S,6,92758,93478,0.3093224,0
Sprite,Foreground,Centre,"sb\particle.png",0,0 F,0,92758,,0.66 C,0,92758,,255,232,99 P,0,92758,,A M,7,92758,93478,78,127,33,112 S,6,92758,93478,0.2779266,0
Sprite,Foreground,Centre,"sb\particle.png",0,0 F,0,92758,,0.66 C,0,92758,,255,232,99 P,0,92758,,A M,7,92758,93478,78,127,42,154 S,6,92758,93478,-0.2913389,0
Sprite,Foreground,Centre,"sb\particle.png",0,0 F,0,92758,,0.66 C,0,92758,,255,232,99 P,0,92758,,A M,7,92758,93478,78,127,71,157 S,6,92758,93478,0.1186495,0
Sprite,Foreground,Centre,"sb\particle.png",0,0 F,0,92758,,0.66 C,0,92758,,255,232,99 P,0,92758,,A M,7,92758,93478,78,127,111,163 S,6,92758,93478,0.3220378,0
Sprite,Foreground,Centre,"sb\particle.png",0,0 F,0,92758,,0.66 C,0,92758,,255,232,99 P,0,92758,,A M,7,92758,93478,78,127,50,131 S,6,92758,93478,0.1438324,0
Sprite,Foreground,Centre,"sb\particle.png",0,0 F,0,92758,,0.66 C,0,92758,,255,232,99 P,0,92758,,A M,7,92758,93478,78,127,50,87 S,6,92758,93478,-0.159921,0
Sprite,Foreground,Centre,"sb\particle.png",0,0 F,0,92758,,0.66 C,0,92758,,255,232,99 P,0,92758,,A M,7,92758,93478,78,127,124,85 S,6,92758,93478,-0.157503,0
Sprite,Foreground,Centre,"sb\particle.png",0,0 F,0,92758,,0.66 C,0,92758,,255,232,99 P,0,92758,,A M,7,92758,93478,78,127,120,146 S,6,92758,93478,-0.1972417,0
Sprite,Foreground,Centre,"sb\particle.png",0,0 F,0,92947,,0.66 C,0,92947,,245,218,66 P,0,92947,,A M,7,92947,93667,157,61,131,12 S,6,92947,93667,-0.2214349,0
Sprite,Foreground,Centre,"sb\particle.png",0,0 F,0,92947,,0.66 C,0,92947,,245,218,66 P,0,92947,,A M,7,92947,93667,157,61,153,74 S,6,92947,93667,0.2516961,0
Sprite,Foreground,Centre,"sb\particle.png",0,0 F,0,92947,,0.66 C,0,92947,,245,218,66 P,0,92947,,A M,7,92947,93667,157,61,124,81 S,6,92947,93667,0.2276167,0
Sprite,Foreground,Centre,"sb\particle.png",0,0 F,0,92947,,0.66 C,0,92947,,245,218,66 P,0,92947,,A M,7,92947,93667,157,61,108,44 S,6,92947,93667,-0.1947678,0
Sprite,Foreground,Centre,"sb\particle.png",0,0 F,0,92947,,0.66 C,0,92947,,245,218,66 P,0,92947,,A M,7,92947,93667,157,61,196,67 S,6,92947,93667,-0.1828334,0
Sprite,Foreground,Centre,"sb\particle.png",0,0 F,0,92947,,0.66 C,0,92947,,245,218,66 P,0,92947,,A M,7,92947,93667,157,61,146,94 S,6,92947,93667,-0.03474316,0
Sprite,Foreground,Centre,"sb\particle.png",0,0 F,0,92947,,0.66 C,0,92947,,245,218,66 P,0,92947,,A M,7,92947,93667,157,61,115,30 S,6,92947,93667,0.1364388,0
Sprite,Foreground,Centre,"sb\particle.png",0,0 F,0,92947,,0.66 C,0,92947,,255,232,99 P,0,92947,,A M,7,92947,93667,157,61,170,56 S,6,92947,93667,0.148275,0
Sprite,Foreground,Centre,"sb\particle.png",0,0 F,0,92947,,0.66 C,0,92947,,255,232,99 P,0,92947,,A M,7,92947,93667,157,61,168,33 S,6,92947,93667,-0.1363735,0
Sprite,Foreground,Centre,"sb\particle.png",0,0 F,0,92947,,0.66 C,0,92947,,255,232,99 P,0,92947,,A M,7,92947,93667,157,61,138,98 S,6,92947,93667,-0.2327056,0
Sprite,Foreground,Centre,"sb\particle.png",0,0 F,0,92947,,0.66 C,0,92947,,255,232,99 P,0,92947,,A M,7,92947,93667,157,61,154,48 S,6,92947,93667,0.2713083,0
Sprite,Foreground,Centre,"sb\particle.png",0,0 F,0,92947,,0.66 C,0,92947,,255,232,99 P,0,92947,,A M,7,92947,93667,157,61,136,21 S,6,92947,93667,0.1423229,0
Sprite,Foreground,Centre,"sb\particle.png",0,0 F,0,92947,,0.66 C,0,92947,,255,232,99 P,0,92947,,A M,7,92947,93667,157,61,199,102 S,6,92947,93667,-0.1455171,0
Sprite,Foreground,Centre,"sb\particle.png",0,0 F,0,92947,,0.66 C,0,92947,,255,232,99 P,0,92947,,A M,7,92947,93667,157,61,169,49 S,6,92947,93667,0.330352,0
Sprite,Foreground,Centre,"sb\particle.png",0,0 F,0,92947,,0.66 C,0,92947,,255,232,99 P,0,92947,,A M,7,92947,93667,157,61,186,23 S,6,92947,93667,0.2428884,0
Sprite,Foreground,Centre,"sb\particle.png",0,0 F,0,92947,,0.66 C,0,92947,,255,232,99 P,0,92947,,A M,7,92947,93667,157,61,165,32 S,6,92947,93667,0.2119609,0
Sprite,Foreground,Centre,"sb\particle.png",0,0 F,0,92947,,0.66 C,0,92947,,255,232,99 P,0,92947,,A M,7,92947,93667,157,61,109,112 S,6,92947,93667,-0.2334652,0
Sprite,Foreground,Centre,"sb\particle.png",0,0 F,0,93324,,0.66 C,0,93324,,245,218,66 P,0,93324,,A M,7,93324,94044,300,144,353,183 S,6,93324,94044,0.3488269,0
Sprite,Foreground,Centre,"sb\particle.png",0,0 F,0,93324,,0.66 C,0,93324,,245,218,66 P,0,93324,,A M,7,93324,94044,300,144,264,92 S,6,93324,94044,-0.2620622,0
Sprite,Foreground,Centre,"sb\particle.png",0,0 F,0,93324,,0.66 C,0,93324,,245,218,66 P,0,93324,,A M,7,93324,94044,300,144,288,108 S,6,93324,94044,0.1560588,0
Sprite,Foreground,Centre,"sb\particle.png",0,0 F,0,93324,,0.66 C,0,93324,,245,218,66 P,0,93324,,A M,7,93324,94044,300,144,275,100 S,6,93324,94044,-0.2842167,0
Sprite,Foreground,Centre,"sb\particle.png",0,0 F,0,93324,,0.66 C,0,93324,,245,218,66 P,0,93324,,A M,7,93324,94044,300,144,306,130 S,6,93324,94044,0.2280446,0
Sprite,Foreground,Centre,"sb\particle.png",0,0 F,0,93324,,0.66 C,0,93324,,245,218,66 P,0,93324,,A M,7,93324,94044,300,144,336,150 S,6,93324,94044,0.4394819,0
Sprite,Foreground,Centre,"sb\particle.png",0,0 F,0,93324,,0.66 C,0,93324,,245,218,66 P,0,93324,,A M,7,93324,94044,300,144,314,108 S,6,93324,94044,-0.01308585,0
Sprite,Foreground,Centre,"sb\particle.png",0,0 F,0,93324,,0.66 C,0,93324,,255,232,99 P,0,93324,,A M,7,93324,94044,300,144,251,93 S,6,93324,94044,0.4787226,0
Sprite,Foreground,Centre,"sb\particle.png",0,0 F,0,93324,,0.66 C,0,93324,,255,232,99 P,0,93324,,A M,7,93324,94044,300,144,337,112 S,6,93324,94044,0.4085605,0
Sprite,Foreground,Centre,"sb\particle.png",0,0 F,0,93324,,0.66 C,0,93324,,255,232,99 P,0,93324,,A M,7,93324,94044,300,144,325,191 S,6,93324,94044,-0.2291306,0
Sprite,Foreground,Centre,"sb\particle.png",0,0 F,0,93324,,0.66 C,0,93324,,255,232,99 P,0,93324,,A M,7,93324,94044,300,144,319,172 S,6,93324,94044,-0.2326111,0
Sprite,Foreground,Centre,"sb\particle.png",0,0 F,0,93324,,0.66 C,0,93324,,255,232,99 P,0,93324,,A M,7,93324,94044,300,144,248,172 S,6,93324,94044,0.05003316,0
Sprite,Foreground,Centre,"sb\particle.png",0,0 F,0,93324,,0.66 C,0,93324,,255,232,99 P,0,93324,,A M,7,93324,94044,300,144,269,182 S,6,93324,94044,0.09811328,0
Sprite,Foreground,Centre,"sb\particle.png",0,0 F,0,93324,,0.66 C,0,93324,,255,232,99 P,0,93324,,A M,7,93324,94044,300,144,279,125 S,6,93324,94044,0.438275,0
Sprite,Foreground,Centre,"sb\particle.png",0,0 F,0,93324,,0.66 C,0,93324,,255,232,99 P,0,93324,,A M,7,93324,94044,300,144,332,93 S,6,93324,94044,0.416525,0
Sprite,Foreground,Centre,"sb\particle.png",0,0 F,0,93324,,0.66 C,0,93324,,255,232,99 P,0,93324,,A M,7,93324,94044,300,144,324,154 S,6,93324,94044,0.4533004,0
Sprite,Foreground,Centre,"sb\particle.png",0,0 F,0,93324,,0.66 C,0,93324,,255,232,99 P,0,93324,,A M,7,93324,94044,300,144,251,169 S,6,93324,94044,-0.1404569,0
Sprite,Foreground,Centre,"sb\particle.png",0,0 F,0,93702,,0.66 C,0,93702,,245,218,66 P,0,93702,,A M,7,93702,94422,457,83,457,68 S,6,93702,94422,0.206912,0
Sprite,Foreground,Centre,"sb\particle.png",0,0 F,0,93702,,0.66 C,0,93702,,245,218,66 P,0,93702,,A M,7,93702,94422,457,83,425,68 S,6,93702,94422,0.4449139,0
Sprite,Foreground,Centre,"sb\particle.png",0,0 F,0,93702,,0.66 C,0,93702,,245,218,66 P,0,93702,,A M,7,93702,94422,457,83,498,94 S,6,93702,94422,0.3123894,0
Sprite,Foreground,Centre,"sb\particle.png",0,0 F,0,93702,,0.66 C,0,93702,,245,218,66 P,0,93702,,A M,7,93702,94422,457,83,411,80 S,6,93702,94422,0.4198012,0
Sprite,Foreground,Centre,"sb\particle.png",0,0 F,0,93702,,0.66 C,0,93702,,245,218,66 P,0,93702,,A M,7,93702,94422,457,83,423,118 S,6,93702,94422,0.1022793,0
Sprite,Foreground,Centre,"sb\particle.png",0,0 F,0,93702,,0.66 C,0,93702,,245,218,66 P,0,93702,,A M,7,93702,94422,457,83,509,117 S,6,93702,94422,0.1631894,0
Sprite,Foreground,Centre,"sb\particle.png",0,0 F,0,93702,,0.66 C,0,93702,,245,218,66 P,0,93702,,A M,7,93702,94422,457,83,499,98 S,6,93702,94422,-0.1586846,0
Sprite,Foreground,Centre,"sb\particle.png",0,0 F,0,93702,,0.66 C,0,93702,,255,232,99 P,0,93702,,A M,7,93702,94422,457,83,495,124 S,6,93702,94422,0.2415898,0
Sprite,Foreground,Centre,"sb\particle.png",0,0 F,0,93702,,0.66 C,0,93702,,255,232,99 P,0,93702,,A M,7,93702,94422,457,83,456,47 S,6,93702,94422,0.3810489,0
Sprite,Foreground,Centre,"sb\particle.png",0,0 F,0,93702,,0.66 C,0,93702,,255,232,99 P,0,93702,,A M,7,93702,94422,457,83,440,131 S,6,93702,94422,-0.2503587,0
Sprite,Foreground,Centre,"sb\particle.png",0,0 F,0,93702,,0.66 C,0,93702,,255,232,99 P,0,93702,,A M,7,93702,94422,457,83,410,44 S,6,93702,94422,0.1673813,0
Sprite,Foreground,Centre,"sb\particle.png",0,0 F,0,93702,,0.66 C,0,93702,,255,232,99 P,0,93702,,A M,7,93702,94422,457,83,434,104 S,6,93702,94422,0.2620417,0
Sprite,Foreground,Centre,"sb\particle.png",0,0 F,0,93702,,0.66 C,0,93702,,255,232,99 P,0,93702,,A M,7,93702,94422,457,83,419,114 S,6,93702,94422,0.2774006,0
Sprite,Foreground,Centre,"sb\particle.png",0,0 F,0,93702,,0.66 C,0,93702,,255,232,99 P,0,93702,,A M,7,93702,94422,457,83,410,45 S,6,93702,94422,-0.1226587,0
Sprite,Foreground,Centre,"sb\particle.png",0,0 F,0,93702,,0.66 C,0,93702,,255,232,99 P,0,93702,,A M,7,93702,94422,457,83,505,30 S,6,93702,94422,0.02851657,0
Sprite,Foreground,Centre,"sb\particle.png",0,0 F,0,93702,,0.66 C,0,93702,,255,232,99 P,0,93702,,A M,7,93702,94422,457,83,405,35 S,6,93702,94422,0.2196547,0
Sprite,Foreground,Centre,"sb\particle.png",0,0 F,0,93702,,0.66 C,0,93702,,255,232,99 P,0,93702,,A M,7,93702,94422,457,83,477,82 S,6,93702,94422,0.04827966,0
Sprite,Foreground,Centre,"sb\particle.png",0,0 F,0,94268,,0.66 C,0,94268,,245,218,66 P,0,94268,,A M,7,94268,94988,438,285,387,292 S,6,94268,94988,0.3500347,0
Sprite,Foreground,Centre,"sb\particle.png",0,0 F,0,94268,,0.66 C,0,94268,,245,218,66 P,0,94268,,A M,7,94268,94988,438,285,423,244 S,6,94268,94988,0.3701599,0
Sprite,Foreground,Centre,"sb\particle.png",0,0 F,0,94268,,0.66 C,0,94268,,245,218,66 P,0,94268,,A M,7,94268,94988,438,285,397,304 S,6,94268,94988,-0.1773037,0
Sprite,Foreground,Centre,"sb\particle.png",0,0 F,0,94268,,0.66 C,0,94268,,245,218,66 P,0,94268,,A M,7,94268,94988,438,285,415,256 S,6,94268,94988,-0.06973836,0
Sprite,Foreground,Centre,"sb\particle.png",0,0 F,0,94268,,0.66 C,0,94268,,245,218,66 P,0,94268,,A M,7,94268,94988,438,285,405,256 S,6,94268,94988,0.008367573,0
Sprite,Foreground,Centre,"sb\particle.png",0,0 F,0,94268,,0.66 C,0,94268,,245,218,66 P,0,94268,,A M,7,94268,94988,438,285,416,309 S,6,94268,94988,0.03161876,0
Sprite,Foreground,Centre,"sb\particle.png",0,0 F,0,94268,,0.66 C,0,94268,,245,218,66 P,0,94268,,A M,7,94268,94988,438,285,394,287 S,6,94268,94988,-0.2232653,0
Sprite,Foreground,Centre,"sb\particle.png",0,0 F,0,94268,,0.66 C,0,94268,,255,232,99 P,0,94268,,A M,7,94268,94988,438,285,474,319 S,6,94268,94988,-0.1444702,0
Sprite,Foreground,Centre,"sb\particle.png",0,0 F,0,94268,,0.66 C,0,94268,,255,232,99 P,0,94268,,A M,7,94268,94988,438,285,491,263 S,6,94268,94988,0.1664732,0
Sprite,Foreground,Centre,"sb\particle.png",0,0 F,0,94268,,0.66 C,0,94268,,255,232,99 P,0,94268,,A M,7,94268,94988,438,285,393,306 S,6,94268,94988,-0.09459453,0
Sprite,Foreground,Centre,"sb\particle.png",0,0 F,0,94268,,0.66 C,0,94268,,255,232,99 P,0,94268,,A M,7,94268,94988,438,285,398,335 S,6,94268,94988,-0.02414909,0
Sprite,Foreground,Centre,"sb\particle.png",0,0 F,0,94268,,0.66 C,0,94268,,255,232,99 P,0,94268,,A M,7,94268,94988,438,285,422,276 S,6,94268,94988,0.01338024,0
Sprite,Foreground,Centre,"sb\particle.png",0,0 F,0,94268,,0.66 C,0,94268,,255,232,99 P,0,94268,,A M,7,94268,94988,438,285,391,260 S,6,94268,94988,0.2250514,0
Sprite,Foreground,Centre,"sb\particle.png",0,0 F,0,94268,,0.66 C,0,94268,,255,232,99 P,0,94268,,A M,7,94268,94988,438,285,402,324 S,6,94268,94988,0.2098601,0
Sprite,Foreground,Centre,"sb\particle.png",0,0 F,0,94268,,0.66 C,0,94268,,255,232,99 P,0,94268,,A M,7,94268,94988,438,285,421,313 S,6,94268,94988,-0.1674098,0
Sprite,Foreground,Centre,"sb\particle.png",0,0 F,0,94268,,0.66 C,0,94268,,255,232,99 P,0,94268,,A M,7,94268,94988,438,285,420,331 S,6,94268,94988,-0.1450275,0
Sprite,Foreground,Centre,"sb\particle.png",0,0 F,0,94268,,0.66 C,0,94268,,255,232,99 P,0,94268,,A M,7,94268,94988,438,285,484,318 S,6,94268,94988,0.3722264,0
Sprite,Foreground,Centre,"sb\particle.png",0,0 F,0,94457,,0.66 C,0,94457,,245,218,66 P,0,94457,,A M,7,94457,95177,339,255,343,261 S,6,94457,95177,0.062768,0
Sprite,Foreground,Centre,"sb\particle.png",0,0 F,0,94457,,0.66 C,0,94457,,245,218,66 P,0,94457,,A M,7,94457,95177,339,255,315,216 S,6,94457,95177,-0.2751438,0
Sprite,Foreground,Centre,"sb\particle.png",0,0 F,0,94457,,0.66 C,0,94457,,245,218,66 P,0,94457,,A M,7,94457,95177,339,255,291,230 S,6,94457,95177,0.1985023,0
Sprite,Foreground,Centre,"sb\particle.png",0,0 F,0,94457,,0.66 C,0,94457,,245,218,66 P,0,94457,,A M,7,94457,95177,339,255,380,242 S,6,94457,95177,-0.2514795,0
Sprite,Foreground,Centre,"sb\particle.png",0,0 F,0,94457,,0.66 C,0,94457,,245,218,66 P,0,94457,,A M,7,94457,95177,339,255,361,222 S,6,94457,95177,0.3560856,0
Sprite,Foreground,Centre,"sb\particle.png",0,0 F,0,94457,,0.66 C,0,94457,,245,218,66 P,0,94457,,A M,7,94457,95177,339,255,290,282 S,6,94457,95177,-0.02358531,0
Sprite,Foreground,Centre,"sb\particle.png",0,0 F,0,94457,,0.66 C,0,94457,,245,218,66 P,0,94457,,A M,7,94457,95177,339,255,298,236 S,6,94457,95177,-0.1974843,0
Sprite,Foreground,Centre,"sb\particle.png",0,0 F,0,94457,,0.66 C,0,94457,,255,232,99 P,0,94457,,A M,7,94457,95177,339,255,373,253 S,6,94457,95177,-0.2967853,0
Sprite,Foreground,Centre,"sb\particle.png",0,0 F,0,94457,,0.66 C,0,94457,,255,232,99 P,0,94457,,A M,7,94457,95177,339,255,319,292 S,6,94457,95177,0.01326421,0
Sprite,Foreground,Centre,"sb\particle.png",0,0 F,0,94457,,0.66 C,0,94457,,255,232,99 P,0,94457,,A M,7,94457,95177,339,255,342,262 S,6,94457,95177,-0.07129585,0
Sprite,Foreground,Centre,"sb\particle.png",0,0 F,0,94457,,0.66 C,0,94457,,255,232,99 P,0,94457,,A M,7,94457,95177,339,255,375,252 S,6,94457,95177,0.191877,0
Sprite,Foreground,Centre,"sb\particle.png",0,0 F,0,94457,,0.66 C,0,94457,,255,232,99 P,0,94457,,A M,7,94457,95177,339,255,325,269 S,6,94457,95177,0.4208379,0
Sprite,Foreground,Centre,"sb\particle.png",0,0 F,0,94457,,0.66 C,0,94457,,255,232,99 P,0,94457,,A M,7,94457,95177,339,255,286,288 S,6,94457,95177,0.07104183,0
Sprite,Foreground,Centre,"sb\particle.png",0,0 F,0,94457,,0.66 C,0,94457,,255,232,99 P,0,94457,,A M,7,94457,95177,339,255,389,203 S,6,94457,95177,0.1154594,0
Sprite,Foreground,Centre,"sb\particle.png",0,0 F,0,94457,,0.66 C,0,94457,,255,232,99 P,0,94457,,A M,7,94457,95177,339,255,300,308 S,6,94457,95177,0.1849422,0
Sprite,Foreground,Centre,"sb\particle.png",0,0 F,0,94457,,0.66 C,0,94457,,255,232,99 P,0,94457,,A M,7,94457,95177,339,255,361,302 S,6,94457,95177,0.2744665,0
Sprite,Foreground,Centre,"sb\particle.png",0,0 F,0,94457,,0.66 C,0,94457,,255,232,99 P,0,94457,,A M,7,94457,95177,339,255,300,211 S,6,94457,95177,0.2663265,0
Sprite,Foreground,Centre,"sb\particle.png",0,0 F,0,94835,,0.66 C,0,94835,,245,218,66 P,0,94835,,A M,7,94835,95555,177,310,194,325 S,6,94835,95555,-0.2563905,0
Sprite,Foreground,Centre,"sb\particle.png",0,0 F,0,94835,,0.66 C,0,94835,,245,218,66 P,0,94835,,A M,7,94835,95555,177,310,165,347 S,6,94835,95555,0.3198164,0
Sprite,Foreground,Centre,"sb\particle.png",0,0 F,0,94835,,0.66 C,0,94835,,245,218,66 P,0,94835,,A M,7,94835,95555,177,310,217,334 S,6,94835,95555,-0.2317865,0
Sprite,Foreground,Centre,"sb\particle.png",0,0 F,0,94835,,0.66 C,0,94835,,245,218,66 P,0,94835,,A M,7,94835,95555,177,310,167,270 S,6,94835,95555,0.4794891,0
Sprite,Foreground,Centre,"sb\particle.png",0,0 F,0,94835,,0.66 C,0,94835,,245,218,66 P,0,94835,,A M,7,94835,95555,177,310,147,308 S,6,94835,95555,-0.04671192,0
Sprite,Foreground,Centre,"sb\particle.png",0,0 F,0,94835,,0.66 C,0,94835,,245,218,66 P,0,94835,,A M,7,94835,95555,177,310,170,306 S,6,94835,95555,0.4132589,0
Sprite,Foreground,Centre,"sb\particle.png",0,0 F,0,94835,,0.66 C,0,94835,,245,218,66 P,0,94835,,A M,7,94835,95555,177,310,217,362 S,6,94835,95555,-0.2210801,0
Sprite,Foreground,Centre,"sb\particle.png",0,0 F,0,94835,,0.66 C,0,94835,,255,232,99 P,0,94835,,A M,7,94835,95555,177,310,165,267 S,6,94835,95555,-0.2448716,0
Sprite,Foreground,Centre,"sb\particle.png",0,0 F,0,94835,,0.66 C,0,94835,,255,232,99 P,0,94835,,A M,7,94835,95555,177,310,160,351 S,6,94835,95555,0.3091784,0
Sprite,Foreground,Centre,"sb\particle.png",0,0 F,0,94835,,0.66 C,0,94835,,255,232,99 P,0,94835,,A M,7,94835,95555,177,310,178,257 S,6,94835,95555,0.4439211,0
Sprite,Foreground,Centre,"sb\particle.png",0,0 F,0,94835,,0.66 C,0,94835,,255,232,99 P,0,94835,,A M,7,94835,95555,177,310,150,269 S,6,94835,95555,0.4677482,0
Sprite,Foreground,Centre,"sb\particle.png",0,0 F,0,94835,,0.66 C,0,94835,,255,232,99 P,0,94835,,A M,7,94835,95555,177,310,131,313 S,6,94835,95555,-0.1067096,0
Sprite,Foreground,Centre,"sb\particle.png",0,0 F,0,94835,,0.66 C,0,94835,,255,232,99 P,0,94835,,A M,7,94835,95555,177,310,169,293 S,6,94835,95555,0.281778,0
Sprite,Foreground,Centre,"sb\particle.png",0,0 F,0,94835,,0.66 C,0,94835,,255,232,99 P,0,94835,,A M,7,94835,95555,177,310,135,309 S,6,94835,95555,0.01642254,0
Sprite,Foreground,Centre,"sb\particle.png",0,0 F,0,94835,,0.66 C,0,94835,,255,232,99 P,0,94835,,A M,7,94835,95555,177,310,152,321 S,6,94835,95555,-0.1718449,0
Sprite,Foreground,Centre,"sb\particle.png",0,0 F,0,94835,,0.66 C,0,94835,,255,232,99 P,0,94835,,A M,7,94835,95555,177,310,188,316 S,6,94835,95555,-0.08396378,0
Sprite,Foreground,Centre,"sb\particle.png",0,0 F,0,94835,,0.66 C,0,94835,,255,232,99 P,0,94835,,A M,7,94835,95555,177,310,206,323 S,6,94835,95555,0.04359339,0
Sprite,Foreground,Centre,"sb\particle.png",0,0 F,0,95212,,0.66 C,0,95212,,245,218,66 P,0,95212,,A M,7,95212,95932,280,423,238,472 S,6,95212,95932,-0.245192,0
Sprite,Foreground,Centre,"sb\particle.png",0,0 F,0,95212,,0.66 C,0,95212,,245,218,66 P,0,95212,,A M,7,95212,95932,280,423,325,435 S,6,95212,95932,-0.264432,0
Sprite,Foreground,Centre,"sb\particle.png",0,0 F,0,95212,,0.66 C,0,95212,,245,218,66 P,0,95212,,A M,7,95212,95932,280,423,330,408 S,6,95212,95932,-0.1630136,0
Sprite,Foreground,Centre,"sb\particle.png",0,0 F,0,95212,,0.66 C,0,95212,,245,218,66 P,0,95212,,A M,7,95212,95932,280,423,324,424 S,6,95212,95932,0.3537602,0
Sprite,Foreground,Centre,"sb\particle.png",0,0 F,0,95212,,0.66 C,0,95212,,245,218,66 P,0,95212,,A M,7,95212,95932,280,423,294,448 S,6,95212,95932,0.299189,0
Sprite,Foreground,Centre,"sb\particle.png",0,0 F,0,95212,,0.66 C,0,95212,,245,218,66 P,0,95212,,A M,7,95212,95932,280,423,283,441 S,6,95212,95932,0.2596334,0
Sprite,Foreground,Centre,"sb\particle.png",0,0 F,0,95212,,0.66 C,0,95212,,245,218,66 P,0,95212,,A M,7,95212,95932,280,423,309,431 S,6,95212,95932,0.2048168,0
Sprite,Foreground,Centre,"sb\particle.png",0,0 F,0,95212,,0.66 C,0,95212,,255,232,99 P,0,95212,,A M,7,95212,95932,280,423,243,409 S,6,95212,95932,-0.05179852,0
Sprite,Foreground,Centre,"sb\particle.png",0,0 F,0,95212,,0.66 C,0,95212,,255,232,99 P,0,95212,,A M,7,95212,95932,280,423,265,405 S,6,95212,95932,0.2765214,0
Sprite,Foreground,Centre,"sb\particle.png",0,0 F,0,95212,,0.66 C,0,95212,,255,232,99 P,0,95212,,A M,7,95212,95932,280,423,261,463 S,6,95212,95932,0.156056,0
Sprite,Foreground,Centre,"sb\particle.png",0,0 F,0,95212,,0.66 C,0,95212,,255,232,99 P,0,95212,,A M,7,95212,95932,280,423,256,457 S,6,95212,95932,-0.007562154,0
Sprite,Foreground,Centre,"sb\particle.png",0,0 F,0,95212,,0.66 C,0,95212,,255,232,99 P,0,95212,,A M,7,95212,95932,280,423,313,395 S,6,95212,95932,0.3033535,0
Sprite,Foreground,Centre,"sb\particle.png",0,0 F,0,95212,,0.66 C,0,95212,,255,232,99 P,0,95212,,A M,7,95212,95932,280,423,250,449 S,6,95212,95932,-0.008780084,0
Sprite,Foreground,Centre,"sb\particle.png",0,0 F,0,95212,,0.66 C,0,95212,,255,232,99 P,0,95212,,A M,7,95212,95932,280,423,271,411 S,6,95212,95932,0.3882176,0
Sprite,Foreground,Centre,"sb\particle.png",0,0 F,0,95212,,0.66 C,0,95212,,255,232,99 P,0,95212,,A M,7,95212,95932,280,423,305,462 S,6,95212,95932,-0.1402755,0
Sprite,Foreground,Centre,"sb\particle.png",0,0 F,0,95212,,0.66 C,0,95212,,255,232,99 P,0,95212,,A M,7,95212,95932,280,423,312,448 S,6,95212,95932,0.463305,0
Sprite,Foreground,Centre,"sb\particle.png",0,0 F,0,95212,,0.66 C,0,95212,,255,232,99 P,0,95212,,A M,7,95212,95932,280,423,259,404 S,6,95212,95932,0.2410049,0
Sprite,Foreground,Centre,"sb\particle.png",0,0 F,0,95401,,0.66 C,0,95401,,245,218,66 P,0,95401,,A M,7,95401,96121,371,375,343,411 S,6,95401,96121,-0.0632791,0
Sprite,Foreground,Centre,"sb\particle.png",0,0 F,0,95401,,0.66 C,0,95401,,245,218,66 P,0,95401,,A M,7,95401,96121,371,375,333,340 S,6,95401,96121,-0.1022957,0
Sprite,Foreground,Centre,"sb\particle.png",0,0 F,0,95401,,0.66 C,0,95401,,245,218,66 P,0,95401,,A M,7,95401,96121,371,375,355,419 S,6,95401,96121,0.1101584,0
Sprite,Foreground,Centre,"sb\particle.png",0,0 F,0,95401,,0.66 C,0,95401,,245,218,66 P,0,95401,,A M,7,95401,96121,371,375,348,354 S,6,95401,96121,0.4133874,0
Sprite,Foreground,Centre,"sb\particle.png",0,0 F,0,95401,,0.66 C,0,95401,,245,218,66 P,0,95401,,A M,7,95401,96121,371,375,318,335 S,6,95401,96121,0.4089857,0
Sprite,Foreground,Centre,"sb\particle.png",0,0 F,0,95401,,0.66 C,0,95401,,245,218,66 P,0,95401,,A M,7,95401,96121,371,375,324,336 S,6,95401,96121,0.002465948,0
Sprite,Foreground,Centre,"sb\particle.png",0,0 F,0,95401,,0.66 C,0,95401,,245,218,66 P,0,95401,,A M,7,95401,96121,371,375,415,420 S,6,95401,96121,0.05556107,0
Sprite,Foreground,Centre,"sb\particle.png",0,0 F,0,95401,,0.66 C,0,95401,,255,232,99 P,0,95401,,A M,7,95401,96121,371,375,409,392 S,6,95401,96121,0.02298537,0
Sprite,Foreground,Centre,"sb\particle.png",0,0 F,0,95401,,0.66 C,0,95401,,255,232,99 P,0,95401,,A M,7,95401,96121,371,375,407,380 S,6,95401,96121,0.2601599,0
Sprite,Foreground,Centre,"sb\particle.png",0,0 F,0,95401,,0.66 C,0,95401,,255,232,99 P,0,95401,,A M,7,95401,96121,371,375,321,351 S,6,95401,96121,-0.1212697,0
Sprite,Foreground,Centre,"sb\particle.png",0,0 F,0,95401,,0.66 C,0,95401,,255,232,99 P,0,95401,,A M,7,95401,96121,371,375,415,404 S,6,95401,96121,0.4427153,0
Sprite,Foreground,Centre,"sb\particle.png",0,0 F,0,95401,,0.66 C,0,95401,,255,232,99 P,0,95401,,A M,7,95401,96121,371,375,339,419 S,6,95401,96121,0.1074501,0
Sprite,Foreground,Centre,"sb\particle.png",0,0 F,0,95401,,0.66 C,0,95401,,255,232,99 P,0,95401,,A M,7,95401,96121,371,375,354,382 S,6,95401,96121,0.05045336,0
Sprite,Foreground,Centre,"sb\particle.png",0,0 F,0,95401,,0.66 C,0,95401,,255,232,99 P,0,95401,,A M,7,95401,96121,371,375,324,324 S,6,95401,96121,0.4297909,0
Sprite,Foreground,Centre,"sb\particle.png",0,0 F,0,95401,,0.66 C,0,95401,,255,232,99 P,0,95401,,A M,7,95401,96121,371,375,412,368 S,6,95401,96121,0.01021947,0
Sprite,Foreground,Centre,"sb\particle.png",0,0 F,0,95401,,0.66 C,0,95401,,255,232,99 P,0,95401,,A M,7,95401,96121,371,375,342,393 S,6,95401,96121,0.01239672,0
Sprite,Foreground,Centre,"sb\particle.png",0,0 F,0,95401,,0.66 C,0,95401,,255,232,99 P,0,95401,,A M,7,95401,96121,371,375,400,337 S,6,95401,96121,0.02969325,0
Sprite,Foreground,Centre,"sb\particle.png",0,0 F,0,95590,,0.66 C,0,95590,,245,218,66 P,0,95590,,A M,7,95590,96310,457,430,473,472 S,6,95590,96310,-0.1155673,0
Sprite,Foreground,Centre,"sb\particle.png",0,0 F,0,95590,,0.66 C,0,95590,,245,218,66 P,0,95590,,A M,7,95590,96310,457,430,442,405 S,6,95590,96310,0.234657,0
Sprite,Foreground,Centre,"sb\particle.png",0,0 F,0,95590,,0.66 C,0,95590,,245,218,66 P,0,95590,,A M,7,95590,96310,457,430,414,415 S,6,95590,96310,0.01220842,0
Sprite,Foreground,Centre,"sb\particle.png",0,0 F,0,95590,,0.66 C,0,95590,,245,218,66 P,0,95590,,A M,7,95590,96310,457,430,419,399 S,6,95590,96310,-0.1643133,0
Sprite,Foreground,Centre,"sb\particle.png",0,0 F,0,95590,,0.66 C,0,95590,,245,218,66 P,0,95590,,A M,7,95590,96310,457,430,446,460 S,6,95590,96310,0.3985889,0
Sprite,Foreground,Centre,"sb\particle.png",0,0 F,0,95590,,0.66 C,0,95590,,245,218,66 P,0,95590,,A M,7,95590,96310,457,430,435,409 S,6,95590,96310,0.2628753,0
Sprite,Foreground,Centre,"sb\particle.png",0,0 F,0,95590,,0.66 C,0,95590,,245,218,66 P,0,95590,,A M,7,95590,96310,457,430,455,415 S,6,95590,96310,-0.2079896,0
Sprite,Foreground,Centre,"sb\particle.png",0,0 F,0,95590,,0.66 C,0,95590,,255,232,99 P,0,95590,,A M,7,95590,96310,457,430,431,387 S,6,95590,96310,-0.2273405,0
Sprite,Foreground,Centre,"sb\particle.png",0,0 F,0,95590,,0.66 C,0,95590,,255,232,99 P,0,95590,,A M,7,95590,96310,457,430,462,434 S,6,95590,96310,0.2828894,0
Sprite,Foreground,Centre,"sb\particle.png",0,0 F,0,95590,,0.66 C,0,95590,,255,232,99 P,0,95590,,A M,7,95590,96310,457,430,486,387 S,6,95590,96310,0.186673,0
Sprite,Foreground,Centre,"sb\particle.png",0,0 F,0,95590,,0.66 C,0,95590,,255,232,99 P,0,95590,,A M,7,95590,96310,457,430,469,454 S,6,95590,96310,-0.2063735,0
Sprite,Foreground,Centre,"sb\particle.png",0,0 F,0,95590,,0.66 C,0,95590,,255,232,99 P,0,95590,,A M,7,95590,96310,457,430,411,406 S,6,95590,96310,0.2650829,0
Sprite,Foreground,Centre,"sb\particle.png",0,0 F,0,95590,,0.66 C,0,95590,,255,232,99 P,0,95590,,A M,7,95590,96310,457,430,459,442 S,6,95590,96310,0.2847021,0
Sprite,Foreground,Centre,"sb\particle.png",0,0 F,0,95590,,0.66 C,0,95590,,255,232,99 P,0,95590,,A M,7,95590,96310,457,430,468,460 S,6,95590,96310,-0.01314503,0
Sprite,Foreground,Centre,"sb\particle.png",0,0 F,0,95590,,0.66 C,0,95590,,255,232,99 P,0,95590,,A M,7,95590,96310,457,430,412,470 S,6,95590,96310,0.02633435,0
Sprite,Foreground,Centre,"sb\particle.png",0,0 F,0,95590,,0.66 C,0,95590,,255,232,99 P,0,95590,,A M,7,95590,96310,457,430,435,388 S,6,95590,96310,0.01251481,0
Sprite,Foreground,Centre,"sb\particle.png",0,0 F,0,95590,,0.66 C,0,95590,,255,232,99 P,0,95590,,A M,7,95590,96310,457,430,422,466 S,6,95590,96310,-0.2039431,0
Sprite,Foreground,Centre,"sb\particle.png",0,0 F,0,95779,,0.66 C,0,95779,,245,218,66 P,0,95779,,A M,7,95779,96499,540,369,526,403 S,6,95779,96499,-0.07217216,0
Sprite,Foreground,Centre,"sb\particle.png",0,0 F,0,95779,,0.66 C,0,95779,,245,218,66 P,0,95779,,A M,7,95779,96499,540,369,487,362 S,6,95779,96499,0.1490137,0
Sprite,Foreground,Centre,"sb\particle.png",0,0 F,0,95779,,0.66 C,0,95779,,245,218,66 P,0,95779,,A M,7,95779,96499,540,369,571,320 S,6,95779,96499,0.4634866,0
Sprite,Foreground,Centre,"sb\particle.png",0,0 F,0,95779,,0.66 C,0,95779,,245,218,66 P,0,95779,,A M,7,95779,96499,540,369,488,336 S,6,95779,96499,0.2032624,0
Sprite,Foreground,Centre,"sb\particle.png",0,0 F,0,95779,,0.66 C,0,95779,,245,218,66 P,0,95779,,A M,7,95779,96499,540,369,570,422 S,6,95779,96499,0.09856559,0
Sprite,Foreground,Centre,"sb\particle.png",0,0 F,0,95779,,0.66 C,0,95779,,245,218,66 P,0,95779,,A M,7,95779,96499,540,369,490,378 S,6,95779,96499,0.2320088,0
Sprite,Foreground,Centre,"sb\particle.png",0,0 F,0,95779,,0.66 C,0,95779,,245,218,66 P,0,95779,,A M,7,95779,96499,540,369,587,348 S,6,95779,96499,-0.0815948,0
Sprite,Foreground,Centre,"sb\particle.png",0,0 F,0,95779,,0.66 C,0,95779,,255,232,99 P,0,95779,,A M,7,95779,96499,540,369,578,334 S,6,95779,96499,-0.04119394,0
Sprite,Foreground,Centre,"sb\particle.png",0,0 F,0,95779,,0.66 C,0,95779,,255,232,99 P,0,95779,,A M,7,95779,96499,540,369,539,393 S,6,95779,96499,0.3579989,0
Sprite,Foreground,Centre,"sb\particle.png",0,0 F,0,95779,,0.66 C,0,95779,,255,232,99 P,0,95779,,A M,7,95779,96499,540,369,516,372 S,6,95779,96499,-0.09580395,0
Sprite,Foreground,Centre,"sb\particle.png",0,0 F,0,95779,,0.66 C,0,95779,,255,232,99 P,0,95779,,A M,7,95779,96499,540,369,581,341 S,6,95779,96499,-0.1102453,0
Sprite,Foreground,Centre,"sb\particle.png",0,0 F,0,95779,,0.66 C,0,95779,,255,232,99 P,0,95779,,A M,7,95779,96499,540,369,562,398 S,6,95779,96499,0.1482506,0
Sprite,Foreground,Centre,"sb\particle.png",0,0 F,0,95779,,0.66 C,0,95779,,255,232,99 P,0,95779,,A M,7,95779,96499,540,369,529,367 S,6,95779,96499,-0.2467127,0
Sprite,Foreground,Centre,"sb\particle.png",0,0 F,0,95779,,0.66 C,0,95779,,255,232,99 P,0,95779,,A M,7,95779,96499,540,369,530,403 S,6,95779,96499,0.3391173,0
Sprite,Foreground,Centre,"sb\particle.png",0,0 F,0,95779,,0.66 C,0,95779,,255,232,99 P,0,95779,,A M,7,95779,96499,540,369,523,337 S,6,95779,96499,0.3930108,0
Sprite,Foreground,Centre,"sb\particle.png",0,0 F,0,95779,,0.66 C,0,95779,,255,232,99 P,0,95779,,A M,7,95779,96499,540,369,577,410 S,6,95779,96499,0.1141691,0
Sprite,Foreground,Centre,"sb\particle.png",0,0 F,0,95779,,0.66 C,0,95779,,255,232,99 P,0,95779,,A M,7,95779,96499,540,369,499,343 S,6,95779,96499,-0.24753,0
Sprite,Foreground,Centre,"sb\particle.png",0,0 F,0,96156,,0.66 C,0,96156,,245,218,66 P,0,96156,,A M,7,96156,96876,450,256,500,268 S,6,96156,96876,0.04089909,0
Sprite,Foreground,Centre,"sb\particle.png",0,0 F,0,96156,,0.66 C,0,96156,,245,218,66 P,0,96156,,A M,7,96156,96876,450,256,494,300 S,6,96156,96876,-0.000933685,0
Sprite,Foreground,Centre,"sb\particle.png",0,0 F,0,96156,,0.66 C,0,96156,,245,218,66 P,0,96156,,A M,7,96156,96876,450,256,492,283 S,6,96156,96876,-0.09521265,0
Sprite,Foreground,Centre,"sb\particle.png",0,0 F,0,96156,,0.66 C,0,96156,,245,218,66 P,0,96156,,A M,7,96156,96876,450,256,424,239 S,6,96156,96876,0.4617844,0
Sprite,Foreground,Centre,"sb\particle.png",0,0 F,0,96156,,0.66 C,0,96156,,245,218,66 P,0,96156,,A M,7,96156,96876,450,256,436,212 S,6,96156,96876,0.3283091,0
Sprite,Foreground,Centre,"sb\particle.png",0,0 F,0,96156,,0.66 C,0,96156,,245,218,66 P,0,96156,,A M,7,96156,96876,450,256,415,285 S,6,96156,96876,0.4621652,0
Sprite,Foreground,Centre,"sb\particle.png",0,0 F,0,96156,,0.66 C,0,96156,,245,218,66 P,0,96156,,A M,7,96156,96876,450,256,430,256 S,6,96156,96876,-0.1686918,0
Sprite,Foreground,Centre,"sb\particle.png",0,0 F,0,96156,,0.66 C,0,96156,,255,232,99 P,0,96156,,A M,7,96156,96876,450,256,462,270 S,6,96156,96876,-0.2098085,0
Sprite,Foreground,Centre,"sb\particle.png",0,0 F,0,96156,,0.66 C,0,96156,,255,232,99 P,0,96156,,A M,7,96156,96876,450,256,436,227 S,6,96156,96876,-0.1083774,0
Sprite,Foreground,Centre,"sb\particle.png",0,0 F,0,96156,,0.66 C,0,96156,,255,232,99 P,0,96156,,A M,7,96156,96876,450,256,500,280 S,6,96156,96876,0.03924747,0
Sprite,Foreground,Centre,"sb\particle.png",0,0 F,0,96156,,0.66 C,0,96156,,255,232,99 P,0,96156,,A M,7,96156,96876,450,256,498,218 S,6,96156,96876,0.4824693,0
Sprite,Foreground,Centre,"sb\particle.png",0,0 F,0,96156,,0.66 C,0,96156,,255,232,99 P,0,96156,,A M,7,96156,96876,450,256,412,284 S,6,96156,96876,0.2262225,0
Sprite,Foreground,Centre,"sb\particle.png",0,0 F,0,96156,,0.66 C,0,96156,,255,232,99 P,0,96156,,A M,7,96156,96876,450,256,454,248 S,6,96156,96876,-0.2330435,0
Sprite,Foreground,Centre,"sb\particle.png",0,0 F,0,96156,,0.66 C,0,96156,,255,232,99 P,0,96156,,A M,7,96156,96876,450,256,479,225 S,6,96156,96876,-0.2506574,0
Sprite,Foreground,Centre,"sb\particle.png",0,0 F,0,96156,,0.66 C,0,96156,,255,232,99 P,0,96156,,A M,7,96156,96876,450,256,432,295 S,6,96156,96876,0.1949658,0
Sprite,Foreground,Centre,"sb\particle.png",0,0 F,0,96156,,0.66 C,0,96156,,255,232,99 P,0,96156,,A M,7,96156,96876,450,256,493,306 S,6,96156,96876,-0.02225501,0
Sprite,Foreground,Centre,"sb\particle.png",0,0 F,0,96156,,0.66 C,0,96156,,255,232,99 P,0,96156,,A M,7,96156,96876,450,256,482,228 S,6,96156,96876,-0.2979266,0
Sprite,Foreground,Centre,"sb\particle.png",0,0 F,0,96534,,0.66 C,0,96534,,245,218,66 P,0,96534,,A M,7,96534,97254,518,123,535,106 S,6,96534,97254,0.1251782,0
Sprite,Foreground,Centre,"sb\particle.png",0,0 F,0,96534,,0.66 C,0,96534,,245,218,66 P,0,96534,,A M,7,96534,97254,518,123,529,109 S,6,96534,97254,0.1225369,0
Sprite,Foreground,Centre,"sb\particle.png",0,0 F,0,96534,,0.66 C,0,96534,,245,218,66 P,0,96534,,A M,7,96534,97254,518,123,510,170 S,6,96534,97254,-0.08968695,0
Sprite,Foreground,Centre,"sb\particle.png",0,0 F,0,96534,,0.66 C,0,96534,,245,218,66 P,0,96534,,A M,7,96534,97254,518,123,508,155 S,6,96534,97254,0.3393914,0
Sprite,Foreground,Centre,"sb\particle.png",0,0 F,0,96534,,0.66 C,0,96534,,245,218,66 P,0,96534,,A M,7,96534,97254,518,123,535,74 S,6,96534,97254,0.2845105,0
Sprite,Foreground,Centre,"sb\particle.png",0,0 F,0,96534,,0.66 C,0,96534,,245,218,66 P,0,96534,,A M,7,96534,97254,518,123,546,78 S,6,96534,97254,-0.2236871,0
Sprite,Foreground,Centre,"sb\particle.png",0,0 F,0,96534,,0.66 C,0,96534,,245,218,66 P,0,96534,,A M,7,96534,97254,518,123,514,165 S,6,96534,97254,0.389753,0
Sprite,Foreground,Centre,"sb\particle.png",0,0 F,0,96534,,0.66 C,0,96534,,255,232,99 P,0,96534,,A M,7,96534,97254,518,123,504,105 S,6,96534,97254,0.2271692,0
Sprite,Foreground,Centre,"sb\particle.png",0,0 F,0,96534,,0.66 C,0,96534,,255,232,99 P,0,96534,,A M,7,96534,97254,518,123,513,72 S,6,96534,97254,0.4703177,0
Sprite,Foreground,Centre,"sb\particle.png",0,0 F,0,96534,,0.66 C,0,96534,,255,232,99 P,0,96534,,A M,7,96534,97254,518,123,542,87 S,6,96534,97254,0.08437651,0
Sprite,Foreground,Centre,"sb\particle.png",0,0 F,0,96534,,0.66 C,0,96534,,255,232,99 P,0,96534,,A M,7,96534,97254,518,123,497,117 S,6,96534,97254,-0.2908482,0
Sprite,Foreground,Centre,"sb\particle.png",0,0 F,0,96534,,0.66 C,0,96534,,255,232,99 P,0,96534,,A M,7,96534,97254,518,123,515,120 S,6,96534,97254,0.3630279,0
Sprite,Foreground,Centre,"sb\particle.png",0,0 F,0,96534,,0.66 C,0,96534,,255,232,99 P,0,96534,,A M,7,96534,97254,518,123,550,77 S,6,96534,97254,0.4389326,0
Sprite,Foreground,Centre,"sb\particle.png",0,0 F,0,96534,,0.66 C,0,96534,,255,232,99 P,0,96534,,A M,7,96534,97254,518,123,524,124 S,6,96534,97254,-0.1633487,0
Sprite,Foreground,Centre,"sb\particle.png",0,0 F,0,96534,,0.66 C,0,96534,,255,232,99 P,0,96534,,A M,7,96534,97254,518,123,527,165 S,6,96534,97254,0.4232216,0
Sprite,Foreground,Centre,"sb\particle.png",0,0 F,0,96534,,0.66 C,0,96534,,255,232,99 P,0,96534,,A M,7,96534,97254,518,123,479,91 S,6,96534,97254,-0.07039861,0
Sprite,Foreground,Centre,"sb\particle.png",0,0 F,0,96534,,0.66 C,0,96534,,255,232,99 P,0,96534,,A M,7,96534,97254,518,123,541,84 S,6,96534,97254,-0.2421876,0
Sprite,Foreground,Centre,"sb\particle.png",0,0 F,0,96723,,0.66 C,0,96723,,245,218,66 P,0,96723,,A M,7,96723,97443,429,69,425,89 S,6,96723,97443,-0.2299381,0
Sprite,Foreground,Centre,"sb\particle.png",0,0 F,0,96723,,0.66 C,0,96723,,245,218,66 P,0,96723,,A M,7,96723,97443,429,69,423,22 S,6,96723,97443,-0.0449851,0
Sprite,Foreground,Centre,"sb\particle.png",0,0 F,0,96723,,0.66 C,0,96723,,245,218,66 P,0,96723,,A M,7,96723,97443,429,69,413,80 S,6,96723,97443,0.4645279,0
Sprite,Foreground,Centre,"sb\particle.png",0,0 F,0,96723,,0.66 C,0,96723,,245,218,66 P,0,96723,,A M,7,96723,97443,429,69,405,23 S,6,96723,97443,0.1974002,0
Sprite,Foreground,Centre,"sb\particle.png",0,0 F,0,96723,,0.66 C,0,96723,,245,218,66 P,0,96723,,A M,7,96723,97443,429,69,444,37 S,6,96723,97443,0.3268173,0
Sprite,Foreground,Centre,"sb\particle.png",0,0 F,0,96723,,0.66 C,0,96723,,245,218,66 P,0,96723,,A M,7,96723,97443,429,69,407,73 S,6,96723,97443,0.07019349,0
Sprite,Foreground,Centre,"sb\particle.png",0,0 F,0,96723,,0.66 C,0,96723,,245,218,66 P,0,96723,,A M,7,96723,97443,429,69,425,30 S,6,96723,97443,-0.1795668,0
Sprite,Foreground,Centre,"sb\particle.png",0,0 F,0,96723,,0.66 C,0,96723,,255,232,99 P,0,96723,,A M,7,96723,97443,429,69,382,23 S,6,96723,97443,0.1635227,0
Sprite,Foreground,Centre,"sb\particle.png",0,0 F,0,96723,,0.66 C,0,96723,,255,232,99 P,0,96723,,A M,7,96723,97443,429,69,404,21 S,6,96723,97443,-0.0623333,0
Sprite,Foreground,Centre,"sb\particle.png",0,0 F,0,96723,,0.66 C,0,96723,,255,232,99 P,0,96723,,A M,7,96723,97443,429,69,468,67 S,6,96723,97443,0.4202209,0
Sprite,Foreground,Centre,"sb\particle.png",0,0 F,0,96723,,0.66 C,0,96723,,255,232,99 P,0,96723,,A M,7,96723,97443,429,69,389,81 S,6,96723,97443,0.2689676,0
Sprite,Foreground,Centre,"sb\particle.png",0,0 F,0,96723,,0.66 C,0,96723,,255,232,99 P,0,96723,,A M,7,96723,97443,429,69,426,15 S,6,96723,97443,0.4643543,0
Sprite,Foreground,Centre,"sb\particle.png",0,0 F,0,96723,,0.66 C,0,96723,,255,232,99 P,0,96723,,A M,7,96723,97443,429,69,398,117 S,6,96723,97443,-0.0564094,0
Sprite,Foreground,Centre,"sb\particle.png",0,0 F,0,96723,,0.66 C,0,96723,,255,232,99 P,0,96723,,A M,7,96723,97443,429,69,450,72 S,6,96723,97443,-0.01449703,0
Sprite,Foreground,Centre,"sb\particle.png",0,0 F,0,96723,,0.66 C,0,96723,,255,232,99 P,0,96723,,A M,7,96723,97443,429,69,481,65 S,6,96723,97443,0.1575398,0
Sprite,Foreground,Centre,"sb\particle.png",0,0 F,0,96723,,0.66 C,0,96723,,255,232,99 P,0,96723,,A M,7,96723,97443,429,69,474,25 S,6,96723,97443,0.01608966,0
Sprite,Foreground,Centre,"sb\particle.png",0,0 F,0,96723,,0.66 C,0,96723,,255,232,99 P,0,96723,,A M,7,96723,97443,429,69,427,68 S,6,96723,97443,-0.2658042,0
Sprite,Foreground,Centre,"sb\particle.png",0,0 F,0,97289,,0.66 C,0,97289,,245,218,66 P,0,97289,,A M,7,97289,98009,215,165,167,143 S,6,97289,98009,0.07414677,0
Sprite,Foreground,Centre,"sb\particle.png",0,0 F,0,97289,,0.66 C,0,97289,,245,218,66 P,0,97289,,A M,7,97289,98009,215,165,216,134 S,6,97289,98009,0.2771793,0
Sprite,Foreground,Centre,"sb\particle.png",0,0 F,0,97289,,0.66 C,0,97289,,245,218,66 P,0,97289,,A M,7,97289,98009,215,165,215,174 S,6,97289,98009,-0.162132,0
Sprite,Foreground,Centre,"sb\particle.png",0,0 F,0,97289,,0.66 C,0,97289,,245,218,66 P,0,97289,,A M,7,97289,98009,215,165,193,200 S,6,97289,98009,0.4901602,0
Sprite,Foreground,Centre,"sb\particle.png",0,0 F,0,97289,,0.66 C,0,97289,,245,218,66 P,0,97289,,A M,7,97289,98009,215,165,216,213 S,6,97289,98009,-0.1398366,0
Sprite,Foreground,Centre,"sb\particle.png",0,0 F,0,97289,,0.66 C,0,97289,,245,218,66 P,0,97289,,A M,7,97289,98009,215,165,189,204 S,6,97289,98009,-0.07193456,0
Sprite,Foreground,Centre,"sb\particle.png",0,0 F,0,97289,,0.66 C,0,97289,,245,218,66 P,0,97289,,A M,7,97289,98009,215,165,200,116 S,6,97289,98009,0.2690737,0
Sprite,Foreground,Centre,"sb\particle.png",0,0 F,0,97289,,0.66 C,0,97289,,255,232,99 P,0,97289,,A M,7,97289,98009,215,165,250,213 S,6,97289,98009,-0.1527589,0
Sprite,Foreground,Centre,"sb\particle.png",0,0 F,0,97289,,0.66 C,0,97289,,255,232,99 P,0,97289,,A M,7,97289,98009,215,165,247,131 S,6,97289,98009,0.1188515,0
Sprite,Foreground,Centre,"sb\particle.png",0,0 F,0,97289,,0.66 C,0,97289,,255,232,99 P,0,97289,,A M,7,97289,98009,215,165,184,134 S,6,97289,98009,-0.2294363,0
Sprite,Foreground,Centre,"sb\particle.png",0,0 F,0,97289,,0.66 C,0,97289,,255,232,99 P,0,97289,,A M,7,97289,98009,215,165,231,127 S,6,97289,98009,0.2979766,0
Sprite,Foreground,Centre,"sb\particle.png",0,0 F,0,97289,,0.66 C,0,97289,,255,232,99 P,0,97289,,A M,7,97289,98009,215,165,245,175 S,6,97289,98009,-0.2129411,0
Sprite,Foreground,Centre,"sb\particle.png",0,0 F,0,97289,,0.66 C,0,97289,,255,232,99 P,0,97289,,A M,7,97289,98009,215,165,180,117 S,6,97289,98009,0.2514181,0
Sprite,Foreground,Centre,"sb\particle.png",0,0 F,0,97289,,0.66 C,0,97289,,255,232,99 P,0,97289,,A M,7,97289,98009,215,165,228,186 S,6,97289,98009,0.2772157,0
Sprite,Foreground,Centre,"sb\particle.png",0,0 F,0,97289,,0.66 C,0,97289,,255,232,99 P,0,97289,,A M,7,97289,98009,215,165,175,191 S,6,97289,98009,0.04998713,0
Sprite,Foreground,Centre,"sb\particle.png",0,0 F,0,97289,,0.66 C,0,97289,,255,232,99 P,0,97289,,A M,7,97289,98009,215,165,196,113 S,6,97289,98009,-0.1152082,0
Sprite,Foreground,Centre,"sb\particle.png",0,0 F,0,97289,,0.66 C,0,97289,,255,232,99 P,0,97289,,A M,7,97289,98009,215,165,164,215 S,6,97289,98009,0.4379009,0
Sprite,Foreground,Centre,"sb\particle.png",0,0 F,0,97478,,0.66 C,0,97478,,245,218,66 P,0,97478,,A M,7,97478,98198,295,229,346,271 S,6,97478,98198,0.4650084,0
Sprite,Foreground,Centre,"sb\particle.png",0,0 F,0,97478,,0.66 C,0,97478,,245,218,66 P,0,97478,,A M,7,97478,98198,295,229,325,241 S,6,97478,98198,0.4195965,0
Sprite,Foreground,Centre,"sb\particle.png",0,0 F,0,97478,,0.66 C,0,97478,,245,218,66 P,0,97478,,A M,7,97478,98198,295,229,334,261 S,6,97478,98198,-0.05375156,0
Sprite,Foreground,Centre,"sb\particle.png",0,0 F,0,97478,,0.66 C,0,97478,,245,218,66 P,0,97478,,A M,7,97478,98198,295,229,312,187 S,6,97478,98198,0.09922418,0
Sprite,Foreground,Centre,"sb\particle.png",0,0 F,0,97478,,0.66 C,0,97478,,245,218,66 P,0,97478,,A M,7,97478,98198,295,229,268,201 S,6,97478,98198,0.2200368,0
Sprite,Foreground,Centre,"sb\particle.png",0,0 F,0,97478,,0.66 C,0,97478,,245,218,66 P,0,97478,,A M,7,97478,98198,295,229,261,257 S,6,97478,98198,0.350122,0
Sprite,Foreground,Centre,"sb\particle.png",0,0 F,0,97478,,0.66 C,0,97478,,245,218,66 P,0,97478,,A M,7,97478,98198,295,229,302,227 S,6,97478,98198,-0.1282687,0
Sprite,Foreground,Centre,"sb\particle.png",0,0 F,0,97478,,0.66 C,0,97478,,255,232,99 P,0,97478,,A M,7,97478,98198,295,229,324,280 S,6,97478,98198,-0.2997787,0
Sprite,Foreground,Centre,"sb\particle.png",0,0 F,0,97478,,0.66 C,0,97478,,255,232,99 P,0,97478,,A M,7,97478,98198,295,229,248,183 S,6,97478,98198,-0.06426148,0
Sprite,Foreground,Centre,"sb\particle.png",0,0 F,0,97478,,0.66 C,0,97478,,255,232,99 P,0,97478,,A M,7,97478,98198,295,229,325,246 S,6,97478,98198,0.0668072,0
Sprite,Foreground,Centre,"sb\particle.png",0,0 F,0,97478,,0.66 C,0,97478,,255,232,99 P,0,97478,,A M,7,97478,98198,295,229,264,270 S,6,97478,98198,-0.1173735,0
Sprite,Foreground,Centre,"sb\particle.png",0,0 F,0,97478,,0.66 C,0,97478,,255,232,99 P,0,97478,,A M,7,97478,98198,295,229,339,177 S,6,97478,98198,0.3580545,0
Sprite,Foreground,Centre,"sb\particle.png",0,0 F,0,97478,,0.66 C,0,97478,,255,232,99 P,0,97478,,A M,7,97478,98198,295,229,285,252 S,6,97478,98198,0.07558436,0
Sprite,Foreground,Centre,"sb\particle.png",0,0 F,0,97478,,0.66 C,0,97478,,255,232,99 P,0,97478,,A M,7,97478,98198,295,229,262,252 S,6,97478,98198,0.2450854,0
Sprite,Foreground,Centre,"sb\particle.png",0,0 F,0,97478,,0.66 C,0,97478,,255,232,99 P,0,97478,,A M,7,97478,98198,295,229,245,239 S,6,97478,98198,0.1318851,0
Sprite,Foreground,Centre,"sb\particle.png",0,0 F,0,97478,,0.66 C,0,97478,,255,232,99 P,0,97478,,A M,7,97478,98198,295,229,317,256 S,6,97478,98198,-0.1362918,0
Sprite,Foreground,Centre,"sb\particle.png",0,0 F,0,97478,,0.66 C,0,97478,,255,232,99 P,0,97478,,A M,7,97478,98198,295,229,307,269 S,6,97478,98198,0.3674235,0
Sprite,Foreground,Centre,"sb\particle.png",0,0 F,0,97855,,0.66 C,0,97855,,245,218,66 P,0,97855,,A M,7,97855,98575,461,203,468,254 S,6,97855,98575,0.2171253,0
Sprite,Foreground,Centre,"sb\particle.png",0,0 F,0,97855,,0.66 C,0,97855,,245,218,66 P,0,97855,,A M,7,97855,98575,461,203,417,185 S,6,97855,98575,-0.267583,0
Sprite,Foreground,Centre,"sb\particle.png",0,0 F,0,97855,,0.66 C,0,97855,,245,218,66 P,0,97855,,A M,7,97855,98575,461,203,411,187 S,6,97855,98575,0.154857,0
Sprite,Foreground,Centre,"sb\particle.png",0,0 F,0,97855,,0.66 C,0,97855,,245,218,66 P,0,97855,,A M,7,97855,98575,461,203,424,206 S,6,97855,98575,0.4223825,0
Sprite,Foreground,Centre,"sb\particle.png",0,0 F,0,97855,,0.66 C,0,97855,,245,218,66 P,0,97855,,A M,7,97855,98575,461,203,487,223 S,6,97855,98575,0.09667864,0
Sprite,Foreground,Centre,"sb\particle.png",0,0 F,0,97855,,0.66 C,0,97855,,245,218,66 P,0,97855,,A M,7,97855,98575,461,203,422,209 S,6,97855,98575,0.19043,0
Sprite,Foreground,Centre,"sb\particle.png",0,0 F,0,97855,,0.66 C,0,97855,,245,218,66 P,0,97855,,A M,7,97855,98575,461,203,502,179 S,6,97855,98575,-0.06219747,0
Sprite,Foreground,Centre,"sb\particle.png",0,0 F,0,97855,,0.66 C,0,97855,,255,232,99 P,0,97855,,A M,7,97855,98575,461,203,482,164 S,6,97855,98575,0.2028854,0
Sprite,Foreground,Centre,"sb\particle.png",0,0 F,0,97855,,0.66 C,0,97855,,255,232,99 P,0,97855,,A M,7,97855,98575,461,203,482,152 S,6,97855,98575,-0.06413929,0
Sprite,Foreground,Centre,"sb\particle.png",0,0 F,0,97855,,0.66 C,0,97855,,255,232,99 P,0,97855,,A M,7,97855,98575,461,203,445,243 S,6,97855,98575,-0.1321819,0
Sprite,Foreground,Centre,"sb\particle.png",0,0 F,0,97855,,0.66 C,0,97855,,255,232,99 P,0,97855,,A M,7,97855,98575,461,203,498,252 S,6,97855,98575,0.313842,0
Sprite,Foreground,Centre,"sb\particle.png",0,0 F,0,97855,,0.66 C,0,97855,,255,232,99 P,0,97855,,A M,7,97855,98575,461,203,447,180 S,6,97855,98575,0.3730861,0
Sprite,Foreground,Centre,"sb\particle.png",0,0 F,0,97855,,0.66 C,0,97855,,255,232,99 P,0,97855,,A M,7,97855,98575,461,203,419,227 S,6,97855,98575,0.4066502,0
Sprite,Foreground,Centre,"sb\particle.png",0,0 F,0,97855,,0.66 C,0,97855,,255,232,99 P,0,97855,,A M,7,97855,98575,461,203,498,176 S,6,97855,98575,-0.130509,0
Sprite,Foreground,Centre,"sb\particle.png",0,0 F,0,97855,,0.66 C,0,97855,,255,232,99 P,0,97855,,A M,7,97855,98575,461,203,413,187 S,6,97855,98575,-0.03641589,0
Sprite,Foreground,Centre,"sb\particle.png",0,0 F,0,97855,,0.66 C,0,97855,,255,232,99 P,0,97855,,A M,7,97855,98575,461,203,464,237 S,6,97855,98575,0.3955229,0
Sprite,Foreground,Centre,"sb\particle.png",0,0 F,0,97855,,0.66 C,0,97855,,255,232,99 P,0,97855,,A M,7,97855,98575,461,203,483,152 S,6,97855,98575,-0.02807832,0
Sprite,Foreground,Centre,"sb\particle.png",0,0 F,0,98422,,0.66 C,0,98422,,245,218,66 P,0,98422,,A M,7,98422,99142,359,408,385,373 S,6,98422,99142,0.2533854,0
Sprite,Foreground,Centre,"sb\particle.png",0,0 F,0,98422,,0.66 C,0,98422,,245,218,66 P,0,98422,,A M,7,98422,99142,359,408,386,373 S,6,98422,99142,0.2545644,0
Sprite,Foreground,Centre,"sb\particle.png",0,0 F,0,98422,,0.66 C,0,98422,,245,218,66 P,0,98422,,A M,7,98422,99142,359,408,402,433 S,6,98422,99142,-0.0216179,0
Sprite,Foreground,Centre,"sb\particle.png",0,0 F,0,98422,,0.66 C,0,98422,,245,218,66 P,0,98422,,A M,7,98422,99142,359,408,396,439 S,6,98422,99142,-0.1084492,0
Sprite,Foreground,Centre,"sb\particle.png",0,0 F,0,98422,,0.66 C,0,98422,,245,218,66 P,0,98422,,A M,7,98422,99142,359,408,309,420 S,6,98422,99142,0.1554846,0
Sprite,Foreground,Centre,"sb\particle.png",0,0 F,0,98422,,0.66 C,0,98422,,245,218,66 P,0,98422,,A M,7,98422,99142,359,408,374,356 S,6,98422,99142,0.2866127,0
Sprite,Foreground,Centre,"sb\particle.png",0,0 F,0,98422,,0.66 C,0,98422,,245,218,66 P,0,98422,,A M,7,98422,99142,359,408,324,394 S,6,98422,99142,0.2518511,0
Sprite,Foreground,Centre,"sb\particle.png",0,0 F,0,98422,,0.66 C,0,98422,,255,232,99 P,0,98422,,A M,7,98422,99142,359,408,405,458 S,6,98422,99142,-0.2249316,0
Sprite,Foreground,Centre,"sb\particle.png",0,0 F,0,98422,,0.66 C,0,98422,,255,232,99 P,0,98422,,A M,7,98422,99142,359,408,347,362 S,6,98422,99142,-0.2954505,0
Sprite,Foreground,Centre,"sb\particle.png",0,0 F,0,98422,,0.66 C,0,98422,,255,232,99 P,0,98422,,A M,7,98422,99142,359,408,384,384 S,6,98422,99142,-0.05515535,0
Sprite,Foreground,Centre,"sb\particle.png",0,0 F,0,98422,,0.66 C,0,98422,,255,232,99 P,0,98422,,A M,7,98422,99142,359,408,376,390 S,6,98422,99142,0.03684301,0
Sprite,Foreground,Centre,"sb\particle.png",0,0 F,0,98422,,0.66 C,0,98422,,255,232,99 P,0,98422,,A M,7,98422,99142,359,408,319,448 S,6,98422,99142,-0.2103179,0
Sprite,Foreground,Centre,"sb\particle.png",0,0 F,0,98422,,0.66 C,0,98422,,255,232,99 P,0,98422,,A M,7,98422,99142,359,408,398,365 S,6,98422,99142,-0.1294029,0
Sprite,Foreground,Centre,"sb\particle.png",0,0 F,0,98422,,0.66 C,0,98422,,255,232,99 P,0,98422,,A M,7,98422,99142,359,408,382,356 S,6,98422,99142,0.4741364,0
Sprite,Foreground,Centre,"sb\particle.png",0,0 F,0,98422,,0.66 C,0,98422,,255,232,99 P,0,98422,,A M,7,98422,99142,359,408,329,441 S,6,98422,99142,-0.03746599,0
Sprite,Foreground,Centre,"sb\particle.png",0,0 F,0,98422,,0.66 C,0,98422,,255,232,99 P,0,98422,,A M,7,98422,99142,359,408,375,449 S,6,98422,99142,0.3484208,0
Sprite,Foreground,Centre,"sb\particle.png",0,0 F,0,98422,,0.66 C,0,98422,,255,232,99 P,0,98422,,A M,7,98422,99142,359,408,314,448 S,6,98422,99142,-0.05997112,0
Sprite,Foreground,Centre,"sb\particle.png",0,0 F,0,98611,,0.66 C,0,98611,,245,218,66 P,0,98611,,A M,7,98611,99331,287,333,329,312 S,6,98611,99331,-0.2443915,0
Sprite,Foreground,Centre,"sb\particle.png",0,0 F,0,98611,,0.66 C,0,98611,,245,218,66 P,0,98611,,A M,7,98611,99331,287,333,260,284 S,6,98611,99331,0.4467062,0
Sprite,Foreground,Centre,"sb\particle.png",0,0 F,0,98611,,0.66 C,0,98611,,245,218,66 P,0,98611,,A M,7,98611,99331,287,333,273,309 S,6,98611,99331,0.1693585,0
Sprite,Foreground,Centre,"sb\particle.png",0,0 F,0,98611,,0.66 C,0,98611,,245,218,66 P,0,98611,,A M,7,98611,99331,287,333,315,344 S,6,98611,99331,0.1821406,0
Sprite,Foreground,Centre,"sb\particle.png",0,0 F,0,98611,,0.66 C,0,98611,,245,218,66 P,0,98611,,A M,7,98611,99331,287,333,240,367 S,6,98611,99331,0.1652729,0
Sprite,Foreground,Centre,"sb\particle.png",0,0 F,0,98611,,0.66 C,0,98611,,245,218,66 P,0,98611,,A M,7,98611,99331,287,333,272,290 S,6,98611,99331,0.1821854,0
Sprite,Foreground,Centre,"sb\particle.png",0,0 F,0,98611,,0.66 C,0,98611,,245,218,66 P,0,98611,,A M,7,98611,99331,287,333,272,286 S,6,98611,99331,0.1948055,0
Sprite,Foreground,Centre,"sb\particle.png",0,0 F,0,98611,,0.66 C,0,98611,,255,232,99 P,0,98611,,A M,7,98611,99331,287,333,253,328 S,6,98611,99331,0.05272968,0
Sprite,Foreground,Centre,"sb\particle.png",0,0 F,0,98611,,0.66 C,0,98611,,255,232,99 P,0,98611,,A M,7,98611,99331,287,333,278,307 S,6,98611,99331,0.06353118,0
Sprite,Foreground,Centre,"sb\particle.png",0,0 F,0,98611,,0.66 C,0,98611,,255,232,99 P,0,98611,,A M,7,98611,99331,287,333,291,297 S,6,98611,99331,0.06574193,0
Sprite,Foreground,Centre,"sb\particle.png",0,0 F,0,98611,,0.66 C,0,98611,,255,232,99 P,0,98611,,A M,7,98611,99331,287,333,319,306 S,6,98611,99331,0.3355004,0
Sprite,Foreground,Centre,"sb\particle.png",0,0 F,0,98611,,0.66 C,0,98611,,255,232,99 P,0,98611,,A M,7,98611,99331,287,333,336,334 S,6,98611,99331,0.0495503,0
Sprite,Foreground,Centre,"sb\particle.png",0,0 F,0,98611,,0.66 C,0,98611,,255,232,99 P,0,98611,,A M,7,98611,99331,287,333,274,321 S,6,98611,99331,0.06808428,0
Sprite,Foreground,Centre,"sb\particle.png",0,0 F,0,98611,,0.66 C,0,98611,,255,232,99 P,0,98611,,A M,7,98611,99331,287,333,287,353 S,6,98611,99331,-0.2452023,0
Sprite,Foreground,Centre,"sb\particle.png",0,0 F,0,98611,,0.66 C,0,98611,,255,232,99 P,0,98611,,A M,7,98611,99331,287,333,280,290 S,6,98611,99331,-0.2887259,0
Sprite,Foreground,Centre,"sb\particle.png",0,0 F,0,98611,,0.66 C,0,98611,,255,232,99 P,0,98611,,A M,7,98611,99331,287,333,306,312 S,6,98611,99331,0.2628472,0
Sprite,Foreground,Centre,"sb\particle.png",0,0 F,0,98611,,0.66 C,0,98611,,255,232,99 P,0,98611,,A M,7,98611,99331,287,333,299,280 S,6,98611,99331,0.1096698,0
Sprite,Foreground,Centre,"sb\particle.png",0,0 F,0,98988,,0.66 C,0,98988,,245,218,66 P,0,98988,,A M,7,98988,99708,148,428,193,438 S,6,98988,99708,0.03165319,0
Sprite,Foreground,Centre,"sb\particle.png",0,0 F,0,98988,,0.66 C,0,98988,,245,218,66 P,0,98988,,A M,7,98988,99708,148,428,199,380 S,6,98988,99708,-0.1836013,0
Sprite,Foreground,Centre,"sb\particle.png",0,0 F,0,98988,,0.66 C,0,98988,,245,218,66 P,0,98988,,A M,7,98988,99708,148,428,122,434 S,6,98988,99708,-0.003788661,0
Sprite,Foreground,Centre,"sb\particle.png",0,0 F,0,98988,,0.66 C,0,98988,,245,218,66 P,0,98988,,A M,7,98988,99708,148,428,186,407 S,6,98988,99708,0.2180707,0
Sprite,Foreground,Centre,"sb\particle.png",0,0 F,0,98988,,0.66 C,0,98988,,245,218,66 P,0,98988,,A M,7,98988,99708,148,428,193,480 S,6,98988,99708,-0.1230926,0
Sprite,Foreground,Centre,"sb\particle.png",0,0 F,0,98988,,0.66 C,0,98988,,245,218,66 P,0,98988,,A M,7,98988,99708,148,428,200,382 S,6,98988,99708,0.1739245,0
Sprite,Foreground,Centre,"sb\particle.png",0,0 F,0,98988,,0.66 C,0,98988,,245,218,66 P,0,98988,,A M,7,98988,99708,148,428,175,454 S,6,98988,99708,0.1857721,0
Sprite,Foreground,Centre,"sb\particle.png",0,0 F,0,98988,,0.66 C,0,98988,,255,232,99 P,0,98988,,A M,7,98988,99708,148,428,131,440 S,6,98988,99708,-0.08217731,0
Sprite,Foreground,Centre,"sb\particle.png",0,0 F,0,98988,,0.66 C,0,98988,,255,232,99 P,0,98988,,A M,7,98988,99708,148,428,109,457 S,6,98988,99708,0.4591939,0
Sprite,Foreground,Centre,"sb\particle.png",0,0 F,0,98988,,0.66 C,0,98988,,255,232,99 P,0,98988,,A M,7,98988,99708,148,428,177,428 S,6,98988,99708,0.4667081,0
Sprite,Foreground,Centre,"sb\particle.png",0,0 F,0,98988,,0.66 C,0,98988,,255,232,99 P,0,98988,,A M,7,98988,99708,148,428,184,436 S,6,98988,99708,0.4731247,0
Sprite,Foreground,Centre,"sb\particle.png",0,0 F,0,98988,,0.66 C,0,98988,,255,232,99 P,0,98988,,A M,7,98988,99708,148,428,146,389 S,6,98988,99708,0.4535515,0
Sprite,Foreground,Centre,"sb\particle.png",0,0 F,0,98988,,0.66 C,0,98988,,255,232,99 P,0,98988,,A M,7,98988,99708,148,428,169,432 S,6,98988,99708,0.1704267,0
Sprite,Foreground,Centre,"sb\particle.png",0,0 F,0,98988,,0.66 C,0,98988,,255,232,99 P,0,98988,,A M,7,98988,99708,148,428,97,441 S,6,98988,99708,0.06831593,0
Sprite,Foreground,Centre,"sb\particle.png",0,0 F,0,98988,,0.66 C,0,98988,,255,232,99 P,0,98988,,A M,7,98988,99708,148,428,171,458 S,6,98988,99708,0.3938455,0
Sprite,Foreground,Centre,"sb\particle.png",0,0 F,0,98988,,0.66 C,0,98988,,255,232,99 P,0,98988,,A M,7,98988,99708,148,428,191,400 S,6,98988,99708,0.160892,0
Sprite,Foreground,Centre,"sb\particle.png",0,0 F,0,98988,,0.66 C,0,98988,,255,232,99 P,0,98988,,A M,7,98988,99708,148,428,179,448 S,6,98988,99708,0.4991173,0
Sprite,Foreground,Centre,"sb\particle.png",0,0 F,0,99555,,0.66 C,0,99555,,245,218,66 P,0,99555,,A M,7,99555,100275,122,237,102,289 S,6,99555,100275,0.3899969,0
Sprite,Foreground,Centre,"sb\particle.png",0,0 F,0,99555,,0.66 C,0,99555,,245,218,66 P,0,99555,,A M,7,99555,100275,122,237,171,240 S,6,99555,100275,0.2513626,0
Sprite,Foreground,Centre,"sb\particle.png",0,0 F,0,99555,,0.66 C,0,99555,,245,218,66 P,0,99555,,A M,7,99555,100275,122,237,77,227 S,6,99555,100275,0.2973101,0
Sprite,Foreground,Centre,"sb\particle.png",0,0 F,0,99555,,0.66 C,0,99555,,245,218,66 P,0,99555,,A M,7,99555,100275,122,237,158,194 S,6,99555,100275,-0.2142274,0
Sprite,Foreground,Centre,"sb\particle.png",0,0 F,0,99555,,0.66 C,0,99555,,245,218,66 P,0,99555,,A M,7,99555,100275,122,237,155,204 S,6,99555,100275,-0.2509255,0
Sprite,Foreground,Centre,"sb\particle.png",0,0 F,0,99555,,0.66 C,0,99555,,245,218,66 P,0,99555,,A M,7,99555,100275,122,237,127,281 S,6,99555,100275,-0.1872856,0
Sprite,Foreground,Centre,"sb\particle.png",0,0 F,0,99555,,0.66 C,0,99555,,245,218,66 P,0,99555,,A M,7,99555,100275,122,237,148,252 S,6,99555,100275,0.3095402,0
Sprite,Foreground,Centre,"sb\particle.png",0,0 F,0,99555,,0.66 C,0,99555,,255,232,99 P,0,99555,,A M,7,99555,100275,122,237,86,195 S,6,99555,100275,-0.01777446,0
Sprite,Foreground,Centre,"sb\particle.png",0,0 F,0,99555,,0.66 C,0,99555,,255,232,99 P,0,99555,,A M,7,99555,100275,122,237,145,186 S,6,99555,100275,0.3876175,0
Sprite,Foreground,Centre,"sb\particle.png",0,0 F,0,99555,,0.66 C,0,99555,,255,232,99 P,0,99555,,A M,7,99555,100275,122,237,98,280 S,6,99555,100275,-0.07030649,0
Sprite,Foreground,Centre,"sb\particle.png",0,0 F,0,99555,,0.66 C,0,99555,,255,232,99 P,0,99555,,A M,7,99555,100275,122,237,170,242 S,6,99555,100275,0.3685894,0
Sprite,Foreground,Centre,"sb\particle.png",0,0 F,0,99555,,0.66 C,0,99555,,255,232,99 P,0,99555,,A M,7,99555,100275,122,237,136,212 S,6,99555,100275,0.1964151,0
Sprite,Foreground,Centre,"sb\particle.png",0,0 F,0,99555,,0.66 C,0,99555,,255,232,99 P,0,99555,,A M,7,99555,100275,122,237,145,215 S,6,99555,100275,0.402072,0
Sprite,Foreground,Centre,"sb\particle.png",0,0 F,0,99555,,0.66 C,0,99555,,255,232,99 P,0,99555,,A M,7,99555,100275,122,237,140,217 S,6,99555,100275,0.3748232,0
Sprite,Foreground,Centre,"sb\particle.png",0,0 F,0,99555,,0.66 C,0,99555,,255,232,99 P,0,99555,,A M,7,99555,100275,122,237,71,189 S,6,99555,100275,-0.1872096,0
Sprite,Foreground,Centre,"sb\particle.png",0,0 F,0,99555,,0.66 C,0,99555,,255,232,99 P,0,99555,,A M,7,99555,100275,122,237,93,231 S,6,99555,100275,-0.1811811,0
Sprite,Foreground,Centre,"sb\particle.png",0,0 F,0,99555,,0.66 C,0,99555,,255,232,99 P,0,99555,,A M,7,99555,100275,122,237,87,190 S,6,99555,100275,0.4782738,0
Sprite,Foreground,Centre,"sb\particle.png",0,0 F,0,99743,,0.66 C,0,99743,,245,218,66 P,0,99743,,A M,7,99743,100463,221,261,191,286 S,6,99743,100463,0.3786048,0
Sprite,Foreground,Centre,"sb\particle.png",0,0 F,0,99743,,0.66 C,0,99743,,245,218,66 P,0,99743,,A M,7,99743,100463,221,261,218,296 S,6,99743,100463,0.3560791,0
Sprite,Foreground,Centre,"sb\particle.png",0,0 F,0,99743,,0.66 C,0,99743,,245,218,66 P,0,99743,,A M,7,99743,100463,221,261,259,277 S,6,99743,100463,0.3677496,0
Sprite,Foreground,Centre,"sb\particle.png",0,0 F,0,99743,,0.66 C,0,99743,,245,218,66 P,0,99743,,A M,7,99743,100463,221,261,197,215 S,6,99743,100463,0.1081724,0
Sprite,Foreground,Centre,"sb\particle.png",0,0 F,0,99743,,0.66 C,0,99743,,245,218,66 P,0,99743,,A M,7,99743,100463,221,261,180,283 S,6,99743,100463,0.06988911,0
Sprite,Foreground,Centre,"sb\particle.png",0,0 F,0,99743,,0.66 C,0,99743,,245,218,66 P,0,99743,,A M,7,99743,100463,221,261,221,250 S,6,99743,100463,0.4304137,0
Sprite,Foreground,Centre,"sb\particle.png",0,0 F,0,99743,,0.66 C,0,99743,,245,218,66 P,0,99743,,A M,7,99743,100463,221,261,206,210 S,6,99743,100463,-0.07029469,0
Sprite,Foreground,Centre,"sb\particle.png",0,0 F,0,99743,,0.66 C,0,99743,,255,232,99 P,0,99743,,A M,7,99743,100463,221,261,252,296 S,6,99743,100463,0.2888147,0
Sprite,Foreground,Centre,"sb\particle.png",0,0 F,0,99743,,0.66 C,0,99743,,255,232,99 P,0,99743,,A M,7,99743,100463,221,261,257,230 S,6,99743,100463,-0.2373818,0
Sprite,Foreground,Centre,"sb\particle.png",0,0 F,0,99743,,0.66 C,0,99743,,255,232,99 P,0,99743,,A M,7,99743,100463,221,261,249,215 S,6,99743,100463,0.2630647,0
Sprite,Foreground,Centre,"sb\particle.png",0,0 F,0,99743,,0.66 C,0,99743,,255,232,99 P,0,99743,,A M,7,99743,100463,221,261,262,311 S,6,99743,100463,0.392401,0
Sprite,Foreground,Centre,"sb\particle.png",0,0 F,0,99743,,0.66 C,0,99743,,255,232,99 P,0,99743,,A M,7,99743,100463,221,261,209,297 S,6,99743,100463,-0.284381,0
Sprite,Foreground,Centre,"sb\particle.png",0,0 F,0,99743,,0.66 C,0,99743,,255,232,99 P,0,99743,,A M,7,99743,100463,221,261,167,268 S,6,99743,100463,0.3000763,0
Sprite,Foreground,Centre,"sb\particle.png",0,0 F,0,99743,,0.66 C,0,99743,,255,232,99 P,0,99743,,A M,7,99743,100463,221,261,213,210 S,6,99743,100463,0.3196879,0
Sprite,Foreground,Centre,"sb\particle.png",0,0 F,0,99743,,0.66 C,0,99743,,255,232,99 P,0,99743,,A M,7,99743,100463,221,261,236,258 S,6,99743,100463,-0.1858826,0
Sprite,Foreground,Centre,"sb\particle.png",0,0 F,0,99743,,0.66 C,0,99743,,255,232,99 P,0,99743,,A M,7,99743,100463,221,261,241,268 S,6,99743,100463,0.04454374,0
Sprite,Foreground,Centre,"sb\particle.png",0,0 F,0,99743,,0.66 C,0,99743,,255,232,99 P,0,99743,,A M,7,99743,100463,221,261,176,312 S,6,99743,100463,0.4868958,0
Sprite,Foreground,Centre,"sb\particle.png",0,0 F,0,100310,,0.66 C,0,100310,,245,218,66 P,0,100310,,A M,7,100310,101030,420,142,450,124 S,6,100310,101030,0.3052436,0
Sprite,Foreground,Centre,"sb\particle.png",0,0 F,0,100310,,0.66 C,0,100310,,245,218,66 P,0,100310,,A M,7,100310,101030,420,142,386,122 S,6,100310,101030,0.3451077,0
Sprite,Foreground,Centre,"sb\particle.png",0,0 F,0,100310,,0.66 C,0,100310,,245,218,66 P,0,100310,,A M,7,100310,101030,420,142,392,168 S,6,100310,101030,0.01071059,0
Sprite,Foreground,Centre,"sb\particle.png",0,0 F,0,100310,,0.66 C,0,100310,,245,218,66 P,0,100310,,A M,7,100310,101030,420,142,437,145 S,6,100310,101030,0.1128028,0
Sprite,Foreground,Centre,"sb\particle.png",0,0 F,0,100310,,0.66 C,0,100310,,245,218,66 P,0,100310,,A M,7,100310,101030,420,142,402,146 S,6,100310,101030,0.2744576,0
Sprite,Foreground,Centre,"sb\particle.png",0,0 F,0,100310,,0.66 C,0,100310,,245,218,66 P,0,100310,,A M,7,100310,101030,420,142,453,176 S,6,100310,101030,-0.2044103,0
Sprite,Foreground,Centre,"sb\particle.png",0,0 F,0,100310,,0.66 C,0,100310,,245,218,66 P,0,100310,,A M,7,100310,101030,420,142,451,163 S,6,100310,101030,0.1102062,0
Sprite,Foreground,Centre,"sb\particle.png",0,0 F,0,100310,,0.66 C,0,100310,,255,232,99 P,0,100310,,A M,7,100310,101030,420,142,431,146 S,6,100310,101030,0.1839807,0
Sprite,Foreground,Centre,"sb\particle.png",0,0 F,0,100310,,0.66 C,0,100310,,255,232,99 P,0,100310,,A M,7,100310,101030,420,142,380,190 S,6,100310,101030,0.4775886,0
Sprite,Foreground,Centre,"sb\particle.png",0,0 F,0,100310,,0.66 C,0,100310,,255,232,99 P,0,100310,,A M,7,100310,101030,420,142,461,157 S,6,100310,101030,-0.1924451,0
Sprite,Foreground,Centre,"sb\particle.png",0,0 F,0,100310,,0.66 C,0,100310,,255,232,99 P,0,100310,,A M,7,100310,101030,420,142,439,143 S,6,100310,101030,-0.09817006,0
Sprite,Foreground,Centre,"sb\particle.png",0,0 F,0,100310,,0.66 C,0,100310,,255,232,99 P,0,100310,,A M,7,100310,101030,420,142,426,159 S,6,100310,101030,0.2465173,0
Sprite,Foreground,Centre,"sb\particle.png",0,0 F,0,100310,,0.66 C,0,100310,,255,232,99 P,0,100310,,A M,7,100310,101030,420,142,407,96 S,6,100310,101030,0.49017,0
Sprite,Foreground,Centre,"sb\particle.png",0,0 F,0,100310,,0.66 C,0,100310,,255,232,99 P,0,100310,,A M,7,100310,101030,420,142,431,157 S,6,100310,101030,0.4741109,0
Sprite,Foreground,Centre,"sb\particle.png",0,0 F,0,100310,,0.66 C,0,100310,,255,232,99 P,0,100310,,A M,7,100310,101030,420,142,432,97 S,6,100310,101030,0.01240225,0
Sprite,Foreground,Centre,"sb\particle.png",0,0 F,0,100310,,0.66 C,0,100310,,255,232,99 P,0,100310,,A M,7,100310,101030,420,142,416,139 S,6,100310,101030,-0.1585824,0
Sprite,Foreground,Centre,"sb\particle.png",0,0 F,0,100310,,0.66 C,0,100310,,255,232,99 P,0,100310,,A M,7,100310,101030,420,142,442,123 S,6,100310,101030,0.2340484,0
Sprite,Foreground,Centre,"sb\particle.png",0,0 F,0,100498,,0.66 C,0,100498,,245,218,66 P,0,100498,,A M,7,100498,101218,345,71,320,67 S,6,100498,101218,0.2960758,0
Sprite,Foreground,Centre,"sb\particle.png",0,0 F,0,100498,,0.66 C,0,100498,,245,218,66 P,0,100498,,A M,7,100498,101218,345,71,389,87 S,6,100498,101218,0.005247939,0
Sprite,Foreground,Centre,"sb\particle.png",0,0 F,0,100498,,0.66 C,0,100498,,245,218,66 P,0,100498,,A M,7,100498,101218,345,71,362,19 S,6,100498,101218,0.4447274,0
Sprite,Foreground,Centre,"sb\particle.png",0,0 F,0,100498,,0.66 C,0,100498,,245,218,66 P,0,100498,,A M,7,100498,101218,345,71,306,78 S,6,100498,101218,0.1460267,0
Sprite,Foreground,Centre,"sb\particle.png",0,0 F,0,100498,,0.66 C,0,100498,,245,218,66 P,0,100498,,A M,7,100498,101218,345,71,302,68 S,6,100498,101218,0.04671843,0
Sprite,Foreground,Centre,"sb\particle.png",0,0 F,0,100498,,0.66 C,0,100498,,245,218,66 P,0,100498,,A M,7,100498,101218,345,71,363,33 S,6,100498,101218,0.05444923,0
Sprite,Foreground,Centre,"sb\particle.png",0,0 F,0,100498,,0.66 C,0,100498,,245,218,66 P,0,100498,,A M,7,100498,101218,345,71,328,120 S,6,100498,101218,0.4329067,0
Sprite,Foreground,Centre,"sb\particle.png",0,0 F,0,100498,,0.66 C,0,100498,,255,232,99 P,0,100498,,A M,7,100498,101218,345,71,386,50 S,6,100498,101218,-0.2778867,0
Sprite,Foreground,Centre,"sb\particle.png",0,0 F,0,100498,,0.66 C,0,100498,,255,232,99 P,0,100498,,A M,7,100498,101218,345,71,362,55 S,6,100498,101218,0.4073469,0
Sprite,Foreground,Centre,"sb\particle.png",0,0 F,0,100498,,0.66 C,0,100498,,255,232,99 P,0,100498,,A M,7,100498,101218,345,71,391,82 S,6,100498,101218,-0.04261804,0
Sprite,Foreground,Centre,"sb\particle.png",0,0 F,0,100498,,0.66 C,0,100498,,255,232,99 P,0,100498,,A M,7,100498,101218,345,71,314,77 S,6,100498,101218,0.2129015,0
Sprite,Foreground,Centre,"sb\particle.png",0,0 F,0,100498,,0.66 C,0,100498,,255,232,99 P,0,100498,,A M,7,100498,101218,345,71,299,48 S,6,100498,101218,0.1640459,0
Sprite,Foreground,Centre,"sb\particle.png",0,0 F,0,100498,,0.66 C,0,100498,,255,232,99 P,0,100498,,A M,7,100498,101218,345,71,294,77 S,6,100498,101218,0.07989543,0
Sprite,Foreground,Centre,"sb\particle.png",0,0 F,0,100498,,0.66 C,0,100498,,255,232,99 P,0,100498,,A M,7,100498,101218,345,71,390,49 S,6,100498,101218,-0.2700288,0
Sprite,Foreground,Centre,"sb\particle.png",0,0 F,0,100498,,0.66 C,0,100498,,255,232,99 P,0,100498,,A M,7,100498,101218,345,71,345,86 S,6,100498,101218,0.2999887,0
Sprite,Foreground,Centre,"sb\particle.png",0,0 F,0,100498,,0.66 C,0,100498,,255,232,99 P,0,100498,,A M,7,100498,101218,345,71,372,113 S,6,100498,101218,0.01392455,0
Sprite,Foreground,Centre,"sb\particle.png",0,0 F,0,100498,,0.66 C,0,100498,,255,232,99 P,0,100498,,A M,7,100498,101218,345,71,358,94 S,6,100498,101218,0.2776427,0
Sprite,Foreground,Centre,"sb\particle.png",0,0 F,0,100876,,0.66 C,0,100876,,245,218,66 P,0,100876,,A M,7,100876,101596,215,166,244,218 S,6,100876,101596,-0.04358522,0
Sprite,Foreground,Centre,"sb\particle.png",0,0 F,0,100876,,0.66 C,0,100876,,245,218,66 P,0,100876,,A M,7,100876,101596,215,166,181,181 S,6,100876,101596,-0.1113553,0
Sprite,Foreground,Centre,"sb\particle.png",0,0 F,0,100876,,0.66 C,0,100876,,245,218,66 P,0,100876,,A M,7,100876,101596,215,166,257,210 S,6,100876,101596,0.2011315,0
Sprite,Foreground,Centre,"sb\particle.png",0,0 F,0,100876,,0.66 C,0,100876,,245,218,66 P,0,100876,,A M,7,100876,101596,215,166,201,167 S,6,100876,101596,-0.007627983,0
Sprite,Foreground,Centre,"sb\particle.png",0,0 F,0,100876,,0.66 C,0,100876,,245,218,66 P,0,100876,,A M,7,100876,101596,215,166,243,187 S,6,100876,101596,-0.0177119,0
Sprite,Foreground,Centre,"sb\particle.png",0,0 F,0,100876,,0.66 C,0,100876,,245,218,66 P,0,100876,,A M,7,100876,101596,215,166,199,141 S,6,100876,101596,0.1391695,0
Sprite,Foreground,Centre,"sb\particle.png",0,0 F,0,100876,,0.66 C,0,100876,,245,218,66 P,0,100876,,A M,7,100876,101596,215,166,208,190 S,6,100876,101596,-0.06875519,0
Sprite,Foreground,Centre,"sb\particle.png",0,0 F,0,100876,,0.66 C,0,100876,,255,232,99 P,0,100876,,A M,7,100876,101596,215,166,186,112 S,6,100876,101596,-0.2649697,0
Sprite,Foreground,Centre,"sb\particle.png",0,0 F,0,100876,,0.66 C,0,100876,,255,232,99 P,0,100876,,A M,7,100876,101596,215,166,206,134 S,6,100876,101596,-0.2567306,0
Sprite,Foreground,Centre,"sb\particle.png",0,0 F,0,100876,,0.66 C,0,100876,,255,232,99 P,0,100876,,A M,7,100876,101596,215,166,260,156 S,6,100876,101596,0.1212062,0
Sprite,Foreground,Centre,"sb\particle.png",0,0 F,0,100876,,0.66 C,0,100876,,255,232,99 P,0,100876,,A M,7,100876,101596,215,166,225,170 S,6,100876,101596,0.2729688,0
Sprite,Foreground,Centre,"sb\particle.png",0,0 F,0,100876,,0.66 C,0,100876,,255,232,99 P,0,100876,,A M,7,100876,101596,215,166,191,207 S,6,100876,101596,-0.2964714,0
Sprite,Foreground,Centre,"sb\particle.png",0,0 F,0,100876,,0.66 C,0,100876,,255,232,99 P,0,100876,,A M,7,100876,101596,215,166,205,163 S,6,100876,101596,-0.1960161,0
Sprite,Foreground,Centre,"sb\particle.png",0,0 F,0,100876,,0.66 C,0,100876,,255,232,99 P,0,100876,,A M,7,100876,101596,215,166,166,167 S,6,100876,101596,0.01885364,0
Sprite,Foreground,Centre,"sb\particle.png",0,0 F,0,100876,,0.66 C,0,100876,,255,232,99 P,0,100876,,A M,7,100876,101596,215,166,165,207 S,6,100876,101596,0.4161962,0
Sprite,Foreground,Centre,"sb\particle.png",0,0 F,0,100876,,0.66 C,0,100876,,255,232,99 P,0,100876,,A M,7,100876,101596,215,166,207,123 S,6,100876,101596,0.1304609,0
Sprite,Foreground,Centre,"sb\particle.png",0,0 F,0,100876,,0.66 C,0,100876,,255,232,99 P,0,100876,,A M,7,100876,101596,215,166,225,135 S,6,100876,101596,0.3487295,0
Sprite,Foreground,Centre,"sb\particle.png",0,0 F,0,101254,,0.66 C,0,101254,,245,218,66 P,0,101254,,A M,7,101254,101974,78,223,114,180 S,6,101254,101974,-0.1305309,0
Sprite,Foreground,Centre,"sb\particle.png",0,0 F,0,101254,,0.66 C,0,101254,,245,218,66 P,0,101254,,A M,7,101254,101974,78,223,100,232 S,6,101254,101974,0.3711658,0
Sprite,Foreground,Centre,"sb\particle.png",0,0 F,0,101254,,0.66 C,0,101254,,245,218,66 P,0,101254,,A M,7,101254,101974,78,223,41,186 S,6,101254,101974,0.1518566,0
Sprite,Foreground,Centre,"sb\particle.png",0,0 F,0,101254,,0.66 C,0,101254,,245,218,66 P,0,101254,,A M,7,101254,101974,78,223,74,229 S,6,101254,101974,-0.08867619,0
Sprite,Foreground,Centre,"sb\particle.png",0,0 F,0,101254,,0.66 C,0,101254,,245,218,66 P,0,101254,,A M,7,101254,101974,78,223,71,240 S,6,101254,101974,0.3475956,0
Sprite,Foreground,Centre,"sb\particle.png",0,0 F,0,101254,,0.66 C,0,101254,,245,218,66 P,0,101254,,A M,7,101254,101974,78,223,34,233 S,6,101254,101974,0.4770555,0
Sprite,Foreground,Centre,"sb\particle.png",0,0 F,0,101254,,0.66 C,0,101254,,245,218,66 P,0,101254,,A M,7,101254,101974,78,223,40,225 S,6,101254,101974,-0.06688304,0
Sprite,Foreground,Centre,"sb\particle.png",0,0 F,0,101254,,0.66 C,0,101254,,255,232,99 P,0,101254,,A M,7,101254,101974,78,223,42,213 S,6,101254,101974,0.2980493,0
Sprite,Foreground,Centre,"sb\particle.png",0,0 F,0,101254,,0.66 C,0,101254,,255,232,99 P,0,101254,,A M,7,101254,101974,78,223,69,252 S,6,101254,101974,0.1976448,0
Sprite,Foreground,Centre,"sb\particle.png",0,0 F,0,101254,,0.66 C,0,101254,,255,232,99 P,0,101254,,A M,7,101254,101974,78,223,77,195 S,6,101254,101974,-0.06056806,0
Sprite,Foreground,Centre,"sb\particle.png",0,0 F,0,101254,,0.66 C,0,101254,,255,232,99 P,0,101254,,A M,7,101254,101974,78,223,121,196 S,6,101254,101974,-0.1406294,0
Sprite,Foreground,Centre,"sb\particle.png",0,0 F,0,101254,,0.66 C,0,101254,,255,232,99 P,0,101254,,A M,7,101254,101974,78,223,69,227 S,6,101254,101974,0.4101142,0
Sprite,Foreground,Centre,"sb\particle.png",0,0 F,0,101254,,0.66 C,0,101254,,255,232,99 P,0,101254,,A M,7,101254,101974,78,223,114,273 S,6,101254,101974,0.1559635,0
Sprite,Foreground,Centre,"sb\particle.png",0,0 F,0,101254,,0.66 C,0,101254,,255,232,99 P,0,101254,,A M,7,101254,101974,78,223,49,267 S,6,101254,101974,0.1988023,0
Sprite,Foreground,Centre,"sb\particle.png",0,0 F,0,101254,,0.66 C,0,101254,,255,232,99 P,0,101254,,A M,7,101254,101974,78,223,71,210 S,6,101254,101974,-0.2444502,0
Sprite,Foreground,Centre,"sb\particle.png",0,0 F,0,101254,,0.66 C,0,101254,,255,232,99 P,0,101254,,A M,7,101254,101974,78,223,80,258 S,6,101254,101974,0.2351334,0
Sprite,Foreground,Centre,"sb\particle.png",0,0 F,0,101254,,0.66 C,0,101254,,255,232,99 P,0,101254,,A M,7,101254,101974,78,223,115,259 S,6,101254,101974,0.03733979,0
Sprite,Foreground,Centre,"sb\particle.png",0,0 F,0,101820,,0.66 C,0,101820,,245,218,66 P,0,101820,,A M,7,101820,102540,202,414,206,365 S,6,101820,102540,-0.04811393,0
Sprite,Foreground,Centre,"sb\particle.png",0,0 F,0,101820,,0.66 C,0,101820,,245,218,66 P,0,101820,,A M,7,101820,102540,202,414,167,366 S,6,101820,102540,0.4718919,0
Sprite,Foreground,Centre,"sb\particle.png",0,0 F,0,101820,,0.66 C,0,101820,,245,218,66 P,0,101820,,A M,7,101820,102540,202,414,205,403 S,6,101820,102540,-0.1666118,0
Sprite,Foreground,Centre,"sb\particle.png",0,0 F,0,101820,,0.66 C,0,101820,,245,218,66 P,0,101820,,A M,7,101820,102540,202,414,207,402 S,6,101820,102540,0.1424928,0
Sprite,Foreground,Centre,"sb\particle.png",0,0 F,0,101820,,0.66 C,0,101820,,245,218,66 P,0,101820,,A M,7,101820,102540,202,414,176,451 S,6,101820,102540,-0.0417248,0
Sprite,Foreground,Centre,"sb\particle.png",0,0 F,0,101820,,0.66 C,0,101820,,245,218,66 P,0,101820,,A M,7,101820,102540,202,414,238,422 S,6,101820,102540,0.345151,0
Sprite,Foreground,Centre,"sb\particle.png",0,0 F,0,101820,,0.66 C,0,101820,,245,218,66 P,0,101820,,A M,7,101820,102540,202,414,205,450 S,6,101820,102540,0.2964083,0
Sprite,Foreground,Centre,"sb\particle.png",0,0 F,0,101820,,0.66 C,0,101820,,255,232,99 P,0,101820,,A M,7,101820,102540,202,414,173,412 S,6,101820,102540,-0.1007265,0
Sprite,Foreground,Centre,"sb\particle.png",0,0 F,0,101820,,0.66 C,0,101820,,255,232,99 P,0,101820,,A M,7,101820,102540,202,414,198,383 S,6,101820,102540,-0.1337467,0
Sprite,Foreground,Centre,"sb\particle.png",0,0 F,0,101820,,0.66 C,0,101820,,255,232,99 P,0,101820,,A M,7,101820,102540,202,414,187,465 S,6,101820,102540,0.08281328,0
Sprite,Foreground,Centre,"sb\particle.png",0,0 F,0,101820,,0.66 C,0,101820,,255,232,99 P,0,101820,,A M,7,101820,102540,202,414,237,387 S,6,101820,102540,0.115111,0
Sprite,Foreground,Centre,"sb\particle.png",0,0 F,0,101820,,0.66 C,0,101820,,255,232,99 P,0,101820,,A M,7,101820,102540,202,414,190,389 S,6,101820,102540,0.3639176,0
Sprite,Foreground,Centre,"sb\particle.png",0,0 F,0,101820,,0.66 C,0,101820,,255,232,99 P,0,101820,,A M,7,101820,102540,202,414,197,374 S,6,101820,102540,0.4059632,0
Sprite,Foreground,Centre,"sb\particle.png",0,0 F,0,101820,,0.66 C,0,101820,,255,232,99 P,0,101820,,A M,7,101820,102540,202,414,171,435 S,6,101820,102540,-0.1426627,0
Sprite,Foreground,Centre,"sb\particle.png",0,0 F,0,101820,,0.66 C,0,101820,,255,232,99 P,0,101820,,A M,7,101820,102540,202,414,237,372 S,6,101820,102540,-0.2970222,0
Sprite,Foreground,Centre,"sb\particle.png",0,0 F,0,101820,,0.66 C,0,101820,,255,232,99 P,0,101820,,A M,7,101820,102540,202,414,221,403 S,6,101820,102540,-0.05769284,0
Sprite,Foreground,Centre,"sb\particle.png",0,0 F,0,101820,,0.66 C,0,101820,,255,232,99 P,0,101820,,A M,7,101820,102540,202,414,235,414 S,6,101820,102540,0.09658718,0
Sprite,Foreground,Centre,"sb\particle.png",0,0 F,0,102386,,0.66 C,0,102386,,245,218,66 P,0,102386,,A M,7,102386,103106,391,309,372,327 S,6,102386,103106,-0.1456858,0
Sprite,Foreground,Centre,"sb\particle.png",0,0 F,0,102386,,0.66 C,0,102386,,245,218,66 P,0,102386,,A M,7,102386,103106,391,309,429,258 S,6,102386,103106,-0.2403205,0
Sprite,Foreground,Centre,"sb\particle.png",0,0 F,0,102386,,0.66 C,0,102386,,245,218,66 P,0,102386,,A M,7,102386,103106,391,309,384,318 S,6,102386,103106,0.4177451,0
Sprite,Foreground,Centre,"sb\particle.png",0,0 F,0,102386,,0.66 C,0,102386,,245,218,66 P,0,102386,,A M,7,102386,103106,391,309,398,261 S,6,102386,103106,0.0317565,0
Sprite,Foreground,Centre,"sb\particle.png",0,0 F,0,102386,,0.66 C,0,102386,,245,218,66 P,0,102386,,A M,7,102386,103106,391,309,413,351 S,6,102386,103106,0.1882989,0
Sprite,Foreground,Centre,"sb\particle.png",0,0 F,0,102386,,0.66 C,0,102386,,245,218,66 P,0,102386,,A M,7,102386,103106,391,309,364,257 S,6,102386,103106,0.4441014,0
Sprite,Foreground,Centre,"sb\particle.png",0,0 F,0,102386,,0.66 C,0,102386,,245,218,66 P,0,102386,,A M,7,102386,103106,391,309,444,314 S,6,102386,103106,0.4253498,0
Sprite,Foreground,Centre,"sb\particle.png",0,0 F,0,102386,,0.66 C,0,102386,,255,232,99 P,0,102386,,A M,7,102386,103106,391,309,346,313 S,6,102386,103106,-0.0321876,0
Sprite,Foreground,Centre,"sb\particle.png",0,0 F,0,102386,,0.66 C,0,102386,,255,232,99 P,0,102386,,A M,7,102386,103106,391,309,345,330 S,6,102386,103106,-0.09213985,0
Sprite,Foreground,Centre,"sb\particle.png",0,0 F,0,102386,,0.66 C,0,102386,,255,232,99 P,0,102386,,A M,7,102386,103106,391,309,338,268 S,6,102386,103106,0.04729098,0
Sprite,Foreground,Centre,"sb\particle.png",0,0 F,0,102386,,0.66 C,0,102386,,255,232,99 P,0,102386,,A M,7,102386,103106,391,309,354,303 S,6,102386,103106,-0.08890019,0
Sprite,Foreground,Centre,"sb\particle.png",0,0 F,0,102386,,0.66 C,0,102386,,255,232,99 P,0,102386,,A M,7,102386,103106,391,309,340,358 S,6,102386,103106,0.2036677,0
Sprite,Foreground,Centre,"sb\particle.png",0,0 F,0,102386,,0.66 C,0,102386,,255,232,99 P,0,102386,,A M,7,102386,103106,391,309,369,268 S,6,102386,103106,-0.09172174,0
Sprite,Foreground,Centre,"sb\particle.png",0,0 F,0,102386,,0.66 C,0,102386,,255,232,99 P,0,102386,,A M,7,102386,103106,391,309,348,321 S,6,102386,103106,-0.2473674,0
Sprite,Foreground,Centre,"sb\particle.png",0,0 F,0,102386,,0.66 C,0,102386,,255,232,99 P,0,102386,,A M,7,102386,103106,391,309,342,314 S,6,102386,103106,-0.09463476,0
Sprite,Foreground,Centre,"sb\particle.png",0,0 F,0,102386,,0.66 C,0,102386,,255,232,99 P,0,102386,,A M,7,102386,103106,391,309,400,358 S,6,102386,103106,-0.1102745,0
Sprite,Foreground,Centre,"sb\particle.png",0,0 F,0,102386,,0.66 C,0,102386,,255,232,99 P,0,102386,,A M,7,102386,103106,391,309,412,260 S,6,102386,103106,0.4990267,0
Sprite,Foreground,Centre,"sb\particle.png",0,0 F,0,30266,,0.66 C,0,30266,,245,218,66 P,0,30266,,A M,7,30266,30986,268,335,269,296 S,6,30266,30986,0.1941985,0
Sprite,Foreground,Centre,"sb\particle.png",0,0 F,0,30266,,0.66 C,0,30266,,245,218,66 P,0,30266,,A M,7,30266,30986,268,335,296,284 S,6,30266,30986,0.1495614,0
Sprite,Foreground,Centre,"sb\particle.png",0,0 F,0,30266,,0.66 C,0,30266,,245,218,66 P,0,30266,,A M,7,30266,30986,268,335,259,333 S,6,30266,30986,0.01983543,0
Sprite,Foreground,Centre,"sb\particle.png",0,0 F,0,30266,,0.66 C,0,30266,,245,218,66 P,0,30266,,A M,7,30266,30986,268,335,248,329 S,6,30266,30986,0.3056033,0
Sprite,Foreground,Centre,"sb\particle.png",0,0 F,0,30266,,0.66 C,0,30266,,245,218,66 P,0,30266,,A M,7,30266,30986,268,335,250,303 S,6,30266,30986,0.1564865,0
Sprite,Foreground,Centre,"sb\particle.png",0,0 F,0,30266,,0.66 C,0,30266,,245,218,66 P,0,30266,,A M,7,30266,30986,268,335,298,346 S,6,30266,30986,-0.07843833,0
Sprite,Foreground,Centre,"sb\particle.png",0,0 F,0,30266,,0.66 C,0,30266,,245,218,66 P,0,30266,,A M,7,30266,30986,268,335,293,351 S,6,30266,30986,-0.2427525,0
Sprite,Foreground,Centre,"sb\particle.png",0,0 F,0,30266,,0.66 C,0,30266,,255,232,99 P,0,30266,,A M,7,30266,30986,268,335,227,304 S,6,30266,30986,0.02764779,0
Sprite,Foreground,Centre,"sb\particle.png",0,0 F,0,30266,,0.66 C,0,30266,,255,232,99 P,0,30266,,A M,7,30266,30986,268,335,276,327 S,6,30266,30986,-0.1909547,0
Sprite,Foreground,Centre,"sb\particle.png",0,0 F,0,30266,,0.66 C,0,30266,,255,232,99 P,0,30266,,A M,7,30266,30986,268,335,235,349 S,6,30266,30986,0.07153454,0
Sprite,Foreground,Centre,"sb\particle.png",0,0 F,0,30266,,0.66 C,0,30266,,255,232,99 P,0,30266,,A M,7,30266,30986,268,335,215,349 S,6,30266,30986,-0.0665087,0
Sprite,Foreground,Centre,"sb\particle.png",0,0 F,0,30266,,0.66 C,0,30266,,255,232,99 P,0,30266,,A M,7,30266,30986,268,335,289,323 S,6,30266,30986,-0.2617389,0
Sprite,Foreground,Centre,"sb\particle.png",0,0 F,0,30266,,0.66 C,0,30266,,255,232,99 P,0,30266,,A M,7,30266,30986,268,335,293,354 S,6,30266,30986,-0.04323138,0
Sprite,Foreground,Centre,"sb\particle.png",0,0 F,0,30266,,0.66 C,0,30266,,255,232,99 P,0,30266,,A M,7,30266,30986,268,335,241,371 S,6,30266,30986,0.2947697,0
Sprite,Foreground,Centre,"sb\particle.png",0,0 F,0,30266,,0.66 C,0,30266,,255,232,99 P,0,30266,,A M,7,30266,30986,268,335,271,385 S,6,30266,30986,0.4029667,0
Sprite,Foreground,Centre,"sb\particle.png",0,0 F,0,30266,,0.66 C,0,30266,,255,232,99 P,0,30266,,A M,7,30266,30986,268,335,245,301 S,6,30266,30986,0.01260695,0
Sprite,Foreground,Centre,"sb\particle.png",0,0 F,0,30266,,0.66 C,0,30266,,255,232,99 P,0,30266,,A M,7,30266,30986,268,335,281,351 S,6,30266,30986,0.4876955,0
Sprite,Foreground,Centre,"sb\particle.png",0,0 F,0,30832,,0.66 C,0,30832,,245,218,66 P,0,30832,,A M,7,30832,31552,76,321,53,316 S,6,30832,31552,0.3150897,0
Sprite,Foreground,Centre,"sb\particle.png",0,0 F,0,30832,,0.66 C,0,30832,,245,218,66 P,0,30832,,A M,7,30832,31552,76,321,68,294 S,6,30832,31552,-0.06593128,0
Sprite,Foreground,Centre,"sb\particle.png",0,0 F,0,30832,,0.66 C,0,30832,,245,218,66 P,0,30832,,A M,7,30832,31552,76,321,57,328 S,6,30832,31552,0.07189355,0
Sprite,Foreground,Centre,"sb\particle.png",0,0 F,0,30832,,0.66 C,0,30832,,245,218,66 P,0,30832,,A M,7,30832,31552,76,321,64,301 S,6,30832,31552,0.1648588,0
Sprite,Foreground,Centre,"sb\particle.png",0,0 F,0,30832,,0.66 C,0,30832,,245,218,66 P,0,30832,,A M,7,30832,31552,76,321,95,278 S,6,30832,31552,0.01450751,0
Sprite,Foreground,Centre,"sb\particle.png",0,0 F,0,30832,,0.66 C,0,30832,,245,218,66 P,0,30832,,A M,7,30832,31552,76,321,65,318 S,6,30832,31552,0.2133027,0
Sprite,Foreground,Centre,"sb\particle.png",0,0 F,0,30832,,0.66 C,0,30832,,245,218,66 P,0,30832,,A M,7,30832,31552,76,321,40,328 S,6,30832,31552,-0.07847823,0
Sprite,Foreground,Centre,"sb\particle.png",0,0 F,0,30832,,0.66 C,0,30832,,255,232,99 P,0,30832,,A M,7,30832,31552,76,321,40,297 S,6,30832,31552,0.2855827,0
Sprite,Foreground,Centre,"sb\particle.png",0,0 F,0,30832,,0.66 C,0,30832,,255,232,99 P,0,30832,,A M,7,30832,31552,76,321,52,267 S,6,30832,31552,-0.2368819,0
Sprite,Foreground,Centre,"sb\particle.png",0,0 F,0,30832,,0.66 C,0,30832,,255,232,99 P,0,30832,,A M,7,30832,31552,76,321,90,344 S,6,30832,31552,-0.007579649,0
Sprite,Foreground,Centre,"sb\particle.png",0,0 F,0,30832,,0.66 C,0,30832,,255,232,99 P,0,30832,,A M,7,30832,31552,76,321,85,327 S,6,30832,31552,0.476859,0
Sprite,Foreground,Centre,"sb\particle.png",0,0 F,0,30832,,0.66 C,0,30832,,255,232,99 P,0,30832,,A M,7,30832,31552,76,321,117,317 S,6,30832,31552,0.2518324,0
Sprite,Foreground,Centre,"sb\particle.png",0,0 F,0,30832,,0.66 C,0,30832,,255,232,99 P,0,30832,,A M,7,30832,31552,76,321,52,372 S,6,30832,31552,-0.1875902,0
Sprite,Foreground,Centre,"sb\particle.png",0,0 F,0,30832,,0.66 C,0,30832,,255,232,99 P,0,30832,,A M,7,30832,31552,76,321,105,362 S,6,30832,31552,0.4218533,0
Sprite,Foreground,Centre,"sb\particle.png",0,0 F,0,30832,,0.66 C,0,30832,,255,232,99 P,0,30832,,A M,7,30832,31552,76,321,128,316 S,6,30832,31552,-0.2545037,0
Sprite,Foreground,Centre,"sb\particle.png",0,0 F,0,30832,,0.66 C,0,30832,,255,232,99 P,0,30832,,A M,7,30832,31552,76,321,98,283 S,6,30832,31552,-0.2043983,0
Sprite,Foreground,Centre,"sb\particle.png",0,0 F,0,30832,,0.66 C,0,30832,,255,232,99 P,0,30832,,A M,7,30832,31552,76,321,78,339 S,6,30832,31552,-0.2887849,0
Sprite,Foreground,Centre,"sb\particle.png",0,0 F,0,31021,,0.66 C,0,31021,,245,218,66 P,0,31021,,A M,7,31021,31741,164,267,136,237 S,6,31021,31741,0.2999075,0
Sprite,Foreground,Centre,"sb\particle.png",0,0 F,0,31021,,0.66 C,0,31021,,245,218,66 P,0,31021,,A M,7,31021,31741,164,267,177,286 S,6,31021,31741,-0.1275616,0
Sprite,Foreground,Centre,"sb\particle.png",0,0 F,0,31021,,0.66 C,0,31021,,245,218,66 P,0,31021,,A M,7,31021,31741,164,267,120,272 S,6,31021,31741,-0.2970333,0
Sprite,Foreground,Centre,"sb\particle.png",0,0 F,0,31021,,0.66 C,0,31021,,245,218,66 P,0,31021,,A M,7,31021,31741,164,267,211,267 S,6,31021,31741,0.3034014,0
Sprite,Foreground,Centre,"sb\particle.png",0,0 F,0,31021,,0.66 C,0,31021,,245,218,66 P,0,31021,,A M,7,31021,31741,164,267,162,215 S,6,31021,31741,-0.05730164,0
Sprite,Foreground,Centre,"sb\particle.png",0,0 F,0,31021,,0.66 C,0,31021,,245,218,66 P,0,31021,,A M,7,31021,31741,164,267,165,213 S,6,31021,31741,0.4685289,0
Sprite,Foreground,Centre,"sb\particle.png",0,0 F,0,31021,,0.66 C,0,31021,,245,218,66 P,0,31021,,A M,7,31021,31741,164,267,135,304 S,6,31021,31741,0.3221482,0
Sprite,Foreground,Centre,"sb\particle.png",0,0 F,0,31021,,0.66 C,0,31021,,255,232,99 P,0,31021,,A M,7,31021,31741,164,267,176,260 S,6,31021,31741,0.1985399,0
Sprite,Foreground,Centre,"sb\particle.png",0,0 F,0,31021,,0.66 C,0,31021,,255,232,99 P,0,31021,,A M,7,31021,31741,164,267,132,289 S,6,31021,31741,0.02477952,0
Sprite,Foreground,Centre,"sb\particle.png",0,0 F,0,31021,,0.66 C,0,31021,,255,232,99 P,0,31021,,A M,7,31021,31741,164,267,142,242 S,6,31021,31741,0.07034626,0
Sprite,Foreground,Centre,"sb\particle.png",0,0 F,0,31021,,0.66 C,0,31021,,255,232,99 P,0,31021,,A M,7,31021,31741,164,267,159,270 S,6,31021,31741,0.1229686,0
Sprite,Foreground,Centre,"sb\particle.png",0,0 F,0,31021,,0.66 C,0,31021,,255,232,99 P,0,31021,,A M,7,31021,31741,164,267,166,318 S,6,31021,31741,-0.1229883,0
Sprite,Foreground,Centre,"sb\particle.png",0,0 F,0,31021,,0.66 C,0,31021,,255,232,99 P,0,31021,,A M,7,31021,31741,164,267,207,256 S,6,31021,31741,-0.2580716,0
Sprite,Foreground,Centre,"sb\particle.png",0,0 F,0,31021,,0.66 C,0,31021,,255,232,99 P,0,31021,,A M,7,31021,31741,164,267,114,241 S,6,31021,31741,0.02347533,0
Sprite,Foreground,Centre,"sb\particle.png",0,0 F,0,31021,,0.66 C,0,31021,,255,232,99 P,0,31021,,A M,7,31021,31741,164,267,174,232 S,6,31021,31741,0.234683,0
Sprite,Foreground,Centre,"sb\particle.png",0,0 F,0,31021,,0.66 C,0,31021,,255,232,99 P,0,31021,,A M,7,31021,31741,164,267,135,233 S,6,31021,31741,0.2038192,0
Sprite,Foreground,Centre,"sb\particle.png",0,0 F,0,31021,,0.66 C,0,31021,,255,232,99 P,0,31021,,A M,7,31021,31741,164,267,116,215 S,6,31021,31741,-0.2951955,0
Sprite,Foreground,Centre,"sb\particle.png",0,0 F,0,31398,,0.66 C,0,31398,,245,218,66 P,0,31398,,A M,7,31398,32118,85,124,105,145 S,6,31398,32118,0.2870275,0
Sprite,Foreground,Centre,"sb\particle.png",0,0 F,0,31398,,0.66 C,0,31398,,245,218,66 P,0,31398,,A M,7,31398,32118,85,124,137,91 S,6,31398,32118,-0.06694481,0
Sprite,Foreground,Centre,"sb\particle.png",0,0 F,0,31398,,0.66 C,0,31398,,245,218,66 P,0,31398,,A M,7,31398,32118,85,124,33,122 S,6,31398,32118,0.1622776,0
Sprite,Foreground,Centre,"sb\particle.png",0,0 F,0,31398,,0.66 C,0,31398,,245,218,66 P,0,31398,,A M,7,31398,32118,85,124,89,121 S,6,31398,32118,0.05329403,0
Sprite,Foreground,Centre,"sb\particle.png",0,0 F,0,31398,,0.66 C,0,31398,,245,218,66 P,0,31398,,A M,7,31398,32118,85,124,32,89 S,6,31398,32118,3.882065E-05,0
Sprite,Foreground,Centre,"sb\particle.png",0,0 F,0,31398,,0.66 C,0,31398,,245,218,66 P,0,31398,,A M,7,31398,32118,85,124,102,128 S,6,31398,32118,0.2398067,0
Sprite,Foreground,Centre,"sb\particle.png",0,0 F,0,31398,,0.66 C,0,31398,,245,218,66 P,0,31398,,A M,7,31398,32118,85,124,103,109 S,6,31398,32118,0.1305111,0
Sprite,Foreground,Centre,"sb\particle.png",0,0 F,0,31398,,0.66 C,0,31398,,255,232,99 P,0,31398,,A M,7,31398,32118,85,124,55,118 S,6,31398,32118,0.1770858,0
Sprite,Foreground,Centre,"sb\particle.png",0,0 F,0,31398,,0.66 C,0,31398,,255,232,99 P,0,31398,,A M,7,31398,32118,85,124,60,100 S,6,31398,32118,0.2392035,0
Sprite,Foreground,Centre,"sb\particle.png",0,0 F,0,31398,,0.66 C,0,31398,,255,232,99 P,0,31398,,A M,7,31398,32118,85,124,85,80 S,6,31398,32118,0.1867859,0
Sprite,Foreground,Centre,"sb\particle.png",0,0 F,0,31398,,0.66 C,0,31398,,255,232,99 P,0,31398,,A M,7,31398,32118,85,124,87,141 S,6,31398,32118,-0.1681409,0
Sprite,Foreground,Centre,"sb\particle.png",0,0 F,0,31398,,0.66 C,0,31398,,255,232,99 P,0,31398,,A M,7,31398,32118,85,124,38,152 S,6,31398,32118,0.1436385,0
Sprite,Foreground,Centre,"sb\particle.png",0,0 F,0,31398,,0.66 C,0,31398,,255,232,99 P,0,31398,,A M,7,31398,32118,85,124,120,140 S,6,31398,32118,-0.255781,0
Sprite,Foreground,Centre,"sb\particle.png",0,0 F,0,31398,,0.66 C,0,31398,,255,232,99 P,0,31398,,A M,7,31398,32118,85,124,83,98 S,6,31398,32118,0.3890282,0
Sprite,Foreground,Centre,"sb\particle.png",0,0 F,0,31398,,0.66 C,0,31398,,255,232,99 P,0,31398,,A M,7,31398,32118,85,124,135,96 S,6,31398,32118,0.2534527,0
Sprite,Foreground,Centre,"sb\particle.png",0,0 F,0,31398,,0.66 C,0,31398,,255,232,99 P,0,31398,,A M,7,31398,32118,85,124,81,95 S,6,31398,32118,0.07223158,0
Sprite,Foreground,Centre,"sb\particle.png",0,0 F,0,31398,,0.66 C,0,31398,,255,232,99 P,0,31398,,A M,7,31398,32118,85,124,96,77 S,6,31398,32118,-0.2878497,0
Sprite,Foreground,Centre,"sb\particle.png",0,0 F,0,31776,,0.66 C,0,31776,,245,218,66 P,0,31776,,A M,7,31776,32496,223,58,206,23 S,6,31776,32496,0.08567608,0
Sprite,Foreground,Centre,"sb\particle.png",0,0 F,0,31776,,0.66 C,0,31776,,245,218,66 P,0,31776,,A M,7,31776,32496,223,58,236,108 S,6,31776,32496,0.3665081,0
Sprite,Foreground,Centre,"sb\particle.png",0,0 F,0,31776,,0.66 C,0,31776,,245,218,66 P,0,31776,,A M,7,31776,32496,223,58,222,60 S,6,31776,32496,0.231746,0
Sprite,Foreground,Centre,"sb\particle.png",0,0 F,0,31776,,0.66 C,0,31776,,245,218,66 P,0,31776,,A M,7,31776,32496,223,58,266,44 S,6,31776,32496,0.1870784,0
Sprite,Foreground,Centre,"sb\particle.png",0,0 F,0,31776,,0.66 C,0,31776,,245,218,66 P,0,31776,,A M,7,31776,32496,223,58,181,46 S,6,31776,32496,0.4110445,0
Sprite,Foreground,Centre,"sb\particle.png",0,0 F,0,31776,,0.66 C,0,31776,,245,218,66 P,0,31776,,A M,7,31776,32496,223,58,225,70 S,6,31776,32496,0.1907421,0
Sprite,Foreground,Centre,"sb\particle.png",0,0 F,0,31776,,0.66 C,0,31776,,245,218,66 P,0,31776,,A M,7,31776,32496,223,58,255,39 S,6,31776,32496,-0.2154344,0
Sprite,Foreground,Centre,"sb\particle.png",0,0 F,0,31776,,0.66 C,0,31776,,255,232,99 P,0,31776,,A M,7,31776,32496,223,58,214,51 S,6,31776,32496,-0.1735695,0
Sprite,Foreground,Centre,"sb\particle.png",0,0 F,0,31776,,0.66 C,0,31776,,255,232,99 P,0,31776,,A M,7,31776,32496,223,58,209,28 S,6,31776,32496,-0.08861457,0
Sprite,Foreground,Centre,"sb\particle.png",0,0 F,0,31776,,0.66 C,0,31776,,255,232,99 P,0,31776,,A M,7,31776,32496,223,58,179,30 S,6,31776,32496,-0.0120322,0
Sprite,Foreground,Centre,"sb\particle.png",0,0 F,0,31776,,0.66 C,0,31776,,255,232,99 P,0,31776,,A M,7,31776,32496,223,58,208,106 S,6,31776,32496,-0.02447836,0
Sprite,Foreground,Centre,"sb\particle.png",0,0 F,0,31776,,0.66 C,0,31776,,255,232,99 P,0,31776,,A M,7,31776,32496,223,58,215,83 S,6,31776,32496,0.4681712,0
Sprite,Foreground,Centre,"sb\particle.png",0,0 F,0,31776,,0.66 C,0,31776,,255,232,99 P,0,31776,,A M,7,31776,32496,223,58,190,76 S,6,31776,32496,-0.2443464,0
Sprite,Foreground,Centre,"sb\particle.png",0,0 F,0,31776,,0.66 C,0,31776,,255,232,99 P,0,31776,,A M,7,31776,32496,223,58,200,83 S,6,31776,32496,0.1632489,0
Sprite,Foreground,Centre,"sb\particle.png",0,0 F,0,31776,,0.66 C,0,31776,,255,232,99 P,0,31776,,A M,7,31776,32496,223,58,270,72 S,6,31776,32496,-0.08272383,0
Sprite,Foreground,Centre,"sb\particle.png",0,0 F,0,31776,,0.66 C,0,31776,,255,232,99 P,0,31776,,A M,7,31776,32496,223,58,267,102 S,6,31776,32496,0.4379191,0
Sprite,Foreground,Centre,"sb\particle.png",0,0 F,0,31776,,0.66 C,0,31776,,255,232,99 P,0,31776,,A M,7,31776,32496,223,58,256,42 S,6,31776,32496,0.06996859,0
Sprite,Foreground,Centre,"sb\particle.png",0,0 F,0,32342,,0.66 C,0,32342,,245,218,66 P,0,32342,,A M,7,32342,33062,438,158,409,139 S,6,32342,33062,0.0356848,0
Sprite,Foreground,Centre,"sb\particle.png",0,0 F,0,32342,,0.66 C,0,32342,,245,218,66 P,0,32342,,A M,7,32342,33062,438,158,464,133 S,6,32342,33062,-0.1008894,0
Sprite,Foreground,Centre,"sb\particle.png",0,0 F,0,32342,,0.66 C,0,32342,,245,218,66 P,0,32342,,A M,7,32342,33062,438,158,464,151 S,6,32342,33062,0.1700305,0
Sprite,Foreground,Centre,"sb\particle.png",0,0 F,0,32342,,0.66 C,0,32342,,245,218,66 P,0,32342,,A M,7,32342,33062,438,158,468,133 S,6,32342,33062,-0.1500124,0
Sprite,Foreground,Centre,"sb\particle.png",0,0 F,0,32342,,0.66 C,0,32342,,245,218,66 P,0,32342,,A M,7,32342,33062,438,158,474,201 S,6,32342,33062,0.04509594,0
Sprite,Foreground,Centre,"sb\particle.png",0,0 F,0,32342,,0.66 C,0,32342,,245,218,66 P,0,32342,,A M,7,32342,33062,438,158,443,130 S,6,32342,33062,-0.2549948,0
Sprite,Foreground,Centre,"sb\particle.png",0,0 F,0,32342,,0.66 C,0,32342,,245,218,66 P,0,32342,,A M,7,32342,33062,438,158,484,149 S,6,32342,33062,-0.09914272,0
Sprite,Foreground,Centre,"sb\particle.png",0,0 F,0,32342,,0.66 C,0,32342,,255,232,99 P,0,32342,,A M,7,32342,33062,438,158,451,170 S,6,32342,33062,0.2184683,0
Sprite,Foreground,Centre,"sb\particle.png",0,0 F,0,32342,,0.66 C,0,32342,,255,232,99 P,0,32342,,A M,7,32342,33062,438,158,432,199 S,6,32342,33062,0.1979033,0
Sprite,Foreground,Centre,"sb\particle.png",0,0 F,0,32342,,0.66 C,0,32342,,255,232,99 P,0,32342,,A M,7,32342,33062,438,158,490,144 S,6,32342,33062,-0.2828681,0
Sprite,Foreground,Centre,"sb\particle.png",0,0 F,0,32342,,0.66 C,0,32342,,255,232,99 P,0,32342,,A M,7,32342,33062,438,158,451,208 S,6,32342,33062,0.3215973,0
Sprite,Foreground,Centre,"sb\particle.png",0,0 F,0,32342,,0.66 C,0,32342,,255,232,99 P,0,32342,,A M,7,32342,33062,438,158,419,168 S,6,32342,33062,0.3821715,0
Sprite,Foreground,Centre,"sb\particle.png",0,0 F,0,32342,,0.66 C,0,32342,,255,232,99 P,0,32342,,A M,7,32342,33062,438,158,491,144 S,6,32342,33062,-0.1703057,0
Sprite,Foreground,Centre,"sb\particle.png",0,0 F,0,32342,,0.66 C,0,32342,,255,232,99 P,0,32342,,A M,7,32342,33062,438,158,424,132 S,6,32342,33062,0.08248872,0
Sprite,Foreground,Centre,"sb\particle.png",0,0 F,0,32342,,0.66 C,0,32342,,255,232,99 P,0,32342,,A M,7,32342,33062,438,158,423,158 S,6,32342,33062,0.01206696,0
Sprite,Foreground,Centre,"sb\particle.png",0,0 F,0,32342,,0.66 C,0,32342,,255,232,99 P,0,32342,,A M,7,32342,33062,438,158,406,155 S,6,32342,33062,0.1842112,0
Sprite,Foreground,Centre,"sb\particle.png",0,0 F,0,32342,,0.66 C,0,32342,,255,232,99 P,0,32342,,A M,7,32342,33062,438,158,451,116 S,6,32342,33062,0.3388351,0
Sprite,Foreground,Centre,"sb\particle.png",0,0 F,0,32531,,0.66 C,0,32531,,245,218,66 P,0,32531,,A M,7,32531,33251,357,222,316,211 S,6,32531,33251,-0.1330643,0
Sprite,Foreground,Centre,"sb\particle.png",0,0 F,0,32531,,0.66 C,0,32531,,245,218,66 P,0,32531,,A M,7,32531,33251,357,222,395,198 S,6,32531,33251,-0.1671442,0
Sprite,Foreground,Centre,"sb\particle.png",0,0 F,0,32531,,0.66 C,0,32531,,245,218,66 P,0,32531,,A M,7,32531,33251,357,222,325,268 S,6,32531,33251,0.4911104,0
Sprite,Foreground,Centre,"sb\particle.png",0,0 F,0,32531,,0.66 C,0,32531,,245,218,66 P,0,32531,,A M,7,32531,33251,357,222,406,218 S,6,32531,33251,0.2840874,0
Sprite,Foreground,Centre,"sb\particle.png",0,0 F,0,32531,,0.66 C,0,32531,,245,218,66 P,0,32531,,A M,7,32531,33251,357,222,311,268 S,6,32531,33251,0.4039646,0
Sprite,Foreground,Centre,"sb\particle.png",0,0 F,0,32531,,0.66 C,0,32531,,245,218,66 P,0,32531,,A M,7,32531,33251,357,222,331,235 S,6,32531,33251,-0.1890375,0
Sprite,Foreground,Centre,"sb\particle.png",0,0 F,0,32531,,0.66 C,0,32531,,245,218,66 P,0,32531,,A M,7,32531,33251,357,222,358,209 S,6,32531,33251,0.001480286,0
Sprite,Foreground,Centre,"sb\particle.png",0,0 F,0,32531,,0.66 C,0,32531,,255,232,99 P,0,32531,,A M,7,32531,33251,357,222,315,229 S,6,32531,33251,0.2504922,0
Sprite,Foreground,Centre,"sb\particle.png",0,0 F,0,32531,,0.66 C,0,32531,,255,232,99 P,0,32531,,A M,7,32531,33251,357,222,361,226 S,6,32531,33251,0.4279773,0
Sprite,Foreground,Centre,"sb\particle.png",0,0 F,0,32531,,0.66 C,0,32531,,255,232,99 P,0,32531,,A M,7,32531,33251,357,222,374,258 S,6,32531,33251,0.07445908,0
Sprite,Foreground,Centre,"sb\particle.png",0,0 F,0,32531,,0.66 C,0,32531,,255,232,99 P,0,32531,,A M,7,32531,33251,357,222,351,242 S,6,32531,33251,0.3262827,0
Sprite,Foreground,Centre,"sb\particle.png",0,0 F,0,32531,,0.66 C,0,32531,,255,232,99 P,0,32531,,A M,7,32531,33251,357,222,336,176 S,6,32531,33251,0.05525203,0
Sprite,Foreground,Centre,"sb\particle.png",0,0 F,0,32531,,0.66 C,0,32531,,255,232,99 P,0,32531,,A M,7,32531,33251,357,222,355,261 S,6,32531,33251,0.03155418,0
Sprite,Foreground,Centre,"sb\particle.png",0,0 F,0,32531,,0.66 C,0,32531,,255,232,99 P,0,32531,,A M,7,32531,33251,357,222,352,229 S,6,32531,33251,-0.03485332,0
Sprite,Foreground,Centre,"sb\particle.png",0,0 F,0,32531,,0.66 C,0,32531,,255,232,99 P,0,32531,,A M,7,32531,33251,357,222,339,178 S,6,32531,33251,-0.1051173,0
Sprite,Foreground,Centre,"sb\particle.png",0,0 F,0,32531,,0.66 C,0,32531,,255,232,99 P,0,32531,,A M,7,32531,33251,357,222,348,205 S,6,32531,33251,-0.2918565,0
Sprite,Foreground,Centre,"sb\particle.png",0,0 F,0,32531,,0.66 C,0,32531,,255,232,99 P,0,32531,,A M,7,32531,33251,357,222,367,189 S,6,32531,33251,0.196208,0
Sprite,Foreground,Centre,"sb\particle.png",0,0 F,0,32720,,0.66 C,0,32720,,245,218,66 P,0,32720,,A M,7,32720,33440,155,220,133,184 S,6,32720,33440,-0.1786639,0
Sprite,Foreground,Centre,"sb\particle.png",0,0 F,0,32720,,0.66 C,0,32720,,245,218,66 P,0,32720,,A M,7,32720,33440,155,220,207,253 S,6,32720,33440,-0.09037168,0
Sprite,Foreground,Centre,"sb\particle.png",0,0 F,0,32720,,0.66 C,0,32720,,245,218,66 P,0,32720,,A M,7,32720,33440,155,220,168,191 S,6,32720,33440,0.2079583,0
Sprite,Foreground,Centre,"sb\particle.png",0,0 F,0,32720,,0.66 C,0,32720,,245,218,66 P,0,32720,,A M,7,32720,33440,155,220,121,256 S,6,32720,33440,0.3630712,0
Sprite,Foreground,Centre,"sb\particle.png",0,0 F,0,32720,,0.66 C,0,32720,,245,218,66 P,0,32720,,A M,7,32720,33440,155,220,108,196 S,6,32720,33440,0.1087927,0
Sprite,Foreground,Centre,"sb\particle.png",0,0 F,0,32720,,0.66 C,0,32720,,245,218,66 P,0,32720,,A M,7,32720,33440,155,220,108,174 S,6,32720,33440,0.1757602,0
Sprite,Foreground,Centre,"sb\particle.png",0,0 F,0,32720,,0.66 C,0,32720,,245,218,66 P,0,32720,,A M,7,32720,33440,155,220,109,178 S,6,32720,33440,-0.1828694,0
Sprite,Foreground,Centre,"sb\particle.png",0,0 F,0,32720,,0.66 C,0,32720,,255,232,99 P,0,32720,,A M,7,32720,33440,155,220,188,212 S,6,32720,33440,0.242504,0
Sprite,Foreground,Centre,"sb\particle.png",0,0 F,0,32720,,0.66 C,0,32720,,255,232,99 P,0,32720,,A M,7,32720,33440,155,220,114,244 S,6,32720,33440,0.1945173,0
Sprite,Foreground,Centre,"sb\particle.png",0,0 F,0,32720,,0.66 C,0,32720,,255,232,99 P,0,32720,,A M,7,32720,33440,155,220,163,191 S,6,32720,33440,0.4979285,0
Sprite,Foreground,Centre,"sb\particle.png",0,0 F,0,32720,,0.66 C,0,32720,,255,232,99 P,0,32720,,A M,7,32720,33440,155,220,130,217 S,6,32720,33440,-0.02995781,0
Sprite,Foreground,Centre,"sb\particle.png",0,0 F,0,32720,,0.66 C,0,32720,,255,232,99 P,0,32720,,A M,7,32720,33440,155,220,147,191 S,6,32720,33440,-0.1205241,0
Sprite,Foreground,Centre,"sb\particle.png",0,0 F,0,32720,,0.66 C,0,32720,,255,232,99 P,0,32720,,A M,7,32720,33440,155,220,176,249 S,6,32720,33440,-0.1743449,0
Sprite,Foreground,Centre,"sb\particle.png",0,0 F,0,32720,,0.66 C,0,32720,,255,232,99 P,0,32720,,A M,7,32720,33440,155,220,204,182 S,6,32720,33440,0.4285621,0
Sprite,Foreground,Centre,"sb\particle.png",0,0 F,0,32720,,0.66 C,0,32720,,255,232,99 P,0,32720,,A M,7,32720,33440,155,220,202,247 S,6,32720,33440,0.08364906,0
Sprite,Foreground,Centre,"sb\particle.png",0,0 F,0,32720,,0.66 C,0,32720,,255,232,99 P,0,32720,,A M,7,32720,33440,155,220,152,191 S,6,32720,33440,0.08761422,0
Sprite,Foreground,Centre,"sb\particle.png",0,0 F,0,32720,,0.66 C,0,32720,,255,232,99 P,0,32720,,A M,7,32720,33440,155,220,114,236 S,6,32720,33440,-0.1883109,0
Sprite,Foreground,Centre,"sb\particle.png",0,0 F,0,33286,,0.66 C,0,33286,,245,218,66 P,0,33286,,A M,7,33286,34006,111,314,57,364 S,6,33286,34006,0.02009547,0
Sprite,Foreground,Centre,"sb\particle.png",0,0 F,0,33286,,0.66 C,0,33286,,245,218,66 P,0,33286,,A M,7,33286,34006,111,314,133,287 S,6,33286,34006,0.3651427,0
Sprite,Foreground,Centre,"sb\particle.png",0,0 F,0,33286,,0.66 C,0,33286,,245,218,66 P,0,33286,,A M,7,33286,34006,111,314,142,347 S,6,33286,34006,0.4542354,0
Sprite,Foreground,Centre,"sb\particle.png",0,0 F,0,33286,,0.66 C,0,33286,,245,218,66 P,0,33286,,A M,7,33286,34006,111,314,147,339 S,6,33286,34006,-0.167466,0
Sprite,Foreground,Centre,"sb\particle.png",0,0 F,0,33286,,0.66 C,0,33286,,245,218,66 P,0,33286,,A M,7,33286,34006,111,314,149,347 S,6,33286,34006,-0.003691963,0
Sprite,Foreground,Centre,"sb\particle.png",0,0 F,0,33286,,0.66 C,0,33286,,245,218,66 P,0,33286,,A M,7,33286,34006,111,314,116,338 S,6,33286,34006,-0.02971853,0
Sprite,Foreground,Centre,"sb\particle.png",0,0 F,0,33286,,0.66 C,0,33286,,245,218,66 P,0,33286,,A M,7,33286,34006,111,314,139,316 S,6,33286,34006,0.376106,0
Sprite,Foreground,Centre,"sb\particle.png",0,0 F,0,33286,,0.66 C,0,33286,,255,232,99 P,0,33286,,A M,7,33286,34006,111,314,149,298 S,6,33286,34006,0.4828,0
Sprite,Foreground,Centre,"sb\particle.png",0,0 F,0,33286,,0.66 C,0,33286,,255,232,99 P,0,33286,,A M,7,33286,34006,111,314,139,260 S,6,33286,34006,0.1241528,0
Sprite,Foreground,Centre,"sb\particle.png",0,0 F,0,33286,,0.66 C,0,33286,,255,232,99 P,0,33286,,A M,7,33286,34006,111,314,130,269 S,6,33286,34006,-0.1640863,0
Sprite,Foreground,Centre,"sb\particle.png",0,0 F,0,33286,,0.66 C,0,33286,,255,232,99 P,0,33286,,A M,7,33286,34006,111,314,84,278 S,6,33286,34006,-0.06290708,0
Sprite,Foreground,Centre,"sb\particle.png",0,0 F,0,33286,,0.66 C,0,33286,,255,232,99 P,0,33286,,A M,7,33286,34006,111,314,105,260 S,6,33286,34006,-0.1801454,0
Sprite,Foreground,Centre,"sb\particle.png",0,0 F,0,33286,,0.66 C,0,33286,,255,232,99 P,0,33286,,A M,7,33286,34006,111,314,161,312 S,6,33286,34006,-0.2197442,0
Sprite,Foreground,Centre,"sb\particle.png",0,0 F,0,33286,,0.66 C,0,33286,,255,232,99 P,0,33286,,A M,7,33286,34006,111,314,129,307 S,6,33286,34006,-0.2172306,0
Sprite,Foreground,Centre,"sb\particle.png",0,0 F,0,33286,,0.66 C,0,33286,,255,232,99 P,0,33286,,A M,7,33286,34006,111,314,157,261 S,6,33286,34006,0.1805302,0
Sprite,Foreground,Centre,"sb\particle.png",0,0 F,0,33286,,0.66 C,0,33286,,255,232,99 P,0,33286,,A M,7,33286,34006,111,314,88,312 S,6,33286,34006,-0.1833507,0
Sprite,Foreground,Centre,"sb\particle.png",0,0 F,0,33286,,0.66 C,0,33286,,255,232,99 P,0,33286,,A M,7,33286,34006,111,314,86,271 S,6,33286,34006,-0.2455625,0
Sprite,Foreground,Centre,"sb\particle.png",0,0 F,0,33853,,0.66 C,0,33853,,245,218,66 P,0,33853,,A M,7,33853,34573,333,390,307,422 S,6,33853,34573,0.3872923,0
Sprite,Foreground,Centre,"sb\particle.png",0,0 F,0,33853,,0.66 C,0,33853,,245,218,66 P,0,33853,,A M,7,33853,34573,333,390,357,342 S,6,33853,34573,0.4966204,0
Sprite,Foreground,Centre,"sb\particle.png",0,0 F,0,33853,,0.66 C,0,33853,,245,218,66 P,0,33853,,A M,7,33853,34573,333,390,343,405 S,6,33853,34573,0.1796627,0
Sprite,Foreground,Centre,"sb\particle.png",0,0 F,0,33853,,0.66 C,0,33853,,245,218,66 P,0,33853,,A M,7,33853,34573,333,390,338,382 S,6,33853,34573,0.4088344,0
Sprite,Foreground,Centre,"sb\particle.png",0,0 F,0,33853,,0.66 C,0,33853,,245,218,66 P,0,33853,,A M,7,33853,34573,333,390,345,358 S,6,33853,34573,-0.009946143,0
Sprite,Foreground,Centre,"sb\particle.png",0,0 F,0,33853,,0.66 C,0,33853,,245,218,66 P,0,33853,,A M,7,33853,34573,333,390,369,378 S,6,33853,34573,-0.1418409,0
Sprite,Foreground,Centre,"sb\particle.png",0,0 F,0,33853,,0.66 C,0,33853,,245,218,66 P,0,33853,,A M,7,33853,34573,333,390,314,394 S,6,33853,34573,0.006745399,0
Sprite,Foreground,Centre,"sb\particle.png",0,0 F,0,33853,,0.66 C,0,33853,,255,232,99 P,0,33853,,A M,7,33853,34573,333,390,334,433 S,6,33853,34573,-0.01047529,0
Sprite,Foreground,Centre,"sb\particle.png",0,0 F,0,33853,,0.66 C,0,33853,,255,232,99 P,0,33853,,A M,7,33853,34573,333,390,352,390 S,6,33853,34573,0.2196253,0
Sprite,Foreground,Centre,"sb\particle.png",0,0 F,0,33853,,0.66 C,0,33853,,255,232,99 P,0,33853,,A M,7,33853,34573,333,390,299,403 S,6,33853,34573,0.2975644,0
Sprite,Foreground,Centre,"sb\particle.png",0,0 F,0,33853,,0.66 C,0,33853,,255,232,99 P,0,33853,,A M,7,33853,34573,333,390,316,363 S,6,33853,34573,-0.2129655,0
Sprite,Foreground,Centre,"sb\particle.png",0,0 F,0,33853,,0.66 C,0,33853,,255,232,99 P,0,33853,,A M,7,33853,34573,333,390,319,439 S,6,33853,34573,-0.2782856,0
Sprite,Foreground,Centre,"sb\particle.png",0,0 F,0,33853,,0.66 C,0,33853,,255,232,99 P,0,33853,,A M,7,33853,34573,333,390,333,420 S,6,33853,34573,0.001352835,0
Sprite,Foreground,Centre,"sb\particle.png",0,0 F,0,33853,,0.66 C,0,33853,,255,232,99 P,0,33853,,A M,7,33853,34573,333,390,321,382 S,6,33853,34573,0.4455293,0
Sprite,Foreground,Centre,"sb\particle.png",0,0 F,0,33853,,0.66 C,0,33853,,255,232,99 P,0,33853,,A M,7,33853,34573,333,390,312,359 S,6,33853,34573,0.2901343,0
Sprite,Foreground,Centre,"sb\particle.png",0,0 F,0,33853,,0.66 C,0,33853,,255,232,99 P,0,33853,,A M,7,33853,34573,333,390,352,376 S,6,33853,34573,0.2978233,0
Sprite,Foreground,Centre,"sb\particle.png",0,0 F,0,33853,,0.66 C,0,33853,,255,232,99 P,0,33853,,A M,7,33853,34573,333,390,354,412 S,6,33853,34573,-0.0467643,0
Sprite,Foreground,Centre,"sb\particle.png",0,0 F,0,34042,,0.66 C,0,34042,,245,218,66 P,0,34042,,A M,7,34042,34762,386,301,434,329 S,6,34042,34762,0.4796667,0
Sprite,Foreground,Centre,"sb\particle.png",0,0 F,0,34042,,0.66 C,0,34042,,245,218,66 P,0,34042,,A M,7,34042,34762,386,301,421,272 S,6,34042,34762,-0.18873,0
Sprite,Foreground,Centre,"sb\particle.png",0,0 F,0,34042,,0.66 C,0,34042,,245,218,66 P,0,34042,,A M,7,34042,34762,386,301,361,350 S,6,34042,34762,-0.1843701,0
Sprite,Foreground,Centre,"sb\particle.png",0,0 F,0,34042,,0.66 C,0,34042,,245,218,66 P,0,34042,,A M,7,34042,34762,386,301,426,277 S,6,34042,34762,0.3596322,0
Sprite,Foreground,Centre,"sb\particle.png",0,0 F,0,34042,,0.66 C,0,34042,,245,218,66 P,0,34042,,A M,7,34042,34762,386,301,364,257 S,6,34042,34762,0.180211,0
Sprite,Foreground,Centre,"sb\particle.png",0,0 F,0,34042,,0.66 C,0,34042,,245,218,66 P,0,34042,,A M,7,34042,34762,386,301,433,289 S,6,34042,34762,0.3220995,0
Sprite,Foreground,Centre,"sb\particle.png",0,0 F,0,34042,,0.66 C,0,34042,,245,218,66 P,0,34042,,A M,7,34042,34762,386,301,344,347 S,6,34042,34762,0.3457845,0
Sprite,Foreground,Centre,"sb\particle.png",0,0 F,0,34042,,0.66 C,0,34042,,255,232,99 P,0,34042,,A M,7,34042,34762,386,301,378,348 S,6,34042,34762,-0.06810926,0
Sprite,Foreground,Centre,"sb\particle.png",0,0 F,0,34042,,0.66 C,0,34042,,255,232,99 P,0,34042,,A M,7,34042,34762,386,301,372,353 S,6,34042,34762,0.05391655,0
Sprite,Foreground,Centre,"sb\particle.png",0,0 F,0,34042,,0.66 C,0,34042,,255,232,99 P,0,34042,,A M,7,34042,34762,386,301,375,297 S,6,34042,34762,-0.1762687,0
Sprite,Foreground,Centre,"sb\particle.png",0,0 F,0,34042,,0.66 C,0,34042,,255,232,99 P,0,34042,,A M,7,34042,34762,386,301,359,260 S,6,34042,34762,0.1234399,0
Sprite,Foreground,Centre,"sb\particle.png",0,0 F,0,34042,,0.66 C,0,34042,,255,232,99 P,0,34042,,A M,7,34042,34762,386,301,391,283 S,6,34042,34762,0.05062788,0
Sprite,Foreground,Centre,"sb\particle.png",0,0 F,0,34042,,0.66 C,0,34042,,255,232,99 P,0,34042,,A M,7,34042,34762,386,301,417,311 S,6,34042,34762,0.04430959,0
Sprite,Foreground,Centre,"sb\particle.png",0,0 F,0,34042,,0.66 C,0,34042,,255,232,99 P,0,34042,,A M,7,34042,34762,386,301,401,255 S,6,34042,34762,-0.2325189,0
Sprite,Foreground,Centre,"sb\particle.png",0,0 F,0,34042,,0.66 C,0,34042,,255,232,99 P,0,34042,,A M,7,34042,34762,386,301,419,301 S,6,34042,34762,0.3133151,0
Sprite,Foreground,Centre,"sb\particle.png",0,0 F,0,34042,,0.66 C,0,34042,,255,232,99 P,0,34042,,A M,7,34042,34762,386,301,387,258 S,6,34042,34762,0.1112895,0
Sprite,Foreground,Centre,"sb\particle.png",0,0 F,0,34042,,0.66 C,0,34042,,255,232,99 P,0,34042,,A M,7,34042,34762,386,301,434,317 S,6,34042,34762,0.3126409,0
Sprite,Foreground,Centre,"sb\particle.png",0,0 F,0,34419,,0.66 C,0,34419,,245,218,66 P,0,34419,,A M,7,34419,35139,276,196,311,183 S,6,34419,35139,0.2390292,0
Sprite,Foreground,Centre,"sb\particle.png",0,0 F,0,34419,,0.66 C,0,34419,,245,218,66 P,0,34419,,A M,7,34419,35139,276,196,287,236 S,6,34419,35139,0.2359009,0
Sprite,Foreground,Centre,"sb\particle.png",0,0 F,0,34419,,0.66 C,0,34419,,245,218,66 P,0,34419,,A M,7,34419,35139,276,196,226,246 S,6,34419,35139,0.3114766,0
Sprite,Foreground,Centre,"sb\particle.png",0,0 F,0,34419,,0.66 C,0,34419,,245,218,66 P,0,34419,,A M,7,34419,35139,276,196,286,235 S,6,34419,35139,-0.1174937,0
Sprite,Foreground,Centre,"sb\particle.png",0,0 F,0,34419,,0.66 C,0,34419,,245,218,66 P,0,34419,,A M,7,34419,35139,276,196,295,210 S,6,34419,35139,-0.1335594,0
Sprite,Foreground,Centre,"sb\particle.png",0,0 F,0,34419,,0.66 C,0,34419,,245,218,66 P,0,34419,,A M,7,34419,35139,276,196,275,158 S,6,34419,35139,0.4102995,0
Sprite,Foreground,Centre,"sb\particle.png",0,0 F,0,34419,,0.66 C,0,34419,,245,218,66 P,0,34419,,A M,7,34419,35139,276,196,259,164 S,6,34419,35139,-0.05707341,0
Sprite,Foreground,Centre,"sb\particle.png",0,0 F,0,34419,,0.66 C,0,34419,,255,232,99 P,0,34419,,A M,7,34419,35139,276,196,323,194 S,6,34419,35139,0.08145397,0
Sprite,Foreground,Centre,"sb\particle.png",0,0 F,0,34419,,0.66 C,0,34419,,255,232,99 P,0,34419,,A M,7,34419,35139,276,196,227,196 S,6,34419,35139,0.04593034,0
Sprite,Foreground,Centre,"sb\particle.png",0,0 F,0,34419,,0.66 C,0,34419,,255,232,99 P,0,34419,,A M,7,34419,35139,276,196,316,176 S,6,34419,35139,0.2680776,0
Sprite,Foreground,Centre,"sb\particle.png",0,0 F,0,34419,,0.66 C,0,34419,,255,232,99 P,0,34419,,A M,7,34419,35139,276,196,227,199 S,6,34419,35139,-0.2091298,0
Sprite,Foreground,Centre,"sb\particle.png",0,0 F,0,34419,,0.66 C,0,34419,,255,232,99 P,0,34419,,A M,7,34419,35139,276,196,310,147 S,6,34419,35139,0.2380734,0
Sprite,Foreground,Centre,"sb\particle.png",0,0 F,0,34419,,0.66 C,0,34419,,255,232,99 P,0,34419,,A M,7,34419,35139,276,196,256,144 S,6,34419,35139,-0.1325788,0
Sprite,Foreground,Centre,"sb\particle.png",0,0 F,0,34419,,0.66 C,0,34419,,255,232,99 P,0,34419,,A M,7,34419,35139,276,196,236,217 S,6,34419,35139,-0.05898936,0
Sprite,Foreground,Centre,"sb\particle.png",0,0 F,0,34419,,0.66 C,0,34419,,255,232,99 P,0,34419,,A M,7,34419,35139,276,196,223,214 S,6,34419,35139,0.2920077,0
Sprite,Foreground,Centre,"sb\particle.png",0,0 F,0,34419,,0.66 C,0,34419,,255,232,99 P,0,34419,,A M,7,34419,35139,276,196,271,195 S,6,34419,35139,0.4158598,0
Sprite,Foreground,Centre,"sb\particle.png",0,0 F,0,34419,,0.66 C,0,34419,,255,232,99 P,0,34419,,A M,7,34419,35139,276,196,265,143 S,6,34419,35139,0.1949041,0
Sprite,Foreground,Centre,"sb\particle.png",0,0 F,0,34797,,0.66 C,0,34797,,245,218,66 P,0,34797,,A M,7,34797,35517,375,70,387,53 S,6,34797,35517,0.0540317,0
Sprite,Foreground,Centre,"sb\particle.png",0,0 F,0,34797,,0.66 C,0,34797,,245,218,66 P,0,34797,,A M,7,34797,35517,375,70,343,123 S,6,34797,35517,0.1144287,0
Sprite,Foreground,Centre,"sb\particle.png",0,0 F,0,34797,,0.66 C,0,34797,,245,218,66 P,0,34797,,A M,7,34797,35517,375,70,388,27 S,6,34797,35517,0.05143653,0
Sprite,Foreground,Centre,"sb\particle.png",0,0 F,0,34797,,0.66 C,0,34797,,245,218,66 P,0,34797,,A M,7,34797,35517,375,70,368,20 S,6,34797,35517,-0.2465614,0
Sprite,Foreground,Centre,"sb\particle.png",0,0 F,0,34797,,0.66 C,0,34797,,245,218,66 P,0,34797,,A M,7,34797,35517,375,70,393,102 S,6,34797,35517,-0.07661796,0
Sprite,Foreground,Centre,"sb\particle.png",0,0 F,0,34797,,0.66 C,0,34797,,245,218,66 P,0,34797,,A M,7,34797,35517,375,70,352,33 S,6,34797,35517,0.06212525,0
Sprite,Foreground,Centre,"sb\particle.png",0,0 F,0,34797,,0.66 C,0,34797,,245,218,66 P,0,34797,,A M,7,34797,35517,375,70,360,99 S,6,34797,35517,0.1996956,0
Sprite,Foreground,Centre,"sb\particle.png",0,0 F,0,34797,,0.66 C,0,34797,,255,232,99 P,0,34797,,A M,7,34797,35517,375,70,403,50 S,6,34797,35517,-0.216376,0
Sprite,Foreground,Centre,"sb\particle.png",0,0 F,0,34797,,0.66 C,0,34797,,255,232,99 P,0,34797,,A M,7,34797,35517,375,70,344,86 S,6,34797,35517,-0.1841758,0
Sprite,Foreground,Centre,"sb\particle.png",0,0 F,0,34797,,0.66 C,0,34797,,255,232,99 P,0,34797,,A M,7,34797,35517,375,70,331,110 S,6,34797,35517,0.2697258,0
Sprite,Foreground,Centre,"sb\particle.png",0,0 F,0,34797,,0.66 C,0,34797,,255,232,99 P,0,34797,,A M,7,34797,35517,375,70,355,101 S,6,34797,35517,0.4019729,0
Sprite,Foreground,Centre,"sb\particle.png",0,0 F,0,34797,,0.66 C,0,34797,,255,232,99 P,0,34797,,A M,7,34797,35517,375,70,428,85 S,6,34797,35517,-0.2807672,0
Sprite,Foreground,Centre,"sb\particle.png",0,0 F,0,34797,,0.66 C,0,34797,,255,232,99 P,0,34797,,A M,7,34797,35517,375,70,414,102 S,6,34797,35517,0.1565533,0
Sprite,Foreground,Centre,"sb\particle.png",0,0 F,0,34797,,0.66 C,0,34797,,255,232,99 P,0,34797,,A M,7,34797,35517,375,70,422,91 S,6,34797,35517,-0.1536677,0
Sprite,Foreground,Centre,"sb\particle.png",0,0 F,0,34797,,0.66 C,0,34797,,255,232,99 P,0,34797,,A M,7,34797,35517,375,70,385,96 S,6,34797,35517,0.1991954,0
Sprite,Foreground,Centre,"sb\particle.png",0,0 F,0,34797,,0.66 C,0,34797,,255,232,99 P,0,34797,,A M,7,34797,35517,375,70,428,95 S,6,34797,35517,0.3818463,0
Sprite,Foreground,Centre,"sb\particle.png",0,0 F,0,34797,,0.66 C,0,34797,,255,232,99 P,0,34797,,A M,7,34797,35517,375,70,417,30 S,6,34797,35517,-0.05900907,0
Sprite,Foreground,Centre,"sb\particle.png",0,0 F,0,35363,,0.66 C,0,35363,,245,218,66 P,0,35363,,A M,7,35363,36083,565,196,563,146 S,6,35363,36083,0.1522922,0
Sprite,Foreground,Centre,"sb\particle.png",0,0 F,0,35363,,0.66 C,0,35363,,245,218,66 P,0,35363,,A M,7,35363,36083,565,196,596,243 S,6,35363,36083,-0.01628726,0
Sprite,Foreground,Centre,"sb\particle.png",0,0 F,0,35363,,0.66 C,0,35363,,245,218,66 P,0,35363,,A M,7,35363,36083,565,196,549,142 S,6,35363,36083,0.3940651,0
Sprite,Foreground,Centre,"sb\particle.png",0,0 F,0,35363,,0.66 C,0,35363,,245,218,66 P,0,35363,,A M,7,35363,36083,565,196,581,172 S,6,35363,36083,0.06321007,0
Sprite,Foreground,Centre,"sb\particle.png",0,0 F,0,35363,,0.66 C,0,35363,,245,218,66 P,0,35363,,A M,7,35363,36083,565,196,548,206 S,6,35363,36083,0.359722,0
Sprite,Foreground,Centre,"sb\particle.png",0,0 F,0,35363,,0.66 C,0,35363,,245,218,66 P,0,35363,,A M,7,35363,36083,565,196,524,191 S,6,35363,36083,0.2890612,0
Sprite,Foreground,Centre,"sb\particle.png",0,0 F,0,35363,,0.66 C,0,35363,,245,218,66 P,0,35363,,A M,7,35363,36083,565,196,587,185 S,6,35363,36083,0.01760016,0
Sprite,Foreground,Centre,"sb\particle.png",0,0 F,0,35363,,0.66 C,0,35363,,255,232,99 P,0,35363,,A M,7,35363,36083,565,196,554,237 S,6,35363,36083,0.1340299,0
Sprite,Foreground,Centre,"sb\particle.png",0,0 F,0,35363,,0.66 C,0,35363,,255,232,99 P,0,35363,,A M,7,35363,36083,565,196,616,145 S,6,35363,36083,-0.07146735,0
Sprite,Foreground,Centre,"sb\particle.png",0,0 F,0,35363,,0.66 C,0,35363,,255,232,99 P,0,35363,,A M,7,35363,36083,565,196,591,202 S,6,35363,36083,0.04952845,0
Sprite,Foreground,Centre,"sb\particle.png",0,0 F,0,35363,,0.66 C,0,35363,,255,232,99 P,0,35363,,A M,7,35363,36083,565,196,617,237 S,6,35363,36083,-0.06271809,0
Sprite,Foreground,Centre,"sb\particle.png",0,0 F,0,35363,,0.66 C,0,35363,,255,232,99 P,0,35363,,A M,7,35363,36083,565,196,595,216 S,6,35363,36083,0.4450665,0
Sprite,Foreground,Centre,"sb\particle.png",0,0 F,0,35363,,0.66 C,0,35363,,255,232,99 P,0,35363,,A M,7,35363,36083,565,196,545,192 S,6,35363,36083,0.4580735,0
Sprite,Foreground,Centre,"sb\particle.png",0,0 F,0,35363,,0.66 C,0,35363,,255,232,99 P,0,35363,,A M,7,35363,36083,565,196,513,153 S,6,35363,36083,-0.1645134,0
Sprite,Foreground,Centre,"sb\particle.png",0,0 F,0,35363,,0.66 C,0,35363,,255,232,99 P,0,35363,,A M,7,35363,36083,565,196,589,204 S,6,35363,36083,0.08956899,0
Sprite,Foreground,Centre,"sb\particle.png",0,0 F,0,35363,,0.66 C,0,35363,,255,232,99 P,0,35363,,A M,7,35363,36083,565,196,608,234 S,6,35363,36083,-0.2362756,0
Sprite,Foreground,Centre,"sb\particle.png",0,0 F,0,35363,,0.66 C,0,35363,,255,232,99 P,0,35363,,A M,7,35363,36083,565,196,553,173 S,6,35363,36083,0.005895916,0
Sprite,Foreground,Centre,"sb\particle.png",0,0 F,0,35930,,0.66 C,0,35930,,245,218,66 P,0,35930,,A M,7,35930,36650,345,277,298,245 S,6,35930,36650,-0.05340557,0
Sprite,Foreground,Centre,"sb\particle.png",0,0 F,0,35930,,0.66 C,0,35930,,245,218,66 P,0,35930,,A M,7,35930,36650,345,277,387,281 S,6,35930,36650,-0.2863184,0
Sprite,Foreground,Centre,"sb\particle.png",0,0 F,0,35930,,0.66 C,0,35930,,245,218,66 P,0,35930,,A M,7,35930,36650,345,277,330,300 S,6,35930,36650,0.1052518,0
Sprite,Foreground,Centre,"sb\particle.png",0,0 F,0,35930,,0.66 C,0,35930,,245,218,66 P,0,35930,,A M,7,35930,36650,345,277,338,240 S,6,35930,36650,0.4650178,0
Sprite,Foreground,Centre,"sb\particle.png",0,0 F,0,35930,,0.66 C,0,35930,,245,218,66 P,0,35930,,A M,7,35930,36650,345,277,374,229 S,6,35930,36650,0.4437665,0
Sprite,Foreground,Centre,"sb\particle.png",0,0 F,0,35930,,0.66 C,0,35930,,245,218,66 P,0,35930,,A M,7,35930,36650,345,277,393,284 S,6,35930,36650,-0.03786587,0
Sprite,Foreground,Centre,"sb\particle.png",0,0 F,0,35930,,0.66 C,0,35930,,245,218,66 P,0,35930,,A M,7,35930,36650,345,277,291,270 S,6,35930,36650,0.161901,0
Sprite,Foreground,Centre,"sb\particle.png",0,0 F,0,35930,,0.66 C,0,35930,,255,232,99 P,0,35930,,A M,7,35930,36650,345,277,367,290 S,6,35930,36650,-0.0258003,0
Sprite,Foreground,Centre,"sb\particle.png",0,0 F,0,35930,,0.66 C,0,35930,,255,232,99 P,0,35930,,A M,7,35930,36650,345,277,354,251 S,6,35930,36650,0.3591662,0
Sprite,Foreground,Centre,"sb\particle.png",0,0 F,0,35930,,0.66 C,0,35930,,255,232,99 P,0,35930,,A M,7,35930,36650,345,277,291,248 S,6,35930,36650,-0.2848949,0
Sprite,Foreground,Centre,"sb\particle.png",0,0 F,0,35930,,0.66 C,0,35930,,255,232,99 P,0,35930,,A M,7,35930,36650,345,277,368,327 S,6,35930,36650,-0.2943272,0
Sprite,Foreground,Centre,"sb\particle.png",0,0 F,0,35930,,0.66 C,0,35930,,255,232,99 P,0,35930,,A M,7,35930,36650,345,277,296,321 S,6,35930,36650,-0.05181805,0
Sprite,Foreground,Centre,"sb\particle.png",0,0 F,0,35930,,0.66 C,0,35930,,255,232,99 P,0,35930,,A M,7,35930,36650,345,277,362,226 S,6,35930,36650,-0.07178306,0
Sprite,Foreground,Centre,"sb\particle.png",0,0 F,0,35930,,0.66 C,0,35930,,255,232,99 P,0,35930,,A M,7,35930,36650,345,277,337,270 S,6,35930,36650,0.4796242,0
Sprite,Foreground,Centre,"sb\particle.png",0,0 F,0,35930,,0.66 C,0,35930,,255,232,99 P,0,35930,,A M,7,35930,36650,345,277,305,286 S,6,35930,36650,0.4674257,0
Sprite,Foreground,Centre,"sb\particle.png",0,0 F,0,35930,,0.66 C,0,35930,,255,232,99 P,0,35930,,A M,7,35930,36650,345,277,377,304 S,6,35930,36650,-0.01023076,0
Sprite,Foreground,Centre,"sb\particle.png",0,0 F,0,35930,,0.66 C,0,35930,,255,232,99 P,0,35930,,A M,7,35930,36650,345,277,312,273 S,6,35930,36650,0.04641552,0
Sprite,Foreground,Centre,"sb\particle.png",0,0 F,0,36118,,0.66 C,0,36118,,245,218,66 P,0,36118,,A M,7,36118,36838,242,265,246,291 S,6,36118,36838,-0.08549397,0
Sprite,Foreground,Centre,"sb\particle.png",0,0 F,0,36118,,0.66 C,0,36118,,245,218,66 P,0,36118,,A M,7,36118,36838,242,265,203,227 S,6,36118,36838,0.4499126,0
Sprite,Foreground,Centre,"sb\particle.png",0,0 F,0,36118,,0.66 C,0,36118,,245,218,66 P,0,36118,,A M,7,36118,36838,242,265,194,220 S,6,36118,36838,0.1234042,0
Sprite,Foreground,Centre,"sb\particle.png",0,0 F,0,36118,,0.66 C,0,36118,,245,218,66 P,0,36118,,A M,7,36118,36838,242,265,191,271 S,6,36118,36838,-0.07926253,0
Sprite,Foreground,Centre,"sb\particle.png",0,0 F,0,36118,,0.66 C,0,36118,,245,218,66 P,0,36118,,A M,7,36118,36838,242,265,262,248 S,6,36118,36838,0.135942,0
Sprite,Foreground,Centre,"sb\particle.png",0,0 F,0,36118,,0.66 C,0,36118,,245,218,66 P,0,36118,,A M,7,36118,36838,242,265,218,315 S,6,36118,36838,0.1409649,0
Sprite,Foreground,Centre,"sb\particle.png",0,0 F,0,36118,,0.66 C,0,36118,,245,218,66 P,0,36118,,A M,7,36118,36838,242,265,278,308 S,6,36118,36838,0.1070616,0
Sprite,Foreground,Centre,"sb\particle.png",0,0 F,0,36118,,0.66 C,0,36118,,255,232,99 P,0,36118,,A M,7,36118,36838,242,265,213,211 S,6,36118,36838,-0.2647532,0
Sprite,Foreground,Centre,"sb\particle.png",0,0 F,0,36118,,0.66 C,0,36118,,255,232,99 P,0,36118,,A M,7,36118,36838,242,265,216,247 S,6,36118,36838,-0.1906493,0
Sprite,Foreground,Centre,"sb\particle.png",0,0 F,0,36118,,0.66 C,0,36118,,255,232,99 P,0,36118,,A M,7,36118,36838,242,265,245,215 S,6,36118,36838,0.03933731,0
Sprite,Foreground,Centre,"sb\particle.png",0,0 F,0,36118,,0.66 C,0,36118,,255,232,99 P,0,36118,,A M,7,36118,36838,242,265,249,281 S,6,36118,36838,0.01572878,0
Sprite,Foreground,Centre,"sb\particle.png",0,0 F,0,36118,,0.66 C,0,36118,,255,232,99 P,0,36118,,A M,7,36118,36838,242,265,203,240 S,6,36118,36838,-0.02811465,0
Sprite,Foreground,Centre,"sb\particle.png",0,0 F,0,36118,,0.66 C,0,36118,,255,232,99 P,0,36118,,A M,7,36118,36838,242,265,236,212 S,6,36118,36838,-0.2171953,0
Sprite,Foreground,Centre,"sb\particle.png",0,0 F,0,36118,,0.66 C,0,36118,,255,232,99 P,0,36118,,A M,7,36118,36838,242,265,253,285 S,6,36118,36838,-0.09194716,0
Sprite,Foreground,Centre,"sb\particle.png",0,0 F,0,36118,,0.66 C,0,36118,,255,232,99 P,0,36118,,A M,7,36118,36838,242,265,196,277 S,6,36118,36838,-0.05935356,0
Sprite,Foreground,Centre,"sb\particle.png",0,0 F,0,36118,,0.66 C,0,36118,,255,232,99 P,0,36118,,A M,7,36118,36838,242,265,287,296 S,6,36118,36838,-0.05556433,0
Sprite,Foreground,Centre,"sb\particle.png",0,0 F,0,36118,,0.66 C,0,36118,,255,232,99 P,0,36118,,A M,7,36118,36838,242,265,199,228 S,6,36118,36838,0.2419554,0
Sprite,Foreground,Centre,"sb\particle.png",0,0 F,0,36307,,0.66 C,0,36307,,245,218,66 P,0,36307,,A M,7,36307,37027,181,181,226,227 S,6,36307,37027,0.09281108,0
Sprite,Foreground,Centre,"sb\particle.png",0,0 F,0,36307,,0.66 C,0,36307,,245,218,66 P,0,36307,,A M,7,36307,37027,181,181,161,129 S,6,36307,37027,0.3814001,0
Sprite,Foreground,Centre,"sb\particle.png",0,0 F,0,36307,,0.66 C,0,36307,,245,218,66 P,0,36307,,A M,7,36307,37027,181,181,140,201 S,6,36307,37027,-0.2592264,0
Sprite,Foreground,Centre,"sb\particle.png",0,0 F,0,36307,,0.66 C,0,36307,,245,218,66 P,0,36307,,A M,7,36307,37027,181,181,127,188 S,6,36307,37027,0.02664219,0
Sprite,Foreground,Centre,"sb\particle.png",0,0 F,0,36307,,0.66 C,0,36307,,245,218,66 P,0,36307,,A M,7,36307,37027,181,181,180,169 S,6,36307,37027,0.09290113,0
Sprite,Foreground,Centre,"sb\particle.png",0,0 F,0,36307,,0.66 C,0,36307,,245,218,66 P,0,36307,,A M,7,36307,37027,181,181,148,187 S,6,36307,37027,-0.2997863,0
Sprite,Foreground,Centre,"sb\particle.png",0,0 F,0,36307,,0.66 C,0,36307,,245,218,66 P,0,36307,,A M,7,36307,37027,181,181,205,165 S,6,36307,37027,-0.1455824,0
Sprite,Foreground,Centre,"sb\particle.png",0,0 F,0,36307,,0.66 C,0,36307,,255,232,99 P,0,36307,,A M,7,36307,37027,181,181,183,224 S,6,36307,37027,0.1918126,0
Sprite,Foreground,Centre,"sb\particle.png",0,0 F,0,36307,,0.66 C,0,36307,,255,232,99 P,0,36307,,A M,7,36307,37027,181,181,195,171 S,6,36307,37027,0.3626306,0
Sprite,Foreground,Centre,"sb\particle.png",0,0 F,0,36307,,0.66 C,0,36307,,255,232,99 P,0,36307,,A M,7,36307,37027,181,181,151,147 S,6,36307,37027,-0.03081948,0
Sprite,Foreground,Centre,"sb\particle.png",0,0 F,0,36307,,0.66 C,0,36307,,255,232,99 P,0,36307,,A M,7,36307,37027,181,181,171,216 S,6,36307,37027,0.463409,0
Sprite,Foreground,Centre,"sb\particle.png",0,0 F,0,36307,,0.66 C,0,36307,,255,232,99 P,0,36307,,A M,7,36307,37027,181,181,211,127 S,6,36307,37027,0.4326428,0
Sprite,Foreground,Centre,"sb\particle.png",0,0 F,0,36307,,0.66 C,0,36307,,255,232,99 P,0,36307,,A M,7,36307,37027,181,181,149,228 S,6,36307,37027,-0.2425587,0
Sprite,Foreground,Centre,"sb\particle.png",0,0 F,0,36307,,0.66 C,0,36307,,255,232,99 P,0,36307,,A M,7,36307,37027,181,181,224,182 S,6,36307,37027,0.04645275,0
Sprite,Foreground,Centre,"sb\particle.png",0,0 F,0,36307,,0.66 C,0,36307,,255,232,99 P,0,36307,,A M,7,36307,37027,181,181,138,146 S,6,36307,37027,0.2996753,0
Sprite,Foreground,Centre,"sb\particle.png",0,0 F,0,36307,,0.66 C,0,36307,,255,232,99 P,0,36307,,A M,7,36307,37027,181,181,179,135 S,6,36307,37027,0.02185136,0
Sprite,Foreground,Centre,"sb\particle.png",0,0 F,0,36307,,0.66 C,0,36307,,255,232,99 P,0,36307,,A M,7,36307,37027,181,181,171,184 S,6,36307,37027,-0.1256236,0
Sprite,Foreground,Centre,"sb\particle.png",0,0 F,0,36874,,0.66 C,0,36874,,245,218,66 P,0,36874,,A M,7,36874,37594,68,358,45,408 S,6,36874,37594,0.3900408,0
Sprite,Foreground,Centre,"sb\particle.png",0,0 F,0,36874,,0.66 C,0,36874,,245,218,66 P,0,36874,,A M,7,36874,37594,68,358,105,340 S,6,36874,37594,-0.2425383,0
Sprite,Foreground,Centre,"sb\particle.png",0,0 F,0,36874,,0.66 C,0,36874,,245,218,66 P,0,36874,,A M,7,36874,37594,68,358,23,365 S,6,36874,37594,0.01543383,0
Sprite,Foreground,Centre,"sb\particle.png",0,0 F,0,36874,,0.66 C,0,36874,,245,218,66 P,0,36874,,A M,7,36874,37594,68,358,35,368 S,6,36874,37594,-0.1282347,0
Sprite,Foreground,Centre,"sb\particle.png",0,0 F,0,36874,,0.66 C,0,36874,,245,218,66 P,0,36874,,A M,7,36874,37594,68,358,101,360 S,6,36874,37594,-0.1005201,0
Sprite,Foreground,Centre,"sb\particle.png",0,0 F,0,36874,,0.66 C,0,36874,,245,218,66 P,0,36874,,A M,7,36874,37594,68,358,64,378 S,6,36874,37594,0.4084072,0
Sprite,Foreground,Centre,"sb\particle.png",0,0 F,0,36874,,0.66 C,0,36874,,245,218,66 P,0,36874,,A M,7,36874,37594,68,358,68,315 S,6,36874,37594,-0.02742932,0
Sprite,Foreground,Centre,"sb\particle.png",0,0 F,0,36874,,0.66 C,0,36874,,255,232,99 P,0,36874,,A M,7,36874,37594,68,358,83,336 S,6,36874,37594,-0.2470329,0
Sprite,Foreground,Centre,"sb\particle.png",0,0 F,0,36874,,0.66 C,0,36874,,255,232,99 P,0,36874,,A M,7,36874,37594,68,358,41,348 S,6,36874,37594,0.001008404,0
Sprite,Foreground,Centre,"sb\particle.png",0,0 F,0,36874,,0.66 C,0,36874,,255,232,99 P,0,36874,,A M,7,36874,37594,68,358,59,379 S,6,36874,37594,0.4040119,0
Sprite,Foreground,Centre,"sb\particle.png",0,0 F,0,36874,,0.66 C,0,36874,,255,232,99 P,0,36874,,A M,7,36874,37594,68,358,116,370 S,6,36874,37594,-0.02276147,0
Sprite,Foreground,Centre,"sb\particle.png",0,0 F,0,36874,,0.66 C,0,36874,,255,232,99 P,0,36874,,A M,7,36874,37594,68,358,38,380 S,6,36874,37594,-0.02775515,0
Sprite,Foreground,Centre,"sb\particle.png",0,0 F,0,36874,,0.66 C,0,36874,,255,232,99 P,0,36874,,A M,7,36874,37594,68,358,18,326 S,6,36874,37594,0.4248756,0
Sprite,Foreground,Centre,"sb\particle.png",0,0 F,0,36874,,0.66 C,0,36874,,255,232,99 P,0,36874,,A M,7,36874,37594,68,358,38,406 S,6,36874,37594,-0.1119421,0
Sprite,Foreground,Centre,"sb\particle.png",0,0 F,0,36874,,0.66 C,0,36874,,255,232,99 P,0,36874,,A M,7,36874,37594,68,358,114,340 S,6,36874,37594,-0.05369393,0
Sprite,Foreground,Centre,"sb\particle.png",0,0 F,0,36874,,0.66 C,0,36874,,255,232,99 P,0,36874,,A M,7,36874,37594,68,358,108,347 S,6,36874,37594,0.2211368,0
Sprite,Foreground,Centre,"sb\particle.png",0,0 F,0,36874,,0.66 C,0,36874,,255,232,99 P,0,36874,,A M,7,36874,37594,68,358,43,387 S,6,36874,37594,0.3526805,0
Sprite,Foreground,Centre,"sb\particle.png",0,0 F,0,37062,,0.66 C,0,37062,,245,218,66 P,0,37062,,A M,7,37062,37782,157,408,179,378 S,6,37062,37782,0.2598179,0
Sprite,Foreground,Centre,"sb\particle.png",0,0 F,0,37062,,0.66 C,0,37062,,245,218,66 P,0,37062,,A M,7,37062,37782,157,408,168,373 S,6,37062,37782,-0.0322466,0
Sprite,Foreground,Centre,"sb\particle.png",0,0 F,0,37062,,0.66 C,0,37062,,245,218,66 P,0,37062,,A M,7,37062,37782,157,408,195,451 S,6,37062,37782,0.1805135,0
Sprite,Foreground,Centre,"sb\particle.png",0,0 F,0,37062,,0.66 C,0,37062,,245,218,66 P,0,37062,,A M,7,37062,37782,157,408,185,391 S,6,37062,37782,0.2262567,0
Sprite,Foreground,Centre,"sb\particle.png",0,0 F,0,37062,,0.66 C,0,37062,,245,218,66 P,0,37062,,A M,7,37062,37782,157,408,120,425 S,6,37062,37782,-0.1906372,0
Sprite,Foreground,Centre,"sb\particle.png",0,0 F,0,37062,,0.66 C,0,37062,,245,218,66 P,0,37062,,A M,7,37062,37782,157,408,109,381 S,6,37062,37782,-0.1566488,0
Sprite,Foreground,Centre,"sb\particle.png",0,0 F,0,37062,,0.66 C,0,37062,,245,218,66 P,0,37062,,A M,7,37062,37782,157,408,123,366 S,6,37062,37782,0.4884819,0
Sprite,Foreground,Centre,"sb\particle.png",0,0 F,0,37062,,0.66 C,0,37062,,255,232,99 P,0,37062,,A M,7,37062,37782,157,408,106,365 S,6,37062,37782,0.3178911,0
Sprite,Foreground,Centre,"sb\particle.png",0,0 F,0,37062,,0.66 C,0,37062,,255,232,99 P,0,37062,,A M,7,37062,37782,157,408,154,385 S,6,37062,37782,-0.07045324,0
Sprite,Foreground,Centre,"sb\particle.png",0,0 F,0,37062,,0.66 C,0,37062,,255,232,99 P,0,37062,,A M,7,37062,37782,157,408,164,461 S,6,37062,37782,0.3391967,0
Sprite,Foreground,Centre,"sb\particle.png",0,0 F,0,37062,,0.66 C,0,37062,,255,232,99 P,0,37062,,A M,7,37062,37782,157,408,115,421 S,6,37062,37782,-0.02879899,0
Sprite,Foreground,Centre,"sb\particle.png",0,0 F,0,37062,,0.66 C,0,37062,,255,232,99 P,0,37062,,A M,7,37062,37782,157,408,135,397 S,6,37062,37782,-0.04333021,0
Sprite,Foreground,Centre,"sb\particle.png",0,0 F,0,37062,,0.66 C,0,37062,,255,232,99 P,0,37062,,A M,7,37062,37782,157,408,171,398 S,6,37062,37782,-0.1657676,0
Sprite,Foreground,Centre,"sb\particle.png",0,0 F,0,37062,,0.66 C,0,37062,,255,232,99 P,0,37062,,A M,7,37062,37782,157,408,172,460 S,6,37062,37782,0.2924429,0
Sprite,Foreground,Centre,"sb\particle.png",0,0 F,0,37062,,0.66 C,0,37062,,255,232,99 P,0,37062,,A M,7,37062,37782,157,408,166,397 S,6,37062,37782,-0.174241,0
Sprite,Foreground,Centre,"sb\particle.png",0,0 F,0,37062,,0.66 C,0,37062,,255,232,99 P,0,37062,,A M,7,37062,37782,157,408,192,379 S,6,37062,37782,0.2424512,0
Sprite,Foreground,Centre,"sb\particle.png",0,0 F,0,37062,,0.66 C,0,37062,,255,232,99 P,0,37062,,A M,7,37062,37782,157,408,147,455 S,6,37062,37782,0.3834684,0
Sprite,Foreground,Centre,"sb\particle.png",0,0 F,0,37629,,0.66 C,0,37629,,245,218,66 P,0,37629,,A M,7,37629,38349,377,417,384,380 S,6,37629,38349,0.182684,0
Sprite,Foreground,Centre,"sb\particle.png",0,0 F,0,37629,,0.66 C,0,37629,,245,218,66 P,0,37629,,A M,7,37629,38349,377,417,358,446 S,6,37629,38349,0.38706,0
Sprite,Foreground,Centre,"sb\particle.png",0,0 F,0,37629,,0.66 C,0,37629,,245,218,66 P,0,37629,,A M,7,37629,38349,377,417,328,367 S,6,37629,38349,0.2163918,0
Sprite,Foreground,Centre,"sb\particle.png",0,0 F,0,37629,,0.66 C,0,37629,,245,218,66 P,0,37629,,A M,7,37629,38349,377,417,394,462 S,6,37629,38349,0.40012,0
Sprite,Foreground,Centre,"sb\particle.png",0,0 F,0,37629,,0.66 C,0,37629,,245,218,66 P,0,37629,,A M,7,37629,38349,377,417,416,417 S,6,37629,38349,0.1583098,0
Sprite,Foreground,Centre,"sb\particle.png",0,0 F,0,37629,,0.66 C,0,37629,,245,218,66 P,0,37629,,A M,7,37629,38349,377,417,327,414 S,6,37629,38349,0.1762909,0
Sprite,Foreground,Centre,"sb\particle.png",0,0 F,0,37629,,0.66 C,0,37629,,245,218,66 P,0,37629,,A M,7,37629,38349,377,417,392,447 S,6,37629,38349,-0.1029775,0
Sprite,Foreground,Centre,"sb\particle.png",0,0 F,0,37629,,0.66 C,0,37629,,255,232,99 P,0,37629,,A M,7,37629,38349,377,417,418,470 S,6,37629,38349,0.4769619,0
Sprite,Foreground,Centre,"sb\particle.png",0,0 F,0,37629,,0.66 C,0,37629,,255,232,99 P,0,37629,,A M,7,37629,38349,377,417,383,392 S,6,37629,38349,-0.2969475,0
Sprite,Foreground,Centre,"sb\particle.png",0,0 F,0,37629,,0.66 C,0,37629,,255,232,99 P,0,37629,,A M,7,37629,38349,377,417,366,450 S,6,37629,38349,0.4912667,0
Sprite,Foreground,Centre,"sb\particle.png",0,0 F,0,37629,,0.66 C,0,37629,,255,232,99 P,0,37629,,A M,7,37629,38349,377,417,339,445 S,6,37629,38349,-0.2751396,0
Sprite,Foreground,Centre,"sb\particle.png",0,0 F,0,37629,,0.66 C,0,37629,,255,232,99 P,0,37629,,A M,7,37629,38349,377,417,413,387 S,6,37629,38349,0.1866424,0
Sprite,Foreground,Centre,"sb\particle.png",0,0 F,0,37629,,0.66 C,0,37629,,255,232,99 P,0,37629,,A M,7,37629,38349,377,417,333,383 S,6,37629,38349,0.4466205,0
Sprite,Foreground,Centre,"sb\particle.png",0,0 F,0,37629,,0.66 C,0,37629,,255,232,99 P,0,37629,,A M,7,37629,38349,377,417,393,441 S,6,37629,38349,-0.09411123,0
Sprite,Foreground,Centre,"sb\particle.png",0,0 F,0,37629,,0.66 C,0,37629,,255,232,99 P,0,37629,,A M,7,37629,38349,377,417,392,432 S,6,37629,38349,0.2012406,0
Sprite,Foreground,Centre,"sb\particle.png",0,0 F,0,37629,,0.66 C,0,37629,,255,232,99 P,0,37629,,A M,7,37629,38349,377,417,388,435 S,6,37629,38349,0.2522351,0
Sprite,Foreground,Centre,"sb\particle.png",0,0 F,0,37629,,0.66 C,0,37629,,255,232,99 P,0,37629,,A M,7,37629,38349,377,417,409,384 S,6,37629,38349,-0.06006568,0
Sprite,Foreground,Centre,"sb\particle.png",0,0 F,0,37818,,0.66 C,0,37818,,245,218,66 P,0,37818,,A M,7,37818,38538,447,344,397,316 S,6,37818,38538,0.365872,0
Sprite,Foreground,Centre,"sb\particle.png",0,0 F,0,37818,,0.66 C,0,37818,,245,218,66 P,0,37818,,A M,7,37818,38538,447,344,464,345 S,6,37818,38538,0.4088534,0
Sprite,Foreground,Centre,"sb\particle.png",0,0 F,0,37818,,0.66 C,0,37818,,245,218,66 P,0,37818,,A M,7,37818,38538,447,344,470,370 S,6,37818,38538,0.2847182,0
Sprite,Foreground,Centre,"sb\particle.png",0,0 F,0,37818,,0.66 C,0,37818,,245,218,66 P,0,37818,,A M,7,37818,38538,447,344,480,337 S,6,37818,38538,0.3062376,0
Sprite,Foreground,Centre,"sb\particle.png",0,0 F,0,37818,,0.66 C,0,37818,,245,218,66 P,0,37818,,A M,7,37818,38538,447,344,396,360 S,6,37818,38538,-0.2519869,0
Sprite,Foreground,Centre,"sb\particle.png",0,0 F,0,37818,,0.66 C,0,37818,,245,218,66 P,0,37818,,A M,7,37818,38538,447,344,435,387 S,6,37818,38538,0.07828117,0
Sprite,Foreground,Centre,"sb\particle.png",0,0 F,0,37818,,0.66 C,0,37818,,245,218,66 P,0,37818,,A M,7,37818,38538,447,344,460,316 S,6,37818,38538,-0.1507322,0
Sprite,Foreground,Centre,"sb\particle.png",0,0 F,0,37818,,0.66 C,0,37818,,255,232,99 P,0,37818,,A M,7,37818,38538,447,344,432,347 S,6,37818,38538,-0.2510972,0
Sprite,Foreground,Centre,"sb\particle.png",0,0 F,0,37818,,0.66 C,0,37818,,255,232,99 P,0,37818,,A M,7,37818,38538,447,344,427,329 S,6,37818,38538,0.4895503,0
Sprite,Foreground,Centre,"sb\particle.png",0,0 F,0,37818,,0.66 C,0,37818,,255,232,99 P,0,37818,,A M,7,37818,38538,447,344,483,306 S,6,37818,38538,0.3267962,0
Sprite,Foreground,Centre,"sb\particle.png",0,0 F,0,37818,,0.66 C,0,37818,,255,232,99 P,0,37818,,A M,7,37818,38538,447,344,432,379 S,6,37818,38538,-0.08982092,0
Sprite,Foreground,Centre,"sb\particle.png",0,0 F,0,37818,,0.66 C,0,37818,,255,232,99 P,0,37818,,A M,7,37818,38538,447,344,422,394 S,6,37818,38538,0.4306395,0
Sprite,Foreground,Centre,"sb\particle.png",0,0 F,0,37818,,0.66 C,0,37818,,255,232,99 P,0,37818,,A M,7,37818,38538,447,344,449,361 S,6,37818,38538,0.3613908,0
Sprite,Foreground,Centre,"sb\particle.png",0,0 F,0,37818,,0.66 C,0,37818,,255,232,99 P,0,37818,,A M,7,37818,38538,447,344,498,353 S,6,37818,38538,0.1384329,0
Sprite,Foreground,Centre,"sb\particle.png",0,0 F,0,37818,,0.66 C,0,37818,,255,232,99 P,0,37818,,A M,7,37818,38538,447,344,425,318 S,6,37818,38538,0.1441398,0
Sprite,Foreground,Centre,"sb\particle.png",0,0 F,0,37818,,0.66 C,0,37818,,255,232,99 P,0,37818,,A M,7,37818,38538,447,344,405,336 S,6,37818,38538,0.2439769,0
Sprite,Foreground,Centre,"sb\particle.png",0,0 F,0,37818,,0.66 C,0,37818,,255,232,99 P,0,37818,,A M,7,37818,38538,447,344,442,361 S,6,37818,38538,0.1565138,0
Sprite,Foreground,Centre,"sb\particle.png",0,0 F,0,38384,,0.66 C,0,38384,,245,218,66 P,0,38384,,A M,7,38384,39104,274,373,298,382 S,6,38384,39104,0.1633616,0
Sprite,Foreground,Centre,"sb\particle.png",0,0 F,0,38384,,0.66 C,0,38384,,245,218,66 P,0,38384,,A M,7,38384,39104,274,373,262,384 S,6,38384,39104,0.4794414,0
Sprite,Foreground,Centre,"sb\particle.png",0,0 F,0,38384,,0.66 C,0,38384,,245,218,66 P,0,38384,,A M,7,38384,39104,274,373,292,407 S,6,38384,39104,0.4342043,0
Sprite,Foreground,Centre,"sb\particle.png",0,0 F,0,38384,,0.66 C,0,38384,,245,218,66 P,0,38384,,A M,7,38384,39104,274,373,265,388 S,6,38384,39104,-0.1371001,0
Sprite,Foreground,Centre,"sb\particle.png",0,0 F,0,38384,,0.66 C,0,38384,,245,218,66 P,0,38384,,A M,7,38384,39104,274,373,296,363 S,6,38384,39104,0.1221068,0
Sprite,Foreground,Centre,"sb\particle.png",0,0 F,0,38384,,0.66 C,0,38384,,245,218,66 P,0,38384,,A M,7,38384,39104,274,373,238,320 S,6,38384,39104,-0.02361382,0
Sprite,Foreground,Centre,"sb\particle.png",0,0 F,0,38384,,0.66 C,0,38384,,245,218,66 P,0,38384,,A M,7,38384,39104,274,373,262,370 S,6,38384,39104,0.2398073,0
Sprite,Foreground,Centre,"sb\particle.png",0,0 F,0,38384,,0.66 C,0,38384,,255,232,99 P,0,38384,,A M,7,38384,39104,274,373,298,384 S,6,38384,39104,-0.2124231,0
Sprite,Foreground,Centre,"sb\particle.png",0,0 F,0,38384,,0.66 C,0,38384,,255,232,99 P,0,38384,,A M,7,38384,39104,274,373,257,412 S,6,38384,39104,0.2271471,0
Sprite,Foreground,Centre,"sb\particle.png",0,0 F,0,38384,,0.66 C,0,38384,,255,232,99 P,0,38384,,A M,7,38384,39104,274,373,285,368 S,6,38384,39104,0.4779698,0
Sprite,Foreground,Centre,"sb\particle.png",0,0 F,0,38384,,0.66 C,0,38384,,255,232,99 P,0,38384,,A M,7,38384,39104,274,373,254,347 S,6,38384,39104,0.457809,0
Sprite,Foreground,Centre,"sb\particle.png",0,0 F,0,38384,,0.66 C,0,38384,,255,232,99 P,0,38384,,A M,7,38384,39104,274,373,266,382 S,6,38384,39104,-0.1741633,0
Sprite,Foreground,Centre,"sb\particle.png",0,0 F,0,38384,,0.66 C,0,38384,,255,232,99 P,0,38384,,A M,7,38384,39104,274,373,288,424 S,6,38384,39104,0.3969598,0
Sprite,Foreground,Centre,"sb\particle.png",0,0 F,0,38384,,0.66 C,0,38384,,255,232,99 P,0,38384,,A M,7,38384,39104,274,373,235,375 S,6,38384,39104,0.1685597,0
Sprite,Foreground,Centre,"sb\particle.png",0,0 F,0,38384,,0.66 C,0,38384,,255,232,99 P,0,38384,,A M,7,38384,39104,274,373,275,394 S,6,38384,39104,0.4830779,0
Sprite,Foreground,Centre,"sb\particle.png",0,0 F,0,38384,,0.66 C,0,38384,,255,232,99 P,0,38384,,A M,7,38384,39104,274,373,316,416 S,6,38384,39104,-0.2975746,0
Sprite,Foreground,Centre,"sb\particle.png",0,0 F,0,38384,,0.66 C,0,38384,,255,232,99 P,0,38384,,A M,7,38384,39104,274,373,273,397 S,6,38384,39104,0.1990361,0
Sprite,Foreground,Centre,"sb\particle.png",0,0 F,0,38950,,0.66 C,0,38950,,245,218,66 P,0,38950,,A M,7,38950,39670,269,145,215,101 S,6,38950,39670,0.06437227,0
Sprite,Foreground,Centre,"sb\particle.png",0,0 F,0,38950,,0.66 C,0,38950,,245,218,66 P,0,38950,,A M,7,38950,39670,269,145,313,95 S,6,38950,39670,-0.1150699,0
Sprite,Foreground,Centre,"sb\particle.png",0,0 F,0,38950,,0.66 C,0,38950,,245,218,66 P,0,38950,,A M,7,38950,39670,269,145,256,106 S,6,38950,39670,0.1760925,0
Sprite,Foreground,Centre,"sb\particle.png",0,0 F,0,38950,,0.66 C,0,38950,,245,218,66 P,0,38950,,A M,7,38950,39670,269,145,277,97 S,6,38950,39670,0.4307501,0
Sprite,Foreground,Centre,"sb\particle.png",0,0 F,0,38950,,0.66 C,0,38950,,245,218,66 P,0,38950,,A M,7,38950,39670,269,145,240,184 S,6,38950,39670,0.2615633,0
Sprite,Foreground,Centre,"sb\particle.png",0,0 F,0,38950,,0.66 C,0,38950,,245,218,66 P,0,38950,,A M,7,38950,39670,269,145,225,196 S,6,38950,39670,0.4873296,0
Sprite,Foreground,Centre,"sb\particle.png",0,0 F,0,38950,,0.66 C,0,38950,,245,218,66 P,0,38950,,A M,7,38950,39670,269,145,292,154 S,6,38950,39670,0.2002411,0
Sprite,Foreground,Centre,"sb\particle.png",0,0 F,0,38950,,0.66 C,0,38950,,255,232,99 P,0,38950,,A M,7,38950,39670,269,145,319,105 S,6,38950,39670,-0.06962474,0
Sprite,Foreground,Centre,"sb\particle.png",0,0 F,0,38950,,0.66 C,0,38950,,255,232,99 P,0,38950,,A M,7,38950,39670,269,145,222,148 S,6,38950,39670,-0.02910354,0
Sprite,Foreground,Centre,"sb\particle.png",0,0 F,0,38950,,0.66 C,0,38950,,255,232,99 P,0,38950,,A M,7,38950,39670,269,145,239,191 S,6,38950,39670,0.421339,0
Sprite,Foreground,Centre,"sb\particle.png",0,0 F,0,38950,,0.66 C,0,38950,,255,232,99 P,0,38950,,A M,7,38950,39670,269,145,221,197 S,6,38950,39670,-0.1601437,0
Sprite,Foreground,Centre,"sb\particle.png",0,0 F,0,38950,,0.66 C,0,38950,,255,232,99 P,0,38950,,A M,7,38950,39670,269,145,318,154 S,6,38950,39670,0.4988552,0
Sprite,Foreground,Centre,"sb\particle.png",0,0 F,0,38950,,0.66 C,0,38950,,255,232,99 P,0,38950,,A M,7,38950,39670,269,145,321,127 S,6,38950,39670,0.4462156,0
Sprite,Foreground,Centre,"sb\particle.png",0,0 F,0,38950,,0.66 C,0,38950,,255,232,99 P,0,38950,,A M,7,38950,39670,269,145,226,134 S,6,38950,39670,-0.1448568,0
Sprite,Foreground,Centre,"sb\particle.png",0,0 F,0,38950,,0.66 C,0,38950,,255,232,99 P,0,38950,,A M,7,38950,39670,269,145,312,92 S,6,38950,39670,0.4288389,0
Sprite,Foreground,Centre,"sb\particle.png",0,0 F,0,38950,,0.66 C,0,38950,,255,232,99 P,0,38950,,A M,7,38950,39670,269,145,322,178 S,6,38950,39670,-0.2634516,0
Sprite,Foreground,Centre,"sb\particle.png",0,0 F,0,38950,,0.66 C,0,38950,,255,232,99 P,0,38950,,A M,7,38950,39670,269,145,296,145 S,6,38950,39670,-0.1685695,0
Sprite,Foreground,Centre,"sb\particle.png",0,0 F,0,39328,,0.66 C,0,39328,,245,218,66 P,0,39328,,A M,7,39328,40048,149,61,99,90 S,6,39328,40048,0.2325036,0
Sprite,Foreground,Centre,"sb\particle.png",0,0 F,0,39328,,0.66 C,0,39328,,245,218,66 P,0,39328,,A M,7,39328,40048,149,61,148,97 S,6,39328,40048,-0.2905889,0
Sprite,Foreground,Centre,"sb\particle.png",0,0 F,0,39328,,0.66 C,0,39328,,245,218,66 P,0,39328,,A M,7,39328,40048,149,61,114,102 S,6,39328,40048,0.2904603,0
Sprite,Foreground,Centre,"sb\particle.png",0,0 F,0,39328,,0.66 C,0,39328,,245,218,66 P,0,39328,,A M,7,39328,40048,149,61,150,93 S,6,39328,40048,-0.2793683,0
Sprite,Foreground,Centre,"sb\particle.png",0,0 F,0,39328,,0.66 C,0,39328,,245,218,66 P,0,39328,,A M,7,39328,40048,149,61,172,39 S,6,39328,40048,-0.07276055,0
Sprite,Foreground,Centre,"sb\particle.png",0,0 F,0,39328,,0.66 C,0,39328,,245,218,66 P,0,39328,,A M,7,39328,40048,149,61,130,22 S,6,39328,40048,-0.2864961,0
Sprite,Foreground,Centre,"sb\particle.png",0,0 F,0,39328,,0.66 C,0,39328,,245,218,66 P,0,39328,,A M,7,39328,40048,149,61,140,102 S,6,39328,40048,0.0161338,0
Sprite,Foreground,Centre,"sb\particle.png",0,0 F,0,39328,,0.66 C,0,39328,,255,232,99 P,0,39328,,A M,7,39328,40048,149,61,130,26 S,6,39328,40048,0.08699411,0
Sprite,Foreground,Centre,"sb\particle.png",0,0 F,0,39328,,0.66 C,0,39328,,255,232,99 P,0,39328,,A M,7,39328,40048,149,61,104,26 S,6,39328,40048,-0.2289094,0
Sprite,Foreground,Centre,"sb\particle.png",0,0 F,0,39328,,0.66 C,0,39328,,255,232,99 P,0,39328,,A M,7,39328,40048,149,61,167,106 S,6,39328,40048,0.1632039,0
Sprite,Foreground,Centre,"sb\particle.png",0,0 F,0,39328,,0.66 C,0,39328,,255,232,99 P,0,39328,,A M,7,39328,40048,149,61,119,20 S,6,39328,40048,-0.04003644,0
Sprite,Foreground,Centre,"sb\particle.png",0,0 F,0,39328,,0.66 C,0,39328,,255,232,99 P,0,39328,,A M,7,39328,40048,149,61,142,92 S,6,39328,40048,-0.1182575,0
Sprite,Foreground,Centre,"sb\particle.png",0,0 F,0,39328,,0.66 C,0,39328,,255,232,99 P,0,39328,,A M,7,39328,40048,149,61,144,60 S,6,39328,40048,0.007722688,0
Sprite,Foreground,Centre,"sb\particle.png",0,0 F,0,39328,,0.66 C,0,39328,,255,232,99 P,0,39328,,A M,7,39328,40048,149,61,161,84 S,6,39328,40048,0.2715555,0
Sprite,Foreground,Centre,"sb\particle.png",0,0 F,0,39328,,0.66 C,0,39328,,255,232,99 P,0,39328,,A M,7,39328,40048,149,61,172,96 S,6,39328,40048,0.3910819,0
Sprite,Foreground,Centre,"sb\particle.png",0,0 F,0,39328,,0.66 C,0,39328,,255,232,99 P,0,39328,,A M,7,39328,40048,149,61,178,110 S,6,39328,40048,0.2743579,0
Sprite,Foreground,Centre,"sb\particle.png",0,0 F,0,39328,,0.66 C,0,39328,,255,232,99 P,0,39328,,A M,7,39328,40048,149,61,133,75 S,6,39328,40048,0.4359214,0
Sprite,Foreground,Centre,"sb\particle.png",0,0 F,0,39894,,0.66 C,0,39894,,245,218,66 P,0,39894,,A M,7,39894,40614,81,270,36,312 S,6,39894,40614,0.3559057,0
Sprite,Foreground,Centre,"sb\particle.png",0,0 F,0,39894,,0.66 C,0,39894,,245,218,66 P,0,39894,,A M,7,39894,40614,81,270,100,230 S,6,39894,40614,0.05742782,0
Sprite,Foreground,Centre,"sb\particle.png",0,0 F,0,39894,,0.66 C,0,39894,,245,218,66 P,0,39894,,A M,7,39894,40614,81,270,80,234 S,6,39894,40614,0.490504,0
Sprite,Foreground,Centre,"sb\particle.png",0,0 F,0,39894,,0.66 C,0,39894,,245,218,66 P,0,39894,,A M,7,39894,40614,81,270,85,304 S,6,39894,40614,0.1610321,0
Sprite,Foreground,Centre,"sb\particle.png",0,0 F,0,39894,,0.66 C,0,39894,,245,218,66 P,0,39894,,A M,7,39894,40614,81,270,48,269 S,6,39894,40614,0.4204479,0
Sprite,Foreground,Centre,"sb\particle.png",0,0 F,0,39894,,0.66 C,0,39894,,245,218,66 P,0,39894,,A M,7,39894,40614,81,270,39,293 S,6,39894,40614,0.214291,0
Sprite,Foreground,Centre,"sb\particle.png",0,0 F,0,39894,,0.66 C,0,39894,,245,218,66 P,0,39894,,A M,7,39894,40614,81,270,87,299 S,6,39894,40614,-0.2967671,0
Sprite,Foreground,Centre,"sb\particle.png",0,0 F,0,39894,,0.66 C,0,39894,,255,232,99 P,0,39894,,A M,7,39894,40614,81,270,55,245 S,6,39894,40614,-0.1559452,0
Sprite,Foreground,Centre,"sb\particle.png",0,0 F,0,39894,,0.66 C,0,39894,,255,232,99 P,0,39894,,A M,7,39894,40614,81,270,94,320 S,6,39894,40614,0.2002096,0
Sprite,Foreground,Centre,"sb\particle.png",0,0 F,0,39894,,0.66 C,0,39894,,255,232,99 P,0,39894,,A M,7,39894,40614,81,270,101,278 S,6,39894,40614,-0.1999579,0
Sprite,Foreground,Centre,"sb\particle.png",0,0 F,0,39894,,0.66 C,0,39894,,255,232,99 P,0,39894,,A M,7,39894,40614,81,270,62,266 S,6,39894,40614,0.2087771,0
Sprite,Foreground,Centre,"sb\particle.png",0,0 F,0,39894,,0.66 C,0,39894,,255,232,99 P,0,39894,,A M,7,39894,40614,81,270,102,224 S,6,39894,40614,0.05047037,0
Sprite,Foreground,Centre,"sb\particle.png",0,0 F,0,39894,,0.66 C,0,39894,,255,232,99 P,0,39894,,A M,7,39894,40614,81,270,105,279 S,6,39894,40614,-0.1586223,0
Sprite,Foreground,Centre,"sb\particle.png",0,0 F,0,39894,,0.66 C,0,39894,,255,232,99 P,0,39894,,A M,7,39894,40614,81,270,66,314 S,6,39894,40614,0.3948489,0
Sprite,Foreground,Centre,"sb\particle.png",0,0 F,0,39894,,0.66 C,0,39894,,255,232,99 P,0,39894,,A M,7,39894,40614,81,270,92,310 S,6,39894,40614,0.1689823,0
Sprite,Foreground,Centre,"sb\particle.png",0,0 F,0,39894,,0.66 C,0,39894,,255,232,99 P,0,39894,,A M,7,39894,40614,81,270,125,297 S,6,39894,40614,0.360222,0
Sprite,Foreground,Centre,"sb\particle.png",0,0 F,0,39894,,0.66 C,0,39894,,255,232,99 P,0,39894,,A M,7,39894,40614,81,270,129,282 S,6,39894,40614,0.359216,0
Sprite,Foreground,Centre,"sb\particle.png",0,0 F,0,40083,,0.66 C,0,40083,,245,218,66 P,0,40083,,A M,7,40083,40803,166,327,206,361 S,6,40083,40803,0.02812654,0
Sprite,Foreground,Centre,"sb\particle.png",0,0 F,0,40083,,0.66 C,0,40083,,245,218,66 P,0,40083,,A M,7,40083,40803,166,327,122,287 S,6,40083,40803,0.06098996,0
Sprite,Foreground,Centre,"sb\particle.png",0,0 F,0,40083,,0.66 C,0,40083,,245,218,66 P,0,40083,,A M,7,40083,40803,166,327,205,276 S,6,40083,40803,0.09535118,0
Sprite,Foreground,Centre,"sb\particle.png",0,0 F,0,40083,,0.66 C,0,40083,,245,218,66 P,0,40083,,A M,7,40083,40803,166,327,115,282 S,6,40083,40803,0.4539218,0
Sprite,Foreground,Centre,"sb\particle.png",0,0 F,0,40083,,0.66 C,0,40083,,245,218,66 P,0,40083,,A M,7,40083,40803,166,327,125,327 S,6,40083,40803,0.03159919,0
Sprite,Foreground,Centre,"sb\particle.png",0,0 F,0,40083,,0.66 C,0,40083,,245,218,66 P,0,40083,,A M,7,40083,40803,166,327,139,331 S,6,40083,40803,-0.2787369,0
Sprite,Foreground,Centre,"sb\particle.png",0,0 F,0,40083,,0.66 C,0,40083,,245,218,66 P,0,40083,,A M,7,40083,40803,166,327,177,301 S,6,40083,40803,0.3899792,0
Sprite,Foreground,Centre,"sb\particle.png",0,0 F,0,40083,,0.66 C,0,40083,,255,232,99 P,0,40083,,A M,7,40083,40803,166,327,192,325 S,6,40083,40803,0.2532747,0
Sprite,Foreground,Centre,"sb\particle.png",0,0 F,0,40083,,0.66 C,0,40083,,255,232,99 P,0,40083,,A M,7,40083,40803,166,327,152,364 S,6,40083,40803,0.265621,0
Sprite,Foreground,Centre,"sb\particle.png",0,0 F,0,40083,,0.66 C,0,40083,,255,232,99 P,0,40083,,A M,7,40083,40803,166,327,114,335 S,6,40083,40803,0.4884329,0
Sprite,Foreground,Centre,"sb\particle.png",0,0 F,0,40083,,0.66 C,0,40083,,255,232,99 P,0,40083,,A M,7,40083,40803,166,327,179,320 S,6,40083,40803,-0.04707501,0
Sprite,Foreground,Centre,"sb\particle.png",0,0 F,0,40083,,0.66 C,0,40083,,255,232,99 P,0,40083,,A M,7,40083,40803,166,327,120,367 S,6,40083,40803,-0.02902958,0
Sprite,Foreground,Centre,"sb\particle.png",0,0 F,0,40083,,0.66 C,0,40083,,255,232,99 P,0,40083,,A M,7,40083,40803,166,327,152,369 S,6,40083,40803,0.1554175,0
Sprite,Foreground,Centre,"sb\particle.png",0,0 F,0,40083,,0.66 C,0,40083,,255,232,99 P,0,40083,,A M,7,40083,40803,166,327,121,278 S,6,40083,40803,0.1010893,0
Sprite,Foreground,Centre,"sb\particle.png",0,0 F,0,40083,,0.66 C,0,40083,,255,232,99 P,0,40083,,A M,7,40083,40803,166,327,173,281 S,6,40083,40803,0.2461265,0
Sprite,Foreground,Centre,"sb\particle.png",0,0 F,0,40083,,0.66 C,0,40083,,255,232,99 P,0,40083,,A M,7,40083,40803,166,327,215,285 S,6,40083,40803,-0.1994792,0
Sprite,Foreground,Centre,"sb\particle.png",0,0 F,0,40083,,0.66 C,0,40083,,255,232,99 P,0,40083,,A M,7,40083,40803,166,327,159,319 S,6,40083,40803,-0.2384021,0
Sprite,Foreground,Centre,"sb\particle.png",0,0 F,0,40272,,0.66 C,0,40272,,245,218,66 P,0,40272,,A M,7,40272,40992,254,274,217,271 S,6,40272,40992,0.4304765,0
Sprite,Foreground,Centre,"sb\particle.png",0,0 F,0,40272,,0.66 C,0,40272,,245,218,66 P,0,40272,,A M,7,40272,40992,254,274,297,227 S,6,40272,40992,0.4654889,0
Sprite,Foreground,Centre,"sb\particle.png",0,0 F,0,40272,,0.66 C,0,40272,,245,218,66 P,0,40272,,A M,7,40272,40992,254,274,254,226 S,6,40272,40992,0.2583789,0
Sprite,Foreground,Centre,"sb\particle.png",0,0 F,0,40272,,0.66 C,0,40272,,245,218,66 P,0,40272,,A M,7,40272,40992,254,274,240,244 S,6,40272,40992,0.4611883,0
Sprite,Foreground,Centre,"sb\particle.png",0,0 F,0,40272,,0.66 C,0,40272,,245,218,66 P,0,40272,,A M,7,40272,40992,254,274,228,307 S,6,40272,40992,0.4737933,0
Sprite,Foreground,Centre,"sb\particle.png",0,0 F,0,40272,,0.66 C,0,40272,,245,218,66 P,0,40272,,A M,7,40272,40992,254,274,303,232 S,6,40272,40992,0.02484521,0
Sprite,Foreground,Centre,"sb\particle.png",0,0 F,0,40272,,0.66 C,0,40272,,245,218,66 P,0,40272,,A M,7,40272,40992,254,274,282,288 S,6,40272,40992,0.3000514,0
Sprite,Foreground,Centre,"sb\particle.png",0,0 F,0,40272,,0.66 C,0,40272,,255,232,99 P,0,40272,,A M,7,40272,40992,254,274,267,225 S,6,40272,40992,0.04351036,0
Sprite,Foreground,Centre,"sb\particle.png",0,0 F,0,40272,,0.66 C,0,40272,,255,232,99 P,0,40272,,A M,7,40272,40992,254,274,294,268 S,6,40272,40992,-0.06767496,0
Sprite,Foreground,Centre,"sb\particle.png",0,0 F,0,40272,,0.66 C,0,40272,,255,232,99 P,0,40272,,A M,7,40272,40992,254,274,295,283 S,6,40272,40992,0.3590228,0
Sprite,Foreground,Centre,"sb\particle.png",0,0 F,0,40272,,0.66 C,0,40272,,255,232,99 P,0,40272,,A M,7,40272,40992,254,274,293,261 S,6,40272,40992,0.06902125,0
Sprite,Foreground,Centre,"sb\particle.png",0,0 F,0,40272,,0.66 C,0,40272,,255,232,99 P,0,40272,,A M,7,40272,40992,254,274,272,298 S,6,40272,40992,-0.2809505,0
Sprite,Foreground,Centre,"sb\particle.png",0,0 F,0,40272,,0.66 C,0,40272,,255,232,99 P,0,40272,,A M,7,40272,40992,254,274,286,232 S,6,40272,40992,-0.1434586,0
Sprite,Foreground,Centre,"sb\particle.png",0,0 F,0,40272,,0.66 C,0,40272,,255,232,99 P,0,40272,,A M,7,40272,40992,254,274,294,288 S,6,40272,40992,0.4954436,0
Sprite,Foreground,Centre,"sb\particle.png",0,0 F,0,40272,,0.66 C,0,40272,,255,232,99 P,0,40272,,A M,7,40272,40992,254,274,218,243 S,6,40272,40992,0.3399015,0
Sprite,Foreground,Centre,"sb\particle.png",0,0 F,0,40272,,0.66 C,0,40272,,255,232,99 P,0,40272,,A M,7,40272,40992,254,274,235,272 S,6,40272,40992,0.12301,0
Sprite,Foreground,Centre,"sb\particle.png",0,0 F,0,40272,,0.66 C,0,40272,,255,232,99 P,0,40272,,A M,7,40272,40992,254,274,268,317 S,6,40272,40992,-0.2332119,0
Sprite,Foreground,Centre,"sb\particle.png",0,0 F,0,40838,,0.66 C,0,40838,,245,218,66 P,0,40838,,A M,7,40838,41558,443,415,412,423 S,6,40838,41558,-0.2143207,0
Sprite,Foreground,Centre,"sb\particle.png",0,0 F,0,40838,,0.66 C,0,40838,,245,218,66 P,0,40838,,A M,7,40838,41558,443,415,490,398 S,6,40838,41558,-0.1978345,0
Sprite,Foreground,Centre,"sb\particle.png",0,0 F,0,40838,,0.66 C,0,40838,,245,218,66 P,0,40838,,A M,7,40838,41558,443,415,432,406 S,6,40838,41558,-0.1159667,0
Sprite,Foreground,Centre,"sb\particle.png",0,0 F,0,40838,,0.66 C,0,40838,,245,218,66 P,0,40838,,A M,7,40838,41558,443,415,413,431 S,6,40838,41558,0.2906439,0
Sprite,Foreground,Centre,"sb\particle.png",0,0 F,0,40838,,0.66 C,0,40838,,245,218,66 P,0,40838,,A M,7,40838,41558,443,415,469,419 S,6,40838,41558,0.2056699,0
Sprite,Foreground,Centre,"sb\particle.png",0,0 F,0,40838,,0.66 C,0,40838,,245,218,66 P,0,40838,,A M,7,40838,41558,443,415,473,387 S,6,40838,41558,0.3514028,0
Sprite,Foreground,Centre,"sb\particle.png",0,0 F,0,40838,,0.66 C,0,40838,,245,218,66 P,0,40838,,A M,7,40838,41558,443,415,450,446 S,6,40838,41558,-0.2797977,0
Sprite,Foreground,Centre,"sb\particle.png",0,0 F,0,40838,,0.66 C,0,40838,,255,232,99 P,0,40838,,A M,7,40838,41558,443,415,396,413 S,6,40838,41558,0.3820425,0
Sprite,Foreground,Centre,"sb\particle.png",0,0 F,0,40838,,0.66 C,0,40838,,255,232,99 P,0,40838,,A M,7,40838,41558,443,415,425,430 S,6,40838,41558,0.05420886,0
Sprite,Foreground,Centre,"sb\particle.png",0,0 F,0,40838,,0.66 C,0,40838,,255,232,99 P,0,40838,,A M,7,40838,41558,443,415,449,383 S,6,40838,41558,-0.1276601,0
Sprite,Foreground,Centre,"sb\particle.png",0,0 F,0,40838,,0.66 C,0,40838,,255,232,99 P,0,40838,,A M,7,40838,41558,443,415,437,362 S,6,40838,41558,0.2570312,0
Sprite,Foreground,Centre,"sb\particle.png",0,0 F,0,40838,,0.66 C,0,40838,,255,232,99 P,0,40838,,A M,7,40838,41558,443,415,417,414 S,6,40838,41558,0.06403281,0
Sprite,Foreground,Centre,"sb\particle.png",0,0 F,0,40838,,0.66 C,0,40838,,255,232,99 P,0,40838,,A M,7,40838,41558,443,415,471,409 S,6,40838,41558,0.4565357,0
Sprite,Foreground,Centre,"sb\particle.png",0,0 F,0,40838,,0.66 C,0,40838,,255,232,99 P,0,40838,,A M,7,40838,41558,443,415,416,392 S,6,40838,41558,0.2558766,0
Sprite,Foreground,Centre,"sb\particle.png",0,0 F,0,40838,,0.66 C,0,40838,,255,232,99 P,0,40838,,A M,7,40838,41558,443,415,469,379 S,6,40838,41558,0.3759464,0
Sprite,Foreground,Centre,"sb\particle.png",0,0 F,0,40838,,0.66 C,0,40838,,255,232,99 P,0,40838,,A M,7,40838,41558,443,415,395,456 S,6,40838,41558,-0.186263,0
Sprite,Foreground,Centre,"sb\particle.png",0,0 F,0,40838,,0.66 C,0,40838,,255,232,99 P,0,40838,,A M,7,40838,41558,443,415,442,435 S,6,40838,41558,0.3307263,0
Sprite,Foreground,Centre,"sb\particle.png",0,0 F,0,41216,,0.66 C,0,41216,,245,218,66 P,0,41216,,A M,7,41216,41936,565,312,614,297 S,6,41216,41936,-0.2827167,0
Sprite,Foreground,Centre,"sb\particle.png",0,0 F,0,41216,,0.66 C,0,41216,,245,218,66 P,0,41216,,A M,7,41216,41936,565,312,525,268 S,6,41216,41936,0.118304,0
Sprite,Foreground,Centre,"sb\particle.png",0,0 F,0,41216,,0.66 C,0,41216,,245,218,66 P,0,41216,,A M,7,41216,41936,565,312,543,315 S,6,41216,41936,0.2839224,0
Sprite,Foreground,Centre,"sb\particle.png",0,0 F,0,41216,,0.66 C,0,41216,,245,218,66 P,0,41216,,A M,7,41216,41936,565,312,541,317 S,6,41216,41936,0.1432472,0
Sprite,Foreground,Centre,"sb\particle.png",0,0 F,0,41216,,0.66 C,0,41216,,245,218,66 P,0,41216,,A M,7,41216,41936,565,312,523,288 S,6,41216,41936,0.1612721,0
Sprite,Foreground,Centre,"sb\particle.png",0,0 F,0,41216,,0.66 C,0,41216,,245,218,66 P,0,41216,,A M,7,41216,41936,565,312,565,336 S,6,41216,41936,0.07888445,0
Sprite,Foreground,Centre,"sb\particle.png",0,0 F,0,41216,,0.66 C,0,41216,,245,218,66 P,0,41216,,A M,7,41216,41936,565,312,552,318 S,6,41216,41936,0.1782748,0
Sprite,Foreground,Centre,"sb\particle.png",0,0 F,0,41216,,0.66 C,0,41216,,255,232,99 P,0,41216,,A M,7,41216,41936,565,312,540,297 S,6,41216,41936,0.0753595,0
Sprite,Foreground,Centre,"sb\particle.png",0,0 F,0,41216,,0.66 C,0,41216,,255,232,99 P,0,41216,,A M,7,41216,41936,565,312,547,284 S,6,41216,41936,-0.01616917,0
Sprite,Foreground,Centre,"sb\particle.png",0,0 F,0,41216,,0.66 C,0,41216,,255,232,99 P,0,41216,,A M,7,41216,41936,565,312,511,340 S,6,41216,41936,0.4718715,0
Sprite,Foreground,Centre,"sb\particle.png",0,0 F,0,41216,,0.66 C,0,41216,,255,232,99 P,0,41216,,A M,7,41216,41936,565,312,520,336 S,6,41216,41936,0.2941269,0
Sprite,Foreground,Centre,"sb\particle.png",0,0 F,0,41216,,0.66 C,0,41216,,255,232,99 P,0,41216,,A M,7,41216,41936,565,312,598,308 S,6,41216,41936,0.2814833,0
Sprite,Foreground,Centre,"sb\particle.png",0,0 F,0,41216,,0.66 C,0,41216,,255,232,99 P,0,41216,,A M,7,41216,41936,565,312,615,305 S,6,41216,41936,0.07200863,0
Sprite,Foreground,Centre,"sb\particle.png",0,0 F,0,41216,,0.66 C,0,41216,,255,232,99 P,0,41216,,A M,7,41216,41936,565,312,572,315 S,6,41216,41936,0.08531365,0
Sprite,Foreground,Centre,"sb\particle.png",0,0 F,0,41216,,0.66 C,0,41216,,255,232,99 P,0,41216,,A M,7,41216,41936,565,312,579,297 S,6,41216,41936,0.4471902,0
Sprite,Foreground,Centre,"sb\particle.png",0,0 F,0,41216,,0.66 C,0,41216,,255,232,99 P,0,41216,,A M,7,41216,41936,565,312,531,356 S,6,41216,41936,0.2494693,0
Sprite,Foreground,Centre,"sb\particle.png",0,0 F,0,41216,,0.66 C,0,41216,,255,232,99 P,0,41216,,A M,7,41216,41936,565,312,578,318 S,6,41216,41936,-0.1502139,0
Sprite,Foreground,Centre,"sb\particle.png",0,0 F,0,41594,,0.66 C,0,41594,,245,218,66 P,0,41594,,A M,7,41594,42314,479,164,526,172 S,6,41594,42314,0.4759119,0
Sprite,Foreground,Centre,"sb\particle.png",0,0 F,0,41594,,0.66 C,0,41594,,245,218,66 P,0,41594,,A M,7,41594,42314,479,164,455,168 S,6,41594,42314,0.1713757,0
Sprite,Foreground,Centre,"sb\particle.png",0,0 F,0,41594,,0.66 C,0,41594,,245,218,66 P,0,41594,,A M,7,41594,42314,479,164,427,170 S,6,41594,42314,-0.2322986,0
Sprite,Foreground,Centre,"sb\particle.png",0,0 F,0,41594,,0.66 C,0,41594,,245,218,66 P,0,41594,,A M,7,41594,42314,479,164,429,215 S,6,41594,42314,0.229238,0
Sprite,Foreground,Centre,"sb\particle.png",0,0 F,0,41594,,0.66 C,0,41594,,245,218,66 P,0,41594,,A M,7,41594,42314,479,164,495,195 S,6,41594,42314,-0.1770174,0
Sprite,Foreground,Centre,"sb\particle.png",0,0 F,0,41594,,0.66 C,0,41594,,245,218,66 P,0,41594,,A M,7,41594,42314,479,164,495,152 S,6,41594,42314,0.4969037,0
Sprite,Foreground,Centre,"sb\particle.png",0,0 F,0,41594,,0.66 C,0,41594,,245,218,66 P,0,41594,,A M,7,41594,42314,479,164,498,210 S,6,41594,42314,0.1587026,0
Sprite,Foreground,Centre,"sb\particle.png",0,0 F,0,41594,,0.66 C,0,41594,,255,232,99 P,0,41594,,A M,7,41594,42314,479,164,531,161 S,6,41594,42314,0.3353975,0
Sprite,Foreground,Centre,"sb\particle.png",0,0 F,0,41594,,0.66 C,0,41594,,255,232,99 P,0,41594,,A M,7,41594,42314,479,164,430,117 S,6,41594,42314,-0.2284611,0
Sprite,Foreground,Centre,"sb\particle.png",0,0 F,0,41594,,0.66 C,0,41594,,255,232,99 P,0,41594,,A M,7,41594,42314,479,164,444,196 S,6,41594,42314,0.4406652,0
Sprite,Foreground,Centre,"sb\particle.png",0,0 F,0,41594,,0.66 C,0,41594,,255,232,99 P,0,41594,,A M,7,41594,42314,479,164,441,172 S,6,41594,42314,0.4960423,0
Sprite,Foreground,Centre,"sb\particle.png",0,0 F,0,41594,,0.66 C,0,41594,,255,232,99 P,0,41594,,A M,7,41594,42314,479,164,445,118 S,6,41594,42314,-0.2942296,0
Sprite,Foreground,Centre,"sb\particle.png",0,0 F,0,41594,,0.66 C,0,41594,,255,232,99 P,0,41594,,A M,7,41594,42314,479,164,467,189 S,6,41594,42314,0.1764116,0
Sprite,Foreground,Centre,"sb\particle.png",0,0 F,0,41594,,0.66 C,0,41594,,255,232,99 P,0,41594,,A M,7,41594,42314,479,164,440,169 S,6,41594,42314,-0.2705311,0
Sprite,Foreground,Centre,"sb\particle.png",0,0 F,0,41594,,0.66 C,0,41594,,255,232,99 P,0,41594,,A M,7,41594,42314,479,164,429,175 S,6,41594,42314,0.2522503,0
Sprite,Foreground,Centre,"sb\particle.png",0,0 F,0,41594,,0.66 C,0,41594,,255,232,99 P,0,41594,,A M,7,41594,42314,479,164,491,132 S,6,41594,42314,0.4645501,0
Sprite,Foreground,Centre,"sb\particle.png",0,0 F,0,41594,,0.66 C,0,41594,,255,232,99 P,0,41594,,A M,7,41594,42314,479,164,505,201 S,6,41594,42314,0.1293787,0
Sprite,Foreground,Centre,"sb\particle.png",0,0 F,0,42160,,0.66 C,0,42160,,245,218,66 P,0,42160,,A M,7,42160,42880,268,279,315,227 S,6,42160,42880,-0.07640015,0
Sprite,Foreground,Centre,"sb\particle.png",0,0 F,0,42160,,0.66 C,0,42160,,245,218,66 P,0,42160,,A M,7,42160,42880,268,279,234,311 S,6,42160,42880,0.2885728,0
Sprite,Foreground,Centre,"sb\particle.png",0,0 F,0,42160,,0.66 C,0,42160,,245,218,66 P,0,42160,,A M,7,42160,42880,268,279,268,248 S,6,42160,42880,0.2217318,0
Sprite,Foreground,Centre,"sb\particle.png",0,0 F,0,42160,,0.66 C,0,42160,,245,218,66 P,0,42160,,A M,7,42160,42880,268,279,275,268 S,6,42160,42880,0.3482389,0
Sprite,Foreground,Centre,"sb\particle.png",0,0 F,0,42160,,0.66 C,0,42160,,245,218,66 P,0,42160,,A M,7,42160,42880,268,279,286,331 S,6,42160,42880,0.3701611,0
Sprite,Foreground,Centre,"sb\particle.png",0,0 F,0,42160,,0.66 C,0,42160,,245,218,66 P,0,42160,,A M,7,42160,42880,268,279,278,233 S,6,42160,42880,0.1249071,0
Sprite,Foreground,Centre,"sb\particle.png",0,0 F,0,42160,,0.66 C,0,42160,,245,218,66 P,0,42160,,A M,7,42160,42880,268,279,314,251 S,6,42160,42880,0.3370487,0
Sprite,Foreground,Centre,"sb\particle.png",0,0 F,0,42160,,0.66 C,0,42160,,255,232,99 P,0,42160,,A M,7,42160,42880,268,279,266,278 S,6,42160,42880,0.1942887,0
Sprite,Foreground,Centre,"sb\particle.png",0,0 F,0,42160,,0.66 C,0,42160,,255,232,99 P,0,42160,,A M,7,42160,42880,268,279,291,241 S,6,42160,42880,-0.262005,0
Sprite,Foreground,Centre,"sb\particle.png",0,0 F,0,42160,,0.66 C,0,42160,,255,232,99 P,0,42160,,A M,7,42160,42880,268,279,230,283 S,6,42160,42880,0.480616,0
Sprite,Foreground,Centre,"sb\particle.png",0,0 F,0,42160,,0.66 C,0,42160,,255,232,99 P,0,42160,,A M,7,42160,42880,268,279,319,269 S,6,42160,42880,-0.2059876,0
Sprite,Foreground,Centre,"sb\particle.png",0,0 F,0,42160,,0.66 C,0,42160,,255,232,99 P,0,42160,,A M,7,42160,42880,268,279,257,288 S,6,42160,42880,0.4402809,0
Sprite,Foreground,Centre,"sb\particle.png",0,0 F,0,42160,,0.66 C,0,42160,,255,232,99 P,0,42160,,A M,7,42160,42880,268,279,255,306 S,6,42160,42880,0.07099082,0
Sprite,Foreground,Centre,"sb\particle.png",0,0 F,0,42160,,0.66 C,0,42160,,255,232,99 P,0,42160,,A M,7,42160,42880,268,279,289,306 S,6,42160,42880,0.3209224,0
Sprite,Foreground,Centre,"sb\particle.png",0,0 F,0,42160,,0.66 C,0,42160,,255,232,99 P,0,42160,,A M,7,42160,42880,268,279,252,227 S,6,42160,42880,0.1066763,0
Sprite,Foreground,Centre,"sb\particle.png",0,0 F,0,42160,,0.66 C,0,42160,,255,232,99 P,0,42160,,A M,7,42160,42880,268,279,293,255 S,6,42160,42880,0.06123815,0
Sprite,Foreground,Centre,"sb\particle.png",0,0 F,0,42160,,0.66 C,0,42160,,255,232,99 P,0,42160,,A M,7,42160,42880,268,279,233,280 S,6,42160,42880,-0.2891216,0
Sprite,Foreground,Centre,"sb\particle.png",0,0 F,0,42349,,0.66 C,0,42349,,245,218,66 P,0,42349,,A M,7,42349,43069,184,218,179,190 S,6,42349,43069,-0.2149689,0
Sprite,Foreground,Centre,"sb\particle.png",0,0 F,0,42349,,0.66 C,0,42349,,245,218,66 P,0,42349,,A M,7,42349,43069,184,218,156,191 S,6,42349,43069,0.3676229,0
Sprite,Foreground,Centre,"sb\particle.png",0,0 F,0,42349,,0.66 C,0,42349,,245,218,66 P,0,42349,,A M,7,42349,43069,184,218,204,226 S,6,42349,43069,-0.2686456,0
Sprite,Foreground,Centre,"sb\particle.png",0,0 F,0,42349,,0.66 C,0,42349,,245,218,66 P,0,42349,,A M,7,42349,43069,184,218,131,267 S,6,42349,43069,-0.1982617,0
Sprite,Foreground,Centre,"sb\particle.png",0,0 F,0,42349,,0.66 C,0,42349,,245,218,66 P,0,42349,,A M,7,42349,43069,184,218,130,209 S,6,42349,43069,-0.2636622,0
Sprite,Foreground,Centre,"sb\particle.png",0,0 F,0,42349,,0.66 C,0,42349,,245,218,66 P,0,42349,,A M,7,42349,43069,184,218,160,175 S,6,42349,43069,-0.05668057,0
Sprite,Foreground,Centre,"sb\particle.png",0,0 F,0,42349,,0.66 C,0,42349,,245,218,66 P,0,42349,,A M,7,42349,43069,184,218,179,257 S,6,42349,43069,-0.1450363,0
Sprite,Foreground,Centre,"sb\particle.png",0,0 F,0,42349,,0.66 C,0,42349,,255,232,99 P,0,42349,,A M,7,42349,43069,184,218,132,184 S,6,42349,43069,0.371763,0
Sprite,Foreground,Centre,"sb\particle.png",0,0 F,0,42349,,0.66 C,0,42349,,255,232,99 P,0,42349,,A M,7,42349,43069,184,218,205,252 S,6,42349,43069,0.06045774,0
Sprite,Foreground,Centre,"sb\particle.png",0,0 F,0,42349,,0.66 C,0,42349,,255,232,99 P,0,42349,,A M,7,42349,43069,184,218,195,201 S,6,42349,43069,-0.005286893,0
Sprite,Foreground,Centre,"sb\particle.png",0,0 F,0,42349,,0.66 C,0,42349,,255,232,99 P,0,42349,,A M,7,42349,43069,184,218,203,250 S,6,42349,43069,-0.07729395,0
Sprite,Foreground,Centre,"sb\particle.png",0,0 F,0,42349,,0.66 C,0,42349,,255,232,99 P,0,42349,,A M,7,42349,43069,184,218,153,266 S,6,42349,43069,-0.2025632,0
Sprite,Foreground,Centre,"sb\particle.png",0,0 F,0,42349,,0.66 C,0,42349,,255,232,99 P,0,42349,,A M,7,42349,43069,184,218,209,254 S,6,42349,43069,-0.02265585,0
Sprite,Foreground,Centre,"sb\particle.png",0,0 F,0,42349,,0.66 C,0,42349,,255,232,99 P,0,42349,,A M,7,42349,43069,184,218,139,183 S,6,42349,43069,0.2559921,0
Sprite,Foreground,Centre,"sb\particle.png",0,0 F,0,42349,,0.66 C,0,42349,,255,232,99 P,0,42349,,A M,7,42349,43069,184,218,148,209 S,6,42349,43069,-0.04685546,0
Sprite,Foreground,Centre,"sb\particle.png",0,0 F,0,42349,,0.66 C,0,42349,,255,232,99 P,0,42349,,A M,7,42349,43069,184,218,218,226 S,6,42349,43069,0.05045262,0
Sprite,Foreground,Centre,"sb\particle.png",0,0 F,0,42349,,0.66 C,0,42349,,255,232,99 P,0,42349,,A M,7,42349,43069,184,218,174,263 S,6,42349,43069,-0.188646,0
Sprite,Foreground,Centre,"sb\particle.png",0,0 F,0,42915,,0.66 C,0,42915,,245,218,66 P,0,42915,,A M,7,42915,43635,118,403,90,447 S,6,42915,43635,0.2537859,0
Sprite,Foreground,Centre,"sb\particle.png",0,0 F,0,42915,,0.66 C,0,42915,,245,218,66 P,0,42915,,A M,7,42915,43635,118,403,128,387 S,6,42915,43635,0.3070252,0
Sprite,Foreground,Centre,"sb\particle.png",0,0 F,0,42915,,0.66 C,0,42915,,245,218,66 P,0,42915,,A M,7,42915,43635,118,403,99,416 S,6,42915,43635,0.3018693,0
Sprite,Foreground,Centre,"sb\particle.png",0,0 F,0,42915,,0.66 C,0,42915,,245,218,66 P,0,42915,,A M,7,42915,43635,118,403,100,438 S,6,42915,43635,-0.2298114,0
Sprite,Foreground,Centre,"sb\particle.png",0,0 F,0,42915,,0.66 C,0,42915,,245,218,66 P,0,42915,,A M,7,42915,43635,118,403,99,450 S,6,42915,43635,-0.01264048,0
Sprite,Foreground,Centre,"sb\particle.png",0,0 F,0,42915,,0.66 C,0,42915,,245,218,66 P,0,42915,,A M,7,42915,43635,118,403,166,397 S,6,42915,43635,0.3742076,0
Sprite,Foreground,Centre,"sb\particle.png",0,0 F,0,42915,,0.66 C,0,42915,,245,218,66 P,0,42915,,A M,7,42915,43635,118,403,143,419 S,6,42915,43635,0.03534283,0
Sprite,Foreground,Centre,"sb\particle.png",0,0 F,0,42915,,0.66 C,0,42915,,255,232,99 P,0,42915,,A M,7,42915,43635,118,403,67,454 S,6,42915,43635,0.01875268,0
Sprite,Foreground,Centre,"sb\particle.png",0,0 F,0,42915,,0.66 C,0,42915,,255,232,99 P,0,42915,,A M,7,42915,43635,118,403,149,359 S,6,42915,43635,0.1963376,0
Sprite,Foreground,Centre,"sb\particle.png",0,0 F,0,42915,,0.66 C,0,42915,,255,232,99 P,0,42915,,A M,7,42915,43635,118,403,103,441 S,6,42915,43635,0.329535,0
Sprite,Foreground,Centre,"sb\particle.png",0,0 F,0,42915,,0.66 C,0,42915,,255,232,99 P,0,42915,,A M,7,42915,43635,118,403,86,433 S,6,42915,43635,-0.2642179,0
Sprite,Foreground,Centre,"sb\particle.png",0,0 F,0,42915,,0.66 C,0,42915,,255,232,99 P,0,42915,,A M,7,42915,43635,118,403,144,426 S,6,42915,43635,0.06996794,0
Sprite,Foreground,Centre,"sb\particle.png",0,0 F,0,42915,,0.66 C,0,42915,,255,232,99 P,0,42915,,A M,7,42915,43635,118,403,165,451 S,6,42915,43635,0.3663827,0
Sprite,Foreground,Centre,"sb\particle.png",0,0 F,0,42915,,0.66 C,0,42915,,255,232,99 P,0,42915,,A M,7,42915,43635,118,403,104,361 S,6,42915,43635,0.06855516,0
Sprite,Foreground,Centre,"sb\particle.png",0,0 F,0,42915,,0.66 C,0,42915,,255,232,99 P,0,42915,,A M,7,42915,43635,118,403,116,414 S,6,42915,43635,0.3050821,0
Sprite,Foreground,Centre,"sb\particle.png",0,0 F,0,42915,,0.66 C,0,42915,,255,232,99 P,0,42915,,A M,7,42915,43635,118,403,141,424 S,6,42915,43635,-0.1293972,0
Sprite,Foreground,Centre,"sb\particle.png",0,0 F,0,42915,,0.66 C,0,42915,,255,232,99 P,0,42915,,A M,7,42915,43635,118,403,167,404 S,6,42915,43635,0.4772602,0
Sprite,Foreground,Centre,"sb\particle.png",0,0 F,0,43104,,0.66 C,0,43104,,245,218,66 P,0,43104,,A M,7,43104,43824,208,354,230,368 S,6,43104,43824,0.4178534,0
Sprite,Foreground,Centre,"sb\particle.png",0,0 F,0,43104,,0.66 C,0,43104,,245,218,66 P,0,43104,,A M,7,43104,43824,208,354,239,350 S,6,43104,43824,-0.0593464,0
Sprite,Foreground,Centre,"sb\particle.png",0,0 F,0,43104,,0.66 C,0,43104,,245,218,66 P,0,43104,,A M,7,43104,43824,208,354,167,317 S,6,43104,43824,0.3144242,0
Sprite,Foreground,Centre,"sb\particle.png",0,0 F,0,43104,,0.66 C,0,43104,,245,218,66 P,0,43104,,A M,7,43104,43824,208,354,179,344 S,6,43104,43824,-0.2227235,0
Sprite,Foreground,Centre,"sb\particle.png",0,0 F,0,43104,,0.66 C,0,43104,,245,218,66 P,0,43104,,A M,7,43104,43824,208,354,183,324 S,6,43104,43824,0.07566772,0
Sprite,Foreground,Centre,"sb\particle.png",0,0 F,0,43104,,0.66 C,0,43104,,245,218,66 P,0,43104,,A M,7,43104,43824,208,354,201,303 S,6,43104,43824,-0.02248845,0
Sprite,Foreground,Centre,"sb\particle.png",0,0 F,0,43104,,0.66 C,0,43104,,245,218,66 P,0,43104,,A M,7,43104,43824,208,354,231,330 S,6,43104,43824,0.1308875,0
Sprite,Foreground,Centre,"sb\particle.png",0,0 F,0,43104,,0.66 C,0,43104,,255,232,99 P,0,43104,,A M,7,43104,43824,208,354,155,356 S,6,43104,43824,-0.07004506,0
Sprite,Foreground,Centre,"sb\particle.png",0,0 F,0,43104,,0.66 C,0,43104,,255,232,99 P,0,43104,,A M,7,43104,43824,208,354,163,384 S,6,43104,43824,-0.081847,0
Sprite,Foreground,Centre,"sb\particle.png",0,0 F,0,43104,,0.66 C,0,43104,,255,232,99 P,0,43104,,A M,7,43104,43824,208,354,211,340 S,6,43104,43824,-0.1092349,0
Sprite,Foreground,Centre,"sb\particle.png",0,0 F,0,43104,,0.66 C,0,43104,,255,232,99 P,0,43104,,A M,7,43104,43824,208,354,243,349 S,6,43104,43824,-0.2637306,0
Sprite,Foreground,Centre,"sb\particle.png",0,0 F,0,43104,,0.66 C,0,43104,,255,232,99 P,0,43104,,A M,7,43104,43824,208,354,158,312 S,6,43104,43824,-0.1335137,0
Sprite,Foreground,Centre,"sb\particle.png",0,0 F,0,43104,,0.66 C,0,43104,,255,232,99 P,0,43104,,A M,7,43104,43824,208,354,228,313 S,6,43104,43824,-0.09569243,0
Sprite,Foreground,Centre,"sb\particle.png",0,0 F,0,43104,,0.66 C,0,43104,,255,232,99 P,0,43104,,A M,7,43104,43824,208,354,210,405 S,6,43104,43824,-0.09965659,0
Sprite,Foreground,Centre,"sb\particle.png",0,0 F,0,43104,,0.66 C,0,43104,,255,232,99 P,0,43104,,A M,7,43104,43824,208,354,237,397 S,6,43104,43824,0.2400294,0
Sprite,Foreground,Centre,"sb\particle.png",0,0 F,0,43104,,0.66 C,0,43104,,255,232,99 P,0,43104,,A M,7,43104,43824,208,354,200,384 S,6,43104,43824,0.2516974,0
Sprite,Foreground,Centre,"sb\particle.png",0,0 F,0,43104,,0.66 C,0,43104,,255,232,99 P,0,43104,,A M,7,43104,43824,208,354,173,357 S,6,43104,43824,-0.1325704,0
Sprite,Foreground,Centre,"sb\particle.png",0,0 F,0,43482,,0.66 C,0,43482,,245,218,66 P,0,43482,,A M,7,43482,44202,359,429,396,386 S,6,43482,44202,0.01209161,0
Sprite,Foreground,Centre,"sb\particle.png",0,0 F,0,43482,,0.66 C,0,43482,,245,218,66 P,0,43482,,A M,7,43482,44202,359,429,355,469 S,6,43482,44202,0.3865114,0
Sprite,Foreground,Centre,"sb\particle.png",0,0 F,0,43482,,0.66 C,0,43482,,245,218,66 P,0,43482,,A M,7,43482,44202,359,429,353,458 S,6,43482,44202,-0.1190939,0
Sprite,Foreground,Centre,"sb\particle.png",0,0 F,0,43482,,0.66 C,0,43482,,245,218,66 P,0,43482,,A M,7,43482,44202,359,429,339,481 S,6,43482,44202,-0.05295487,0
Sprite,Foreground,Centre,"sb\particle.png",0,0 F,0,43482,,0.66 C,0,43482,,245,218,66 P,0,43482,,A M,7,43482,44202,359,429,360,424 S,6,43482,44202,0.02968876,0
Sprite,Foreground,Centre,"sb\particle.png",0,0 F,0,43482,,0.66 C,0,43482,,245,218,66 P,0,43482,,A M,7,43482,44202,359,429,393,464 S,6,43482,44202,-0.2106838,0
Sprite,Foreground,Centre,"sb\particle.png",0,0 F,0,43482,,0.66 C,0,43482,,245,218,66 P,0,43482,,A M,7,43482,44202,359,429,332,408 S,6,43482,44202,0.2342298,0
Sprite,Foreground,Centre,"sb\particle.png",0,0 F,0,43482,,0.66 C,0,43482,,255,232,99 P,0,43482,,A M,7,43482,44202,359,429,344,462 S,6,43482,44202,-0.00648943,0
Sprite,Foreground,Centre,"sb\particle.png",0,0 F,0,43482,,0.66 C,0,43482,,255,232,99 P,0,43482,,A M,7,43482,44202,359,429,353,384 S,6,43482,44202,0.2677024,0
Sprite,Foreground,Centre,"sb\particle.png",0,0 F,0,43482,,0.66 C,0,43482,,255,232,99 P,0,43482,,A M,7,43482,44202,359,429,360,434 S,6,43482,44202,-0.2791569,0
Sprite,Foreground,Centre,"sb\particle.png",0,0 F,0,43482,,0.66 C,0,43482,,255,232,99 P,0,43482,,A M,7,43482,44202,359,429,316,440 S,6,43482,44202,-0.05796063,0
Sprite,Foreground,Centre,"sb\particle.png",0,0 F,0,43482,,0.66 C,0,43482,,255,232,99 P,0,43482,,A M,7,43482,44202,359,429,389,409 S,6,43482,44202,0.3029593,0
Sprite,Foreground,Centre,"sb\particle.png",0,0 F,0,43482,,0.66 C,0,43482,,255,232,99 P,0,43482,,A M,7,43482,44202,359,429,307,480 S,6,43482,44202,0.05864035,0
Sprite,Foreground,Centre,"sb\particle.png",0,0 F,0,43482,,0.66 C,0,43482,,255,232,99 P,0,43482,,A M,7,43482,44202,359,429,328,467 S,6,43482,44202,-0.283316,0
Sprite,Foreground,Centre,"sb\particle.png",0,0 F,0,43482,,0.66 C,0,43482,,255,232,99 P,0,43482,,A M,7,43482,44202,359,429,398,405 S,6,43482,44202,0.3984166,0
Sprite,Foreground,Centre,"sb\particle.png",0,0 F,0,43482,,0.66 C,0,43482,,255,232,99 P,0,43482,,A M,7,43482,44202,359,429,363,456 S,6,43482,44202,0.08692865,0
Sprite,Foreground,Centre,"sb\particle.png",0,0 F,0,43482,,0.66 C,0,43482,,255,232,99 P,0,43482,,A M,7,43482,44202,359,429,360,459 S,6,43482,44202,0.02535478,0
Sprite,Foreground,Centre,"sb\particle.png",0,0 F,0,43859,,0.66 C,0,43859,,245,218,66 P,0,43859,,A M,7,43859,44579,478,331,503,358 S,6,43859,44579,0.2378418,0
Sprite,Foreground,Centre,"sb\particle.png",0,0 F,0,43859,,0.66 C,0,43859,,245,218,66 P,0,43859,,A M,7,43859,44579,478,331,465,327 S,6,43859,44579,-0.07379799,0
Sprite,Foreground,Centre,"sb\particle.png",0,0 F,0,43859,,0.66 C,0,43859,,245,218,66 P,0,43859,,A M,7,43859,44579,478,331,468,368 S,6,43859,44579,-0.1919843,0
Sprite,Foreground,Centre,"sb\particle.png",0,0 F,0,43859,,0.66 C,0,43859,,245,218,66 P,0,43859,,A M,7,43859,44579,478,331,478,333 S,6,43859,44579,-0.03988233,0
Sprite,Foreground,Centre,"sb\particle.png",0,0 F,0,43859,,0.66 C,0,43859,,245,218,66 P,0,43859,,A M,7,43859,44579,478,331,478,297 S,6,43859,44579,0.2528252,0
Sprite,Foreground,Centre,"sb\particle.png",0,0 F,0,43859,,0.66 C,0,43859,,245,218,66 P,0,43859,,A M,7,43859,44579,478,331,471,361 S,6,43859,44579,-0.1736782,0
Sprite,Foreground,Centre,"sb\particle.png",0,0 F,0,43859,,0.66 C,0,43859,,245,218,66 P,0,43859,,A M,7,43859,44579,478,331,518,332 S,6,43859,44579,-0.1583807,0
Sprite,Foreground,Centre,"sb\particle.png",0,0 F,0,43859,,0.66 C,0,43859,,255,232,99 P,0,43859,,A M,7,43859,44579,478,331,469,277 S,6,43859,44579,-0.2228736,0
Sprite,Foreground,Centre,"sb\particle.png",0,0 F,0,43859,,0.66 C,0,43859,,255,232,99 P,0,43859,,A M,7,43859,44579,478,331,453,283 S,6,43859,44579,0.3484572,0
Sprite,Foreground,Centre,"sb\particle.png",0,0 F,0,43859,,0.66 C,0,43859,,255,232,99 P,0,43859,,A M,7,43859,44579,478,331,480,362 S,6,43859,44579,0.0250357,0
Sprite,Foreground,Centre,"sb\particle.png",0,0 F,0,43859,,0.66 C,0,43859,,255,232,99 P,0,43859,,A M,7,43859,44579,478,331,424,353 S,6,43859,44579,-0.01840452,0
Sprite,Foreground,Centre,"sb\particle.png",0,0 F,0,43859,,0.66 C,0,43859,,255,232,99 P,0,43859,,A M,7,43859,44579,478,331,430,325 S,6,43859,44579,-0.007958573,0
Sprite,Foreground,Centre,"sb\particle.png",0,0 F,0,43859,,0.66 C,0,43859,,255,232,99 P,0,43859,,A M,7,43859,44579,478,331,519,370 S,6,43859,44579,-0.007194278,0
Sprite,Foreground,Centre,"sb\particle.png",0,0 F,0,43859,,0.66 C,0,43859,,255,232,99 P,0,43859,,A M,7,43859,44579,478,331,497,287 S,6,43859,44579,0.3803746,0
Sprite,Foreground,Centre,"sb\particle.png",0,0 F,0,43859,,0.66 C,0,43859,,255,232,99 P,0,43859,,A M,7,43859,44579,478,331,428,331 S,6,43859,44579,0.4993518,0
Sprite,Foreground,Centre,"sb\particle.png",0,0 F,0,43859,,0.66 C,0,43859,,255,232,99 P,0,43859,,A M,7,43859,44579,478,331,448,331 S,6,43859,44579,-0.04987494,0
Sprite,Foreground,Centre,"sb\particle.png",0,0 F,0,43859,,0.66 C,0,43859,,255,232,99 P,0,43859,,A M,7,43859,44579,478,331,464,383 S,6,43859,44579,-0.2891213,0
Sprite,Foreground,Centre,"sb\particle.png",0,0 F,0,44425,,0.66 C,0,44425,,245,218,66 P,0,44425,,A M,7,44425,45145,285,332,295,362 S,6,44425,45145,-0.02672868,0
Sprite,Foreground,Centre,"sb\particle.png",0,0 F,0,44425,,0.66 C,0,44425,,245,218,66 P,0,44425,,A M,7,44425,45145,285,332,305,278 S,6,44425,45145,0.435082,0
Sprite,Foreground,Centre,"sb\particle.png",0,0 F,0,44425,,0.66 C,0,44425,,245,218,66 P,0,44425,,A M,7,44425,45145,285,332,285,329 S,6,44425,45145,0.06130768,0
Sprite,Foreground,Centre,"sb\particle.png",0,0 F,0,44425,,0.66 C,0,44425,,245,218,66 P,0,44425,,A M,7,44425,45145,285,332,338,324 S,6,44425,45145,-0.2217144,0
Sprite,Foreground,Centre,"sb\particle.png",0,0 F,0,44425,,0.66 C,0,44425,,245,218,66 P,0,44425,,A M,7,44425,45145,285,332,285,379 S,6,44425,45145,-0.05137019,0
Sprite,Foreground,Centre,"sb\particle.png",0,0 F,0,44425,,0.66 C,0,44425,,245,218,66 P,0,44425,,A M,7,44425,45145,285,332,303,290 S,6,44425,45145,-0.04441569,0
Sprite,Foreground,Centre,"sb\particle.png",0,0 F,0,44425,,0.66 C,0,44425,,245,218,66 P,0,44425,,A M,7,44425,45145,285,332,272,278 S,6,44425,45145,-0.2890523,0
Sprite,Foreground,Centre,"sb\particle.png",0,0 F,0,44425,,0.66 C,0,44425,,255,232,99 P,0,44425,,A M,7,44425,45145,285,332,263,301 S,6,44425,45145,0.4141024,0
Sprite,Foreground,Centre,"sb\particle.png",0,0 F,0,44425,,0.66 C,0,44425,,255,232,99 P,0,44425,,A M,7,44425,45145,285,332,328,365 S,6,44425,45145,-0.100316,0
Sprite,Foreground,Centre,"sb\particle.png",0,0 F,0,44425,,0.66 C,0,44425,,255,232,99 P,0,44425,,A M,7,44425,45145,285,332,270,378 S,6,44425,45145,0.2871416,0
Sprite,Foreground,Centre,"sb\particle.png",0,0 F,0,44425,,0.66 C,0,44425,,255,232,99 P,0,44425,,A M,7,44425,45145,285,332,293,338 S,6,44425,45145,0.1353969,0
Sprite,Foreground,Centre,"sb\particle.png",0,0 F,0,44425,,0.66 C,0,44425,,255,232,99 P,0,44425,,A M,7,44425,45145,285,332,303,358 S,6,44425,45145,-0.1364063,0
Sprite,Foreground,Centre,"sb\particle.png",0,0 F,0,44425,,0.66 C,0,44425,,255,232,99 P,0,44425,,A M,7,44425,45145,285,332,274,359 S,6,44425,45145,-0.2632125,0
Sprite,Foreground,Centre,"sb\particle.png",0,0 F,0,44425,,0.66 C,0,44425,,255,232,99 P,0,44425,,A M,7,44425,45145,285,332,237,335 S,6,44425,45145,0.4351057,0
Sprite,Foreground,Centre,"sb\particle.png",0,0 F,0,44425,,0.66 C,0,44425,,255,232,99 P,0,44425,,A M,7,44425,45145,285,332,300,346 S,6,44425,45145,-0.003083105,0
Sprite,Foreground,Centre,"sb\particle.png",0,0 F,0,44425,,0.66 C,0,44425,,255,232,99 P,0,44425,,A M,7,44425,45145,285,332,338,380 S,6,44425,45145,-0.06376009,0
Sprite,Foreground,Centre,"sb\particle.png",0,0 F,0,44425,,0.66 C,0,44425,,255,232,99 P,0,44425,,A M,7,44425,45145,285,332,243,341 S,6,44425,45145,-0.2845508,0
Sprite,Foreground,Centre,"sb\particle.png",0,0 F,0,44614,,0.66 C,0,44614,,245,218,66 P,0,44614,,A M,7,44614,45334,197,277,170,330 S,6,44614,45334,0.1199153,0
Sprite,Foreground,Centre,"sb\particle.png",0,0 F,0,44614,,0.66 C,0,44614,,245,218,66 P,0,44614,,A M,7,44614,45334,197,277,241,230 S,6,44614,45334,-0.008855986,0
Sprite,Foreground,Centre,"sb\particle.png",0,0 F,0,44614,,0.66 C,0,44614,,245,218,66 P,0,44614,,A M,7,44614,45334,197,277,242,263 S,6,44614,45334,-0.266269,0
Sprite,Foreground,Centre,"sb\particle.png",0,0 F,0,44614,,0.66 C,0,44614,,245,218,66 P,0,44614,,A M,7,44614,45334,197,277,242,284 S,6,44614,45334,0.2170198,0
Sprite,Foreground,Centre,"sb\particle.png",0,0 F,0,44614,,0.66 C,0,44614,,245,218,66 P,0,44614,,A M,7,44614,45334,197,277,161,312 S,6,44614,45334,-0.09330253,0
Sprite,Foreground,Centre,"sb\particle.png",0,0 F,0,44614,,0.66 C,0,44614,,245,218,66 P,0,44614,,A M,7,44614,45334,197,277,167,311 S,6,44614,45334,0.2664829,0
Sprite,Foreground,Centre,"sb\particle.png",0,0 F,0,44614,,0.66 C,0,44614,,245,218,66 P,0,44614,,A M,7,44614,45334,197,277,223,262 S,6,44614,45334,0.4209482,0
Sprite,Foreground,Centre,"sb\particle.png",0,0 F,0,44614,,0.66 C,0,44614,,255,232,99 P,0,44614,,A M,7,44614,45334,197,277,209,283 S,6,44614,45334,0.2582762,0
Sprite,Foreground,Centre,"sb\particle.png",0,0 F,0,44614,,0.66 C,0,44614,,255,232,99 P,0,44614,,A M,7,44614,45334,197,277,228,299 S,6,44614,45334,-0.2851272,0
Sprite,Foreground,Centre,"sb\particle.png",0,0 F,0,44614,,0.66 C,0,44614,,255,232,99 P,0,44614,,A M,7,44614,45334,197,277,246,328 S,6,44614,45334,0.3325987,0
Sprite,Foreground,Centre,"sb\particle.png",0,0 F,0,44614,,0.66 C,0,44614,,255,232,99 P,0,44614,,A M,7,44614,45334,197,277,165,239 S,6,44614,45334,0.3991517,0
Sprite,Foreground,Centre,"sb\particle.png",0,0 F,0,44614,,0.66 C,0,44614,,255,232,99 P,0,44614,,A M,7,44614,45334,197,277,156,223 S,6,44614,45334,0.2495203,0
Sprite,Foreground,Centre,"sb\particle.png",0,0 F,0,44614,,0.66 C,0,44614,,255,232,99 P,0,44614,,A M,7,44614,45334,197,277,237,230 S,6,44614,45334,0.2811505,0
Sprite,Foreground,Centre,"sb\particle.png",0,0 F,0,44614,,0.66 C,0,44614,,255,232,99 P,0,44614,,A M,7,44614,45334,197,277,201,225 S,6,44614,45334,0.2932335,0
Sprite,Foreground,Centre,"sb\particle.png",0,0 F,0,44614,,0.66 C,0,44614,,255,232,99 P,0,44614,,A M,7,44614,45334,197,277,150,303 S,6,44614,45334,0.3014526,0
Sprite,Foreground,Centre,"sb\particle.png",0,0 F,0,44614,,0.66 C,0,44614,,255,232,99 P,0,44614,,A M,7,44614,45334,197,277,155,237 S,6,44614,45334,0.2101548,0
Sprite,Foreground,Centre,"sb\particle.png",0,0 F,0,44614,,0.66 C,0,44614,,255,232,99 P,0,44614,,A M,7,44614,45334,197,277,183,249 S,6,44614,45334,0.1611285,0
Sprite,Foreground,Centre,"sb\particle.png",0,0 F,0,44992,,0.66 C,0,44992,,245,218,66 P,0,44992,,A M,7,44992,45712,289,148,332,182 S,6,44992,45712,-0.244928,0
Sprite,Foreground,Centre,"sb\particle.png",0,0 F,0,44992,,0.66 C,0,44992,,245,218,66 P,0,44992,,A M,7,44992,45712,289,148,265,160 S,6,44992,45712,0.3844211,0
Sprite,Foreground,Centre,"sb\particle.png",0,0 F,0,44992,,0.66 C,0,44992,,245,218,66 P,0,44992,,A M,7,44992,45712,289,148,339,166 S,6,44992,45712,0.3028886,0
Sprite,Foreground,Centre,"sb\particle.png",0,0 F,0,44992,,0.66 C,0,44992,,245,218,66 P,0,44992,,A M,7,44992,45712,289,148,258,196 S,6,44992,45712,0.1628609,0
Sprite,Foreground,Centre,"sb\particle.png",0,0 F,0,44992,,0.66 C,0,44992,,245,218,66 P,0,44992,,A M,7,44992,45712,289,148,241,115 S,6,44992,45712,0.362587,0
Sprite,Foreground,Centre,"sb\particle.png",0,0 F,0,44992,,0.66 C,0,44992,,245,218,66 P,0,44992,,A M,7,44992,45712,289,148,294,168 S,6,44992,45712,0.143984,0
Sprite,Foreground,Centre,"sb\particle.png",0,0 F,0,44992,,0.66 C,0,44992,,245,218,66 P,0,44992,,A M,7,44992,45712,289,148,252,167 S,6,44992,45712,-0.2869356,0
Sprite,Foreground,Centre,"sb\particle.png",0,0 F,0,44992,,0.66 C,0,44992,,255,232,99 P,0,44992,,A M,7,44992,45712,289,148,264,182 S,6,44992,45712,-0.2381218,0
Sprite,Foreground,Centre,"sb\particle.png",0,0 F,0,44992,,0.66 C,0,44992,,255,232,99 P,0,44992,,A M,7,44992,45712,289,148,305,189 S,6,44992,45712,0.3229746,0
Sprite,Foreground,Centre,"sb\particle.png",0,0 F,0,44992,,0.66 C,0,44992,,255,232,99 P,0,44992,,A M,7,44992,45712,289,148,303,187 S,6,44992,45712,0.4350604,0
Sprite,Foreground,Centre,"sb\particle.png",0,0 F,0,44992,,0.66 C,0,44992,,255,232,99 P,0,44992,,A M,7,44992,45712,289,148,329,157 S,6,44992,45712,0.3463027,0
Sprite,Foreground,Centre,"sb\particle.png",0,0 F,0,44992,,0.66 C,0,44992,,255,232,99 P,0,44992,,A M,7,44992,45712,289,148,282,142 S,6,44992,45712,0.3959476,0
Sprite,Foreground,Centre,"sb\particle.png",0,0 F,0,44992,,0.66 C,0,44992,,255,232,99 P,0,44992,,A M,7,44992,45712,289,148,341,180 S,6,44992,45712,0.377045,0
Sprite,Foreground,Centre,"sb\particle.png",0,0 F,0,44992,,0.66 C,0,44992,,255,232,99 P,0,44992,,A M,7,44992,45712,289,148,294,126 S,6,44992,45712,-0.06808601,0
Sprite,Foreground,Centre,"sb\particle.png",0,0 F,0,44992,,0.66 C,0,44992,,255,232,99 P,0,44992,,A M,7,44992,45712,289,148,244,174 S,6,44992,45712,0.2550158,0
Sprite,Foreground,Centre,"sb\particle.png",0,0 F,0,44992,,0.66 C,0,44992,,255,232,99 P,0,44992,,A M,7,44992,45712,289,148,295,99 S,6,44992,45712,0.2070431,0
Sprite,Foreground,Centre,"sb\particle.png",0,0 F,0,44992,,0.66 C,0,44992,,255,232,99 P,0,44992,,A M,7,44992,45712,289,148,292,111 S,6,44992,45712,-0.1401781,0
Sprite,Foreground,Centre,"sb\particle.png",0,0 F,0,45181,,0.66 C,0,45181,,245,218,66 P,0,45181,,A M,7,45181,45901,373,207,339,221 S,6,45181,45901,0.4092346,0
Sprite,Foreground,Centre,"sb\particle.png",0,0 F,0,45181,,0.66 C,0,45181,,245,218,66 P,0,45181,,A M,7,45181,45901,373,207,382,186 S,6,45181,45901,0.2278006,0
Sprite,Foreground,Centre,"sb\particle.png",0,0 F,0,45181,,0.66 C,0,45181,,245,218,66 P,0,45181,,A M,7,45181,45901,373,207,339,219 S,6,45181,45901,0.2296763,0
Sprite,Foreground,Centre,"sb\particle.png",0,0 F,0,45181,,0.66 C,0,45181,,245,218,66 P,0,45181,,A M,7,45181,45901,373,207,329,247 S,6,45181,45901,-0.2077856,0
Sprite,Foreground,Centre,"sb\particle.png",0,0 F,0,45181,,0.66 C,0,45181,,245,218,66 P,0,45181,,A M,7,45181,45901,373,207,350,208 S,6,45181,45901,-0.1313519,0
Sprite,Foreground,Centre,"sb\particle.png",0,0 F,0,45181,,0.66 C,0,45181,,245,218,66 P,0,45181,,A M,7,45181,45901,373,207,370,242 S,6,45181,45901,-0.2525176,0
Sprite,Foreground,Centre,"sb\particle.png",0,0 F,0,45181,,0.66 C,0,45181,,245,218,66 P,0,45181,,A M,7,45181,45901,373,207,354,236 S,6,45181,45901,0.1650461,0
Sprite,Foreground,Centre,"sb\particle.png",0,0 F,0,45181,,0.66 C,0,45181,,255,232,99 P,0,45181,,A M,7,45181,45901,373,207,322,233 S,6,45181,45901,0.4535742,0
Sprite,Foreground,Centre,"sb\particle.png",0,0 F,0,45181,,0.66 C,0,45181,,255,232,99 P,0,45181,,A M,7,45181,45901,373,207,413,254 S,6,45181,45901,0.399679,0
Sprite,Foreground,Centre,"sb\particle.png",0,0 F,0,45181,,0.66 C,0,45181,,255,232,99 P,0,45181,,A M,7,45181,45901,373,207,388,210 S,6,45181,45901,-0.2733372,0
Sprite,Foreground,Centre,"sb\particle.png",0,0 F,0,45181,,0.66 C,0,45181,,255,232,99 P,0,45181,,A M,7,45181,45901,373,207,344,257 S,6,45181,45901,-0.2188897,0
Sprite,Foreground,Centre,"sb\particle.png",0,0 F,0,45181,,0.66 C,0,45181,,255,232,99 P,0,45181,,A M,7,45181,45901,373,207,347,205 S,6,45181,45901,0.4512974,0
Sprite,Foreground,Centre,"sb\particle.png",0,0 F,0,45181,,0.66 C,0,45181,,255,232,99 P,0,45181,,A M,7,45181,45901,373,207,386,248 S,6,45181,45901,0.4970078,0
Sprite,Foreground,Centre,"sb\particle.png",0,0 F,0,45181,,0.66 C,0,45181,,255,232,99 P,0,45181,,A M,7,45181,45901,373,207,338,214 S,6,45181,45901,-0.02058398,0
Sprite,Foreground,Centre,"sb\particle.png",0,0 F,0,45181,,0.66 C,0,45181,,255,232,99 P,0,45181,,A M,7,45181,45901,373,207,336,170 S,6,45181,45901,0.3080449,0
Sprite,Foreground,Centre,"sb\particle.png",0,0 F,0,45181,,0.66 C,0,45181,,255,232,99 P,0,45181,,A M,7,45181,45901,373,207,385,161 S,6,45181,45901,-0.178662,0
Sprite,Foreground,Centre,"sb\particle.png",0,0 F,0,45181,,0.66 C,0,45181,,255,232,99 P,0,45181,,A M,7,45181,45901,373,207,359,164 S,6,45181,45901,0.3309978,0
Sprite,Foreground,Centre,"sb\particle.png",0,0 F,0,45369,,0.66 C,0,45369,,245,218,66 P,0,45369,,A M,7,45369,46089,453,143,432,152 S,6,45369,46089,-0.1961913,0
Sprite,Foreground,Centre,"sb\particle.png",0,0 F,0,45369,,0.66 C,0,45369,,245,218,66 P,0,45369,,A M,7,45369,46089,453,143,418,114 S,6,45369,46089,-0.2344484,0
Sprite,Foreground,Centre,"sb\particle.png",0,0 F,0,45369,,0.66 C,0,45369,,245,218,66 P,0,45369,,A M,7,45369,46089,453,143,405,147 S,6,45369,46089,0.1737919,0
Sprite,Foreground,Centre,"sb\particle.png",0,0 F,0,45369,,0.66 C,0,45369,,245,218,66 P,0,45369,,A M,7,45369,46089,453,143,505,167 S,6,45369,46089,0.3389463,0
Sprite,Foreground,Centre,"sb\particle.png",0,0 F,0,45369,,0.66 C,0,45369,,245,218,66 P,0,45369,,A M,7,45369,46089,453,143,441,103 S,6,45369,46089,0.2568841,0
Sprite,Foreground,Centre,"sb\particle.png",0,0 F,0,45369,,0.66 C,0,45369,,245,218,66 P,0,45369,,A M,7,45369,46089,453,143,417,101 S,6,45369,46089,0.3239211,0
Sprite,Foreground,Centre,"sb\particle.png",0,0 F,0,45369,,0.66 C,0,45369,,245,218,66 P,0,45369,,A M,7,45369,46089,453,143,481,128 S,6,45369,46089,-0.2070986,0
Sprite,Foreground,Centre,"sb\particle.png",0,0 F,0,45369,,0.66 C,0,45369,,255,232,99 P,0,45369,,A M,7,45369,46089,453,143,475,162 S,6,45369,46089,0.1326959,0
Sprite,Foreground,Centre,"sb\particle.png",0,0 F,0,45369,,0.66 C,0,45369,,255,232,99 P,0,45369,,A M,7,45369,46089,453,143,502,105 S,6,45369,46089,-0.02338069,0
Sprite,Foreground,Centre,"sb\particle.png",0,0 F,0,45369,,0.66 C,0,45369,,255,232,99 P,0,45369,,A M,7,45369,46089,453,143,506,139 S,6,45369,46089,0.193589,0
Sprite,Foreground,Centre,"sb\particle.png",0,0 F,0,45369,,0.66 C,0,45369,,255,232,99 P,0,45369,,A M,7,45369,46089,453,143,437,181 S,6,45369,46089,0.098429,0
Sprite,Foreground,Centre,"sb\particle.png",0,0 F,0,45369,,0.66 C,0,45369,,255,232,99 P,0,45369,,A M,7,45369,46089,453,143,487,156 S,6,45369,46089,0.2096166,0
Sprite,Foreground,Centre,"sb\particle.png",0,0 F,0,45369,,0.66 C,0,45369,,255,232,99 P,0,45369,,A M,7,45369,46089,453,143,480,164 S,6,45369,46089,-0.1596254,0
Sprite,Foreground,Centre,"sb\particle.png",0,0 F,0,45369,,0.66 C,0,45369,,255,232,99 P,0,45369,,A M,7,45369,46089,453,143,466,121 S,6,45369,46089,0.4378917,0
Sprite,Foreground,Centre,"sb\particle.png",0,0 F,0,45369,,0.66 C,0,45369,,255,232,99 P,0,45369,,A M,7,45369,46089,453,143,504,172 S,6,45369,46089,-0.2970318,0
Sprite,Foreground,Centre,"sb\particle.png",0,0 F,0,45369,,0.66 C,0,45369,,255,232,99 P,0,45369,,A M,7,45369,46089,453,143,471,184 S,6,45369,46089,0.1846644,0
Sprite,Foreground,Centre,"sb\particle.png",0,0 F,0,45369,,0.66 C,0,45369,,255,232,99 P,0,45369,,A M,7,45369,46089,453,143,473,170 S,6,45369,46089,-0.1990283,0
Sprite,Foreground,Centre,"sb\particle.png",0,0 F,0,45936,,0.66 C,0,45936,,245,218,66 P,0,45936,,A M,7,45936,46656,282,94,305,61 S,6,45936,46656,-0.1997263,0
Sprite,Foreground,Centre,"sb\particle.png",0,0 F,0,45936,,0.66 C,0,45936,,245,218,66 P,0,45936,,A M,7,45936,46656,282,94,322,119 S,6,45936,46656,-0.1546428,0
Sprite,Foreground,Centre,"sb\particle.png",0,0 F,0,45936,,0.66 C,0,45936,,245,218,66 P,0,45936,,A M,7,45936,46656,282,94,231,70 S,6,45936,46656,-0.1995655,0
Sprite,Foreground,Centre,"sb\particle.png",0,0 F,0,45936,,0.66 C,0,45936,,245,218,66 P,0,45936,,A M,7,45936,46656,282,94,286,107 S,6,45936,46656,0.4701842,0
Sprite,Foreground,Centre,"sb\particle.png",0,0 F,0,45936,,0.66 C,0,45936,,245,218,66 P,0,45936,,A M,7,45936,46656,282,94,241,134 S,6,45936,46656,0.03599783,0
Sprite,Foreground,Centre,"sb\particle.png",0,0 F,0,45936,,0.66 C,0,45936,,245,218,66 P,0,45936,,A M,7,45936,46656,282,94,257,139 S,6,45936,46656,-0.1437028,0
Sprite,Foreground,Centre,"sb\particle.png",0,0 F,0,45936,,0.66 C,0,45936,,245,218,66 P,0,45936,,A M,7,45936,46656,282,94,285,65 S,6,45936,46656,-0.08577669,0
Sprite,Foreground,Centre,"sb\particle.png",0,0 F,0,45936,,0.66 C,0,45936,,255,232,99 P,0,45936,,A M,7,45936,46656,282,94,290,85 S,6,45936,46656,0.22842,0
Sprite,Foreground,Centre,"sb\particle.png",0,0 F,0,45936,,0.66 C,0,45936,,255,232,99 P,0,45936,,A M,7,45936,46656,282,94,307,51 S,6,45936,46656,0.05853167,0
Sprite,Foreground,Centre,"sb\particle.png",0,0 F,0,45936,,0.66 C,0,45936,,255,232,99 P,0,45936,,A M,7,45936,46656,282,94,307,144 S,6,45936,46656,0.3348671,0
Sprite,Foreground,Centre,"sb\particle.png",0,0 F,0,45936,,0.66 C,0,45936,,255,232,99 P,0,45936,,A M,7,45936,46656,282,94,275,79 S,6,45936,46656,0.2053504,0
Sprite,Foreground,Centre,"sb\particle.png",0,0 F,0,45936,,0.66 C,0,45936,,255,232,99 P,0,45936,,A M,7,45936,46656,282,94,260,115 S,6,45936,46656,-0.02682627,0
Sprite,Foreground,Centre,"sb\particle.png",0,0 F,0,45936,,0.66 C,0,45936,,255,232,99 P,0,45936,,A M,7,45936,46656,282,94,314,110 S,6,45936,46656,0.0504672,0
Sprite,Foreground,Centre,"sb\particle.png",0,0 F,0,45936,,0.66 C,0,45936,,255,232,99 P,0,45936,,A M,7,45936,46656,282,94,241,79 S,6,45936,46656,-0.09790146,0
Sprite,Foreground,Centre,"sb\particle.png",0,0 F,0,45936,,0.66 C,0,45936,,255,232,99 P,0,45936,,A M,7,45936,46656,282,94,263,146 S,6,45936,46656,0.06657667,0
Sprite,Foreground,Centre,"sb\particle.png",0,0 F,0,45936,,0.66 C,0,45936,,255,232,99 P,0,45936,,A M,7,45936,46656,282,94,320,93 S,6,45936,46656,-0.1911134,0
Sprite,Foreground,Centre,"sb\particle.png",0,0 F,0,45936,,0.66 C,0,45936,,255,232,99 P,0,45936,,A M,7,45936,46656,282,94,236,108 S,6,45936,46656,0.05916731,0
Sprite,Foreground,Centre,"sb\particle.png",0,0 F,0,46125,,0.66 C,0,46125,,245,218,66 P,0,46125,,A M,7,46125,46845,182,68,191,25 S,6,46125,46845,-0.1713507,0
Sprite,Foreground,Centre,"sb\particle.png",0,0 F,0,46125,,0.66 C,0,46125,,245,218,66 P,0,46125,,A M,7,46125,46845,182,68,193,109 S,6,46125,46845,-0.1646829,0
Sprite,Foreground,Centre,"sb\particle.png",0,0 F,0,46125,,0.66 C,0,46125,,245,218,66 P,0,46125,,A M,7,46125,46845,182,68,201,69 S,6,46125,46845,0.04947259,0
Sprite,Foreground,Centre,"sb\particle.png",0,0 F,0,46125,,0.66 C,0,46125,,245,218,66 P,0,46125,,A M,7,46125,46845,182,68,190,45 S,6,46125,46845,0.4136781,0
Sprite,Foreground,Centre,"sb\particle.png",0,0 F,0,46125,,0.66 C,0,46125,,245,218,66 P,0,46125,,A M,7,46125,46845,182,68,148,26 S,6,46125,46845,0.1920633,0
Sprite,Foreground,Centre,"sb\particle.png",0,0 F,0,46125,,0.66 C,0,46125,,245,218,66 P,0,46125,,A M,7,46125,46845,182,68,174,81 S,6,46125,46845,-0.2612068,0
Sprite,Foreground,Centre,"sb\particle.png",0,0 F,0,46125,,0.66 C,0,46125,,245,218,66 P,0,46125,,A M,7,46125,46845,182,68,234,45 S,6,46125,46845,0.4767222,0
Sprite,Foreground,Centre,"sb\particle.png",0,0 F,0,46125,,0.66 C,0,46125,,255,232,99 P,0,46125,,A M,7,46125,46845,182,68,178,114 S,6,46125,46845,-0.1595477,0
Sprite,Foreground,Centre,"sb\particle.png",0,0 F,0,46125,,0.66 C,0,46125,,255,232,99 P,0,46125,,A M,7,46125,46845,182,68,160,65 S,6,46125,46845,0.2324169,0
Sprite,Foreground,Centre,"sb\particle.png",0,0 F,0,46125,,0.66 C,0,46125,,255,232,99 P,0,46125,,A M,7,46125,46845,182,68,235,105 S,6,46125,46845,0.1329611,0
Sprite,Foreground,Centre,"sb\particle.png",0,0 F,0,46125,,0.66 C,0,46125,,255,232,99 P,0,46125,,A M,7,46125,46845,182,68,153,86 S,6,46125,46845,0.2088079,0
Sprite,Foreground,Centre,"sb\particle.png",0,0 F,0,46125,,0.66 C,0,46125,,255,232,99 P,0,46125,,A M,7,46125,46845,182,68,217,42 S,6,46125,46845,0.191105,0
Sprite,Foreground,Centre,"sb\particle.png",0,0 F,0,46125,,0.66 C,0,46125,,255,232,99 P,0,46125,,A M,7,46125,46845,182,68,216,22 S,6,46125,46845,0.3067285,0
Sprite,Foreground,Centre,"sb\particle.png",0,0 F,0,46125,,0.66 C,0,46125,,255,232,99 P,0,46125,,A M,7,46125,46845,182,68,165,86 S,6,46125,46845,-0.1053149,0
Sprite,Foreground,Centre,"sb\particle.png",0,0 F,0,46125,,0.66 C,0,46125,,255,232,99 P,0,46125,,A M,7,46125,46845,182,68,204,29 S,6,46125,46845,0.3281904,0
Sprite,Foreground,Centre,"sb\particle.png",0,0 F,0,46125,,0.66 C,0,46125,,255,232,99 P,0,46125,,A M,7,46125,46845,182,68,179,98 S,6,46125,46845,-0.2010138,0
Sprite,Foreground,Centre,"sb\particle.png",0,0 F,0,46125,,0.66 C,0,46125,,255,232,99 P,0,46125,,A M,7,46125,46845,182,68,204,71 S,6,46125,46845,0.3945985,0
Sprite,Foreground,Centre,"sb\particle.png",0,0 F,0,46502,,0.66 C,0,46502,,245,218,66 P,0,46502,,A M,7,46502,47222,77,181,24,127 S,6,46502,47222,0.1718339,0
Sprite,Foreground,Centre,"sb\particle.png",0,0 F,0,46502,,0.66 C,0,46502,,245,218,66 P,0,46502,,A M,7,46502,47222,77,181,126,159 S,6,46502,47222,-0.01928292,0
Sprite,Foreground,Centre,"sb\particle.png",0,0 F,0,46502,,0.66 C,0,46502,,245,218,66 P,0,46502,,A M,7,46502,47222,77,181,125,174 S,6,46502,47222,0.1395683,0
Sprite,Foreground,Centre,"sb\particle.png",0,0 F,0,46502,,0.66 C,0,46502,,245,218,66 P,0,46502,,A M,7,46502,47222,77,181,40,234 S,6,46502,47222,-0.1260164,0
Sprite,Foreground,Centre,"sb\particle.png",0,0 F,0,46502,,0.66 C,0,46502,,245,218,66 P,0,46502,,A M,7,46502,47222,77,181,62,137 S,6,46502,47222,0.4141377,0
Sprite,Foreground,Centre,"sb\particle.png",0,0 F,0,46502,,0.66 C,0,46502,,245,218,66 P,0,46502,,A M,7,46502,47222,77,181,105,139 S,6,46502,47222,0.3984437,0
Sprite,Foreground,Centre,"sb\particle.png",0,0 F,0,46502,,0.66 C,0,46502,,245,218,66 P,0,46502,,A M,7,46502,47222,77,181,37,181 S,6,46502,47222,0.4981177,0
Sprite,Foreground,Centre,"sb\particle.png",0,0 F,0,46502,,0.66 C,0,46502,,255,232,99 P,0,46502,,A M,7,46502,47222,77,181,79,155 S,6,46502,47222,0.02211691,0
Sprite,Foreground,Centre,"sb\particle.png",0,0 F,0,46502,,0.66 C,0,46502,,255,232,99 P,0,46502,,A M,7,46502,47222,77,181,105,217 S,6,46502,47222,-0.2506509,0
Sprite,Foreground,Centre,"sb\particle.png",0,0 F,0,46502,,0.66 C,0,46502,,255,232,99 P,0,46502,,A M,7,46502,47222,77,181,34,228 S,6,46502,47222,0.2607083,0
Sprite,Foreground,Centre,"sb\particle.png",0,0 F,0,46502,,0.66 C,0,46502,,255,232,99 P,0,46502,,A M,7,46502,47222,77,181,88,162 S,6,46502,47222,-0.119208,0
Sprite,Foreground,Centre,"sb\particle.png",0,0 F,0,46502,,0.66 C,0,46502,,255,232,99 P,0,46502,,A M,7,46502,47222,77,181,109,170 S,6,46502,47222,0.4265257,0
Sprite,Foreground,Centre,"sb\particle.png",0,0 F,0,46502,,0.66 C,0,46502,,255,232,99 P,0,46502,,A M,7,46502,47222,77,181,97,165 S,6,46502,47222,0.1338464,0
Sprite,Foreground,Centre,"sb\particle.png",0,0 F,0,46502,,0.66 C,0,46502,,255,232,99 P,0,46502,,A M,7,46502,47222,77,181,97,167 S,6,46502,47222,0.1683074,0
Sprite,Foreground,Centre,"sb\particle.png",0,0 F,0,46502,,0.66 C,0,46502,,255,232,99 P,0,46502,,A M,7,46502,47222,77,181,61,134 S,6,46502,47222,-0.1378524,0
Sprite,Foreground,Centre,"sb\particle.png",0,0 F,0,46502,,0.66 C,0,46502,,255,232,99 P,0,46502,,A M,7,46502,47222,77,181,117,234 S,6,46502,47222,0.09820077,0
Sprite,Foreground,Centre,"sb\particle.png",0,0 F,0,46502,,0.66 C,0,46502,,255,232,99 P,0,46502,,A M,7,46502,47222,77,181,119,175 S,6,46502,47222,0.1703235,0
Sprite,Foreground,Centre,"sb\particle.png",0,0 F,0,46880,,0.66 C,0,46880,,245,218,66 P,0,46880,,A M,7,46880,47600,181,309,223,281 S,6,46880,47600,0.1860594,0
Sprite,Foreground,Centre,"sb\particle.png",0,0 F,0,46880,,0.66 C,0,46880,,245,218,66 P,0,46880,,A M,7,46880,47600,181,309,192,350 S,6,46880,47600,0.1132753,0
Sprite,Foreground,Centre,"sb\particle.png",0,0 F,0,46880,,0.66 C,0,46880,,245,218,66 P,0,46880,,A M,7,46880,47600,181,309,209,337 S,6,46880,47600,0.3660197,0
Sprite,Foreground,Centre,"sb\particle.png",0,0 F,0,46880,,0.66 C,0,46880,,245,218,66 P,0,46880,,A M,7,46880,47600,181,309,166,350 S,6,46880,47600,-0.2441569,0
Sprite,Foreground,Centre,"sb\particle.png",0,0 F,0,46880,,0.66 C,0,46880,,245,218,66 P,0,46880,,A M,7,46880,47600,181,309,151,274 S,6,46880,47600,0.2166346,0
Sprite,Foreground,Centre,"sb\particle.png",0,0 F,0,46880,,0.66 C,0,46880,,245,218,66 P,0,46880,,A M,7,46880,47600,181,309,166,316 S,6,46880,47600,0.1784527,0
Sprite,Foreground,Centre,"sb\particle.png",0,0 F,0,46880,,0.66 C,0,46880,,245,218,66 P,0,46880,,A M,7,46880,47600,181,309,142,258 S,6,46880,47600,-0.01618858,0
Sprite,Foreground,Centre,"sb\particle.png",0,0 F,0,46880,,0.66 C,0,46880,,255,232,99 P,0,46880,,A M,7,46880,47600,181,309,234,320 S,6,46880,47600,0.06029728,0
Sprite,Foreground,Centre,"sb\particle.png",0,0 F,0,46880,,0.66 C,0,46880,,255,232,99 P,0,46880,,A M,7,46880,47600,181,309,202,293 S,6,46880,47600,0.3925475,0
Sprite,Foreground,Centre,"sb\particle.png",0,0 F,0,46880,,0.66 C,0,46880,,255,232,99 P,0,46880,,A M,7,46880,47600,181,309,210,315 S,6,46880,47600,0.2460391,0
Sprite,Foreground,Centre,"sb\particle.png",0,0 F,0,46880,,0.66 C,0,46880,,255,232,99 P,0,46880,,A M,7,46880,47600,181,309,199,334 S,6,46880,47600,-0.2309427,0
Sprite,Foreground,Centre,"sb\particle.png",0,0 F,0,46880,,0.66 C,0,46880,,255,232,99 P,0,46880,,A M,7,46880,47600,181,309,228,283 S,6,46880,47600,0.4418024,0
Sprite,Foreground,Centre,"sb\particle.png",0,0 F,0,46880,,0.66 C,0,46880,,255,232,99 P,0,46880,,A M,7,46880,47600,181,309,208,324 S,6,46880,47600,0.4883451,0
Sprite,Foreground,Centre,"sb\particle.png",0,0 F,0,46880,,0.66 C,0,46880,,255,232,99 P,0,46880,,A M,7,46880,47600,181,309,129,318 S,6,46880,47600,-0.1201537,0
Sprite,Foreground,Centre,"sb\particle.png",0,0 F,0,46880,,0.66 C,0,46880,,255,232,99 P,0,46880,,A M,7,46880,47600,181,309,141,273 S,6,46880,47600,0.3914605,0
Sprite,Foreground,Centre,"sb\particle.png",0,0 F,0,46880,,0.66 C,0,46880,,255,232,99 P,0,46880,,A M,7,46880,47600,181,309,152,360 S,6,46880,47600,0.4144624,0
Sprite,Foreground,Centre,"sb\particle.png",0,0 F,0,46880,,0.66 C,0,46880,,255,232,99 P,0,46880,,A M,7,46880,47600,181,309,173,257 S,6,46880,47600,0.3518675,0
Sprite,Foreground,Centre,"sb\particle.png",0,0 F,0,47446,,0.66 C,0,47446,,245,218,66 P,0,47446,,A M,7,47446,48166,371,168,413,146 S,6,47446,48166,-0.08389767,0
Sprite,Foreground,Centre,"sb\particle.png",0,0 F,0,47446,,0.66 C,0,47446,,245,218,66 P,0,47446,,A M,7,47446,48166,371,168,410,125 S,6,47446,48166,0.009804079,0
Sprite,Foreground,Centre,"sb\particle.png",0,0 F,0,47446,,0.66 C,0,47446,,245,218,66 P,0,47446,,A M,7,47446,48166,371,168,377,162 S,6,47446,48166,-0.1530797,0
Sprite,Foreground,Centre,"sb\particle.png",0,0 F,0,47446,,0.66 C,0,47446,,245,218,66 P,0,47446,,A M,7,47446,48166,371,168,327,166 S,6,47446,48166,0.2294839,0
Sprite,Foreground,Centre,"sb\particle.png",0,0 F,0,47446,,0.66 C,0,47446,,245,218,66 P,0,47446,,A M,7,47446,48166,371,168,340,132 S,6,47446,48166,0.2667012,0
Sprite,Foreground,Centre,"sb\particle.png",0,0 F,0,47446,,0.66 C,0,47446,,245,218,66 P,0,47446,,A M,7,47446,48166,371,168,405,206 S,6,47446,48166,0.1807983,0
Sprite,Foreground,Centre,"sb\particle.png",0,0 F,0,47446,,0.66 C,0,47446,,245,218,66 P,0,47446,,A M,7,47446,48166,371,168,353,207 S,6,47446,48166,0.4403826,0
Sprite,Foreground,Centre,"sb\particle.png",0,0 F,0,47446,,0.66 C,0,47446,,255,232,99 P,0,47446,,A M,7,47446,48166,371,168,391,139 S,6,47446,48166,0.4401751,0
Sprite,Foreground,Centre,"sb\particle.png",0,0 F,0,47446,,0.66 C,0,47446,,255,232,99 P,0,47446,,A M,7,47446,48166,371,168,393,183 S,6,47446,48166,-0.2708024,0
Sprite,Foreground,Centre,"sb\particle.png",0,0 F,0,47446,,0.66 C,0,47446,,255,232,99 P,0,47446,,A M,7,47446,48166,371,168,324,175 S,6,47446,48166,0.2485591,0
Sprite,Foreground,Centre,"sb\particle.png",0,0 F,0,47446,,0.66 C,0,47446,,255,232,99 P,0,47446,,A M,7,47446,48166,371,168,384,118 S,6,47446,48166,0.08618539,0
Sprite,Foreground,Centre,"sb\particle.png",0,0 F,0,47446,,0.66 C,0,47446,,255,232,99 P,0,47446,,A M,7,47446,48166,371,168,329,121 S,6,47446,48166,0.1545761,0
Sprite,Foreground,Centre,"sb\particle.png",0,0 F,0,47446,,0.66 C,0,47446,,255,232,99 P,0,47446,,A M,7,47446,48166,371,168,321,137 S,6,47446,48166,-0.2752342,0
Sprite,Foreground,Centre,"sb\particle.png",0,0 F,0,47446,,0.66 C,0,47446,,255,232,99 P,0,47446,,A M,7,47446,48166,371,168,391,134 S,6,47446,48166,0.1198109,0
Sprite,Foreground,Centre,"sb\particle.png",0,0 F,0,47446,,0.66 C,0,47446,,255,232,99 P,0,47446,,A M,7,47446,48166,371,168,325,197 S,6,47446,48166,0.1569371,0
Sprite,Foreground,Centre,"sb\particle.png",0,0 F,0,47446,,0.66 C,0,47446,,255,232,99 P,0,47446,,A M,7,47446,48166,371,168,413,212 S,6,47446,48166,-0.137166,0
Sprite,Foreground,Centre,"sb\particle.png",0,0 F,0,47446,,0.66 C,0,47446,,255,232,99 P,0,47446,,A M,7,47446,48166,371,168,336,204 S,6,47446,48166,0.2456142,0
Sprite,Foreground,Centre,"sb\particle.png",0,0 F,0,47635,,0.66 C,0,47635,,245,218,66 P,0,47635,,A M,7,47635,48355,462,214,464,262 S,6,47635,48355,0.1916684,0
Sprite,Foreground,Centre,"sb\particle.png",0,0 F,0,47635,,0.66 C,0,47635,,245,218,66 P,0,47635,,A M,7,47635,48355,462,214,436,205 S,6,47635,48355,0.4809248,0
Sprite,Foreground,Centre,"sb\particle.png",0,0 F,0,47635,,0.66 C,0,47635,,245,218,66 P,0,47635,,A M,7,47635,48355,462,214,472,174 S,6,47635,48355,0.4665153,0
Sprite,Foreground,Centre,"sb\particle.png",0,0 F,0,47635,,0.66 C,0,47635,,245,218,66 P,0,47635,,A M,7,47635,48355,462,214,488,200 S,6,47635,48355,0.08521426,0
Sprite,Foreground,Centre,"sb\particle.png",0,0 F,0,47635,,0.66 C,0,47635,,245,218,66 P,0,47635,,A M,7,47635,48355,462,214,490,231 S,6,47635,48355,0.2641903,0
Sprite,Foreground,Centre,"sb\particle.png",0,0 F,0,47635,,0.66 C,0,47635,,245,218,66 P,0,47635,,A M,7,47635,48355,462,214,408,180 S,6,47635,48355,0.02073712,0
Sprite,Foreground,Centre,"sb\particle.png",0,0 F,0,47635,,0.66 C,0,47635,,245,218,66 P,0,47635,,A M,7,47635,48355,462,214,510,239 S,6,47635,48355,0.4552507,0
Sprite,Foreground,Centre,"sb\particle.png",0,0 F,0,47635,,0.66 C,0,47635,,255,232,99 P,0,47635,,A M,7,47635,48355,462,214,436,265 S,6,47635,48355,0.2160234,0
Sprite,Foreground,Centre,"sb\particle.png",0,0 F,0,47635,,0.66 C,0,47635,,255,232,99 P,0,47635,,A M,7,47635,48355,462,214,491,188 S,6,47635,48355,0.1432644,0
Sprite,Foreground,Centre,"sb\particle.png",0,0 F,0,47635,,0.66 C,0,47635,,255,232,99 P,0,47635,,A M,7,47635,48355,462,214,477,219 S,6,47635,48355,0.4146218,0
Sprite,Foreground,Centre,"sb\particle.png",0,0 F,0,47635,,0.66 C,0,47635,,255,232,99 P,0,47635,,A M,7,47635,48355,462,214,474,215 S,6,47635,48355,0.04125764,0
Sprite,Foreground,Centre,"sb\particle.png",0,0 F,0,47635,,0.66 C,0,47635,,255,232,99 P,0,47635,,A M,7,47635,48355,462,214,490,189 S,6,47635,48355,0.1467159,0
Sprite,Foreground,Centre,"sb\particle.png",0,0 F,0,47635,,0.66 C,0,47635,,255,232,99 P,0,47635,,A M,7,47635,48355,462,214,469,178 S,6,47635,48355,-0.03574762,0
Sprite,Foreground,Centre,"sb\particle.png",0,0 F,0,47635,,0.66 C,0,47635,,255,232,99 P,0,47635,,A M,7,47635,48355,462,214,505,261 S,6,47635,48355,-0.1527054,0
Sprite,Foreground,Centre,"sb\particle.png",0,0 F,0,47635,,0.66 C,0,47635,,255,232,99 P,0,47635,,A M,7,47635,48355,462,214,429,254 S,6,47635,48355,0.05823629,0
Sprite,Foreground,Centre,"sb\particle.png",0,0 F,0,47635,,0.66 C,0,47635,,255,232,99 P,0,47635,,A M,7,47635,48355,462,214,487,189 S,6,47635,48355,-0.0958687,0
Sprite,Foreground,Centre,"sb\particle.png",0,0 F,0,47635,,0.66 C,0,47635,,255,232,99 P,0,47635,,A M,7,47635,48355,462,214,491,173 S,6,47635,48355,-0.1363911,0
Sprite,Foreground,Centre,"sb\particle.png",0,0 F,0,48013,,0.66 C,0,48013,,245,218,66 P,0,48013,,A M,7,48013,48733,471,377,421,428 S,6,48013,48733,0.02916347,0
Sprite,Foreground,Centre,"sb\particle.png",0,0 F,0,48013,,0.66 C,0,48013,,245,218,66 P,0,48013,,A M,7,48013,48733,471,377,509,401 S,6,48013,48733,0.1705924,0
Sprite,Foreground,Centre,"sb\particle.png",0,0 F,0,48013,,0.66 C,0,48013,,245,218,66 P,0,48013,,A M,7,48013,48733,471,377,433,338 S,6,48013,48733,-0.2963665,0
Sprite,Foreground,Centre,"sb\particle.png",0,0 F,0,48013,,0.66 C,0,48013,,245,218,66 P,0,48013,,A M,7,48013,48733,471,377,495,405 S,6,48013,48733,0.209526,0
Sprite,Foreground,Centre,"sb\particle.png",0,0 F,0,48013,,0.66 C,0,48013,,245,218,66 P,0,48013,,A M,7,48013,48733,471,377,459,379 S,6,48013,48733,0.3206667,0
Sprite,Foreground,Centre,"sb\particle.png",0,0 F,0,48013,,0.66 C,0,48013,,245,218,66 P,0,48013,,A M,7,48013,48733,471,377,510,367 S,6,48013,48733,-0.1699536,0
Sprite,Foreground,Centre,"sb\particle.png",0,0 F,0,48013,,0.66 C,0,48013,,245,218,66 P,0,48013,,A M,7,48013,48733,471,377,455,399 S,6,48013,48733,0.2006631,0
Sprite,Foreground,Centre,"sb\particle.png",0,0 F,0,48013,,0.66 C,0,48013,,255,232,99 P,0,48013,,A M,7,48013,48733,471,377,490,427 S,6,48013,48733,-0.1342763,0
Sprite,Foreground,Centre,"sb\particle.png",0,0 F,0,48013,,0.66 C,0,48013,,255,232,99 P,0,48013,,A M,7,48013,48733,471,377,483,370 S,6,48013,48733,0.212141,0
Sprite,Foreground,Centre,"sb\particle.png",0,0 F,0,48013,,0.66 C,0,48013,,255,232,99 P,0,48013,,A M,7,48013,48733,471,377,449,371 S,6,48013,48733,0.3068132,0
Sprite,Foreground,Centre,"sb\particle.png",0,0 F,0,48013,,0.66 C,0,48013,,255,232,99 P,0,48013,,A M,7,48013,48733,471,377,479,323 S,6,48013,48733,-0.1758678,0
Sprite,Foreground,Centre,"sb\particle.png",0,0 F,0,48013,,0.66 C,0,48013,,255,232,99 P,0,48013,,A M,7,48013,48733,471,377,467,394 S,6,48013,48733,0.3072678,0
Sprite,Foreground,Centre,"sb\particle.png",0,0 F,0,48013,,0.66 C,0,48013,,255,232,99 P,0,48013,,A M,7,48013,48733,471,377,436,430 S,6,48013,48733,0.0763604,0
Sprite,Foreground,Centre,"sb\particle.png",0,0 F,0,48013,,0.66 C,0,48013,,255,232,99 P,0,48013,,A M,7,48013,48733,471,377,516,409 S,6,48013,48733,0.4696968,0
Sprite,Foreground,Centre,"sb\particle.png",0,0 F,0,48013,,0.66 C,0,48013,,255,232,99 P,0,48013,,A M,7,48013,48733,471,377,458,384 S,6,48013,48733,-0.246833,0
Sprite,Foreground,Centre,"sb\particle.png",0,0 F,0,48013,,0.66 C,0,48013,,255,232,99 P,0,48013,,A M,7,48013,48733,471,377,479,393 S,6,48013,48733,-0.01191474,0
Sprite,Foreground,Centre,"sb\particle.png",0,0 F,0,48013,,0.66 C,0,48013,,255,232,99 P,0,48013,,A M,7,48013,48733,471,377,473,330 S,6,48013,48733,0.4776753,0
Sprite,Foreground,Centre,"sb\particle.png",0,0 F,0,48390,,0.66 C,0,48390,,245,218,66 P,0,48390,,A M,7,48390,49110,305,330,306,315 S,6,48390,49110,0.147208,0
Sprite,Foreground,Centre,"sb\particle.png",0,0 F,0,48390,,0.66 C,0,48390,,245,218,66 P,0,48390,,A M,7,48390,49110,305,330,275,325 S,6,48390,49110,0.4027127,0
Sprite,Foreground,Centre,"sb\particle.png",0,0 F,0,48390,,0.66 C,0,48390,,245,218,66 P,0,48390,,A M,7,48390,49110,305,330,338,331 S,6,48390,49110,0.2171736,0
Sprite,Foreground,Centre,"sb\particle.png",0,0 F,0,48390,,0.66 C,0,48390,,245,218,66 P,0,48390,,A M,7,48390,49110,305,330,272,303 S,6,48390,49110,0.2524995,0
Sprite,Foreground,Centre,"sb\particle.png",0,0 F,0,48390,,0.66 C,0,48390,,245,218,66 P,0,48390,,A M,7,48390,49110,305,330,315,314 S,6,48390,49110,0.2051411,0
Sprite,Foreground,Centre,"sb\particle.png",0,0 F,0,48390,,0.66 C,0,48390,,245,218,66 P,0,48390,,A M,7,48390,49110,305,330,312,361 S,6,48390,49110,0.400242,0
Sprite,Foreground,Centre,"sb\particle.png",0,0 F,0,48390,,0.66 C,0,48390,,245,218,66 P,0,48390,,A M,7,48390,49110,305,330,306,319 S,6,48390,49110,0.2837539,0
Sprite,Foreground,Centre,"sb\particle.png",0,0 F,0,48390,,0.66 C,0,48390,,255,232,99 P,0,48390,,A M,7,48390,49110,305,330,258,364 S,6,48390,49110,-0.02343507,0
Sprite,Foreground,Centre,"sb\particle.png",0,0 F,0,48390,,0.66 C,0,48390,,255,232,99 P,0,48390,,A M,7,48390,49110,305,330,262,322 S,6,48390,49110,0.152597,0
Sprite,Foreground,Centre,"sb\particle.png",0,0 F,0,48390,,0.66 C,0,48390,,255,232,99 P,0,48390,,A M,7,48390,49110,305,330,260,359 S,6,48390,49110,-0.2573995,0
Sprite,Foreground,Centre,"sb\particle.png",0,0 F,0,48390,,0.66 C,0,48390,,255,232,99 P,0,48390,,A M,7,48390,49110,305,330,293,316 S,6,48390,49110,0.1964532,0
Sprite,Foreground,Centre,"sb\particle.png",0,0 F,0,48390,,0.66 C,0,48390,,255,232,99 P,0,48390,,A M,7,48390,49110,305,330,276,345 S,6,48390,49110,0.02949327,0
Sprite,Foreground,Centre,"sb\particle.png",0,0 F,0,48390,,0.66 C,0,48390,,255,232,99 P,0,48390,,A M,7,48390,49110,305,330,285,283 S,6,48390,49110,-0.1516739,0
Sprite,Foreground,Centre,"sb\particle.png",0,0 F,0,48390,,0.66 C,0,48390,,255,232,99 P,0,48390,,A M,7,48390,49110,305,330,327,305 S,6,48390,49110,0.4578048,0
Sprite,Foreground,Centre,"sb\particle.png",0,0 F,0,48390,,0.66 C,0,48390,,255,232,99 P,0,48390,,A M,7,48390,49110,305,330,336,300 S,6,48390,49110,-0.2063314,0
Sprite,Foreground,Centre,"sb\particle.png",0,0 F,0,48390,,0.66 C,0,48390,,255,232,99 P,0,48390,,A M,7,48390,49110,305,330,277,373 S,6,48390,49110,0.05166503,0
Sprite,Foreground,Centre,"sb\particle.png",0,0 F,0,48390,,0.66 C,0,48390,,255,232,99 P,0,48390,,A M,7,48390,49110,305,330,263,330 S,6,48390,49110,0.3163571,0
Sprite,Foreground,Centre,"sb\particle.png",0,0 F,0,48957,,0.66 C,0,48957,,245,218,66 P,0,48957,,A M,7,48957,49677,110,383,82,338 S,6,48957,49677,0.4017658,0
Sprite,Foreground,Centre,"sb\particle.png",0,0 F,0,48957,,0.66 C,0,48957,,245,218,66 P,0,48957,,A M,7,48957,49677,110,383,62,346 S,6,48957,49677,0.209899,0
Sprite,Foreground,Centre,"sb\particle.png",0,0 F,0,48957,,0.66 C,0,48957,,245,218,66 P,0,48957,,A M,7,48957,49677,110,383,78,434 S,6,48957,49677,-0.1813912,0
Sprite,Foreground,Centre,"sb\particle.png",0,0 F,0,48957,,0.66 C,0,48957,,245,218,66 P,0,48957,,A M,7,48957,49677,110,383,155,347 S,6,48957,49677,0.208862,0
Sprite,Foreground,Centre,"sb\particle.png",0,0 F,0,48957,,0.66 C,0,48957,,245,218,66 P,0,48957,,A M,7,48957,49677,110,383,67,381 S,6,48957,49677,0.224633,0
Sprite,Foreground,Centre,"sb\particle.png",0,0 F,0,48957,,0.66 C,0,48957,,245,218,66 P,0,48957,,A M,7,48957,49677,110,383,137,383 S,6,48957,49677,0.3981446,0
Sprite,Foreground,Centre,"sb\particle.png",0,0 F,0,48957,,0.66 C,0,48957,,245,218,66 P,0,48957,,A M,7,48957,49677,110,383,134,337 S,6,48957,49677,-0.2574294,0
Sprite,Foreground,Centre,"sb\particle.png",0,0 F,0,48957,,0.66 C,0,48957,,255,232,99 P,0,48957,,A M,7,48957,49677,110,383,92,381 S,6,48957,49677,0.4192519,0
Sprite,Foreground,Centre,"sb\particle.png",0,0 F,0,48957,,0.66 C,0,48957,,255,232,99 P,0,48957,,A M,7,48957,49677,110,383,72,331 S,6,48957,49677,0.3718993,0
Sprite,Foreground,Centre,"sb\particle.png",0,0 F,0,48957,,0.66 C,0,48957,,255,232,99 P,0,48957,,A M,7,48957,49677,110,383,68,333 S,6,48957,49677,0.05264122,0
Sprite,Foreground,Centre,"sb\particle.png",0,0 F,0,48957,,0.66 C,0,48957,,255,232,99 P,0,48957,,A M,7,48957,49677,110,383,91,345 S,6,48957,49677,0.05075748,0
Sprite,Foreground,Centre,"sb\particle.png",0,0 F,0,48957,,0.66 C,0,48957,,255,232,99 P,0,48957,,A M,7,48957,49677,110,383,69,345 S,6,48957,49677,0.2861853,0
Sprite,Foreground,Centre,"sb\particle.png",0,0 F,0,48957,,0.66 C,0,48957,,255,232,99 P,0,48957,,A M,7,48957,49677,110,383,142,420 S,6,48957,49677,0.3916429,0
Sprite,Foreground,Centre,"sb\particle.png",0,0 F,0,48957,,0.66 C,0,48957,,255,232,99 P,0,48957,,A M,7,48957,49677,110,383,124,388 S,6,48957,49677,0.1692884,0
Sprite,Foreground,Centre,"sb\particle.png",0,0 F,0,48957,,0.66 C,0,48957,,255,232,99 P,0,48957,,A M,7,48957,49677,110,383,129,334 S,6,48957,49677,-0.2684204,0
Sprite,Foreground,Centre,"sb\particle.png",0,0 F,0,48957,,0.66 C,0,48957,,255,232,99 P,0,48957,,A M,7,48957,49677,110,383,133,337 S,6,48957,49677,0.4240976,0
Sprite,Foreground,Centre,"sb\particle.png",0,0 F,0,48957,,0.66 C,0,48957,,255,232,99 P,0,48957,,A M,7,48957,49677,110,383,84,425 S,6,48957,49677,0.09081852,0
Sprite,Foreground,Centre,"sb\particle.png",0,0 F,0,49145,,0.66 C,0,49145,,245,218,66 P,0,49145,,A M,7,49145,49865,166,297,151,333 S,6,49145,49865,-0.2162584,0
Sprite,Foreground,Centre,"sb\particle.png",0,0 F,0,49145,,0.66 C,0,49145,,245,218,66 P,0,49145,,A M,7,49145,49865,166,297,154,248 S,6,49145,49865,-0.1437792,0
Sprite,Foreground,Centre,"sb\particle.png",0,0 F,0,49145,,0.66 C,0,49145,,245,218,66 P,0,49145,,A M,7,49145,49865,166,297,195,278 S,6,49145,49865,0.3629574,0
Sprite,Foreground,Centre,"sb\particle.png",0,0 F,0,49145,,0.66 C,0,49145,,245,218,66 P,0,49145,,A M,7,49145,49865,166,297,177,249 S,6,49145,49865,0.2979552,0
Sprite,Foreground,Centre,"sb\particle.png",0,0 F,0,49145,,0.66 C,0,49145,,245,218,66 P,0,49145,,A M,7,49145,49865,166,297,218,291 S,6,49145,49865,-0.1372695,0
Sprite,Foreground,Centre,"sb\particle.png",0,0 F,0,49145,,0.66 C,0,49145,,245,218,66 P,0,49145,,A M,7,49145,49865,166,297,142,316 S,6,49145,49865,-0.2077995,0
Sprite,Foreground,Centre,"sb\particle.png",0,0 F,0,49145,,0.66 C,0,49145,,245,218,66 P,0,49145,,A M,7,49145,49865,166,297,154,280 S,6,49145,49865,-0.02250643,0
Sprite,Foreground,Centre,"sb\particle.png",0,0 F,0,49145,,0.66 C,0,49145,,255,232,99 P,0,49145,,A M,7,49145,49865,166,297,197,302 S,6,49145,49865,0.09312326,0
Sprite,Foreground,Centre,"sb\particle.png",0,0 F,0,49145,,0.66 C,0,49145,,255,232,99 P,0,49145,,A M,7,49145,49865,166,297,151,295 S,6,49145,49865,0.2823655,0
Sprite,Foreground,Centre,"sb\particle.png",0,0 F,0,49145,,0.66 C,0,49145,,255,232,99 P,0,49145,,A M,7,49145,49865,166,297,170,342 S,6,49145,49865,-0.2281243,0
Sprite,Foreground,Centre,"sb\particle.png",0,0 F,0,49145,,0.66 C,0,49145,,255,232,99 P,0,49145,,A M,7,49145,49865,166,297,208,258 S,6,49145,49865,0.2554544,0
Sprite,Foreground,Centre,"sb\particle.png",0,0 F,0,49145,,0.66 C,0,49145,,255,232,99 P,0,49145,,A M,7,49145,49865,166,297,162,243 S,6,49145,49865,-0.06059266,0
Sprite,Foreground,Centre,"sb\particle.png",0,0 F,0,49145,,0.66 C,0,49145,,255,232,99 P,0,49145,,A M,7,49145,49865,166,297,193,246 S,6,49145,49865,-0.2364448,0
Sprite,Foreground,Centre,"sb\particle.png",0,0 F,0,49145,,0.66 C,0,49145,,255,232,99 P,0,49145,,A M,7,49145,49865,166,297,176,338 S,6,49145,49865,0.111056,0
Sprite,Foreground,Centre,"sb\particle.png",0,0 F,0,49145,,0.66 C,0,49145,,255,232,99 P,0,49145,,A M,7,49145,49865,166,297,178,341 S,6,49145,49865,0.4357524,0
Sprite,Foreground,Centre,"sb\particle.png",0,0 F,0,49145,,0.66 C,0,49145,,255,232,99 P,0,49145,,A M,7,49145,49865,166,297,127,312 S,6,49145,49865,0.1597861,0
Sprite,Foreground,Centre,"sb\particle.png",0,0 F,0,49145,,0.66 C,0,49145,,255,232,99 P,0,49145,,A M,7,49145,49865,166,297,172,323 S,6,49145,49865,0.3644349,0
Sprite,Foreground,Centre,"sb\particle.png",0,0 F,0,49523,,0.66 C,0,49523,,245,218,66 P,0,49523,,A M,7,49523,50243,85,148,35,191 S,6,49523,50243,0.4253793,0
Sprite,Foreground,Centre,"sb\particle.png",0,0 F,0,49523,,0.66 C,0,49523,,245,218,66 P,0,49523,,A M,7,49523,50243,85,148,108,150 S,6,49523,50243,0.2260795,0
Sprite,Foreground,Centre,"sb\particle.png",0,0 F,0,49523,,0.66 C,0,49523,,245,218,66 P,0,49523,,A M,7,49523,50243,85,148,41,126 S,6,49523,50243,0.2749359,0
Sprite,Foreground,Centre,"sb\particle.png",0,0 F,0,49523,,0.66 C,0,49523,,245,218,66 P,0,49523,,A M,7,49523,50243,85,148,60,200 S,6,49523,50243,0.217201,0
Sprite,Foreground,Centre,"sb\particle.png",0,0 F,0,49523,,0.66 C,0,49523,,245,218,66 P,0,49523,,A M,7,49523,50243,85,148,41,200 S,6,49523,50243,-0.0449327,0
Sprite,Foreground,Centre,"sb\particle.png",0,0 F,0,49523,,0.66 C,0,49523,,245,218,66 P,0,49523,,A M,7,49523,50243,85,148,117,179 S,6,49523,50243,-0.07547446,0
Sprite,Foreground,Centre,"sb\particle.png",0,0 F,0,49523,,0.66 C,0,49523,,245,218,66 P,0,49523,,A M,7,49523,50243,85,148,127,159 S,6,49523,50243,-0.07737132,0
Sprite,Foreground,Centre,"sb\particle.png",0,0 F,0,49523,,0.66 C,0,49523,,255,232,99 P,0,49523,,A M,7,49523,50243,85,148,118,193 S,6,49523,50243,0.307113,0
Sprite,Foreground,Centre,"sb\particle.png",0,0 F,0,49523,,0.66 C,0,49523,,255,232,99 P,0,49523,,A M,7,49523,50243,85,148,79,198 S,6,49523,50243,0.1786939,0
Sprite,Foreground,Centre,"sb\particle.png",0,0 F,0,49523,,0.66 C,0,49523,,255,232,99 P,0,49523,,A M,7,49523,50243,85,148,133,192 S,6,49523,50243,0.1500546,0
Sprite,Foreground,Centre,"sb\particle.png",0,0 F,0,49523,,0.66 C,0,49523,,255,232,99 P,0,49523,,A M,7,49523,50243,85,148,74,151 S,6,49523,50243,0.3809517,0
Sprite,Foreground,Centre,"sb\particle.png",0,0 F,0,49523,,0.66 C,0,49523,,255,232,99 P,0,49523,,A M,7,49523,50243,85,148,70,144 S,6,49523,50243,-0.06794756,0
Sprite,Foreground,Centre,"sb\particle.png",0,0 F,0,49523,,0.66 C,0,49523,,255,232,99 P,0,49523,,A M,7,49523,50243,85,148,116,200 S,6,49523,50243,-0.02593396,0
Sprite,Foreground,Centre,"sb\particle.png",0,0 F,0,49523,,0.66 C,0,49523,,255,232,99 P,0,49523,,A M,7,49523,50243,85,148,131,108 S,6,49523,50243,0.3582577,0
Sprite,Foreground,Centre,"sb\particle.png",0,0 F,0,49523,,0.66 C,0,49523,,255,232,99 P,0,49523,,A M,7,49523,50243,85,148,114,148 S,6,49523,50243,0.4568749,0
Sprite,Foreground,Centre,"sb\particle.png",0,0 F,0,49523,,0.66 C,0,49523,,255,232,99 P,0,49523,,A M,7,49523,50243,85,148,90,95 S,6,49523,50243,-0.1122813,0
Sprite,Foreground,Centre,"sb\particle.png",0,0 F,0,49523,,0.66 C,0,49523,,255,232,99 P,0,49523,,A M,7,49523,50243,85,148,113,159 S,6,49523,50243,-0.1314011,0
Sprite,Foreground,Centre,"sb\particle.png",0,0 F,0,49901,,0.66 C,0,49901,,245,218,66 P,0,49901,,A M,7,49901,50621,226,64,226,42 S,6,49901,50621,0.3469274,0
Sprite,Foreground,Centre,"sb\particle.png",0,0 F,0,49901,,0.66 C,0,49901,,245,218,66 P,0,49901,,A M,7,49901,50621,226,64,261,14 S,6,49901,50621,-0.2328536,0
Sprite,Foreground,Centre,"sb\particle.png",0,0 F,0,49901,,0.66 C,0,49901,,245,218,66 P,0,49901,,A M,7,49901,50621,226,64,246,59 S,6,49901,50621,-0.03056386,0
Sprite,Foreground,Centre,"sb\particle.png",0,0 F,0,49901,,0.66 C,0,49901,,245,218,66 P,0,49901,,A M,7,49901,50621,226,64,208,111 S,6,49901,50621,0.4341017,0
Sprite,Foreground,Centre,"sb\particle.png",0,0 F,0,49901,,0.66 C,0,49901,,245,218,66 P,0,49901,,A M,7,49901,50621,226,64,237,51 S,6,49901,50621,-0.06755699,0
Sprite,Foreground,Centre,"sb\particle.png",0,0 F,0,49901,,0.66 C,0,49901,,245,218,66 P,0,49901,,A M,7,49901,50621,226,64,267,23 S,6,49901,50621,0.4677128,0
Sprite,Foreground,Centre,"sb\particle.png",0,0 F,0,49901,,0.66 C,0,49901,,245,218,66 P,0,49901,,A M,7,49901,50621,226,64,175,77 S,6,49901,50621,0.4175966,0
Sprite,Foreground,Centre,"sb\particle.png",0,0 F,0,49901,,0.66 C,0,49901,,255,232,99 P,0,49901,,A M,7,49901,50621,226,64,182,29 S,6,49901,50621,0.0886582,0
Sprite,Foreground,Centre,"sb\particle.png",0,0 F,0,49901,,0.66 C,0,49901,,255,232,99 P,0,49901,,A M,7,49901,50621,226,64,231,64 S,6,49901,50621,0.03779655,0
Sprite,Foreground,Centre,"sb\particle.png",0,0 F,0,49901,,0.66 C,0,49901,,255,232,99 P,0,49901,,A M,7,49901,50621,226,64,198,90 S,6,49901,50621,0.1916402,0
Sprite,Foreground,Centre,"sb\particle.png",0,0 F,0,49901,,0.66 C,0,49901,,255,232,99 P,0,49901,,A M,7,49901,50621,226,64,278,11 S,6,49901,50621,0.4891926,0
Sprite,Foreground,Centre,"sb\particle.png",0,0 F,0,49901,,0.66 C,0,49901,,255,232,99 P,0,49901,,A M,7,49901,50621,226,64,227,105 S,6,49901,50621,0.0814371,0
Sprite,Foreground,Centre,"sb\particle.png",0,0 F,0,49901,,0.66 C,0,49901,,255,232,99 P,0,49901,,A M,7,49901,50621,226,64,224,102 S,6,49901,50621,0.04529782,0
Sprite,Foreground,Centre,"sb\particle.png",0,0 F,0,49901,,0.66 C,0,49901,,255,232,99 P,0,49901,,A M,7,49901,50621,226,64,232,68 S,6,49901,50621,-0.09063679,0
Sprite,Foreground,Centre,"sb\particle.png",0,0 F,0,49901,,0.66 C,0,49901,,255,232,99 P,0,49901,,A M,7,49901,50621,226,64,209,102 S,6,49901,50621,-0.1881091,0
Sprite,Foreground,Centre,"sb\particle.png",0,0 F,0,49901,,0.66 C,0,49901,,255,232,99 P,0,49901,,A M,7,49901,50621,226,64,205,87 S,6,49901,50621,0.02252157,0
Sprite,Foreground,Centre,"sb\particle.png",0,0 F,0,49901,,0.66 C,0,49901,,255,232,99 P,0,49901,,A M,7,49901,50621,226,64,231,82 S,6,49901,50621,0.1251008,0
Sprite,Foreground,Centre,"sb\particle.png",0,0 F,0,50089,,0.66 C,0,50089,,245,218,66 P,0,50089,,A M,7,50089,50809,293,141,268,138 S,6,50089,50809,0.1715237,0
Sprite,Foreground,Centre,"sb\particle.png",0,0 F,0,50089,,0.66 C,0,50089,,245,218,66 P,0,50089,,A M,7,50089,50809,293,141,307,161 S,6,50089,50809,-0.05753851,0
Sprite,Foreground,Centre,"sb\particle.png",0,0 F,0,50089,,0.66 C,0,50089,,245,218,66 P,0,50089,,A M,7,50089,50809,293,141,305,127 S,6,50089,50809,0.342535,0
Sprite,Foreground,Centre,"sb\particle.png",0,0 F,0,50089,,0.66 C,0,50089,,245,218,66 P,0,50089,,A M,7,50089,50809,293,141,346,102 S,6,50089,50809,0.05417547,0
Sprite,Foreground,Centre,"sb\particle.png",0,0 F,0,50089,,0.66 C,0,50089,,245,218,66 P,0,50089,,A M,7,50089,50809,293,141,299,148 S,6,50089,50809,-0.2681662,0
Sprite,Foreground,Centre,"sb\particle.png",0,0 F,0,50089,,0.66 C,0,50089,,245,218,66 P,0,50089,,A M,7,50089,50809,293,141,296,161 S,6,50089,50809,0.2659752,0
Sprite,Foreground,Centre,"sb\particle.png",0,0 F,0,50089,,0.66 C,0,50089,,245,218,66 P,0,50089,,A M,7,50089,50809,293,141,341,188 S,6,50089,50809,-0.1810803,0
Sprite,Foreground,Centre,"sb\particle.png",0,0 F,0,50089,,0.66 C,0,50089,,255,232,99 P,0,50089,,A M,7,50089,50809,293,141,300,164 S,6,50089,50809,0.1814635,0
Sprite,Foreground,Centre,"sb\particle.png",0,0 F,0,50089,,0.66 C,0,50089,,255,232,99 P,0,50089,,A M,7,50089,50809,293,141,336,147 S,6,50089,50809,0.3907174,0
Sprite,Foreground,Centre,"sb\particle.png",0,0 F,0,50089,,0.66 C,0,50089,,255,232,99 P,0,50089,,A M,7,50089,50809,293,141,273,96 S,6,50089,50809,-0.1426619,0
Sprite,Foreground,Centre,"sb\particle.png",0,0 F,0,50089,,0.66 C,0,50089,,255,232,99 P,0,50089,,A M,7,50089,50809,293,141,346,143 S,6,50089,50809,0.4172978,0
Sprite,Foreground,Centre,"sb\particle.png",0,0 F,0,50089,,0.66 C,0,50089,,255,232,99 P,0,50089,,A M,7,50089,50809,293,141,324,180 S,6,50089,50809,-0.1530221,0
Sprite,Foreground,Centre,"sb\particle.png",0,0 F,0,50089,,0.66 C,0,50089,,255,232,99 P,0,50089,,A M,7,50089,50809,293,141,288,171 S,6,50089,50809,-0.01742692,0
Sprite,Foreground,Centre,"sb\particle.png",0,0 F,0,50089,,0.66 C,0,50089,,255,232,99 P,0,50089,,A M,7,50089,50809,293,141,300,108 S,6,50089,50809,-0.08083151,0
Sprite,Foreground,Centre,"sb\particle.png",0,0 F,0,50089,,0.66 C,0,50089,,255,232,99 P,0,50089,,A M,7,50089,50809,293,141,332,133 S,6,50089,50809,0.1915872,0
Sprite,Foreground,Centre,"sb\particle.png",0,0 F,0,50089,,0.66 C,0,50089,,255,232,99 P,0,50089,,A M,7,50089,50809,293,141,280,127 S,6,50089,50809,0.2608175,0
Sprite,Foreground,Centre,"sb\particle.png",0,0 F,0,50089,,0.66 C,0,50089,,255,232,99 P,0,50089,,A M,7,50089,50809,293,141,248,107 S,6,50089,50809,0.02245134,0
Sprite,Foreground,Centre,"sb\particle.png",0,0 F,0,50278,,0.66 C,0,50278,,245,218,66 P,0,50278,,A M,7,50278,50998,382,89,409,108 S,6,50278,50998,0.2751485,0
Sprite,Foreground,Centre,"sb\particle.png",0,0 F,0,50278,,0.66 C,0,50278,,245,218,66 P,0,50278,,A M,7,50278,50998,382,89,399,123 S,6,50278,50998,-0.1031627,0
Sprite,Foreground,Centre,"sb\particle.png",0,0 F,0,50278,,0.66 C,0,50278,,245,218,66 P,0,50278,,A M,7,50278,50998,382,89,388,40 S,6,50278,50998,0.06239566,0
Sprite,Foreground,Centre,"sb\particle.png",0,0 F,0,50278,,0.66 C,0,50278,,245,218,66 P,0,50278,,A M,7,50278,50998,382,89,400,120 S,6,50278,50998,0.4309851,0
Sprite,Foreground,Centre,"sb\particle.png",0,0 F,0,50278,,0.66 C,0,50278,,245,218,66 P,0,50278,,A M,7,50278,50998,382,89,410,110 S,6,50278,50998,-0.009445919,0
Sprite,Foreground,Centre,"sb\particle.png",0,0 F,0,50278,,0.66 C,0,50278,,245,218,66 P,0,50278,,A M,7,50278,50998,382,89,420,62 S,6,50278,50998,-0.2649287,0
Sprite,Foreground,Centre,"sb\particle.png",0,0 F,0,50278,,0.66 C,0,50278,,245,218,66 P,0,50278,,A M,7,50278,50998,382,89,435,78 S,6,50278,50998,0.2940966,0
Sprite,Foreground,Centre,"sb\particle.png",0,0 F,0,50278,,0.66 C,0,50278,,255,232,99 P,0,50278,,A M,7,50278,50998,382,89,374,80 S,6,50278,50998,-0.01614106,0
Sprite,Foreground,Centre,"sb\particle.png",0,0 F,0,50278,,0.66 C,0,50278,,255,232,99 P,0,50278,,A M,7,50278,50998,382,89,416,112 S,6,50278,50998,-0.1164541,0
Sprite,Foreground,Centre,"sb\particle.png",0,0 F,0,50278,,0.66 C,0,50278,,255,232,99 P,0,50278,,A M,7,50278,50998,382,89,404,130 S,6,50278,50998,0.2739215,0
Sprite,Foreground,Centre,"sb\particle.png",0,0 F,0,50278,,0.66 C,0,50278,,255,232,99 P,0,50278,,A M,7,50278,50998,382,89,382,125 S,6,50278,50998,0.2916798,0
Sprite,Foreground,Centre,"sb\particle.png",0,0 F,0,50278,,0.66 C,0,50278,,255,232,99 P,0,50278,,A M,7,50278,50998,382,89,402,131 S,6,50278,50998,0.1137296,0
Sprite,Foreground,Centre,"sb\particle.png",0,0 F,0,50278,,0.66 C,0,50278,,255,232,99 P,0,50278,,A M,7,50278,50998,382,89,416,99 S,6,50278,50998,-0.1413985,0
Sprite,Foreground,Centre,"sb\particle.png",0,0 F,0,50278,,0.66 C,0,50278,,255,232,99 P,0,50278,,A M,7,50278,50998,382,89,427,40 S,6,50278,50998,-0.284373,0
Sprite,Foreground,Centre,"sb\particle.png",0,0 F,0,50278,,0.66 C,0,50278,,255,232,99 P,0,50278,,A M,7,50278,50998,382,89,419,90 S,6,50278,50998,0.2535773,0
Sprite,Foreground,Centre,"sb\particle.png",0,0 F,0,50278,,0.66 C,0,50278,,255,232,99 P,0,50278,,A M,7,50278,50998,382,89,399,43 S,6,50278,50998,-0.04097088,0
Sprite,Foreground,Centre,"sb\particle.png",0,0 F,0,50278,,0.66 C,0,50278,,255,232,99 P,0,50278,,A M,7,50278,50998,382,89,378,89 S,6,50278,50998,0.03831582,0
Sprite,Foreground,Centre,"sb\particle.png",0,0 F,0,50467,,0.66 C,0,50467,,245,218,66 P,0,50467,,A M,7,50467,51187,440,174,421,218 S,6,50467,51187,0.153775,0
Sprite,Foreground,Centre,"sb\particle.png",0,0 F,0,50467,,0.66 C,0,50467,,245,218,66 P,0,50467,,A M,7,50467,51187,440,174,482,129 S,6,50467,51187,-0.1429364,0
Sprite,Foreground,Centre,"sb\particle.png",0,0 F,0,50467,,0.66 C,0,50467,,245,218,66 P,0,50467,,A M,7,50467,51187,440,174,413,212 S,6,50467,51187,-0.03376883,0
Sprite,Foreground,Centre,"sb\particle.png",0,0 F,0,50467,,0.66 C,0,50467,,245,218,66 P,0,50467,,A M,7,50467,51187,440,174,490,175 S,6,50467,51187,-0.0163508,0
Sprite,Foreground,Centre,"sb\particle.png",0,0 F,0,50467,,0.66 C,0,50467,,245,218,66 P,0,50467,,A M,7,50467,51187,440,174,437,167 S,6,50467,51187,-0.1827757,0
Sprite,Foreground,Centre,"sb\particle.png",0,0 F,0,50467,,0.66 C,0,50467,,245,218,66 P,0,50467,,A M,7,50467,51187,440,174,471,185 S,6,50467,51187,-0.2847752,0
Sprite,Foreground,Centre,"sb\particle.png",0,0 F,0,50467,,0.66 C,0,50467,,245,218,66 P,0,50467,,A M,7,50467,51187,440,174,472,153 S,6,50467,51187,-0.1298905,0
Sprite,Foreground,Centre,"sb\particle.png",0,0 F,0,50467,,0.66 C,0,50467,,255,232,99 P,0,50467,,A M,7,50467,51187,440,174,463,132 S,6,50467,51187,0.1446104,0
Sprite,Foreground,Centre,"sb\particle.png",0,0 F,0,50467,,0.66 C,0,50467,,255,232,99 P,0,50467,,A M,7,50467,51187,440,174,454,129 S,6,50467,51187,-0.09525859,0
Sprite,Foreground,Centre,"sb\particle.png",0,0 F,0,50467,,0.66 C,0,50467,,255,232,99 P,0,50467,,A M,7,50467,51187,440,174,411,196 S,6,50467,51187,0.2952279,0
Sprite,Foreground,Centre,"sb\particle.png",0,0 F,0,50467,,0.66 C,0,50467,,255,232,99 P,0,50467,,A M,7,50467,51187,440,174,451,177 S,6,50467,51187,-0.09700218,0
Sprite,Foreground,Centre,"sb\particle.png",0,0 F,0,50467,,0.66 C,0,50467,,255,232,99 P,0,50467,,A M,7,50467,51187,440,174,418,178 S,6,50467,51187,-0.2503968,0
Sprite,Foreground,Centre,"sb\particle.png",0,0 F,0,50467,,0.66 C,0,50467,,255,232,99 P,0,50467,,A M,7,50467,51187,440,174,460,158 S,6,50467,51187,0.4057643,0
Sprite,Foreground,Centre,"sb\particle.png",0,0 F,0,50467,,0.66 C,0,50467,,255,232,99 P,0,50467,,A M,7,50467,51187,440,174,412,205 S,6,50467,51187,0.1111304,0
Sprite,Foreground,Centre,"sb\particle.png",0,0 F,0,50467,,0.66 C,0,50467,,255,232,99 P,0,50467,,A M,7,50467,51187,440,174,443,189 S,6,50467,51187,-0.1714505,0
Sprite,Foreground,Centre,"sb\particle.png",0,0 F,0,50467,,0.66 C,0,50467,,255,232,99 P,0,50467,,A M,7,50467,51187,440,174,408,135 S,6,50467,51187,0.1902752,0
Sprite,Foreground,Centre,"sb\particle.png",0,0 F,0,50467,,0.66 C,0,50467,,255,232,99 P,0,50467,,A M,7,50467,51187,440,174,443,176 S,6,50467,51187,0.1496451,0
Sprite,Foreground,Centre,"sb\particle.png",0,0 F,0,51033,,0.66 C,0,51033,,245,218,66 P,0,51033,,A M,7,51033,51753,520,306,573,325 S,6,51033,51753,0.2009374,0
Sprite,Foreground,Centre,"sb\particle.png",0,0 F,0,51033,,0.66 C,0,51033,,245,218,66 P,0,51033,,A M,7,51033,51753,520,306,524,282 S,6,51033,51753,0.1884213,0
Sprite,Foreground,Centre,"sb\particle.png",0,0 F,0,51033,,0.66 C,0,51033,,245,218,66 P,0,51033,,A M,7,51033,51753,520,306,560,350 S,6,51033,51753,0.4058471,0
Sprite,Foreground,Centre,"sb\particle.png",0,0 F,0,51033,,0.66 C,0,51033,,245,218,66 P,0,51033,,A M,7,51033,51753,520,306,492,289 S,6,51033,51753,0.2709077,0
Sprite,Foreground,Centre,"sb\particle.png",0,0 F,0,51033,,0.66 C,0,51033,,245,218,66 P,0,51033,,A M,7,51033,51753,520,306,545,301 S,6,51033,51753,0.3861365,0
Sprite,Foreground,Centre,"sb\particle.png",0,0 F,0,51033,,0.66 C,0,51033,,245,218,66 P,0,51033,,A M,7,51033,51753,520,306,544,298 S,6,51033,51753,-0.1736321,0
Sprite,Foreground,Centre,"sb\particle.png",0,0 F,0,51033,,0.66 C,0,51033,,245,218,66 P,0,51033,,A M,7,51033,51753,520,306,556,334 S,6,51033,51753,-0.2782482,0
Sprite,Foreground,Centre,"sb\particle.png",0,0 F,0,51033,,0.66 C,0,51033,,255,232,99 P,0,51033,,A M,7,51033,51753,520,306,531,323 S,6,51033,51753,0.3042602,0
Sprite,Foreground,Centre,"sb\particle.png",0,0 F,0,51033,,0.66 C,0,51033,,255,232,99 P,0,51033,,A M,7,51033,51753,520,306,530,280 S,6,51033,51753,0.3464929,0
Sprite,Foreground,Centre,"sb\particle.png",0,0 F,0,51033,,0.66 C,0,51033,,255,232,99 P,0,51033,,A M,7,51033,51753,520,306,544,322 S,6,51033,51753,0.09712955,0
Sprite,Foreground,Centre,"sb\particle.png",0,0 F,0,51033,,0.66 C,0,51033,,255,232,99 P,0,51033,,A M,7,51033,51753,520,306,507,283 S,6,51033,51753,-0.2515416,0
Sprite,Foreground,Centre,"sb\particle.png",0,0 F,0,51033,,0.66 C,0,51033,,255,232,99 P,0,51033,,A M,7,51033,51753,520,306,503,329 S,6,51033,51753,-0.02961628,0
Sprite,Foreground,Centre,"sb\particle.png",0,0 F,0,51033,,0.66 C,0,51033,,255,232,99 P,0,51033,,A M,7,51033,51753,520,306,534,331 S,6,51033,51753,-0.07608543,0
Sprite,Foreground,Centre,"sb\particle.png",0,0 F,0,51033,,0.66 C,0,51033,,255,232,99 P,0,51033,,A M,7,51033,51753,520,306,542,335 S,6,51033,51753,-0.01793017,0
Sprite,Foreground,Centre,"sb\particle.png",0,0 F,0,51033,,0.66 C,0,51033,,255,232,99 P,0,51033,,A M,7,51033,51753,520,306,561,291 S,6,51033,51753,0.3189239,0
Sprite,Foreground,Centre,"sb\particle.png",0,0 F,0,51033,,0.66 C,0,51033,,255,232,99 P,0,51033,,A M,7,51033,51753,520,306,523,357 S,6,51033,51753,0.01316508,0
Sprite,Foreground,Centre,"sb\particle.png",0,0 F,0,51033,,0.66 C,0,51033,,255,232,99 P,0,51033,,A M,7,51033,51753,520,306,522,300 S,6,51033,51753,-0.2910343,0
Sprite,Foreground,Centre,"sb\particle.png",0,0 F,0,51411,,0.66 C,0,51411,,245,218,66 P,0,51411,,A M,7,51411,52131,409,427,361,436 S,6,51411,52131,-0.1152548,0
Sprite,Foreground,Centre,"sb\particle.png",0,0 F,0,51411,,0.66 C,0,51411,,245,218,66 P,0,51411,,A M,7,51411,52131,409,427,380,440 S,6,51411,52131,-0.1262218,0
Sprite,Foreground,Centre,"sb\particle.png",0,0 F,0,51411,,0.66 C,0,51411,,245,218,66 P,0,51411,,A M,7,51411,52131,409,427,393,390 S,6,51411,52131,0.1018611,0
Sprite,Foreground,Centre,"sb\particle.png",0,0 F,0,51411,,0.66 C,0,51411,,245,218,66 P,0,51411,,A M,7,51411,52131,409,427,356,413 S,6,51411,52131,0.3514372,0
Sprite,Foreground,Centre,"sb\particle.png",0,0 F,0,51411,,0.66 C,0,51411,,245,218,66 P,0,51411,,A M,7,51411,52131,409,427,408,435 S,6,51411,52131,-0.06595726,0
Sprite,Foreground,Centre,"sb\particle.png",0,0 F,0,51411,,0.66 C,0,51411,,245,218,66 P,0,51411,,A M,7,51411,52131,409,427,388,376 S,6,51411,52131,0.4180642,0
Sprite,Foreground,Centre,"sb\particle.png",0,0 F,0,51411,,0.66 C,0,51411,,245,218,66 P,0,51411,,A M,7,51411,52131,409,427,415,479 S,6,51411,52131,-0.1454979,0
Sprite,Foreground,Centre,"sb\particle.png",0,0 F,0,51411,,0.66 C,0,51411,,255,232,99 P,0,51411,,A M,7,51411,52131,409,427,402,477 S,6,51411,52131,-0.01391987,0
Sprite,Foreground,Centre,"sb\particle.png",0,0 F,0,51411,,0.66 C,0,51411,,255,232,99 P,0,51411,,A M,7,51411,52131,409,427,411,398 S,6,51411,52131,-9.194636E-05,0
Sprite,Foreground,Centre,"sb\particle.png",0,0 F,0,51411,,0.66 C,0,51411,,255,232,99 P,0,51411,,A M,7,51411,52131,409,427,421,477 S,6,51411,52131,-0.2445615,0
Sprite,Foreground,Centre,"sb\particle.png",0,0 F,0,51411,,0.66 C,0,51411,,255,232,99 P,0,51411,,A M,7,51411,52131,409,427,436,391 S,6,51411,52131,0.02053812,0
Sprite,Foreground,Centre,"sb\particle.png",0,0 F,0,51411,,0.66 C,0,51411,,255,232,99 P,0,51411,,A M,7,51411,52131,409,427,359,445 S,6,51411,52131,0.1334666,0
Sprite,Foreground,Centre,"sb\particle.png",0,0 F,0,51411,,0.66 C,0,51411,,255,232,99 P,0,51411,,A M,7,51411,52131,409,427,446,378 S,6,51411,52131,0.4026741,0
Sprite,Foreground,Centre,"sb\particle.png",0,0 F,0,51411,,0.66 C,0,51411,,255,232,99 P,0,51411,,A M,7,51411,52131,409,427,376,432 S,6,51411,52131,-0.1061495,0
Sprite,Foreground,Centre,"sb\particle.png",0,0 F,0,51411,,0.66 C,0,51411,,255,232,99 P,0,51411,,A M,7,51411,52131,409,427,363,478 S,6,51411,52131,0.1294356,0
Sprite,Foreground,Centre,"sb\particle.png",0,0 F,0,51411,,0.66 C,0,51411,,255,232,99 P,0,51411,,A M,7,51411,52131,409,427,443,450 S,6,51411,52131,0.1962877,0
Sprite,Foreground,Centre,"sb\particle.png",0,0 F,0,51411,,0.66 C,0,51411,,255,232,99 P,0,51411,,A M,7,51411,52131,409,427,383,423 S,6,51411,52131,0.2554401,0
Sprite,Foreground,Centre,"sb\particle.png",0,0 F,0,51977,,0.66 C,0,51977,,245,218,66 P,0,51977,,A M,7,51977,52697,202,320,253,310 S,6,51977,52697,0.1307508,0
Sprite,Foreground,Centre,"sb\particle.png",0,0 F,0,51977,,0.66 C,0,51977,,245,218,66 P,0,51977,,A M,7,51977,52697,202,320,236,347 S,6,51977,52697,0.2959987,0
Sprite,Foreground,Centre,"sb\particle.png",0,0 F,0,51977,,0.66 C,0,51977,,245,218,66 P,0,51977,,A M,7,51977,52697,202,320,228,309 S,6,51977,52697,0.1977985,0
Sprite,Foreground,Centre,"sb\particle.png",0,0 F,0,51977,,0.66 C,0,51977,,245,218,66 P,0,51977,,A M,7,51977,52697,202,320,216,334 S,6,51977,52697,0.3856118,0
Sprite,Foreground,Centre,"sb\particle.png",0,0 F,0,51977,,0.66 C,0,51977,,245,218,66 P,0,51977,,A M,7,51977,52697,202,320,149,312 S,6,51977,52697,-0.1880704,0
Sprite,Foreground,Centre,"sb\particle.png",0,0 F,0,51977,,0.66 C,0,51977,,245,218,66 P,0,51977,,A M,7,51977,52697,202,320,196,278 S,6,51977,52697,0.4081708,0
Sprite,Foreground,Centre,"sb\particle.png",0,0 F,0,51977,,0.66 C,0,51977,,245,218,66 P,0,51977,,A M,7,51977,52697,202,320,152,352 S,6,51977,52697,-0.2624411,0
Sprite,Foreground,Centre,"sb\particle.png",0,0 F,0,51977,,0.66 C,0,51977,,255,232,99 P,0,51977,,A M,7,51977,52697,202,320,191,321 S,6,51977,52697,-0.2513945,0
Sprite,Foreground,Centre,"sb\particle.png",0,0 F,0,51977,,0.66 C,0,51977,,255,232,99 P,0,51977,,A M,7,51977,52697,202,320,186,336 S,6,51977,52697,-0.1932622,0
Sprite,Foreground,Centre,"sb\particle.png",0,0 F,0,51977,,0.66 C,0,51977,,255,232,99 P,0,51977,,A M,7,51977,52697,202,320,248,271 S,6,51977,52697,-0.2699952,0
Sprite,Foreground,Centre,"sb\particle.png",0,0 F,0,51977,,0.66 C,0,51977,,255,232,99 P,0,51977,,A M,7,51977,52697,202,320,162,358 S,6,51977,52697,-0.0505421,0
Sprite,Foreground,Centre,"sb\particle.png",0,0 F,0,51977,,0.66 C,0,51977,,255,232,99 P,0,51977,,A M,7,51977,52697,202,320,154,291 S,6,51977,52697,0.3312677,0
Sprite,Foreground,Centre,"sb\particle.png",0,0 F,0,51977,,0.66 C,0,51977,,255,232,99 P,0,51977,,A M,7,51977,52697,202,320,214,344 S,6,51977,52697,0.05601159,0
Sprite,Foreground,Centre,"sb\particle.png",0,0 F,0,51977,,0.66 C,0,51977,,255,232,99 P,0,51977,,A M,7,51977,52697,202,320,159,340 S,6,51977,52697,0.2425339,0
Sprite,Foreground,Centre,"sb\particle.png",0,0 F,0,51977,,0.66 C,0,51977,,255,232,99 P,0,51977,,A M,7,51977,52697,202,320,166,319 S,6,51977,52697,0.07033994,0
Sprite,Foreground,Centre,"sb\particle.png",0,0 F,0,51977,,0.66 C,0,51977,,255,232,99 P,0,51977,,A M,7,51977,52697,202,320,217,369 S,6,51977,52697,0.1637422,0
Sprite,Foreground,Centre,"sb\particle.png",0,0 F,0,51977,,0.66 C,0,51977,,255,232,99 P,0,51977,,A M,7,51977,52697,202,320,223,336 S,6,51977,52697,0.01372659,0
Sprite,Foreground,Centre,"sb\particle.png",0,0 F,0,52166,,0.66 C,0,52166,,245,218,66 P,0,52166,,A M,7,52166,52886,120,380,132,331 S,6,52166,52886,0.1578421,0
Sprite,Foreground,Centre,"sb\particle.png",0,0 F,0,52166,,0.66 C,0,52166,,245,218,66 P,0,52166,,A M,7,52166,52886,120,380,90,401 S,6,52166,52886,0.3556069,0
Sprite,Foreground,Centre,"sb\particle.png",0,0 F,0,52166,,0.66 C,0,52166,,245,218,66 P,0,52166,,A M,7,52166,52886,120,380,161,388 S,6,52166,52886,-0.2481699,0
Sprite,Foreground,Centre,"sb\particle.png",0,0 F,0,52166,,0.66 C,0,52166,,245,218,66 P,0,52166,,A M,7,52166,52886,120,380,89,413 S,6,52166,52886,0.3591503,0
Sprite,Foreground,Centre,"sb\particle.png",0,0 F,0,52166,,0.66 C,0,52166,,245,218,66 P,0,52166,,A M,7,52166,52886,120,380,93,433 S,6,52166,52886,-0.04562724,0
Sprite,Foreground,Centre,"sb\particle.png",0,0 F,0,52166,,0.66 C,0,52166,,245,218,66 P,0,52166,,A M,7,52166,52886,120,380,71,422 S,6,52166,52886,0.0502748,0
Sprite,Foreground,Centre,"sb\particle.png",0,0 F,0,52166,,0.66 C,0,52166,,245,218,66 P,0,52166,,A M,7,52166,52886,120,380,125,365 S,6,52166,52886,0.2219651,0
Sprite,Foreground,Centre,"sb\particle.png",0,0 F,0,52166,,0.66 C,0,52166,,255,232,99 P,0,52166,,A M,7,52166,52886,120,380,134,399 S,6,52166,52886,-0.01909141,0
Sprite,Foreground,Centre,"sb\particle.png",0,0 F,0,52166,,0.66 C,0,52166,,255,232,99 P,0,52166,,A M,7,52166,52886,120,380,74,428 S,6,52166,52886,-0.1112048,0
Sprite,Foreground,Centre,"sb\particle.png",0,0 F,0,52166,,0.66 C,0,52166,,255,232,99 P,0,52166,,A M,7,52166,52886,120,380,136,379 S,6,52166,52886,0.4198606,0
Sprite,Foreground,Centre,"sb\particle.png",0,0 F,0,52166,,0.66 C,0,52166,,255,232,99 P,0,52166,,A M,7,52166,52886,120,380,145,371 S,6,52166,52886,-0.26179,0
Sprite,Foreground,Centre,"sb\particle.png",0,0 F,0,52166,,0.66 C,0,52166,,255,232,99 P,0,52166,,A M,7,52166,52886,120,380,89,395 S,6,52166,52886,0.120089,0
Sprite,Foreground,Centre,"sb\particle.png",0,0 F,0,52166,,0.66 C,0,52166,,255,232,99 P,0,52166,,A M,7,52166,52886,120,380,132,414 S,6,52166,52886,0.4629353,0
Sprite,Foreground,Centre,"sb\particle.png",0,0 F,0,52166,,0.66 C,0,52166,,255,232,99 P,0,52166,,A M,7,52166,52886,120,380,116,407 S,6,52166,52886,-0.03649157,0
Sprite,Foreground,Centre,"sb\particle.png",0,0 F,0,52166,,0.66 C,0,52166,,255,232,99 P,0,52166,,A M,7,52166,52886,120,380,122,326 S,6,52166,52886,-0.0348171,0
Sprite,Foreground,Centre,"sb\particle.png",0,0 F,0,52166,,0.66 C,0,52166,,255,232,99 P,0,52166,,A M,7,52166,52886,120,380,145,391 S,6,52166,52886,0.4817246,0
Sprite,Foreground,Centre,"sb\particle.png",0,0 F,0,52166,,0.66 C,0,52166,,255,232,99 P,0,52166,,A M,7,52166,52886,120,380,103,400 S,6,52166,52886,0.2952452,0
Sprite,Foreground,Centre,"sb\particle.png",0,0 F,0,52544,,0.66 C,0,52544,,245,218,66 P,0,52544,,A M,7,52544,53264,72,225,87,210 S,6,52544,53264,0.1554727,0
Sprite,Foreground,Centre,"sb\particle.png",0,0 F,0,52544,,0.66 C,0,52544,,245,218,66 P,0,52544,,A M,7,52544,53264,72,225,91,187 S,6,52544,53264,0.4392897,0
Sprite,Foreground,Centre,"sb\particle.png",0,0 F,0,52544,,0.66 C,0,52544,,245,218,66 P,0,52544,,A M,7,52544,53264,72,225,73,233 S,6,52544,53264,-0.1379582,0
Sprite,Foreground,Centre,"sb\particle.png",0,0 F,0,52544,,0.66 C,0,52544,,245,218,66 P,0,52544,,A M,7,52544,53264,72,225,62,262 S,6,52544,53264,-0.123871,0
Sprite,Foreground,Centre,"sb\particle.png",0,0 F,0,52544,,0.66 C,0,52544,,245,218,66 P,0,52544,,A M,7,52544,53264,72,225,21,224 S,6,52544,53264,0.3685075,0
Sprite,Foreground,Centre,"sb\particle.png",0,0 F,0,52544,,0.66 C,0,52544,,245,218,66 P,0,52544,,A M,7,52544,53264,72,225,120,177 S,6,52544,53264,0.4412062,0
Sprite,Foreground,Centre,"sb\particle.png",0,0 F,0,52544,,0.66 C,0,52544,,245,218,66 P,0,52544,,A M,7,52544,53264,72,225,69,235 S,6,52544,53264,-0.007744492,0
Sprite,Foreground,Centre,"sb\particle.png",0,0 F,0,52544,,0.66 C,0,52544,,255,232,99 P,0,52544,,A M,7,52544,53264,72,225,43,266 S,6,52544,53264,0.05080387,0
Sprite,Foreground,Centre,"sb\particle.png",0,0 F,0,52544,,0.66 C,0,52544,,255,232,99 P,0,52544,,A M,7,52544,53264,72,225,49,193 S,6,52544,53264,-0.01122598,0
Sprite,Foreground,Centre,"sb\particle.png",0,0 F,0,52544,,0.66 C,0,52544,,255,232,99 P,0,52544,,A M,7,52544,53264,72,225,56,185 S,6,52544,53264,0.4488865,0
Sprite,Foreground,Centre,"sb\particle.png",0,0 F,0,52544,,0.66 C,0,52544,,255,232,99 P,0,52544,,A M,7,52544,53264,72,225,35,185 S,6,52544,53264,-0.2647688,0
Sprite,Foreground,Centre,"sb\particle.png",0,0 F,0,52544,,0.66 C,0,52544,,255,232,99 P,0,52544,,A M,7,52544,53264,72,225,47,228 S,6,52544,53264,0.4156455,0
Sprite,Foreground,Centre,"sb\particle.png",0,0 F,0,52544,,0.66 C,0,52544,,255,232,99 P,0,52544,,A M,7,52544,53264,72,225,31,192 S,6,52544,53264,-0.2108068,0
Sprite,Foreground,Centre,"sb\particle.png",0,0 F,0,52544,,0.66 C,0,52544,,255,232,99 P,0,52544,,A M,7,52544,53264,72,225,108,278 S,6,52544,53264,0.423254,0
Sprite,Foreground,Centre,"sb\particle.png",0,0 F,0,52544,,0.66 C,0,52544,,255,232,99 P,0,52544,,A M,7,52544,53264,72,225,21,204 S,6,52544,53264,0.3049383,0
Sprite,Foreground,Centre,"sb\particle.png",0,0 F,0,52544,,0.66 C,0,52544,,255,232,99 P,0,52544,,A M,7,52544,53264,72,225,58,258 S,6,52544,53264,0.03228401,0
Sprite,Foreground,Centre,"sb\particle.png",0,0 F,0,52544,,0.66 C,0,52544,,255,232,99 P,0,52544,,A M,7,52544,53264,72,225,95,235 S,6,52544,53264,0.205872,0
Sprite,Foreground,Centre,"sb\particle.png",0,0 F,0,52921,,0.66 C,0,52921,,245,218,66 P,0,52921,,A M,7,52921,53641,202,320,164,362 S,6,52921,53641,-0.2485645,0
Sprite,Foreground,Centre,"sb\particle.png",0,0 F,0,52921,,0.66 C,0,52921,,245,218,66 P,0,52921,,A M,7,52921,53641,202,320,160,318 S,6,52921,53641,-0.07275748,0
Sprite,Foreground,Centre,"sb\particle.png",0,0 F,0,52921,,0.66 C,0,52921,,245,218,66 P,0,52921,,A M,7,52921,53641,202,320,241,305 S,6,52921,53641,0.2331039,0
Sprite,Foreground,Centre,"sb\particle.png",0,0 F,0,52921,,0.66 C,0,52921,,245,218,66 P,0,52921,,A M,7,52921,53641,202,320,192,268 S,6,52921,53641,0.2220635,0
Sprite,Foreground,Centre,"sb\particle.png",0,0 F,0,52921,,0.66 C,0,52921,,245,218,66 P,0,52921,,A M,7,52921,53641,202,320,210,347 S,6,52921,53641,-0.1639476,0
Sprite,Foreground,Centre,"sb\particle.png",0,0 F,0,52921,,0.66 C,0,52921,,245,218,66 P,0,52921,,A M,7,52921,53641,202,320,155,347 S,6,52921,53641,0.3877899,0
Sprite,Foreground,Centre,"sb\particle.png",0,0 F,0,52921,,0.66 C,0,52921,,245,218,66 P,0,52921,,A M,7,52921,53641,202,320,187,313 S,6,52921,53641,0.2696028,0
Sprite,Foreground,Centre,"sb\particle.png",0,0 F,0,52921,,0.66 C,0,52921,,255,232,99 P,0,52921,,A M,7,52921,53641,202,320,153,349 S,6,52921,53641,0.172015,0
Sprite,Foreground,Centre,"sb\particle.png",0,0 F,0,52921,,0.66 C,0,52921,,255,232,99 P,0,52921,,A M,7,52921,53641,202,320,162,324 S,6,52921,53641,0.2374759,0
Sprite,Foreground,Centre,"sb\particle.png",0,0 F,0,52921,,0.66 C,0,52921,,255,232,99 P,0,52921,,A M,7,52921,53641,202,320,196,347 S,6,52921,53641,0.3392542,0
Sprite,Foreground,Centre,"sb\particle.png",0,0 F,0,52921,,0.66 C,0,52921,,255,232,99 P,0,52921,,A M,7,52921,53641,202,320,255,287 S,6,52921,53641,-0.2499689,0
Sprite,Foreground,Centre,"sb\particle.png",0,0 F,0,52921,,0.66 C,0,52921,,255,232,99 P,0,52921,,A M,7,52921,53641,202,320,255,338 S,6,52921,53641,0.08231853,0
Sprite,Foreground,Centre,"sb\particle.png",0,0 F,0,52921,,0.66 C,0,52921,,255,232,99 P,0,52921,,A M,7,52921,53641,202,320,173,342 S,6,52921,53641,0.1948132,0
Sprite,Foreground,Centre,"sb\particle.png",0,0 F,0,52921,,0.66 C,0,52921,,255,232,99 P,0,52921,,A M,7,52921,53641,202,320,255,278 S,6,52921,53641,-0.1330627,0
Sprite,Foreground,Centre,"sb\particle.png",0,0 F,0,52921,,0.66 C,0,52921,,255,232,99 P,0,52921,,A M,7,52921,53641,202,320,184,345 S,6,52921,53641,-0.08192429,0
Sprite,Foreground,Centre,"sb\particle.png",0,0 F,0,52921,,0.66 C,0,52921,,255,232,99 P,0,52921,,A M,7,52921,53641,202,320,247,277 S,6,52921,53641,-0.2148556,0
Sprite,Foreground,Centre,"sb\particle.png",0,0 F,0,52921,,0.66 C,0,52921,,255,232,99 P,0,52921,,A M,7,52921,53641,202,320,245,369 S,6,52921,53641,-0.1770547,0
Sprite,Foreground,Centre,"sb\particle.png",0,0 F,0,53110,,0.66 C,0,53110,,245,218,66 P,0,53110,,A M,7,53110,53830,304,306,271,317 S,6,53110,53830,0.4299844,0
Sprite,Foreground,Centre,"sb\particle.png",0,0 F,0,53110,,0.66 C,0,53110,,245,218,66 P,0,53110,,A M,7,53110,53830,304,306,313,313 S,6,53110,53830,0.3828093,0
Sprite,Foreground,Centre,"sb\particle.png",0,0 F,0,53110,,0.66 C,0,53110,,245,218,66 P,0,53110,,A M,7,53110,53830,304,306,313,312 S,6,53110,53830,-0.1970215,0
Sprite,Foreground,Centre,"sb\particle.png",0,0 F,0,53110,,0.66 C,0,53110,,245,218,66 P,0,53110,,A M,7,53110,53830,304,306,293,326 S,6,53110,53830,0.3938591,0
Sprite,Foreground,Centre,"sb\particle.png",0,0 F,0,53110,,0.66 C,0,53110,,245,218,66 P,0,53110,,A M,7,53110,53830,304,306,345,330 S,6,53110,53830,-0.2980756,0
Sprite,Foreground,Centre,"sb\particle.png",0,0 F,0,53110,,0.66 C,0,53110,,245,218,66 P,0,53110,,A M,7,53110,53830,304,306,331,309 S,6,53110,53830,0.09220812,0
Sprite,Foreground,Centre,"sb\particle.png",0,0 F,0,53110,,0.66 C,0,53110,,245,218,66 P,0,53110,,A M,7,53110,53830,304,306,308,303 S,6,53110,53830,0.4247326,0
Sprite,Foreground,Centre,"sb\particle.png",0,0 F,0,53110,,0.66 C,0,53110,,255,232,99 P,0,53110,,A M,7,53110,53830,304,306,351,310 S,6,53110,53830,0.2660417,0
Sprite,Foreground,Centre,"sb\particle.png",0,0 F,0,53110,,0.66 C,0,53110,,255,232,99 P,0,53110,,A M,7,53110,53830,304,306,324,311 S,6,53110,53830,0.3988623,0
Sprite,Foreground,Centre,"sb\particle.png",0,0 F,0,53110,,0.66 C,0,53110,,255,232,99 P,0,53110,,A M,7,53110,53830,304,306,261,352 S,6,53110,53830,0.02864879,0
Sprite,Foreground,Centre,"sb\particle.png",0,0 F,0,53110,,0.66 C,0,53110,,255,232,99 P,0,53110,,A M,7,53110,53830,304,306,343,312 S,6,53110,53830,-0.03983434,0
Sprite,Foreground,Centre,"sb\particle.png",0,0 F,0,53110,,0.66 C,0,53110,,255,232,99 P,0,53110,,A M,7,53110,53830,304,306,253,330 S,6,53110,53830,0.0522755,0
Sprite,Foreground,Centre,"sb\particle.png",0,0 F,0,53110,,0.66 C,0,53110,,255,232,99 P,0,53110,,A M,7,53110,53830,304,306,258,321 S,6,53110,53830,0.4504099,0
Sprite,Foreground,Centre,"sb\particle.png",0,0 F,0,53110,,0.66 C,0,53110,,255,232,99 P,0,53110,,A M,7,53110,53830,304,306,308,346 S,6,53110,53830,0.4343447,0
Sprite,Foreground,Centre,"sb\particle.png",0,0 F,0,53110,,0.66 C,0,53110,,255,232,99 P,0,53110,,A M,7,53110,53830,304,306,288,315 S,6,53110,53830,0.03787116,0
Sprite,Foreground,Centre,"sb\particle.png",0,0 F,0,53110,,0.66 C,0,53110,,255,232,99 P,0,53110,,A M,7,53110,53830,304,306,276,256 S,6,53110,53830,-0.09291476,0
Sprite,Foreground,Centre,"sb\particle.png",0,0 F,0,53110,,0.66 C,0,53110,,255,232,99 P,0,53110,,A M,7,53110,53830,304,306,343,306 S,6,53110,53830,-0.1689252,0
Sprite,Foreground,Centre,"sb\particle.png",0,0 F,0,53299,,0.66 C,0,53299,,245,218,66 P,0,53299,,A M,7,53299,54019,363,221,385,196 S,6,53299,54019,-0.144951,0
Sprite,Foreground,Centre,"sb\particle.png",0,0 F,0,53299,,0.66 C,0,53299,,245,218,66 P,0,53299,,A M,7,53299,54019,363,221,377,230 S,6,53299,54019,0.06521036,0
Sprite,Foreground,Centre,"sb\particle.png",0,0 F,0,53299,,0.66 C,0,53299,,245,218,66 P,0,53299,,A M,7,53299,54019,363,221,311,185 S,6,53299,54019,0.09290669,0
Sprite,Foreground,Centre,"sb\particle.png",0,0 F,0,53299,,0.66 C,0,53299,,245,218,66 P,0,53299,,A M,7,53299,54019,363,221,312,189 S,6,53299,54019,0.06761757,0
Sprite,Foreground,Centre,"sb\particle.png",0,0 F,0,53299,,0.66 C,0,53299,,245,218,66 P,0,53299,,A M,7,53299,54019,363,221,319,190 S,6,53299,54019,-0.08751285,0
Sprite,Foreground,Centre,"sb\particle.png",0,0 F,0,53299,,0.66 C,0,53299,,245,218,66 P,0,53299,,A M,7,53299,54019,363,221,406,217 S,6,53299,54019,0.07915029,0
Sprite,Foreground,Centre,"sb\particle.png",0,0 F,0,53299,,0.66 C,0,53299,,245,218,66 P,0,53299,,A M,7,53299,54019,363,221,309,257 S,6,53299,54019,0.07426488,0
Sprite,Foreground,Centre,"sb\particle.png",0,0 F,0,53299,,0.66 C,0,53299,,255,232,99 P,0,53299,,A M,7,53299,54019,363,221,339,206 S,6,53299,54019,0.2134108,0
Sprite,Foreground,Centre,"sb\particle.png",0,0 F,0,53299,,0.66 C,0,53299,,255,232,99 P,0,53299,,A M,7,53299,54019,363,221,348,204 S,6,53299,54019,0.3412693,0
Sprite,Foreground,Centre,"sb\particle.png",0,0 F,0,53299,,0.66 C,0,53299,,255,232,99 P,0,53299,,A M,7,53299,54019,363,221,398,194 S,6,53299,54019,0.4948412,0
Sprite,Foreground,Centre,"sb\particle.png",0,0 F,0,53299,,0.66 C,0,53299,,255,232,99 P,0,53299,,A M,7,53299,54019,363,221,326,177 S,6,53299,54019,0.4089097,0
Sprite,Foreground,Centre,"sb\particle.png",0,0 F,0,53299,,0.66 C,0,53299,,255,232,99 P,0,53299,,A M,7,53299,54019,363,221,341,216 S,6,53299,54019,0.002098046,0
Sprite,Foreground,Centre,"sb\particle.png",0,0 F,0,53299,,0.66 C,0,53299,,255,232,99 P,0,53299,,A M,7,53299,54019,363,221,355,188 S,6,53299,54019,-0.0410731,0
Sprite,Foreground,Centre,"sb\particle.png",0,0 F,0,53299,,0.66 C,0,53299,,255,232,99 P,0,53299,,A M,7,53299,54019,363,221,331,167 S,6,53299,54019,0.4857255,0
Sprite,Foreground,Centre,"sb\particle.png",0,0 F,0,53299,,0.66 C,0,53299,,255,232,99 P,0,53299,,A M,7,53299,54019,363,221,347,232 S,6,53299,54019,-0.2771448,0
Sprite,Foreground,Centre,"sb\particle.png",0,0 F,0,53299,,0.66 C,0,53299,,255,232,99 P,0,53299,,A M,7,53299,54019,363,221,384,170 S,6,53299,54019,0.03949076,0
Sprite,Foreground,Centre,"sb\particle.png",0,0 F,0,53299,,0.66 C,0,53299,,255,232,99 P,0,53299,,A M,7,53299,54019,363,221,410,233 S,6,53299,54019,-0.2302388,0
Sprite,Foreground,Centre,"sb\particle.png",0,0 F,0,53677,,0.66 C,0,53677,,245,218,66 P,0,53677,,A M,7,53677,54397,523,282,492,320 S,6,53677,54397,-0.1090258,0
Sprite,Foreground,Centre,"sb\particle.png",0,0 F,0,53677,,0.66 C,0,53677,,245,218,66 P,0,53677,,A M,7,53677,54397,523,282,487,269 S,6,53677,54397,0.07277642,0
Sprite,Foreground,Centre,"sb\particle.png",0,0 F,0,53677,,0.66 C,0,53677,,245,218,66 P,0,53677,,A M,7,53677,54397,523,282,569,241 S,6,53677,54397,-0.03130141,0
Sprite,Foreground,Centre,"sb\particle.png",0,0 F,0,53677,,0.66 C,0,53677,,245,218,66 P,0,53677,,A M,7,53677,54397,523,282,516,290 S,6,53677,54397,-0.1642299,0
Sprite,Foreground,Centre,"sb\particle.png",0,0 F,0,53677,,0.66 C,0,53677,,245,218,66 P,0,53677,,A M,7,53677,54397,523,282,536,273 S,6,53677,54397,-0.08769679,0
Sprite,Foreground,Centre,"sb\particle.png",0,0 F,0,53677,,0.66 C,0,53677,,245,218,66 P,0,53677,,A M,7,53677,54397,523,282,567,329 S,6,53677,54397,-0.09410693,0
Sprite,Foreground,Centre,"sb\particle.png",0,0 F,0,53677,,0.66 C,0,53677,,245,218,66 P,0,53677,,A M,7,53677,54397,523,282,484,296 S,6,53677,54397,0.04205643,0
Sprite,Foreground,Centre,"sb\particle.png",0,0 F,0,53677,,0.66 C,0,53677,,255,232,99 P,0,53677,,A M,7,53677,54397,523,282,490,263 S,6,53677,54397,0.3384676,0
Sprite,Foreground,Centre,"sb\particle.png",0,0 F,0,53677,,0.66 C,0,53677,,255,232,99 P,0,53677,,A M,7,53677,54397,523,282,572,317 S,6,53677,54397,-0.09786969,0
Sprite,Foreground,Centre,"sb\particle.png",0,0 F,0,53677,,0.66 C,0,53677,,255,232,99 P,0,53677,,A M,7,53677,54397,523,282,498,282 S,6,53677,54397,-0.2854008,0
Sprite,Foreground,Centre,"sb\particle.png",0,0 F,0,53677,,0.66 C,0,53677,,255,232,99 P,0,53677,,A M,7,53677,54397,523,282,525,263 S,6,53677,54397,-0.1495361,0
Sprite,Foreground,Centre,"sb\particle.png",0,0 F,0,53677,,0.66 C,0,53677,,255,232,99 P,0,53677,,A M,7,53677,54397,523,282,485,334 S,6,53677,54397,-0.2335072,0
Sprite,Foreground,Centre,"sb\particle.png",0,0 F,0,53677,,0.66 C,0,53677,,255,232,99 P,0,53677,,A M,7,53677,54397,523,282,538,228 S,6,53677,54397,0.4349164,0
Sprite,Foreground,Centre,"sb\particle.png",0,0 F,0,53677,,0.66 C,0,53677,,255,232,99 P,0,53677,,A M,7,53677,54397,523,282,534,320 S,6,53677,54397,0.04450671,0
Sprite,Foreground,Centre,"sb\particle.png",0,0 F,0,53677,,0.66 C,0,53677,,255,232,99 P,0,53677,,A M,7,53677,54397,523,282,524,333 S,6,53677,54397,-0.05476597,0
Sprite,Foreground,Centre,"sb\particle.png",0,0 F,0,53677,,0.66 C,0,53677,,255,232,99 P,0,53677,,A M,7,53677,54397,523,282,540,243 S,6,53677,54397,-0.2843024,0
Sprite,Foreground,Centre,"sb\particle.png",0,0 F,0,53677,,0.66 C,0,53677,,255,232,99 P,0,53677,,A M,7,53677,54397,523,282,532,265 S,6,53677,54397,0.1033619,0
//Storyboard Layer 4 (Overlay)
//Storyboard Sound Samples

[TimingPoints]
5723,638.297872340426,4,2,1,45,1,0
5723,-111.111111111111,4,2,1,45,0,0
5882,869.565217391305,4,2,1,45,1,0
6100,755.191944619257,4,2,1,45,1,0
18183,-125,4,2,1,52,0,0
29510,-166.666666666667,4,2,1,52,0,0
29888,-166.666666666667,4,2,76,69,0,0
30014,-166.666666666667,4,2,75,69,0,0
30266,-90.9090909090909,4,2,1,74,0,1
31021,-90.9090909090909,4,2,2,74,0,1
31257,-90.9090909090909,4,2,1,74,0,1
32531,-90.9090909090909,4,2,2,74,0,1
32720,-90.9090909090909,4,2,1,74,0,1
34042,-90.9090909090909,4,2,2,74,0,1
34230,-90.9090909090909,4,2,1,74,0,1
35552,-90.9090909090909,4,2,2,74,0,1
35741,-90.9090909090909,4,2,1,74,0,1
37062,-90.9090909090909,4,2,2,74,0,1
37298,-90.9090909090909,4,2,1,74,0,1
38573,-90.9090909090909,4,2,2,74,0,1
38762,-90.9090909090909,4,2,1,74,0,1
40083,-90.9090909090909,4,2,2,74,0,1
40272,-90.9090909090909,4,2,1,74,0,0
41594,-90.9090909090909,4,2,2,74,0,0
41782,-90.9090909090909,4,2,1,74,0,0
42349,-90.9090909090909,4,2,1,80,0,1
43104,-90.9090909090909,4,2,2,80,0,1
43340,-90.9090909090909,4,2,1,80,0,1
44614,-90.9090909090909,4,2,2,80,0,1
44803,-90.9090909090909,4,2,1,80,0,1
46125,-90.9090909090909,4,2,2,80,0,1
46313,-90.9090909090909,4,2,1,80,0,1
47635,-90.9090909090909,4,2,2,80,0,1
47824,-90.9090909090909,4,2,1,80,0,1
49145,-90.9090909090909,4,2,2,80,0,1
49334,-90.9090909090909,4,2,1,80,0,1
50656,-90.9090909090909,4,2,2,80,0,1
50845,-90.9090909090909,4,2,1,80,0,1
52166,-90.9090909090909,4,2,2,80,0,1
52355,-90.9090909090909,4,2,1,80,0,1
53677,-90.9090909090909,4,2,2,80,0,1
53865,-90.9090909090909,4,2,1,80,0,1
54432,-111.111111111111,4,2,1,53,0,0
66515,-125,4,2,1,53,0,0
77843,-166.666666666667,4,2,1,53,0,0
78220,-166.666666666667,4,2,1,30,0,0
78598,-90.9090909090909,4,2,1,75,0,1
79353,-90.9090909090909,4,2,2,75,0,1
79589,-90.9090909090909,4,2,1,75,0,1
80863,-90.9090909090909,4,2,2,75,0,1
81052,-90.9090909090909,4,2,1,75,0,1
82374,-90.9090909090909,4,2,2,75,0,1
82562,-90.9090909090909,4,2,1,75,0,1
83884,-90.9090909090909,4,2,2,75,0,1
84073,-90.9090909090909,4,2,1,75,0,1
85394,-90.9090909090909,4,2,2,75,0,1
85630,-90.9090909090909,4,2,1,75,0,1
86905,-90.9090909090909,4,2,2,75,0,1
87094,-90.9090909090909,4,2,1,75,0,1
88415,-90.9090909090909,4,2,2,75,0,1
88604,-90.9090909090909,4,2,1,75,0,0
89926,-90.9090909090909,4,2,2,74,0,0
90114,-90.9090909090909,4,2,1,74,0,1
90681,-90.9090909090909,4,2,1,85,0,1
91436,-90.9090909090909,4,2,2,85,0,1
91672,-90.9090909090909,4,2,1,85,0,1
92946,-90.9090909090909,4,2,2,85,0,1
93135,-90.9090909090909,4,2,1,85,0,1
94457,-90.9090909090909,4,2,2,85,0,1
94645,-90.9090909090909,4,2,1,85,0,1
95967,-90.9090909090909,4,2,2,85,0,1
96156,-90.9090909090909,4,2,1,85,0,1
97477,-90.9090909090909,4,2,2,85,0,1
97666,-90.9090909090909,4,2,1,85,0,1
98988,-90.9090909090909,4,2,2,85,0,1
99177,-90.9090909090909,4,2,1,85,0,1
100498,-90.9090909090909,4,2,2,85,0,1
100687,-90.9090909090909,4,2,1,85,0,1
102009,-90.9090909090909,4,2,2,85,0,1
102197,-90.9090909090909,4,2,1,85,0,1
102764,-125,4,2,1,60,0,0

[Colours]
Combo1 : 200,202,96
Combo2 : 45,67,74
Combo3 : 238,189,145
Combo4 : 115,139,73
Combo5 : 206,138,70
Combo6 : 193,176,125
Combo7 : 174,174,174

[HitObjects]
45,121,6100,6,0,P|61:84|136:86,1,125,2|10,0:2|0:0,0:0:0:0:
312,22,6855,2,0,L|406:40,1,62.5,2|0,0:0|0:0,0:0:0:0:
433,106,7232,2,0,P|398:147|405:181,1,62.5,10|2,0:0|0:0,0:0:0:0:
336,222,7610,5,2,0:0:0:0:
428,240,7799,1,2,0:0:0:0:
369,312,7987,1,10,0:0:0:0:
275,323,8176,2,0,B|214:344|214:344|210:349|210:349|154:368,1,125,2|0,0:0|0:0,0:0:0:0:
64,369,8743,2,0,P|20:318|33:287,1,62.5,10|2,0:0|0:0,0:0:0:0:
96,273,9120,6,0,B|76:201|135:219|102:130,1,125,2|10,0:0|0:0,0:0:0:0:
231,10,9875,2,0,P|248:34|297:66,1,62.5,2|0,0:0|0:0,0:0:0:0:
285,148,10253,2,0,P|330:143|351:116,1,62.5,10|2,0:0|0:0,0:0:0:0:
424,87,10631,6,0,B|464:117|464:117|436:204,1,125,2|10,0:0|0:0,0:0:0:0:
359,235,11197,1,2,0:0:0:0:
289,172,11386,1,2,0:0:0:0:
208,220,11575,1,2,0:0:0:0:
267,295,11763,2,0,P|285:330|297:376,1,62.5,8|2,0:0|0:0,0:0:0:0:
201,377,12141,6,0,B|138:362|138:362|135:356|135:356|57:335,1,125,2|10,0:0|0:0,0:0:0:0:
81,154,12896,2,0,P|67:89|55:79,1,62.5,2|2,0:0|0:0,0:0:0:0:
7,25,13274,1,10,0:0:0:0:
99,7,13463,1,2,0:0:0:0:
178,62,13651,6,0,L|248:51,1,62.5,2|2,0:0|0:0,0:0:0:0:
324,9,14029,1,10,0:0:0:0:
366,92,14218,2,0,B|380:117|384:151|349:168|349:168|316:163|292:159,1,125,2|0,0:0|0:0,0:0:0:0:
224,133,14784,1,10,0:0:0:0:
150,191,14973,1,2,0:0:0:0:
63,154,15162,6,0,P|20:196|34:263,1,125,2|10,0:0|0:0,0:0:0:0:
26,349,15728,1,2,0:0:0:0:
116,373,15917,2,0,B|179:350|179:350|181:343|181:343|270:317,1,125,2|10,0:0|0:0,0:0:0:0:
293,259,16483,1,2,0:0:0:0:
252,174,16672,2,0,P|201:189|197:216,1,62.5,2|2,0:0|0:0,0:0:0:0:
117,239,17050,2,0,P|77:219|81:168,1,62.5,10|2,0:0|0:0,0:0:0:0:
39,19,17616,6,0,B|119:39|58:63|172:90,1,125,2|2,0:0|0:0,0:0:0:0:
215,105,18183,1,8,0:3:0:0:
269,54,18371,1,2,0:0:0:0:
334,90,18560,1,2,0:0:0:0:
258,220,18938,2,0,B|202:205|202:205|198:197|198:197|133:177,1,100,2|2,0:0|0:0,0:0:0:0:
94,167,19504,1,8,0:3:0:0:
37,216,19693,6,0,B|13:256|13:256|58:331,1,100,2|0,0:0|0:0,0:0:0:0:
93,355,20259,1,0,0:0:0:0:
156,314,20448,2,0,L|222:328,1,50,2|8,0:0|0:3,0:0:0:0:
269,362,20826,1,0,3:3:0:0:
321,308,21015,1,8,0:3:0:0:
265,258,21203,2,0,B|248:204|248:204|250:198|250:198|230:131,1,100,0|2,3:3|0:0,0:0:0:0:
196,100,21770,1,0,3:3:0:0:
131,61,21959,6,0,B|63:57|103:89|32:90,1,100,2|2,0:0|0:0,0:0:0:0:
4,156,22525,1,2,3:2:0:0:
29,226,22714,2,0,P|75:270|108:252,1,100,2|0,0:0|0:0,0:0:0:0:
250,239,23469,2,0,L|255:170,1,50,2|8,0:0|0:3,0:0:0:0:
229,117,23847,1,0,3:3:0:0:
157,96,24035,1,8,0:3:0:0:
95,139,24224,6,0,B|54:180|54:180|91:253,1,100,8|2,0:3|0:0,0:0:0:0:
118,277,24791,1,0,3:0:0:0:
180,235,24979,2,0,B|258:263|190:271|283:308,1,100,2|2,0:0|0:0,0:0:0:0:
314,342,25546,1,8,0:3:0:0:
388,332,25734,2,0,P|433:292|429:248,1,100,2|0,0:0|0:0,0:0:0:0:
453,183,26301,1,0,0:0:0:0:
378,171,26490,2,0,P|325:205|271:205,1,100,2|0,0:0|3:3,0:0:0:0:
139,213,27245,6,0,L|116:168,1,50,0|0,3:3|0:0,0:0:0:0:
78,103,27622,1,2,0:0:0:0:
107,33,27811,1,8,0:3:0:0:
187,48,28000,2,0,P|274:67|320:71,1,100,2|2,0:0|0:0,0:0:0:0:
354,41,28566,1,0,3:0:0:0:
418,79,28755,5,2,0:0:0:0:
347,211,29133,1,2,0:0:0:0:
415,299,29510,1,2,0:0:0:0:
319,358,29888,2,0,P|288:348|262:340,1,37.4999988555909,2|0,0:2|0:0,0:0:0:0:
204,279,30266,6,0,B|140:306|140:306|139:315|139:315|68:346,1,137.500004196167,4|8,0:2|0:0,0:0:0:0:
12,265,30832,1,0,3:0:0:0:
100,211,31021,2,0,P|92:156|62:141,1,68.7500020980836,2|2,0:2|0:2,0:0:0:0:
21,68,31398,2,0,P|79:16|105:33,1,68.7500020980836,8|2,0:0|3:1,0:0:0:0:
159,2,31776,2,0,B|227:8|227:8|265:32|257:76,1,137.500004196167,2|10,0:0|0:0,0:0:0:0:
282,166,32342,1,2,0:0:0:0:
191,215,32531,1,2,0:2:0:0:
91,164,32720,2,0,B|79:135|79:135|96:103,2,68.7500020980836,8|8|8,0:1|0:1|0:1,0:0:0:0:
47,258,33286,6,0,B|135:247|85:302|190:289,1,137.500004196167,0|8,3:1|0:0,0:0:0:0:
269,334,33853,1,0,0:0:0:0:
322,245,34042,2,0,P|303:175|265:153,1,68.7500020980836,2|0,0:2|3:0,0:0:0:0:
212,140,34419,2,0,P|226:84|266:77,1,68.7500020980836,8|2,0:0|3:1,0:0:0:0:
311,14,34797,2,0,B|372:33|372:33|376:38|376:38|456:62,1,137.500004196167,2|10,0:0|0:0,0:0:0:0:
501,140,35363,2,0,B|428:155|428:155|428:162|428:162|368:174,1,137.500004196167,2|8,0:0|0:1,0:0:0:0:
281,221,35930,1,8,0:1:0:0:
178,209,36118,1,8,0:1:0:0:
117,125,36307,6,0,P|41:159|39:206,1,137.500004196167,0|8,3:0|0:0,0:0:0:0:
4,302,36874,1,0,3:0:0:0:
93,352,37062,2,0,P|151:317|265:347,1,137.500004196167,2|8,0:2|0:0,0:0:0:0:
313,361,37629,1,2,3:1:0:0:
383,288,37818,6,0,B|338:227|338:227|258:257,1,137.500004196167,2|10,0:0|0:0,0:0:0:0:
210,317,38384,2,0,P|191:257|160:159,1,137.500004196167,2|8,0:0|0:1,0:0:0:0:
205,89,38950,2,0,P|187:29|143:24,1,68.7500020980836,8|8,0:1|0:1,0:0:0:0:
85,5,39328,6,0,P|96:83|90:142,1,137.500004196167,2|8,3:1|0:0,0:0:0:0:
17,214,39894,1,0,0:0:0:0:
102,271,40083,1,2,0:2:0:0:
190,218,40272,2,0,B|287:257|209:277|325:319,1,137.500004196167,0|2,3:0|3:1,0:0:0:0:
379,359,40838,2,0,P|443:345|480:338,1,68.7500020980836,2|2,0:0|0:0,0:0:0:0:
501,256,41216,2,0,P|476:196|453:179,1,68.7500020980836,10|2,0:0|0:0,0:0:0:0:
415,108,41594,2,0,P|337:148|271:173,1,137.500004196167,2|8,0:2|0:1,0:0:0:0:
204,223,42160,1,8,0:1:0:0:
120,162,42349,6,0,B|33:191|121:220|6:255,1,137.500004196167,6|10,3:2|0:0,0:0:0:0:
54,347,42915,1,0,3:0:0:0:
144,298,43104,2,0,P|196:311|224:354,1,68.7500020980836,2|2,0:2|0:2,0:0:0:0:
295,373,43482,2,0,P|366:353|375:326,1,68.7500020980836,10|6,0:0|3:1,0:0:0:0:
414,275,43859,2,0,B|375:212|375:212|278:241,1,137.500004196167,2|10,0:0|0:0,0:0:0:0:
221,276,44425,1,2,0:0:0:0:
133,221,44614,2,0,P|173:137|196:134,1,68.7500020980836,2|8,0:2|0:1,0:0:0:0:
225,92,44992,1,8,0:1:0:0:
309,151,45181,1,8,0:1:0:0:
389,87,45369,6,0,P|363:12|293:0,1,137.500004196167,4|10,3:1|0:0,0:0:0:0:
218,38,45936,1,2,0:0:0:0:
118,12,46125,2,0,L|38:33,1,68.7500020980836,2|2,0:2|3:2,0:0:0:0:
13,125,46502,2,0,L|42:206,1,68.7500020980836,8|6,0:0|3:1,0:0:0:0:
117,253,46880,2,0,B|209:219|131:201|245:163,1,137.500004196167,2|10,0:0|0:0,0:0:0:0:
307,112,47446,1,2,0:0:0:0:
398,158,47635,2,0,P|422:203|397:253,1,68.7500020980836,2|8,0:2|0:1,0:0:0:0:
407,321,48013,2,0,P|331:299|311:298,1,68.7500020980836,8|8,0:1|0:1,0:0:0:0:
241,274,48390,6,0,B|198:297|198:297|186:334|186:334|136:368,1,137.500004196167,4|10,3:1|0:0,0:0:0:0:
46,327,48957,1,0,3:0:0:0:
102,241,49145,2,0,P|88:184|66:147,1,68.7500020980836,2|2,0:2|0:2,0:0:0:0:
21,92,49523,2,0,P|57:51|83:52,1,68.7500020980836,8|6,0:0|3:1,0:0:0:0:
162,8,49901,5,2,0:0:0:0:
229,85,50089,1,2,0:0:0:0:
318,33,50278,1,10,0:0:0:0:
376,118,50467,2,0,P|466:121|498:202,1,137.500004196167,2|8,0:0|0:1,0:0:0:0:
456,250,51033,2,0,P|438:298|426:333,1,68.7500020980836,8|8,0:1|0:1,0:0:0:0:
345,371,51411,6,0,B|287:358|287:358|271:331|271:331|191:312,1,137.500004196167,4|10,3:1|0:0,0:0:0:0:
138,264,51977,1,0,0:0:0:0:
56,324,52166,2,0,P|17:268|29:237,1,68.7500020980836,2|0,0:2|3:0,0:0:0:0:
8,169,52544,2,0,P|71:185|112:191,1,68.7500020980836,10|2,0:0|0:1,0:0:0:0:
138,264,52921,1,2,0:0:0:0:
240,250,53110,1,2,0:0:0:0:
299,165,53299,2,0,P|368:178|390:181,1,68.7500020980836,8|2,0:0|0:0,0:0:0:0:
459,226,53677,6,0,P|430:314|363:320,1,137.500004196167,2|8,0:2|0:1,0:0:0:0:
305,377,54243,1,8,0:1:0:0:
399,292,66515,6,0,B|392:240|429:186|478:240|515:190|481:99,1,200,0|2,3:3|0:0,0:0:0:0:
421,2,67648,1,0,0:0:0:0:
359,44,67836,2,0,P|289:39|238:64,1,100,8|2,0:3|0:0,0:0:0:0:
113,23,68592,2,0,P|48:24|53:83,1,100,2|8,0:0|0:3,0:0:0:0:
18,120,69158,1,8,0:3:0:0:
135,213,69536,6,0,P|72:247|68:293,1,100,8|2,0:3|0:0,0:0:0:0:
165,381,70291,2,0,P|236:357|298:350,1,100,2|0,0:0|0:0,0:0:0:0:
334,365,70857,2,0,B|379:366|399:339|399:339|401:342|427:170,1,200,8|2,0:3|0:0,0:0:0:0:
481,76,71990,1,8,0:3:0:0:
420,31,72179,2,0,P|373:49|367:51,1,50,8|8,0:3|0:3,0:0:0:0:
309,83,72556,6,0,B|243:87|283:49|190:52,1,100,0|2,3:3|0:0,0:0:0:0:
151,13,73123,1,0,0:0:0:0:
89,55,73312,2,0,P|80:86|151:130,1,100,2|2,0:0|0:0,0:0:0:0:
257,186,74067,2,0,P|334:164|411:154,1,150,2|2,0:0|0:0,0:0:0:0:
500,268,75011,2,0,P|464:327|433:314,1,100,8|8,0:3|0:3,0:0:0:0:
382,284,75577,6,0,B|320:305|320:305|313:327|313:327|234:358,1,150,8|2,0:3|3:2,0:0:0:0:
113,301,76521,1,2,0:0:0:0:
40,321,76710,2,0,P|30:271|35:242,1,50,2|8,0:0|0:3,0:0:0:0:
50,199,77088,2,0,P|140:211|210:223,1,150,2|2,0:0|0:0,0:0:0:0:
348,144,78220,6,2,L|387:161,1,37.4999988555909,2|0,0:1|0:0,0:2:0:0:
472,210,78598,2,0,B|507:165|507:165|474:86,1,137.500004196167,4|8,0:2|0:0,0:0:0:0:
393,28,79164,1,0,3:0:0:0:
301,75,79353,2,0,P|225:51|157:27,1,137.500004196167,2|8,0:2|0:0,0:0:0:0:
69,6,79920,1,2,3:1:0:0:
13,92,80108,2,0,P|86:127|91:179,1,137.500004196167,2|10,0:0|0:0,0:0:0:0:
30,260,80675,1,2,0:0:0:0:
107,315,80864,6,0,P|167:296|200:282,1,68.7500020980836,2|8,0:2|0:1,0:0:0:0:
260,240,81241,2,0,P|317:275|330:301,1,68.7500020980836,8|8,0:1|0:1,0:0:0:0:
403,333,81619,6,0,B|432:324|450:299|450:299|446:266|428:198,1,137.500004196167,0|8,3:0|0:0,0:0:0:0:
481,130,82185,1,0,0:0:0:0:
402,63,82374,2,0,P|353:81|345:109,1,68.7500020980836,2|0,0:2|3:0,0:0:0:0:
299,184,82751,2,0,P|249:167|229:119,1,68.7500020980836,8|2,0:0|3:1,0:0:0:0:
151,101,83129,2,0,B|68:128|138:163|44:198,1,137.500004196167,2|10,0:0|0:0,0:0:0:0:
7,282,83695,1,2,0:0:0:0:
84,350,83884,2,0,P|145:291|210:333,1,137.500004196167,2|8,0:2|0:1,0:0:0:0:
277,355,84451,1,8,0:1:0:0:
360,294,84639,6,0,B|342:214|342:214|336:210|336:210|316:118,1,137.500004196167,0|8,3:0|0:0,0:0:0:0:
264,78,85206,1,0,3:0:0:0:
348,18,85395,2,0,P|399:30|427:74,1,68.7500020980836,2|2,0:2|0:2,0:0:0:0:
478,117,85772,2,0,P|448:169|420:179,1,68.7500020980836,8|2,0:0|3:1,0:0:0:0:
339,159,86150,2,0,B|228:168|334:209|158:220,1,137.500004196167,2|10,0:0|0:0,0:0:0:0:
120,181,86716,1,2,0:0:0:0:
56,262,86905,2,0,P|72:327|164:323,1,137.500004196167,2|8,0:2|0:1,0:0:0:0:
233,313,87471,1,8,0:1:0:0:
318,370,87660,6,0,B|380:358|380:358|386:352|386:352|464:340,1,137.500004196167,2|8,3:1|0:0,0:0:0:0:
496,248,88227,1,0,0:0:0:0:
421,177,88415,2,0,P|390:174|346:238,1,68.7500020980836,2|0,0:2|3:0,0:0:0:0:
288,269,88793,2,0,P|218:269|202:248,1,68.7500020980836,8|2,0:0|3:1,0:0:0:0:
143,207,89171,2,0,B|146:114|196:191|196:43,1,137.500004196167,2|10,0:0|0:0,0:0:0:0:
116,16,89737,1,2,0:0:0:0:
35,81,89926,2,0,P|50:123|97:140,1,68.7500020980836,2|8,0:2|0:1,0:0:0:0:
143,207,90303,2,0,P|93:231|77:255,1,68.7500020980836,8|8,0:1|0:1,0:0:0:0:
14,316,90681,6,0,B|69:364|69:364|188:328,1,137.500004196167,6|10,3:2|0:0,0:0:0:0:
223,299,91247,1,0,3:0:0:0:
314,347,91436,2,0,P|335:320|333:269,1,68.7500020980836,2|2,0:2|0:2,0:0:0:0:
355,184,91814,2,0,P|326:143|281:132,1,68.7500020980836,10|6,0:0|3:1,0:0:0:0:
219,183,92191,2,0,B|160:169|160:169|149:149|149:149|76:130,1,137.500004196167,2|10,0:0|0:0,0:0:0:0:
14,71,92758,1,2,0:0:0:0:
93,5,92947,2,0,P|155:29|163:52,1,68.7500020980836,2|8,0:2|0:1,0:0:0:0:
236,88,93324,2,0,P|289:81|318:37,1,68.7500020980836,8|8,0:1|0:1,0:0:0:0:
393,27,93702,6,0,B|427:57|442:63|442:63|411:149,1,137.500004196167,4|10,3:1|0:0,0:0:0:0:
374,229,94268,1,2,0:0:0:0:
275,199,94457,2,0,P|226:205|186:220,1,68.7500020980836,2|2,0:2|3:2,0:0:0:0:
113,254,94835,2,0,P|122:299|126:353,1,68.7500020980836,8|6,0:0|3:1,0:0:0:0:
216,367,95212,1,2,0:0:0:0:
307,319,95401,1,2,0:0:0:0:
393,374,95590,1,10,0:0:0:0:
481,321,95779,2,0,B|488:293|443:242,1,68.7500020980836,2|2,0:0|0:2,0:0:0:0:
366,209,96156,2,0,P|364:175|403:130,1,68.7500020980836,8|8,0:1|0:1,0:0:0:0:
454,67,96534,1,8,0:1:0:0:
365,13,96723,6,0,B|289:30|289:30|288:34|288:34|207:56,1,137.500004196167,4|10,3:1|0:0,0:0:0:0:
151,109,97289,1,0,3:0:0:0:
231,173,97478,2,0,P|292:148|334:132,1,68.7500020980836,2|2,0:2|0:2,0:0:0:0:
397,147,97855,2,0,P|384:214|369:296,1,137.500004196167,8|2,0:0|0:0,0:0:0:0:
295,352,98422,1,2,0:0:0:0:
223,277,98611,2,0,P|186:294|166:330,1,68.7500020980836,10|2,0:0|0:0,0:0:0:0:
84,372,98988,2,0,P|17:325|28:249,1,137.500004196167,2|8,0:2|0:1,0:0:0:0:
58,181,99555,1,8,0:1:0:0:
157,205,99743,6,0,B|235:181|235:181|239:176|239:176|305:159,1,137.500004196167,4|10,3:1|0:0,0:0:0:0:
356,86,100310,1,0,0:0:0:0:
281,15,100498,2,0,P|234:21|221:64,1,68.7500020980836,2|0,0:2|3:0,0:0:0:0:
151,110,100876,2,0,L|66:86,1,68.7500020980836,10|2,0:0|0:1,0:0:0:0:
14,167,101254,6,0,B|35:233|35:233|41:233|41:233|65:308,1,137.500004196167,2|8,0:0|0:0,0:0:0:0:
138,358,101820,2,0,P|169:294|260:308,1,137.500004196167,2|8,0:0|0:1,0:0:0:0:
327,253,102386,2,0,P|390:266|413:270,1,68.7500020980836,8|8,0:1|0:1,0:0:0:0:
