osu file format v14

[General]
AudioFilename: audio.mp3
AudioLeadIn: 0
PreviewTime: 29700
Countdown: 0
SampleSet: Soft
StackLeniency: 0.7
Mode: 0
LetterboxInBreaks: 0
EpilepsyWarning: 1
WidescreenStoryboard: 1

[Editor]
Bookmarks: 6099,18183,30266,54432,54621,54809,54998,55187,55376,55565,55753,55942,56131,56320,56509,56697,56886,57075,57264,57453,57641,57830,58019,58208,58397,58585,58774,58963,59152,59341,59529,59718,59907,60096,60285,60473,60662,60851,61040,61229,61417,61606,61795,61984,62173,62361,62550,62739,62928,63116,63305,63494,63683,63872,64060,64249,64438,64627,64816,65004,65193,65382,65571,65760,65948,66137,66326,66515,78598,102764
DistanceSpacing: 1
BeatDivisor: 8
GridSize: 32
TimelineZoom: 1.7

[Metadata]
Title:2009
TitleUnicode:2009
Artist:glaive
ArtistUnicode:glaive
Creator:Le Mirai
Version:eli's normal
Source:
Tags:hyperpop glitchcore pop hiphop hip-hop english cypress grove Mirai SirMirai Cacturne 0ppInOsu Elinor Mildly Accurate Seolv [_L_u_k_a_s_] VenerableNyanta TheSword hakashii
BeatmapID:3184011
BeatmapSetID:1540229

[Difficulty]
HPDrainRate:4
CircleSize:3.2
OverallDifficulty:5
ApproachRate:5
SliderMultiplier:2.2
SliderTickRate:1

[Events]
//Background and Video events
0,0,"mark-rabe-JP5ruTrnaEs-unsplash.jpg",0,0
//Break Periods
2,54633,65315
//Storyboard Layer 0 (Background)
//Storyboard Layer 1 (Fail)
//Storyboard Layer 2 (Pass)
//Storyboard Layer 3 (Foreground)
Sprite,Foreground,Centre,"sb\fontScript2\_013.png",320,99 F,0,103519,,0.1 R,0,103519,,-0.09 S,0,103519,108806,0.12,0.1308 F,0,103619,,0.17 F,0,103642,,0.1 F,0,103678,,0.44 F,0,103709,,0.1 F,0,103760,,0.62 F,0,103788,,0.1 F,0,103826,,0.74 F,0,108386,108806,0.47,0
Sprite,Foreground,Centre,"sb\particle.png",0,0 F,0,78598,,0.66 C,0,78598,,245,218,66 P,0,78598,,A M,7,78598,79318,360,372,366,322 S,6,78598,79318,-0.1697357,0
Sprite,Foreground,Centre,"sb\particle.png",0,0 F,0,78598,,0.66 C,0,78598,,245,218,66 P,0,78598,,A M,7,78598,79318,360,372,306,404 S,6,78598,79318,0.4442939,0
Sprite,Foreground,Centre,"sb\particle.png",0,0 F,0,78598,,0.66 C,0,78598,,245,218,66 P,0,78598,,A M,7,78598,79318,360,372,326,352 S,6,78598,79318,0.1930369,0
Sprite,Foreground,Centre,"sb\particle.png",0,0 F,0,78598,,0.66 C,0,78598,,245,218,66 P,0,78598,,A M,7,78598,79318,360,372,341,394 S,6,78598,79318,-0.1209276,0
Sprite,Foreground,Centre,"sb\particle.png",0,0 F,0,78598,,0.66 C,0,78598,,245,218,66 P,0,78598,,A M,7,78598,79318,360,372,350,417 S,6,78598,79318,-0.1202542,0
Sprite,Foreground,Centre,"sb\particle.png",0,0 F,0,78598,,0.66 C,0,78598,,245,218,66 P,0,78598,,A M,7,78598,79318,360,372,397,348 S,6,78598,79318,0.2105964,0
Sprite,Foreground,Centre,"sb\particle.png",0,0 F,0,78598,,0.66 C,0,78598,,245,218,66 P,0,78598,,A M,7,78598,79318,360,372,362,384 S,6,78598,79318,0.2555079,0
Sprite,Foreground,Centre,"sb\particle.png",0,0 F,0,78598,,0.66 C,0,78598,,255,232,99 P,0,78598,,A M,7,78598,79318,360,372,337,391 S,6,78598,79318,-0.2659372,0
Sprite,Foreground,Centre,"sb\particle.png",0,0 F,0,78598,,0.66 C,0,78598,,255,232,99 P,0,78598,,A M,7,78598,79318,360,372,317,343 S,6,78598,79318,-0.0960573,0
Sprite,Foreground,Centre,"sb\particle.png",0,0 F,0,78598,,0.66 C,0,78598,,255,232,99 P,0,78598,,A M,7,78598,79318,360,372,374,396 S,6,78598,79318,0.1657237,0
Sprite,Foreground,Centre,"sb\particle.png",0,0 F,0,78598,,0.66 C,0,78598,,255,232,99 P,0,78598,,A M,7,78598,79318,360,372,402,366 S,6,78598,79318,-0.1364019,0
Sprite,Foreground,Centre,"sb\particle.png",0,0 F,0,78598,,0.66 C,0,78598,,255,232,99 P,0,78598,,A M,7,78598,79318,360,372,365,377 S,6,78598,79318,0.1289752,0
Sprite,Foreground,Centre,"sb\particle.png",0,0 F,0,78598,,0.66 C,0,78598,,255,232,99 P,0,78598,,A M,7,78598,79318,360,372,313,393 S,6,78598,79318,0.4787295,0
Sprite,Foreground,Centre,"sb\particle.png",0,0 F,0,78598,,0.66 C,0,78598,,255,232,99 P,0,78598,,A M,7,78598,79318,360,372,344,345 S,6,78598,79318,0.4809224,0
Sprite,Foreground,Centre,"sb\particle.png",0,0 F,0,78598,,0.66 C,0,78598,,255,232,99 P,0,78598,,A M,7,78598,79318,360,372,331,419 S,6,78598,79318,-0.2594092,0
Sprite,Foreground,Centre,"sb\particle.png",0,0 F,0,78598,,0.66 C,0,78598,,255,232,99 P,0,78598,,A M,7,78598,79318,360,372,355,385 S,6,78598,79318,-0.08575553,0
Sprite,Foreground,Centre,"sb\particle.png",0,0 F,0,78598,,0.66 C,0,78598,,255,232,99 P,0,78598,,A M,7,78598,79318,360,372,387,387 S,6,78598,79318,0.3570362,0
Sprite,Foreground,Centre,"sb\particle.png",0,0 F,0,79353,,0.66 C,0,79353,,245,218,66 P,0,79353,,A M,7,79353,80073,144,400,190,365 S,6,79353,80073,0.4091978,0
Sprite,Foreground,Centre,"sb\particle.png",0,0 F,0,79353,,0.66 C,0,79353,,245,218,66 P,0,79353,,A M,7,79353,80073,144,400,166,353 S,6,79353,80073,0.2133486,0
Sprite,Foreground,Centre,"sb\particle.png",0,0 F,0,79353,,0.66 C,0,79353,,245,218,66 P,0,79353,,A M,7,79353,80073,144,400,145,397 S,6,79353,80073,0.03168718,0
Sprite,Foreground,Centre,"sb\particle.png",0,0 F,0,79353,,0.66 C,0,79353,,245,218,66 P,0,79353,,A M,7,79353,80073,144,400,122,353 S,6,79353,80073,-0.2291713,0
Sprite,Foreground,Centre,"sb\particle.png",0,0 F,0,79353,,0.66 C,0,79353,,245,218,66 P,0,79353,,A M,7,79353,80073,144,400,196,388 S,6,79353,80073,0.4947006,0
Sprite,Foreground,Centre,"sb\particle.png",0,0 F,0,79353,,0.66 C,0,79353,,245,218,66 P,0,79353,,A M,7,79353,80073,144,400,98,411 S,6,79353,80073,0.1371178,0
Sprite,Foreground,Centre,"sb\particle.png",0,0 F,0,79353,,0.66 C,0,79353,,245,218,66 P,0,79353,,A M,7,79353,80073,144,400,185,431 S,6,79353,80073,0.4347934,0
Sprite,Foreground,Centre,"sb\particle.png",0,0 F,0,79353,,0.66 C,0,79353,,255,232,99 P,0,79353,,A M,7,79353,80073,144,400,124,363 S,6,79353,80073,0.03490544,0
Sprite,Foreground,Centre,"sb\particle.png",0,0 F,0,79353,,0.66 C,0,79353,,255,232,99 P,0,79353,,A M,7,79353,80073,144,400,193,407 S,6,79353,80073,0.1175235,0
Sprite,Foreground,Centre,"sb\particle.png",0,0 F,0,79353,,0.66 C,0,79353,,255,232,99 P,0,79353,,A M,7,79353,80073,144,400,150,404 S,6,79353,80073,0.3217617,0
Sprite,Foreground,Centre,"sb\particle.png",0,0 F,0,79353,,0.66 C,0,79353,,255,232,99 P,0,79353,,A M,7,79353,80073,144,400,128,389 S,6,79353,80073,-0.150013,0
Sprite,Foreground,Centre,"sb\particle.png",0,0 F,0,79353,,0.66 C,0,79353,,255,232,99 P,0,79353,,A M,7,79353,80073,144,400,118,361 S,6,79353,80073,0.403666,0
Sprite,Foreground,Centre,"sb\particle.png",0,0 F,0,79353,,0.66 C,0,79353,,255,232,99 P,0,79353,,A M,7,79353,80073,144,400,150,418 S,6,79353,80073,0.4465394,0
Sprite,Foreground,Centre,"sb\particle.png",0,0 F,0,79353,,0.66 C,0,79353,,255,232,99 P,0,79353,,A M,7,79353,80073,144,400,160,359 S,6,79353,80073,0.06853029,0
Sprite,Foreground,Centre,"sb\particle.png",0,0 F,0,79353,,0.66 C,0,79353,,255,232,99 P,0,79353,,A M,7,79353,80073,144,400,110,428 S,6,79353,80073,0.4708503,0
Sprite,Foreground,Centre,"sb\particle.png",0,0 F,0,79353,,0.66 C,0,79353,,255,232,99 P,0,79353,,A M,7,79353,80073,144,400,187,442 S,6,79353,80073,0.1922442,0
Sprite,Foreground,Centre,"sb\particle.png",0,0 F,0,79353,,0.66 C,0,79353,,255,232,99 P,0,79353,,A M,7,79353,80073,144,400,160,388 S,6,79353,80073,0.2458059,0
Sprite,Foreground,Centre,"sb\particle.png",0,0 F,0,79731,,0.66 C,0,79731,,245,218,66 P,0,79731,,A M,7,79731,80451,172,308,225,305 S,6,79731,80451,0.397873,0
Sprite,Foreground,Centre,"sb\particle.png",0,0 F,0,79731,,0.66 C,0,79731,,245,218,66 P,0,79731,,A M,7,79731,80451,172,308,172,309 S,6,79731,80451,-0.05093302,0
Sprite,Foreground,Centre,"sb\particle.png",0,0 F,0,79731,,0.66 C,0,79731,,245,218,66 P,0,79731,,A M,7,79731,80451,172,308,186,361 S,6,79731,80451,-0.1197426,0
Sprite,Foreground,Centre,"sb\particle.png",0,0 F,0,79731,,0.66 C,0,79731,,245,218,66 P,0,79731,,A M,7,79731,80451,172,308,218,298 S,6,79731,80451,-0.07727437,0
Sprite,Foreground,Centre,"sb\particle.png",0,0 F,0,79731,,0.66 C,0,79731,,245,218,66 P,0,79731,,A M,7,79731,80451,172,308,118,273 S,6,79731,80451,-0.1036005,0
Sprite,Foreground,Centre,"sb\particle.png",0,0 F,0,79731,,0.66 C,0,79731,,245,218,66 P,0,79731,,A M,7,79731,80451,172,308,167,318 S,6,79731,80451,0.1508868,0
Sprite,Foreground,Centre,"sb\particle.png",0,0 F,0,79731,,0.66 C,0,79731,,245,218,66 P,0,79731,,A M,7,79731,80451,172,308,216,285 S,6,79731,80451,-0.03960408,0
Sprite,Foreground,Centre,"sb\particle.png",0,0 F,0,79731,,0.66 C,0,79731,,255,232,99 P,0,79731,,A M,7,79731,80451,172,308,199,311 S,6,79731,80451,0.07188203,0
Sprite,Foreground,Centre,"sb\particle.png",0,0 F,0,79731,,0.66 C,0,79731,,255,232,99 P,0,79731,,A M,7,79731,80451,172,308,213,344 S,6,79731,80451,-0.03429915,0
Sprite,Foreground,Centre,"sb\particle.png",0,0 F,0,79731,,0.66 C,0,79731,,255,232,99 P,0,79731,,A M,7,79731,80451,172,308,204,270 S,6,79731,80451,-0.1945865,0
Sprite,Foreground,Centre,"sb\particle.png",0,0 F,0,79731,,0.66 C,0,79731,,255,232,99 P,0,79731,,A M,7,79731,80451,172,308,161,354 S,6,79731,80451,0.2513622,0
Sprite,Foreground,Centre,"sb\particle.png",0,0 F,0,79731,,0.66 C,0,79731,,255,232,99 P,0,79731,,A M,7,79731,80451,172,308,164,291 S,6,79731,80451,0.2301061,0
Sprite,Foreground,Centre,"sb\particle.png",0,0 F,0,79731,,0.66 C,0,79731,,255,232,99 P,0,79731,,A M,7,79731,80451,172,308,143,361 S,6,79731,80451,-0.09113663,0
Sprite,Foreground,Centre,"sb\particle.png",0,0 F,0,79731,,0.66 C,0,79731,,255,232,99 P,0,79731,,A M,7,79731,80451,172,308,202,342 S,6,79731,80451,0.2258434,0
Sprite,Foreground,Centre,"sb\particle.png",0,0 F,0,79731,,0.66 C,0,79731,,255,232,99 P,0,79731,,A M,7,79731,80451,172,308,135,299 S,6,79731,80451,-0.01094298,0
Sprite,Foreground,Centre,"sb\particle.png",0,0 F,0,79731,,0.66 C,0,79731,,255,232,99 P,0,79731,,A M,7,79731,80451,172,308,156,278 S,6,79731,80451,-0.1069565,0
Sprite,Foreground,Centre,"sb\particle.png",0,0 F,0,79731,,0.66 C,0,79731,,255,232,99 P,0,79731,,A M,7,79731,80451,172,308,123,310 S,6,79731,80451,0.03968824,0
Sprite,Foreground,Centre,"sb\particle.png",0,0 F,0,80108,,0.66 C,0,80108,,245,218,66 P,0,80108,,A M,7,80108,80828,124,216,102,215 S,6,80108,80828,-0.2419416,0
Sprite,Foreground,Centre,"sb\particle.png",0,0 F,0,80108,,0.66 C,0,80108,,245,218,66 P,0,80108,,A M,7,80108,80828,124,216,117,228 S,6,80108,80828,-0.1826879,0
Sprite,Foreground,Centre,"sb\particle.png",0,0 F,0,80108,,0.66 C,0,80108,,245,218,66 P,0,80108,,A M,7,80108,80828,124,216,134,189 S,6,80108,80828,0.1545525,0
Sprite,Foreground,Centre,"sb\particle.png",0,0 F,0,80108,,0.66 C,0,80108,,245,218,66 P,0,80108,,A M,7,80108,80828,124,216,81,260 S,6,80108,80828,-0.193684,0
Sprite,Foreground,Centre,"sb\particle.png",0,0 F,0,80108,,0.66 C,0,80108,,245,218,66 P,0,80108,,A M,7,80108,80828,124,216,97,213 S,6,80108,80828,-0.03858949,0
Sprite,Foreground,Centre,"sb\particle.png",0,0 F,0,80108,,0.66 C,0,80108,,245,218,66 P,0,80108,,A M,7,80108,80828,124,216,113,194 S,6,80108,80828,-0.2280741,0
Sprite,Foreground,Centre,"sb\particle.png",0,0 F,0,80108,,0.66 C,0,80108,,245,218,66 P,0,80108,,A M,7,80108,80828,124,216,75,231 S,6,80108,80828,0.4989527,0
Sprite,Foreground,Centre,"sb\particle.png",0,0 F,0,80108,,0.66 C,0,80108,,255,232,99 P,0,80108,,A M,7,80108,80828,124,216,168,253 S,6,80108,80828,0.4773305,0
Sprite,Foreground,Centre,"sb\particle.png",0,0 F,0,80108,,0.66 C,0,80108,,255,232,99 P,0,80108,,A M,7,80108,80828,124,216,168,176 S,6,80108,80828,0.07029235,0
Sprite,Foreground,Centre,"sb\particle.png",0,0 F,0,80108,,0.66 C,0,80108,,255,232,99 P,0,80108,,A M,7,80108,80828,124,216,88,209 S,6,80108,80828,0.3096567,0
Sprite,Foreground,Centre,"sb\particle.png",0,0 F,0,80108,,0.66 C,0,80108,,255,232,99 P,0,80108,,A M,7,80108,80828,124,216,88,204 S,6,80108,80828,-0.1697855,0
Sprite,Foreground,Centre,"sb\particle.png",0,0 F,0,80108,,0.66 C,0,80108,,255,232,99 P,0,80108,,A M,7,80108,80828,124,216,159,241 S,6,80108,80828,0.1239022,0
Sprite,Foreground,Centre,"sb\particle.png",0,0 F,0,80108,,0.66 C,0,80108,,255,232,99 P,0,80108,,A M,7,80108,80828,124,216,79,193 S,6,80108,80828,-0.2534931,0
Sprite,Foreground,Centre,"sb\particle.png",0,0 F,0,80108,,0.66 C,0,80108,,255,232,99 P,0,80108,,A M,7,80108,80828,124,216,165,236 S,6,80108,80828,-0.2760005,0
Sprite,Foreground,Centre,"sb\particle.png",0,0 F,0,80108,,0.66 C,0,80108,,255,232,99 P,0,80108,,A M,7,80108,80828,124,216,160,231 S,6,80108,80828,0.02066513,0
Sprite,Foreground,Centre,"sb\particle.png",0,0 F,0,80108,,0.66 C,0,80108,,255,232,99 P,0,80108,,A M,7,80108,80828,124,216,115,228 S,6,80108,80828,0.01423687,0
Sprite,Foreground,Centre,"sb\particle.png",0,0 F,0,80108,,0.66 C,0,80108,,255,232,99 P,0,80108,,A M,7,80108,80828,124,216,139,170 S,6,80108,80828,-0.1102464,0
Sprite,Foreground,Centre,"sb\particle.png",0,0 F,0,80675,,0.66 C,0,80675,,245,218,66 P,0,80675,,A M,7,80675,81395,284,180,244,199 S,6,80675,81395,-0.194251,0
Sprite,Foreground,Centre,"sb\particle.png",0,0 F,0,80675,,0.66 C,0,80675,,245,218,66 P,0,80675,,A M,7,80675,81395,284,180,316,206 S,6,80675,81395,-0.003340687,0
Sprite,Foreground,Centre,"sb\particle.png",0,0 F,0,80675,,0.66 C,0,80675,,245,218,66 P,0,80675,,A M,7,80675,81395,284,180,238,134 S,6,80675,81395,0.2048856,0
Sprite,Foreground,Centre,"sb\particle.png",0,0 F,0,80675,,0.66 C,0,80675,,245,218,66 P,0,80675,,A M,7,80675,81395,284,180,301,140 S,6,80675,81395,-0.08823811,0
Sprite,Foreground,Centre,"sb\particle.png",0,0 F,0,80675,,0.66 C,0,80675,,245,218,66 P,0,80675,,A M,7,80675,81395,284,180,286,231 S,6,80675,81395,0.267946,0
Sprite,Foreground,Centre,"sb\particle.png",0,0 F,0,80675,,0.66 C,0,80675,,245,218,66 P,0,80675,,A M,7,80675,81395,284,180,273,207 S,6,80675,81395,0.4467816,0
Sprite,Foreground,Centre,"sb\particle.png",0,0 F,0,80675,,0.66 C,0,80675,,245,218,66 P,0,80675,,A M,7,80675,81395,284,180,256,156 S,6,80675,81395,0.4507208,0
Sprite,Foreground,Centre,"sb\particle.png",0,0 F,0,80675,,0.66 C,0,80675,,255,232,99 P,0,80675,,A M,7,80675,81395,284,180,318,184 S,6,80675,81395,0.2891206,0
Sprite,Foreground,Centre,"sb\particle.png",0,0 F,0,80675,,0.66 C,0,80675,,255,232,99 P,0,80675,,A M,7,80675,81395,284,180,245,223 S,6,80675,81395,0.115957,0
Sprite,Foreground,Centre,"sb\particle.png",0,0 F,0,80675,,0.66 C,0,80675,,255,232,99 P,0,80675,,A M,7,80675,81395,284,180,238,158 S,6,80675,81395,0.1178698,0
Sprite,Foreground,Centre,"sb\particle.png",0,0 F,0,80675,,0.66 C,0,80675,,255,232,99 P,0,80675,,A M,7,80675,81395,284,180,321,172 S,6,80675,81395,0.4655419,0
Sprite,Foreground,Centre,"sb\particle.png",0,0 F,0,80675,,0.66 C,0,80675,,255,232,99 P,0,80675,,A M,7,80675,81395,284,180,257,209 S,6,80675,81395,0.344189,0
Sprite,Foreground,Centre,"sb\particle.png",0,0 F,0,80675,,0.66 C,0,80675,,255,232,99 P,0,80675,,A M,7,80675,81395,284,180,273,222 S,6,80675,81395,-0.1607168,0
Sprite,Foreground,Centre,"sb\particle.png",0,0 F,0,80675,,0.66 C,0,80675,,255,232,99 P,0,80675,,A M,7,80675,81395,284,180,275,144 S,6,80675,81395,0.2727896,0
Sprite,Foreground,Centre,"sb\particle.png",0,0 F,0,80675,,0.66 C,0,80675,,255,232,99 P,0,80675,,A M,7,80675,81395,284,180,337,222 S,6,80675,81395,-0.006550257,0
Sprite,Foreground,Centre,"sb\particle.png",0,0 F,0,80675,,0.66 C,0,80675,,255,232,99 P,0,80675,,A M,7,80675,81395,284,180,262,132 S,6,80675,81395,-0.04953014,0
Sprite,Foreground,Centre,"sb\particle.png",0,0 F,0,80675,,0.66 C,0,80675,,255,232,99 P,0,80675,,A M,7,80675,81395,284,180,230,183 S,6,80675,81395,-0.1188871,0
Sprite,Foreground,Centre,"sb\particle.png",0,0 F,0,81052,,0.66 C,0,81052,,245,218,66 P,0,81052,,A M,7,81052,81772,384,228,390,186 S,6,81052,81772,-0.03740246,0
Sprite,Foreground,Centre,"sb\particle.png",0,0 F,0,81052,,0.66 C,0,81052,,245,218,66 P,0,81052,,A M,7,81052,81772,384,228,392,180 S,6,81052,81772,0.2938921,0
Sprite,Foreground,Centre,"sb\particle.png",0,0 F,0,81052,,0.66 C,0,81052,,245,218,66 P,0,81052,,A M,7,81052,81772,384,228,402,232 S,6,81052,81772,0.1460661,0
Sprite,Foreground,Centre,"sb\particle.png",0,0 F,0,81052,,0.66 C,0,81052,,245,218,66 P,0,81052,,A M,7,81052,81772,384,228,398,260 S,6,81052,81772,0.2397215,0
Sprite,Foreground,Centre,"sb\particle.png",0,0 F,0,81052,,0.66 C,0,81052,,245,218,66 P,0,81052,,A M,7,81052,81772,384,228,377,277 S,6,81052,81772,-0.2610605,0
Sprite,Foreground,Centre,"sb\particle.png",0,0 F,0,81052,,0.66 C,0,81052,,245,218,66 P,0,81052,,A M,7,81052,81772,384,228,364,189 S,6,81052,81772,0.03771732,0
Sprite,Foreground,Centre,"sb\particle.png",0,0 F,0,81052,,0.66 C,0,81052,,245,218,66 P,0,81052,,A M,7,81052,81772,384,228,381,235 S,6,81052,81772,-0.2616621,0
Sprite,Foreground,Centre,"sb\particle.png",0,0 F,0,81052,,0.66 C,0,81052,,255,232,99 P,0,81052,,A M,7,81052,81772,384,228,397,201 S,6,81052,81772,0.4474566,0
Sprite,Foreground,Centre,"sb\particle.png",0,0 F,0,81052,,0.66 C,0,81052,,255,232,99 P,0,81052,,A M,7,81052,81772,384,228,380,252 S,6,81052,81772,0.2657297,0
Sprite,Foreground,Centre,"sb\particle.png",0,0 F,0,81052,,0.66 C,0,81052,,255,232,99 P,0,81052,,A M,7,81052,81772,384,228,375,264 S,6,81052,81772,-0.01009522,0
Sprite,Foreground,Centre,"sb\particle.png",0,0 F,0,81052,,0.66 C,0,81052,,255,232,99 P,0,81052,,A M,7,81052,81772,384,228,404,184 S,6,81052,81772,-0.2434836,0
Sprite,Foreground,Centre,"sb\particle.png",0,0 F,0,81052,,0.66 C,0,81052,,255,232,99 P,0,81052,,A M,7,81052,81772,384,228,394,222 S,6,81052,81772,0.4080787,0
Sprite,Foreground,Centre,"sb\particle.png",0,0 F,0,81052,,0.66 C,0,81052,,255,232,99 P,0,81052,,A M,7,81052,81772,384,228,347,219 S,6,81052,81772,-0.008831049,0
Sprite,Foreground,Centre,"sb\particle.png",0,0 F,0,81052,,0.66 C,0,81052,,255,232,99 P,0,81052,,A M,7,81052,81772,384,228,374,225 S,6,81052,81772,-0.09990667,0
Sprite,Foreground,Centre,"sb\particle.png",0,0 F,0,81052,,0.66 C,0,81052,,255,232,99 P,0,81052,,A M,7,81052,81772,384,228,437,281 S,6,81052,81772,0.04920893,0
Sprite,Foreground,Centre,"sb\particle.png",0,0 F,0,81052,,0.66 C,0,81052,,255,232,99 P,0,81052,,A M,7,81052,81772,384,228,349,219 S,6,81052,81772,0.4502968,0
Sprite,Foreground,Centre,"sb\particle.png",0,0 F,0,81052,,0.66 C,0,81052,,255,232,99 P,0,81052,,A M,7,81052,81772,384,228,343,176 S,6,81052,81772,-0.07827123,0
Sprite,Foreground,Centre,"sb\particle.png",0,0 F,0,81430,,0.66 C,0,81430,,245,218,66 P,0,81430,,A M,7,81430,82150,432,324,482,313 S,6,81430,82150,0.2746561,0
Sprite,Foreground,Centre,"sb\particle.png",0,0 F,0,81430,,0.66 C,0,81430,,245,218,66 P,0,81430,,A M,7,81430,82150,432,324,471,310 S,6,81430,82150,-0.05018324,0
Sprite,Foreground,Centre,"sb\particle.png",0,0 F,0,81430,,0.66 C,0,81430,,245,218,66 P,0,81430,,A M,7,81430,82150,432,324,459,362 S,6,81430,82150,0.2762574,0
Sprite,Foreground,Centre,"sb\particle.png",0,0 F,0,81430,,0.66 C,0,81430,,245,218,66 P,0,81430,,A M,7,81430,82150,432,324,472,277 S,6,81430,82150,0.3584443,0
Sprite,Foreground,Centre,"sb\particle.png",0,0 F,0,81430,,0.66 C,0,81430,,245,218,66 P,0,81430,,A M,7,81430,82150,432,324,441,285 S,6,81430,82150,0.1996361,0
Sprite,Foreground,Centre,"sb\particle.png",0,0 F,0,81430,,0.66 C,0,81430,,245,218,66 P,0,81430,,A M,7,81430,82150,432,324,434,279 S,6,81430,82150,0.4559613,0
Sprite,Foreground,Centre,"sb\particle.png",0,0 F,0,81430,,0.66 C,0,81430,,245,218,66 P,0,81430,,A M,7,81430,82150,432,324,411,319 S,6,81430,82150,0.3788555,0
Sprite,Foreground,Centre,"sb\particle.png",0,0 F,0,81430,,0.66 C,0,81430,,255,232,99 P,0,81430,,A M,7,81430,82150,432,324,454,365 S,6,81430,82150,-0.05423763,0
Sprite,Foreground,Centre,"sb\particle.png",0,0 F,0,81430,,0.66 C,0,81430,,255,232,99 P,0,81430,,A M,7,81430,82150,432,324,479,305 S,6,81430,82150,0.3587695,0
Sprite,Foreground,Centre,"sb\particle.png",0,0 F,0,81430,,0.66 C,0,81430,,255,232,99 P,0,81430,,A M,7,81430,82150,432,324,383,312 S,6,81430,82150,0.2983226,0
Sprite,Foreground,Centre,"sb\particle.png",0,0 F,0,81430,,0.66 C,0,81430,,255,232,99 P,0,81430,,A M,7,81430,82150,432,324,429,285 S,6,81430,82150,0.05206731,0
Sprite,Foreground,Centre,"sb\particle.png",0,0 F,0,81430,,0.66 C,0,81430,,255,232,99 P,0,81430,,A M,7,81430,82150,432,324,431,348 S,6,81430,82150,0.1405423,0
Sprite,Foreground,Centre,"sb\particle.png",0,0 F,0,81430,,0.66 C,0,81430,,255,232,99 P,0,81430,,A M,7,81430,82150,432,324,435,363 S,6,81430,82150,-0.2080758,0
Sprite,Foreground,Centre,"sb\particle.png",0,0 F,0,81430,,0.66 C,0,81430,,255,232,99 P,0,81430,,A M,7,81430,82150,432,324,409,301 S,6,81430,82150,0.1431389,0
Sprite,Foreground,Centre,"sb\particle.png",0,0 F,0,81430,,0.66 C,0,81430,,255,232,99 P,0,81430,,A M,7,81430,82150,432,324,422,353 S,6,81430,82150,0.2283043,0
Sprite,Foreground,Centre,"sb\particle.png",0,0 F,0,81430,,0.66 C,0,81430,,255,232,99 P,0,81430,,A M,7,81430,82150,432,324,424,328 S,6,81430,82150,-0.09401524,0
Sprite,Foreground,Centre,"sb\particle.png",0,0 F,0,81430,,0.66 C,0,81430,,255,232,99 P,0,81430,,A M,7,81430,82150,432,324,385,364 S,6,81430,82150,-0.004606217,0
Sprite,Foreground,Centre,"sb\particle.png",0,0 F,0,81619,,0.66 C,0,81619,,245,218,66 P,0,81619,,A M,7,81619,82339,432,324,478,371 S,6,81619,82339,-0.0361279,0
Sprite,Foreground,Centre,"sb\particle.png",0,0 F,0,81619,,0.66 C,0,81619,,245,218,66 P,0,81619,,A M,7,81619,82339,432,324,437,272 S,6,81619,82339,-0.2398783,0
Sprite,Foreground,Centre,"sb\particle.png",0,0 F,0,81619,,0.66 C,0,81619,,245,218,66 P,0,81619,,A M,7,81619,82339,432,324,390,377 S,6,81619,82339,-0.1662889,0
Sprite,Foreground,Centre,"sb\particle.png",0,0 F,0,81619,,0.66 C,0,81619,,245,218,66 P,0,81619,,A M,7,81619,82339,432,324,464,340 S,6,81619,82339,0.05862458,0
Sprite,Foreground,Centre,"sb\particle.png",0,0 F,0,81619,,0.66 C,0,81619,,245,218,66 P,0,81619,,A M,7,81619,82339,432,324,460,302 S,6,81619,82339,0.4865102,0
Sprite,Foreground,Centre,"sb\particle.png",0,0 F,0,81619,,0.66 C,0,81619,,245,218,66 P,0,81619,,A M,7,81619,82339,432,324,462,308 S,6,81619,82339,0.2864332,0
Sprite,Foreground,Centre,"sb\particle.png",0,0 F,0,81619,,0.66 C,0,81619,,245,218,66 P,0,81619,,A M,7,81619,82339,432,324,381,271 S,6,81619,82339,-0.207464,0
Sprite,Foreground,Centre,"sb\particle.png",0,0 F,0,81619,,0.66 C,0,81619,,255,232,99 P,0,81619,,A M,7,81619,82339,432,324,383,309 S,6,81619,82339,0.4815432,0
Sprite,Foreground,Centre,"sb\particle.png",0,0 F,0,81619,,0.66 C,0,81619,,255,232,99 P,0,81619,,A M,7,81619,82339,432,324,400,341 S,6,81619,82339,0.4683317,0
Sprite,Foreground,Centre,"sb\particle.png",0,0 F,0,81619,,0.66 C,0,81619,,255,232,99 P,0,81619,,A M,7,81619,82339,432,324,439,291 S,6,81619,82339,0.4644522,0
Sprite,Foreground,Centre,"sb\particle.png",0,0 F,0,81619,,0.66 C,0,81619,,255,232,99 P,0,81619,,A M,7,81619,82339,432,324,443,355 S,6,81619,82339,-0.1400361,0
Sprite,Foreground,Centre,"sb\particle.png",0,0 F,0,81619,,0.66 C,0,81619,,255,232,99 P,0,81619,,A M,7,81619,82339,432,324,438,367 S,6,81619,82339,-0.06545777,0
Sprite,Foreground,Centre,"sb\particle.png",0,0 F,0,81619,,0.66 C,0,81619,,255,232,99 P,0,81619,,A M,7,81619,82339,432,324,419,347 S,6,81619,82339,0.1917182,0
Sprite,Foreground,Centre,"sb\particle.png",0,0 F,0,81619,,0.66 C,0,81619,,255,232,99 P,0,81619,,A M,7,81619,82339,432,324,416,337 S,6,81619,82339,0.05636298,0
Sprite,Foreground,Centre,"sb\particle.png",0,0 F,0,81619,,0.66 C,0,81619,,255,232,99 P,0,81619,,A M,7,81619,82339,432,324,429,287 S,6,81619,82339,-0.2584237,0
Sprite,Foreground,Centre,"sb\particle.png",0,0 F,0,81619,,0.66 C,0,81619,,255,232,99 P,0,81619,,A M,7,81619,82339,432,324,405,324 S,6,81619,82339,0.4027275,0
Sprite,Foreground,Centre,"sb\particle.png",0,0 F,0,81619,,0.66 C,0,81619,,255,232,99 P,0,81619,,A M,7,81619,82339,432,324,382,308 S,6,81619,82339,0.3922874,0
Sprite,Foreground,Centre,"sb\particle.png",0,0 F,0,82374,,0.66 C,0,82374,,245,218,66 P,0,82374,,A M,7,82374,83094,568,192,530,168 S,6,82374,83094,0.4737709,0
Sprite,Foreground,Centre,"sb\particle.png",0,0 F,0,82374,,0.66 C,0,82374,,245,218,66 P,0,82374,,A M,7,82374,83094,568,192,529,146 S,6,82374,83094,0.09417238,0
Sprite,Foreground,Centre,"sb\particle.png",0,0 F,0,82374,,0.66 C,0,82374,,245,218,66 P,0,82374,,A M,7,82374,83094,568,192,530,193 S,6,82374,83094,-0.263642,0
Sprite,Foreground,Centre,"sb\particle.png",0,0 F,0,82374,,0.66 C,0,82374,,245,218,66 P,0,82374,,A M,7,82374,83094,568,192,608,154 S,6,82374,83094,-0.1631573,0
Sprite,Foreground,Centre,"sb\particle.png",0,0 F,0,82374,,0.66 C,0,82374,,245,218,66 P,0,82374,,A M,7,82374,83094,568,192,594,224 S,6,82374,83094,0.02022939,0
Sprite,Foreground,Centre,"sb\particle.png",0,0 F,0,82374,,0.66 C,0,82374,,245,218,66 P,0,82374,,A M,7,82374,83094,568,192,614,243 S,6,82374,83094,-0.01067414,0
Sprite,Foreground,Centre,"sb\particle.png",0,0 F,0,82374,,0.66 C,0,82374,,245,218,66 P,0,82374,,A M,7,82374,83094,568,192,546,175 S,6,82374,83094,0.04726566,0
Sprite,Foreground,Centre,"sb\particle.png",0,0 F,0,82374,,0.66 C,0,82374,,255,232,99 P,0,82374,,A M,7,82374,83094,568,192,600,167 S,6,82374,83094,0.04590309,0
Sprite,Foreground,Centre,"sb\particle.png",0,0 F,0,82374,,0.66 C,0,82374,,255,232,99 P,0,82374,,A M,7,82374,83094,568,192,562,203 S,6,82374,83094,-0.2766418,0
Sprite,Foreground,Centre,"sb\particle.png",0,0 F,0,82374,,0.66 C,0,82374,,255,232,99 P,0,82374,,A M,7,82374,83094,568,192,605,144 S,6,82374,83094,0.2377472,0
Sprite,Foreground,Centre,"sb\particle.png",0,0 F,0,82374,,0.66 C,0,82374,,255,232,99 P,0,82374,,A M,7,82374,83094,568,192,515,175 S,6,82374,83094,0.03565676,0
Sprite,Foreground,Centre,"sb\particle.png",0,0 F,0,82374,,0.66 C,0,82374,,255,232,99 P,0,82374,,A M,7,82374,83094,568,192,564,142 S,6,82374,83094,0.3798801,0
Sprite,Foreground,Centre,"sb\particle.png",0,0 F,0,82374,,0.66 C,0,82374,,255,232,99 P,0,82374,,A M,7,82374,83094,568,192,557,205 S,6,82374,83094,0.1814161,0
Sprite,Foreground,Centre,"sb\particle.png",0,0 F,0,82374,,0.66 C,0,82374,,255,232,99 P,0,82374,,A M,7,82374,83094,568,192,541,242 S,6,82374,83094,0.3826284,0
Sprite,Foreground,Centre,"sb\particle.png",0,0 F,0,82374,,0.66 C,0,82374,,255,232,99 P,0,82374,,A M,7,82374,83094,568,192,616,203 S,6,82374,83094,0.2539574,0
Sprite,Foreground,Centre,"sb\particle.png",0,0 F,0,82374,,0.66 C,0,82374,,255,232,99 P,0,82374,,A M,7,82374,83094,568,192,560,201 S,6,82374,83094,-0.01594608,0
Sprite,Foreground,Centre,"sb\particle.png",0,0 F,0,82374,,0.66 C,0,82374,,255,232,99 P,0,82374,,A M,7,82374,83094,568,192,584,164 S,6,82374,83094,-0.2653549,0
Sprite,Foreground,Centre,"sb\particle.png",0,0 F,0,82751,,0.66 C,0,82751,,245,218,66 P,0,82751,,A M,7,82751,83471,520,96,479,146 S,6,82751,83471,0.4889332,0
Sprite,Foreground,Centre,"sb\particle.png",0,0 F,0,82751,,0.66 C,0,82751,,245,218,66 P,0,82751,,A M,7,82751,83471,520,96,467,75 S,6,82751,83471,0.09909546,0
Sprite,Foreground,Centre,"sb\particle.png",0,0 F,0,82751,,0.66 C,0,82751,,245,218,66 P,0,82751,,A M,7,82751,83471,520,96,544,90 S,6,82751,83471,0.3691715,0
Sprite,Foreground,Centre,"sb\particle.png",0,0 F,0,82751,,0.66 C,0,82751,,245,218,66 P,0,82751,,A M,7,82751,83471,520,96,561,102 S,6,82751,83471,0.41265,0
Sprite,Foreground,Centre,"sb\particle.png",0,0 F,0,82751,,0.66 C,0,82751,,245,218,66 P,0,82751,,A M,7,82751,83471,520,96,515,65 S,6,82751,83471,0.350108,0
Sprite,Foreground,Centre,"sb\particle.png",0,0 F,0,82751,,0.66 C,0,82751,,245,218,66 P,0,82751,,A M,7,82751,83471,520,96,551,136 S,6,82751,83471,-0.2023945,0
Sprite,Foreground,Centre,"sb\particle.png",0,0 F,0,82751,,0.66 C,0,82751,,245,218,66 P,0,82751,,A M,7,82751,83471,520,96,504,92 S,6,82751,83471,0.2480198,0
Sprite,Foreground,Centre,"sb\particle.png",0,0 F,0,82751,,0.66 C,0,82751,,255,232,99 P,0,82751,,A M,7,82751,83471,520,96,512,115 S,6,82751,83471,0.3836336,0
Sprite,Foreground,Centre,"sb\particle.png",0,0 F,0,82751,,0.66 C,0,82751,,255,232,99 P,0,82751,,A M,7,82751,83471,520,96,475,60 S,6,82751,83471,-0.2940069,0
Sprite,Foreground,Centre,"sb\particle.png",0,0 F,0,82751,,0.66 C,0,82751,,255,232,99 P,0,82751,,A M,7,82751,83471,520,96,485,64 S,6,82751,83471,0.4446378,0
Sprite,Foreground,Centre,"sb\particle.png",0,0 F,0,82751,,0.66 C,0,82751,,255,232,99 P,0,82751,,A M,7,82751,83471,520,96,560,51 S,6,82751,83471,0.03107175,0
Sprite,Foreground,Centre,"sb\particle.png",0,0 F,0,82751,,0.66 C,0,82751,,255,232,99 P,0,82751,,A M,7,82751,83471,520,96,529,117 S,6,82751,83471,0.3403334,0
Sprite,Foreground,Centre,"sb\particle.png",0,0 F,0,82751,,0.66 C,0,82751,,255,232,99 P,0,82751,,A M,7,82751,83471,520,96,467,45 S,6,82751,83471,-0.247704,0
Sprite,Foreground,Centre,"sb\particle.png",0,0 F,0,82751,,0.66 C,0,82751,,255,232,99 P,0,82751,,A M,7,82751,83471,520,96,517,52 S,6,82751,83471,0.1949138,0
Sprite,Foreground,Centre,"sb\particle.png",0,0 F,0,82751,,0.66 C,0,82751,,255,232,99 P,0,82751,,A M,7,82751,83471,520,96,527,56 S,6,82751,83471,-0.1532567,0
Sprite,Foreground,Centre,"sb\particle.png",0,0 F,0,82751,,0.66 C,0,82751,,255,232,99 P,0,82751,,A M,7,82751,83471,520,96,504,62 S,6,82751,83471,0.2583899,0
Sprite,Foreground,Centre,"sb\particle.png",0,0 F,0,82751,,0.66 C,0,82751,,255,232,99 P,0,82751,,A M,7,82751,83471,520,96,515,136 S,6,82751,83471,0.03026526,0
Sprite,Foreground,Centre,"sb\particle.png",0,0 F,0,83129,,0.66 C,0,83129,,245,218,66 P,0,83129,,A M,7,83129,83849,420,136,443,139 S,6,83129,83849,0.2021675,0
Sprite,Foreground,Centre,"sb\particle.png",0,0 F,0,83129,,0.66 C,0,83129,,245,218,66 P,0,83129,,A M,7,83129,83849,420,136,419,123 S,6,83129,83849,0.4680123,0
Sprite,Foreground,Centre,"sb\particle.png",0,0 F,0,83129,,0.66 C,0,83129,,245,218,66 P,0,83129,,A M,7,83129,83849,420,136,428,95 S,6,83129,83849,-0.046997,0
Sprite,Foreground,Centre,"sb\particle.png",0,0 F,0,83129,,0.66 C,0,83129,,245,218,66 P,0,83129,,A M,7,83129,83849,420,136,375,131 S,6,83129,83849,0.1247474,0
Sprite,Foreground,Centre,"sb\particle.png",0,0 F,0,83129,,0.66 C,0,83129,,245,218,66 P,0,83129,,A M,7,83129,83849,420,136,425,189 S,6,83129,83849,0.2189315,0
Sprite,Foreground,Centre,"sb\particle.png",0,0 F,0,83129,,0.66 C,0,83129,,245,218,66 P,0,83129,,A M,7,83129,83849,420,136,407,154 S,6,83129,83849,-0.2661419,0
Sprite,Foreground,Centre,"sb\particle.png",0,0 F,0,83129,,0.66 C,0,83129,,245,218,66 P,0,83129,,A M,7,83129,83849,420,136,441,163 S,6,83129,83849,0.4629593,0
Sprite,Foreground,Centre,"sb\particle.png",0,0 F,0,83129,,0.66 C,0,83129,,255,232,99 P,0,83129,,A M,7,83129,83849,420,136,460,114 S,6,83129,83849,-0.2562366,0
Sprite,Foreground,Centre,"sb\particle.png",0,0 F,0,83129,,0.66 C,0,83129,,255,232,99 P,0,83129,,A M,7,83129,83849,420,136,446,104 S,6,83129,83849,0.1724784,0
Sprite,Foreground,Centre,"sb\particle.png",0,0 F,0,83129,,0.66 C,0,83129,,255,232,99 P,0,83129,,A M,7,83129,83849,420,136,423,168 S,6,83129,83849,0.301287,0
Sprite,Foreground,Centre,"sb\particle.png",0,0 F,0,83129,,0.66 C,0,83129,,255,232,99 P,0,83129,,A M,7,83129,83849,420,136,395,87 S,6,83129,83849,0.0112894,0
Sprite,Foreground,Centre,"sb\particle.png",0,0 F,0,83129,,0.66 C,0,83129,,255,232,99 P,0,83129,,A M,7,83129,83849,420,136,427,153 S,6,83129,83849,-0.02188423,0
Sprite,Foreground,Centre,"sb\particle.png",0,0 F,0,83129,,0.66 C,0,83129,,255,232,99 P,0,83129,,A M,7,83129,83849,420,136,398,142 S,6,83129,83849,0.08188363,0
Sprite,Foreground,Centre,"sb\particle.png",0,0 F,0,83129,,0.66 C,0,83129,,255,232,99 P,0,83129,,A M,7,83129,83849,420,136,385,145 S,6,83129,83849,0.2676937,0
Sprite,Foreground,Centre,"sb\particle.png",0,0 F,0,83129,,0.66 C,0,83129,,255,232,99 P,0,83129,,A M,7,83129,83849,420,136,400,148 S,6,83129,83849,0.261031,0
Sprite,Foreground,Centre,"sb\particle.png",0,0 F,0,83129,,0.66 C,0,83129,,255,232,99 P,0,83129,,A M,7,83129,83849,420,136,415,97 S,6,83129,83849,0.3769042,0
Sprite,Foreground,Centre,"sb\particle.png",0,0 F,0,83129,,0.66 C,0,83129,,255,232,99 P,0,83129,,A M,7,83129,83849,420,136,401,188 S,6,83129,83849,-0.1267258,0
Sprite,Foreground,Centre,"sb\particle.png",0,0 F,0,83695,,0.66 C,0,83695,,245,218,66 P,0,83695,,A M,7,83695,84415,268,92,320,80 S,6,83695,84415,0.1142879,0
Sprite,Foreground,Centre,"sb\particle.png",0,0 F,0,83695,,0.66 C,0,83695,,245,218,66 P,0,83695,,A M,7,83695,84415,268,92,305,137 S,6,83695,84415,0.3234604,0
Sprite,Foreground,Centre,"sb\particle.png",0,0 F,0,83695,,0.66 C,0,83695,,245,218,66 P,0,83695,,A M,7,83695,84415,268,92,244,139 S,6,83695,84415,-0.03373072,0
Sprite,Foreground,Centre,"sb\particle.png",0,0 F,0,83695,,0.66 C,0,83695,,245,218,66 P,0,83695,,A M,7,83695,84415,268,92,291,68 S,6,83695,84415,0.07767856,0
Sprite,Foreground,Centre,"sb\particle.png",0,0 F,0,83695,,0.66 C,0,83695,,245,218,66 P,0,83695,,A M,7,83695,84415,268,92,251,104 S,6,83695,84415,0.01774006,0
Sprite,Foreground,Centre,"sb\particle.png",0,0 F,0,83695,,0.66 C,0,83695,,245,218,66 P,0,83695,,A M,7,83695,84415,268,92,235,145 S,6,83695,84415,-0.1682939,0
Sprite,Foreground,Centre,"sb\particle.png",0,0 F,0,83695,,0.66 C,0,83695,,245,218,66 P,0,83695,,A M,7,83695,84415,268,92,216,88 S,6,83695,84415,-0.2133567,0
Sprite,Foreground,Centre,"sb\particle.png",0,0 F,0,83695,,0.66 C,0,83695,,255,232,99 P,0,83695,,A M,7,83695,84415,268,92,318,40 S,6,83695,84415,0.2593714,0
Sprite,Foreground,Centre,"sb\particle.png",0,0 F,0,83695,,0.66 C,0,83695,,255,232,99 P,0,83695,,A M,7,83695,84415,268,92,279,96 S,6,83695,84415,-0.2701776,0
Sprite,Foreground,Centre,"sb\particle.png",0,0 F,0,83695,,0.66 C,0,83695,,255,232,99 P,0,83695,,A M,7,83695,84415,268,92,257,88 S,6,83695,84415,-0.07382192,0
Sprite,Foreground,Centre,"sb\particle.png",0,0 F,0,83695,,0.66 C,0,83695,,255,232,99 P,0,83695,,A M,7,83695,84415,268,92,316,137 S,6,83695,84415,0.3276229,0
Sprite,Foreground,Centre,"sb\particle.png",0,0 F,0,83695,,0.66 C,0,83695,,255,232,99 P,0,83695,,A M,7,83695,84415,268,92,282,118 S,6,83695,84415,-0.1075005,0
Sprite,Foreground,Centre,"sb\particle.png",0,0 F,0,83695,,0.66 C,0,83695,,255,232,99 P,0,83695,,A M,7,83695,84415,268,92,254,75 S,6,83695,84415,0.1778639,0
Sprite,Foreground,Centre,"sb\particle.png",0,0 F,0,83695,,0.66 C,0,83695,,255,232,99 P,0,83695,,A M,7,83695,84415,268,92,223,77 S,6,83695,84415,-0.250434,0
Sprite,Foreground,Centre,"sb\particle.png",0,0 F,0,83695,,0.66 C,0,83695,,255,232,99 P,0,83695,,A M,7,83695,84415,268,92,283,63 S,6,83695,84415,0.3897608,0
Sprite,Foreground,Centre,"sb\particle.png",0,0 F,0,83695,,0.66 C,0,83695,,255,232,99 P,0,83695,,A M,7,83695,84415,268,92,225,66 S,6,83695,84415,-0.2885019,0
Sprite,Foreground,Centre,"sb\particle.png",0,0 F,0,83695,,0.66 C,0,83695,,255,232,99 P,0,83695,,A M,7,83695,84415,268,92,238,41 S,6,83695,84415,-0.163238,0
Sprite,Foreground,Centre,"sb\particle.png",0,0 F,0,84073,,0.66 C,0,84073,,245,218,66 P,0,84073,,A M,7,84073,84793,156,96,128,79 S,6,84073,84793,0.3905112,0
Sprite,Foreground,Centre,"sb\particle.png",0,0 F,0,84073,,0.66 C,0,84073,,245,218,66 P,0,84073,,A M,7,84073,84793,156,96,143,136 S,6,84073,84793,-0.1484995,0
Sprite,Foreground,Centre,"sb\particle.png",0,0 F,0,84073,,0.66 C,0,84073,,245,218,66 P,0,84073,,A M,7,84073,84793,156,96,144,116 S,6,84073,84793,0.3606942,0
Sprite,Foreground,Centre,"sb\particle.png",0,0 F,0,84073,,0.66 C,0,84073,,245,218,66 P,0,84073,,A M,7,84073,84793,156,96,150,65 S,6,84073,84793,0.1260565,0
Sprite,Foreground,Centre,"sb\particle.png",0,0 F,0,84073,,0.66 C,0,84073,,245,218,66 P,0,84073,,A M,7,84073,84793,156,96,186,112 S,6,84073,84793,0.3053967,0
Sprite,Foreground,Centre,"sb\particle.png",0,0 F,0,84073,,0.66 C,0,84073,,245,218,66 P,0,84073,,A M,7,84073,84793,156,96,169,111 S,6,84073,84793,0.4082272,0
Sprite,Foreground,Centre,"sb\particle.png",0,0 F,0,84073,,0.66 C,0,84073,,245,218,66 P,0,84073,,A M,7,84073,84793,156,96,151,78 S,6,84073,84793,0.3509763,0
Sprite,Foreground,Centre,"sb\particle.png",0,0 F,0,84073,,0.66 C,0,84073,,255,232,99 P,0,84073,,A M,7,84073,84793,156,96,188,99 S,6,84073,84793,0.1658399,0
Sprite,Foreground,Centre,"sb\particle.png",0,0 F,0,84073,,0.66 C,0,84073,,255,232,99 P,0,84073,,A M,7,84073,84793,156,96,103,93 S,6,84073,84793,0.1629605,0
Sprite,Foreground,Centre,"sb\particle.png",0,0 F,0,84073,,0.66 C,0,84073,,255,232,99 P,0,84073,,A M,7,84073,84793,156,96,182,102 S,6,84073,84793,-0.03631875,0
Sprite,Foreground,Centre,"sb\particle.png",0,0 F,0,84073,,0.66 C,0,84073,,255,232,99 P,0,84073,,A M,7,84073,84793,156,96,198,111 S,6,84073,84793,0.1109132,0
Sprite,Foreground,Centre,"sb\particle.png",0,0 F,0,84073,,0.66 C,0,84073,,255,232,99 P,0,84073,,A M,7,84073,84793,156,96,125,92 S,6,84073,84793,0.02071347,0
Sprite,Foreground,Centre,"sb\particle.png",0,0 F,0,84073,,0.66 C,0,84073,,255,232,99 P,0,84073,,A M,7,84073,84793,156,96,127,85 S,6,84073,84793,-0.1442816,0
Sprite,Foreground,Centre,"sb\particle.png",0,0 F,0,84073,,0.66 C,0,84073,,255,232,99 P,0,84073,,A M,7,84073,84793,156,96,124,73 S,6,84073,84793,-0.01876576,0
Sprite,Foreground,Centre,"sb\particle.png",0,0 F,0,84073,,0.66 C,0,84073,,255,232,99 P,0,84073,,A M,7,84073,84793,156,96,143,120 S,6,84073,84793,0.4116694,0
Sprite,Foreground,Centre,"sb\particle.png",0,0 F,0,84073,,0.66 C,0,84073,,255,232,99 P,0,84073,,A M,7,84073,84793,156,96,140,133 S,6,84073,84793,0.05400627,0
Sprite,Foreground,Centre,"sb\particle.png",0,0 F,0,84073,,0.66 C,0,84073,,255,232,99 P,0,84073,,A M,7,84073,84793,156,96,133,46 S,6,84073,84793,-0.1630008,0
Sprite,Foreground,Centre,"sb\particle.png",0,0 F,0,84450,,0.66 C,0,84450,,245,218,66 P,0,84450,,A M,7,84450,85170,80,160,114,200 S,6,84450,85170,-0.08485352,0
Sprite,Foreground,Centre,"sb\particle.png",0,0 F,0,84450,,0.66 C,0,84450,,245,218,66 P,0,84450,,A M,7,84450,85170,80,160,125,156 S,6,84450,85170,-0.1376248,0
Sprite,Foreground,Centre,"sb\particle.png",0,0 F,0,84450,,0.66 C,0,84450,,245,218,66 P,0,84450,,A M,7,84450,85170,80,160,122,107 S,6,84450,85170,0.2211758,0
Sprite,Foreground,Centre,"sb\particle.png",0,0 F,0,84450,,0.66 C,0,84450,,245,218,66 P,0,84450,,A M,7,84450,85170,80,160,43,120 S,6,84450,85170,0.2352453,0
Sprite,Foreground,Centre,"sb\particle.png",0,0 F,0,84450,,0.66 C,0,84450,,245,218,66 P,0,84450,,A M,7,84450,85170,80,160,31,123 S,6,84450,85170,0.03245517,0
Sprite,Foreground,Centre,"sb\particle.png",0,0 F,0,84450,,0.66 C,0,84450,,245,218,66 P,0,84450,,A M,7,84450,85170,80,160,110,138 S,6,84450,85170,0.2036481,0
Sprite,Foreground,Centre,"sb\particle.png",0,0 F,0,84450,,0.66 C,0,84450,,245,218,66 P,0,84450,,A M,7,84450,85170,80,160,54,137 S,6,84450,85170,0.1286496,0
Sprite,Foreground,Centre,"sb\particle.png",0,0 F,0,84450,,0.66 C,0,84450,,255,232,99 P,0,84450,,A M,7,84450,85170,80,160,117,156 S,6,84450,85170,0.1794565,0
Sprite,Foreground,Centre,"sb\particle.png",0,0 F,0,84450,,0.66 C,0,84450,,255,232,99 P,0,84450,,A M,7,84450,85170,80,160,77,174 S,6,84450,85170,-0.23858,0
Sprite,Foreground,Centre,"sb\particle.png",0,0 F,0,84450,,0.66 C,0,84450,,255,232,99 P,0,84450,,A M,7,84450,85170,80,160,77,177 S,6,84450,85170,-0.05178255,0
Sprite,Foreground,Centre,"sb\particle.png",0,0 F,0,84450,,0.66 C,0,84450,,255,232,99 P,0,84450,,A M,7,84450,85170,80,160,83,106 S,6,84450,85170,0.4737252,0
Sprite,Foreground,Centre,"sb\particle.png",0,0 F,0,84450,,0.66 C,0,84450,,255,232,99 P,0,84450,,A M,7,84450,85170,80,160,55,166 S,6,84450,85170,-0.1429264,0
Sprite,Foreground,Centre,"sb\particle.png",0,0 F,0,84450,,0.66 C,0,84450,,255,232,99 P,0,84450,,A M,7,84450,85170,80,160,101,169 S,6,84450,85170,-0.1230257,0
Sprite,Foreground,Centre,"sb\particle.png",0,0 F,0,84450,,0.66 C,0,84450,,255,232,99 P,0,84450,,A M,7,84450,85170,80,160,104,157 S,6,84450,85170,0.4533306,0
Sprite,Foreground,Centre,"sb\particle.png",0,0 F,0,84450,,0.66 C,0,84450,,255,232,99 P,0,84450,,A M,7,84450,85170,80,160,97,161 S,6,84450,85170,0.4992473,0
Sprite,Foreground,Centre,"sb\particle.png",0,0 F,0,84450,,0.66 C,0,84450,,255,232,99 P,0,84450,,A M,7,84450,85170,80,160,94,175 S,6,84450,85170,0.4736643,0
Sprite,Foreground,Centre,"sb\particle.png",0,0 F,0,84450,,0.66 C,0,84450,,255,232,99 P,0,84450,,A M,7,84450,85170,80,160,119,116 S,6,84450,85170,0.2774862,0
Sprite,Foreground,Centre,"sb\particle.png",0,0 F,0,84639,,0.66 C,0,84639,,245,218,66 P,0,84639,,A M,7,84639,85359,80,160,113,184 S,6,84639,85359,0.4909612,0
Sprite,Foreground,Centre,"sb\particle.png",0,0 F,0,84639,,0.66 C,0,84639,,245,218,66 P,0,84639,,A M,7,84639,85359,80,160,132,176 S,6,84639,85359,-0.01297219,0
Sprite,Foreground,Centre,"sb\particle.png",0,0 F,0,84639,,0.66 C,0,84639,,245,218,66 P,0,84639,,A M,7,84639,85359,80,160,82,122 S,6,84639,85359,0.3681745,0
Sprite,Foreground,Centre,"sb\particle.png",0,0 F,0,84639,,0.66 C,0,84639,,245,218,66 P,0,84639,,A M,7,84639,85359,80,160,50,141 S,6,84639,85359,-0.01143854,0
Sprite,Foreground,Centre,"sb\particle.png",0,0 F,0,84639,,0.66 C,0,84639,,245,218,66 P,0,84639,,A M,7,84639,85359,80,160,33,128 S,6,84639,85359,0.4550583,0
Sprite,Foreground,Centre,"sb\particle.png",0,0 F,0,84639,,0.66 C,0,84639,,245,218,66 P,0,84639,,A M,7,84639,85359,80,160,53,188 S,6,84639,85359,0.4607711,0
Sprite,Foreground,Centre,"sb\particle.png",0,0 F,0,84639,,0.66 C,0,84639,,245,218,66 P,0,84639,,A M,7,84639,85359,80,160,123,118 S,6,84639,85359,0.2485596,0
Sprite,Foreground,Centre,"sb\particle.png",0,0 F,0,84639,,0.66 C,0,84639,,255,232,99 P,0,84639,,A M,7,84639,85359,80,160,86,142 S,6,84639,85359,-0.2477282,0
Sprite,Foreground,Centre,"sb\particle.png",0,0 F,0,84639,,0.66 C,0,84639,,255,232,99 P,0,84639,,A M,7,84639,85359,80,160,98,124 S,6,84639,85359,-0.2024685,0
Sprite,Foreground,Centre,"sb\particle.png",0,0 F,0,84639,,0.66 C,0,84639,,255,232,99 P,0,84639,,A M,7,84639,85359,80,160,120,172 S,6,84639,85359,0.4828268,0
Sprite,Foreground,Centre,"sb\particle.png",0,0 F,0,84639,,0.66 C,0,84639,,255,232,99 P,0,84639,,A M,7,84639,85359,80,160,76,145 S,6,84639,85359,0.2690972,0
Sprite,Foreground,Centre,"sb\particle.png",0,0 F,0,84639,,0.66 C,0,84639,,255,232,99 P,0,84639,,A M,7,84639,85359,80,160,50,207 S,6,84639,85359,0.157639,0
Sprite,Foreground,Centre,"sb\particle.png",0,0 F,0,84639,,0.66 C,0,84639,,255,232,99 P,0,84639,,A M,7,84639,85359,80,160,37,135 S,6,84639,85359,0.04496786,0
Sprite,Foreground,Centre,"sb\particle.png",0,0 F,0,84639,,0.66 C,0,84639,,255,232,99 P,0,84639,,A M,7,84639,85359,80,160,111,111 S,6,84639,85359,0.2532914,0
Sprite,Foreground,Centre,"sb\particle.png",0,0 F,0,84639,,0.66 C,0,84639,,255,232,99 P,0,84639,,A M,7,84639,85359,80,160,102,175 S,6,84639,85359,0.2970937,0
Sprite,Foreground,Centre,"sb\particle.png",0,0 F,0,84639,,0.66 C,0,84639,,255,232,99 P,0,84639,,A M,7,84639,85359,80,160,29,147 S,6,84639,85359,-0.0963532,0
Sprite,Foreground,Centre,"sb\particle.png",0,0 F,0,84639,,0.66 C,0,84639,,255,232,99 P,0,84639,,A M,7,84639,85359,80,160,89,212 S,6,84639,85359,0.2507876,0
Sprite,Foreground,Centre,"sb\particle.png",0,0 F,0,85394,,0.66 C,0,85394,,245,218,66 P,0,85394,,A M,7,85394,86114,120,376,109,407 S,6,85394,86114,-0.1224419,0
Sprite,Foreground,Centre,"sb\particle.png",0,0 F,0,85394,,0.66 C,0,85394,,245,218,66 P,0,85394,,A M,7,85394,86114,120,376,123,371 S,6,85394,86114,0.005734658,0
Sprite,Foreground,Centre,"sb\particle.png",0,0 F,0,85394,,0.66 C,0,85394,,245,218,66 P,0,85394,,A M,7,85394,86114,120,376,131,413 S,6,85394,86114,-0.1676926,0
Sprite,Foreground,Centre,"sb\particle.png",0,0 F,0,85394,,0.66 C,0,85394,,245,218,66 P,0,85394,,A M,7,85394,86114,120,376,100,327 S,6,85394,86114,0.2760292,0
Sprite,Foreground,Centre,"sb\particle.png",0,0 F,0,85394,,0.66 C,0,85394,,245,218,66 P,0,85394,,A M,7,85394,86114,120,376,102,429 S,6,85394,86114,0.03142062,0
Sprite,Foreground,Centre,"sb\particle.png",0,0 F,0,85394,,0.66 C,0,85394,,245,218,66 P,0,85394,,A M,7,85394,86114,120,376,106,347 S,6,85394,86114,0.1581656,0
Sprite,Foreground,Centre,"sb\particle.png",0,0 F,0,85394,,0.66 C,0,85394,,245,218,66 P,0,85394,,A M,7,85394,86114,120,376,107,323 S,6,85394,86114,-0.2200233,0
Sprite,Foreground,Centre,"sb\particle.png",0,0 F,0,85394,,0.66 C,0,85394,,255,232,99 P,0,85394,,A M,7,85394,86114,120,376,117,395 S,6,85394,86114,0.2796943,0
Sprite,Foreground,Centre,"sb\particle.png",0,0 F,0,85394,,0.66 C,0,85394,,255,232,99 P,0,85394,,A M,7,85394,86114,120,376,130,424 S,6,85394,86114,-0.2376048,0
Sprite,Foreground,Centre,"sb\particle.png",0,0 F,0,85394,,0.66 C,0,85394,,255,232,99 P,0,85394,,A M,7,85394,86114,120,376,144,378 S,6,85394,86114,0.031858,0
Sprite,Foreground,Centre,"sb\particle.png",0,0 F,0,85394,,0.66 C,0,85394,,255,232,99 P,0,85394,,A M,7,85394,86114,120,376,150,368 S,6,85394,86114,0.407598,0
Sprite,Foreground,Centre,"sb\particle.png",0,0 F,0,85394,,0.66 C,0,85394,,255,232,99 P,0,85394,,A M,7,85394,86114,120,376,162,400 S,6,85394,86114,0.457032,0
Sprite,Foreground,Centre,"sb\particle.png",0,0 F,0,85394,,0.66 C,0,85394,,255,232,99 P,0,85394,,A M,7,85394,86114,120,376,122,426 S,6,85394,86114,0.01780373,0
Sprite,Foreground,Centre,"sb\particle.png",0,0 F,0,85394,,0.66 C,0,85394,,255,232,99 P,0,85394,,A M,7,85394,86114,120,376,147,367 S,6,85394,86114,0.197506,0
Sprite,Foreground,Centre,"sb\particle.png",0,0 F,0,85394,,0.66 C,0,85394,,255,232,99 P,0,85394,,A M,7,85394,86114,120,376,161,338 S,6,85394,86114,0.1600306,0
Sprite,Foreground,Centre,"sb\particle.png",0,0 F,0,85394,,0.66 C,0,85394,,255,232,99 P,0,85394,,A M,7,85394,86114,120,376,129,368 S,6,85394,86114,0.4382263,0
Sprite,Foreground,Centre,"sb\particle.png",0,0 F,0,85394,,0.66 C,0,85394,,255,232,99 P,0,85394,,A M,7,85394,86114,120,376,145,356 S,6,85394,86114,0.3300785,0
Sprite,Foreground,Centre,"sb\particle.png",0,0 F,0,85772,,0.66 C,0,85772,,245,218,66 P,0,85772,,A M,7,85772,86492,220,336,222,337 S,6,85772,86492,0.2132034,0
Sprite,Foreground,Centre,"sb\particle.png",0,0 F,0,85772,,0.66 C,0,85772,,245,218,66 P,0,85772,,A M,7,85772,86492,220,336,270,317 S,6,85772,86492,-0.05582882,0
Sprite,Foreground,Centre,"sb\particle.png",0,0 F,0,85772,,0.66 C,0,85772,,245,218,66 P,0,85772,,A M,7,85772,86492,220,336,225,342 S,6,85772,86492,0.1359407,0
Sprite,Foreground,Centre,"sb\particle.png",0,0 F,0,85772,,0.66 C,0,85772,,245,218,66 P,0,85772,,A M,7,85772,86492,220,336,235,319 S,6,85772,86492,0.2423251,0
Sprite,Foreground,Centre,"sb\particle.png",0,0 F,0,85772,,0.66 C,0,85772,,245,218,66 P,0,85772,,A M,7,85772,86492,220,336,213,319 S,6,85772,86492,-0.1937785,0
Sprite,Foreground,Centre,"sb\particle.png",0,0 F,0,85772,,0.66 C,0,85772,,245,218,66 P,0,85772,,A M,7,85772,86492,220,336,262,298 S,6,85772,86492,0.1027476,0
Sprite,Foreground,Centre,"sb\particle.png",0,0 F,0,85772,,0.66 C,0,85772,,245,218,66 P,0,85772,,A M,7,85772,86492,220,336,187,314 S,6,85772,86492,0.1359357,0
Sprite,Foreground,Centre,"sb\particle.png",0,0 F,0,85772,,0.66 C,0,85772,,255,232,99 P,0,85772,,A M,7,85772,86492,220,336,265,358 S,6,85772,86492,-0.04839275,0
Sprite,Foreground,Centre,"sb\particle.png",0,0 F,0,85772,,0.66 C,0,85772,,255,232,99 P,0,85772,,A M,7,85772,86492,220,336,272,365 S,6,85772,86492,0.2362397,0
Sprite,Foreground,Centre,"sb\particle.png",0,0 F,0,85772,,0.66 C,0,85772,,255,232,99 P,0,85772,,A M,7,85772,86492,220,336,226,384 S,6,85772,86492,-0.05739474,0
Sprite,Foreground,Centre,"sb\particle.png",0,0 F,0,85772,,0.66 C,0,85772,,255,232,99 P,0,85772,,A M,7,85772,86492,220,336,212,376 S,6,85772,86492,0.4077806,0
Sprite,Foreground,Centre,"sb\particle.png",0,0 F,0,85772,,0.66 C,0,85772,,255,232,99 P,0,85772,,A M,7,85772,86492,220,336,212,310 S,6,85772,86492,-0.1500689,0
Sprite,Foreground,Centre,"sb\particle.png",0,0 F,0,85772,,0.66 C,0,85772,,255,232,99 P,0,85772,,A M,7,85772,86492,220,336,174,335 S,6,85772,86492,-0.1085098,0
Sprite,Foreground,Centre,"sb\particle.png",0,0 F,0,85772,,0.66 C,0,85772,,255,232,99 P,0,85772,,A M,7,85772,86492,220,336,190,361 S,6,85772,86492,0.06458937,0
Sprite,Foreground,Centre,"sb\particle.png",0,0 F,0,85772,,0.66 C,0,85772,,255,232,99 P,0,85772,,A M,7,85772,86492,220,336,169,385 S,6,85772,86492,0.04908113,0
Sprite,Foreground,Centre,"sb\particle.png",0,0 F,0,85772,,0.66 C,0,85772,,255,232,99 P,0,85772,,A M,7,85772,86492,220,336,192,324 S,6,85772,86492,0.1806264,0
Sprite,Foreground,Centre,"sb\particle.png",0,0 F,0,85772,,0.66 C,0,85772,,255,232,99 P,0,85772,,A M,7,85772,86492,220,336,167,282 S,6,85772,86492,-0.04148854,0
Sprite,Foreground,Centre,"sb\particle.png",0,0 F,0,86150,,0.66 C,0,86150,,245,218,66 P,0,86150,,A M,7,86150,86870,304,396,345,419 S,6,86150,86870,0.1786871,0
Sprite,Foreground,Centre,"sb\particle.png",0,0 F,0,86150,,0.66 C,0,86150,,245,218,66 P,0,86150,,A M,7,86150,86870,304,396,320,427 S,6,86150,86870,-0.0002801242,0
Sprite,Foreground,Centre,"sb\particle.png",0,0 F,0,86150,,0.66 C,0,86150,,245,218,66 P,0,86150,,A M,7,86150,86870,304,396,250,392 S,6,86150,86870,0.2525794,0
Sprite,Foreground,Centre,"sb\particle.png",0,0 F,0,86150,,0.66 C,0,86150,,245,218,66 P,0,86150,,A M,7,86150,86870,304,396,317,370 S,6,86150,86870,-0.2407654,0
Sprite,Foreground,Centre,"sb\particle.png",0,0 F,0,86150,,0.66 C,0,86150,,245,218,66 P,0,86150,,A M,7,86150,86870,304,396,250,361 S,6,86150,86870,-0.262723,0
Sprite,Foreground,Centre,"sb\particle.png",0,0 F,0,86150,,0.66 C,0,86150,,245,218,66 P,0,86150,,A M,7,86150,86870,304,396,263,409 S,6,86150,86870,0.02112751,0
Sprite,Foreground,Centre,"sb\particle.png",0,0 F,0,86150,,0.66 C,0,86150,,245,218,66 P,0,86150,,A M,7,86150,86870,304,396,309,404 S,6,86150,86870,0.4891152,0
Sprite,Foreground,Centre,"sb\particle.png",0,0 F,0,86150,,0.66 C,0,86150,,255,232,99 P,0,86150,,A M,7,86150,86870,304,396,326,384 S,6,86150,86870,0.2963321,0
Sprite,Foreground,Centre,"sb\particle.png",0,0 F,0,86150,,0.66 C,0,86150,,255,232,99 P,0,86150,,A M,7,86150,86870,304,396,347,402 S,6,86150,86870,0.1943464,0
Sprite,Foreground,Centre,"sb\particle.png",0,0 F,0,86150,,0.66 C,0,86150,,255,232,99 P,0,86150,,A M,7,86150,86870,304,396,345,432 S,6,86150,86870,-0.1128378,0
Sprite,Foreground,Centre,"sb\particle.png",0,0 F,0,86150,,0.66 C,0,86150,,255,232,99 P,0,86150,,A M,7,86150,86870,304,396,300,428 S,6,86150,86870,0.08287811,0
Sprite,Foreground,Centre,"sb\particle.png",0,0 F,0,86150,,0.66 C,0,86150,,255,232,99 P,0,86150,,A M,7,86150,86870,304,396,313,343 S,6,86150,86870,0.3028802,0
Sprite,Foreground,Centre,"sb\particle.png",0,0 F,0,86150,,0.66 C,0,86150,,255,232,99 P,0,86150,,A M,7,86150,86870,304,396,332,448 S,6,86150,86870,0.02474704,0
Sprite,Foreground,Centre,"sb\particle.png",0,0 F,0,86150,,0.66 C,0,86150,,255,232,99 P,0,86150,,A M,7,86150,86870,304,396,277,422 S,6,86150,86870,-0.1431342,0
Sprite,Foreground,Centre,"sb\particle.png",0,0 F,0,86150,,0.66 C,0,86150,,255,232,99 P,0,86150,,A M,7,86150,86870,304,396,301,361 S,6,86150,86870,0.04539799,0
Sprite,Foreground,Centre,"sb\particle.png",0,0 F,0,86150,,0.66 C,0,86150,,255,232,99 P,0,86150,,A M,7,86150,86870,304,396,286,411 S,6,86150,86870,-0.1613869,0
Sprite,Foreground,Centre,"sb\particle.png",0,0 F,0,86150,,0.66 C,0,86150,,255,232,99 P,0,86150,,A M,7,86150,86870,304,396,254,415 S,6,86150,86870,0.07451566,0
Sprite,Foreground,Centre,"sb\particle.png",0,0 F,0,86716,,0.66 C,0,86716,,245,218,66 P,0,86716,,A M,7,86716,87436,408,304,396,340 S,6,86716,87436,0.3795637,0
Sprite,Foreground,Centre,"sb\particle.png",0,0 F,0,86716,,0.66 C,0,86716,,245,218,66 P,0,86716,,A M,7,86716,87436,408,304,394,291 S,6,86716,87436,0.3720724,0
Sprite,Foreground,Centre,"sb\particle.png",0,0 F,0,86716,,0.66 C,0,86716,,245,218,66 P,0,86716,,A M,7,86716,87436,408,304,412,291 S,6,86716,87436,0.04344044,0
Sprite,Foreground,Centre,"sb\particle.png",0,0 F,0,86716,,0.66 C,0,86716,,245,218,66 P,0,86716,,A M,7,86716,87436,408,304,365,266 S,6,86716,87436,0.3506439,0
Sprite,Foreground,Centre,"sb\particle.png",0,0 F,0,86716,,0.66 C,0,86716,,245,218,66 P,0,86716,,A M,7,86716,87436,408,304,439,273 S,6,86716,87436,0.4987958,0
Sprite,Foreground,Centre,"sb\particle.png",0,0 F,0,86716,,0.66 C,0,86716,,245,218,66 P,0,86716,,A M,7,86716,87436,408,304,355,317 S,6,86716,87436,0.1061591,0
Sprite,Foreground,Centre,"sb\particle.png",0,0 F,0,86716,,0.66 C,0,86716,,245,218,66 P,0,86716,,A M,7,86716,87436,408,304,386,250 S,6,86716,87436,0.1137062,0
Sprite,Foreground,Centre,"sb\particle.png",0,0 F,0,86716,,0.66 C,0,86716,,255,232,99 P,0,86716,,A M,7,86716,87436,408,304,401,297 S,6,86716,87436,-0.07226326,0
Sprite,Foreground,Centre,"sb\particle.png",0,0 F,0,86716,,0.66 C,0,86716,,255,232,99 P,0,86716,,A M,7,86716,87436,408,304,417,338 S,6,86716,87436,-0.1866179,0
Sprite,Foreground,Centre,"sb\particle.png",0,0 F,0,86716,,0.66 C,0,86716,,255,232,99 P,0,86716,,A M,7,86716,87436,408,304,439,297 S,6,86716,87436,0.09438542,0
Sprite,Foreground,Centre,"sb\particle.png",0,0 F,0,86716,,0.66 C,0,86716,,255,232,99 P,0,86716,,A M,7,86716,87436,408,304,453,346 S,6,86716,87436,0.4324462,0
Sprite,Foreground,Centre,"sb\particle.png",0,0 F,0,86716,,0.66 C,0,86716,,255,232,99 P,0,86716,,A M,7,86716,87436,408,304,357,284 S,6,86716,87436,0.4016712,0
Sprite,Foreground,Centre,"sb\particle.png",0,0 F,0,86716,,0.66 C,0,86716,,255,232,99 P,0,86716,,A M,7,86716,87436,408,304,436,342 S,6,86716,87436,-0.0002452055,0
Sprite,Foreground,Centre,"sb\particle.png",0,0 F,0,86716,,0.66 C,0,86716,,255,232,99 P,0,86716,,A M,7,86716,87436,408,304,376,334 S,6,86716,87436,-0.02939956,0
Sprite,Foreground,Centre,"sb\particle.png",0,0 F,0,86716,,0.66 C,0,86716,,255,232,99 P,0,86716,,A M,7,86716,87436,408,304,371,326 S,6,86716,87436,-0.2679271,0
Sprite,Foreground,Centre,"sb\particle.png",0,0 F,0,86716,,0.66 C,0,86716,,255,232,99 P,0,86716,,A M,7,86716,87436,408,304,456,336 S,6,86716,87436,0.4636585,0
Sprite,Foreground,Centre,"sb\particle.png",0,0 F,0,86716,,0.66 C,0,86716,,255,232,99 P,0,86716,,A M,7,86716,87436,408,304,364,302 S,6,86716,87436,-0.09678472,0
Sprite,Foreground,Centre,"sb\particle.png",0,0 F,0,87094,,0.66 C,0,87094,,245,218,66 P,0,87094,,A M,7,87094,87814,344,224,332,269 S,6,87094,87814,0.4882169,0
Sprite,Foreground,Centre,"sb\particle.png",0,0 F,0,87094,,0.66 C,0,87094,,245,218,66 P,0,87094,,A M,7,87094,87814,344,224,304,208 S,6,87094,87814,-0.04374148,0
Sprite,Foreground,Centre,"sb\particle.png",0,0 F,0,87094,,0.66 C,0,87094,,245,218,66 P,0,87094,,A M,7,87094,87814,344,224,384,205 S,6,87094,87814,0.02035538,0
Sprite,Foreground,Centre,"sb\particle.png",0,0 F,0,87094,,0.66 C,0,87094,,245,218,66 P,0,87094,,A M,7,87094,87814,344,224,365,246 S,6,87094,87814,0.08240226,0
Sprite,Foreground,Centre,"sb\particle.png",0,0 F,0,87094,,0.66 C,0,87094,,245,218,66 P,0,87094,,A M,7,87094,87814,344,224,335,180 S,6,87094,87814,0.2322089,0
Sprite,Foreground,Centre,"sb\particle.png",0,0 F,0,87094,,0.66 C,0,87094,,245,218,66 P,0,87094,,A M,7,87094,87814,344,224,333,242 S,6,87094,87814,0.4895165,0
Sprite,Foreground,Centre,"sb\particle.png",0,0 F,0,87094,,0.66 C,0,87094,,245,218,66 P,0,87094,,A M,7,87094,87814,344,224,355,223 S,6,87094,87814,0.2857174,0
Sprite,Foreground,Centre,"sb\particle.png",0,0 F,0,87094,,0.66 C,0,87094,,255,232,99 P,0,87094,,A M,7,87094,87814,344,224,337,183 S,6,87094,87814,0.1934751,0
Sprite,Foreground,Centre,"sb\particle.png",0,0 F,0,87094,,0.66 C,0,87094,,255,232,99 P,0,87094,,A M,7,87094,87814,344,224,365,270 S,6,87094,87814,0.1189235,0
Sprite,Foreground,Centre,"sb\particle.png",0,0 F,0,87094,,0.66 C,0,87094,,255,232,99 P,0,87094,,A M,7,87094,87814,344,224,336,239 S,6,87094,87814,0.07797881,0
Sprite,Foreground,Centre,"sb\particle.png",0,0 F,0,87094,,0.66 C,0,87094,,255,232,99 P,0,87094,,A M,7,87094,87814,344,224,393,240 S,6,87094,87814,0.3252084,0
Sprite,Foreground,Centre,"sb\particle.png",0,0 F,0,87094,,0.66 C,0,87094,,255,232,99 P,0,87094,,A M,7,87094,87814,344,224,316,243 S,6,87094,87814,0.4051934,0
Sprite,Foreground,Centre,"sb\particle.png",0,0 F,0,87094,,0.66 C,0,87094,,255,232,99 P,0,87094,,A M,7,87094,87814,344,224,391,275 S,6,87094,87814,0.07413321,0
Sprite,Foreground,Centre,"sb\particle.png",0,0 F,0,87094,,0.66 C,0,87094,,255,232,99 P,0,87094,,A M,7,87094,87814,344,224,391,245 S,6,87094,87814,-0.0713995,0
Sprite,Foreground,Centre,"sb\particle.png",0,0 F,0,87094,,0.66 C,0,87094,,255,232,99 P,0,87094,,A M,7,87094,87814,344,224,349,247 S,6,87094,87814,0.1784832,0
Sprite,Foreground,Centre,"sb\particle.png",0,0 F,0,87094,,0.66 C,0,87094,,255,232,99 P,0,87094,,A M,7,87094,87814,344,224,346,272 S,6,87094,87814,0.466258,0
Sprite,Foreground,Centre,"sb\particle.png",0,0 F,0,87094,,0.66 C,0,87094,,255,232,99 P,0,87094,,A M,7,87094,87814,344,224,369,246 S,6,87094,87814,0.19948,0
Sprite,Foreground,Centre,"sb\particle.png",0,0 F,0,87471,,0.66 C,0,87471,,245,218,66 P,0,87471,,A M,7,87471,88191,236,200,219,188 S,6,87471,88191,0.3055734,0
Sprite,Foreground,Centre,"sb\particle.png",0,0 F,0,87471,,0.66 C,0,87471,,245,218,66 P,0,87471,,A M,7,87471,88191,236,200,233,176 S,6,87471,88191,-0.2955766,0
Sprite,Foreground,Centre,"sb\particle.png",0,0 F,0,87471,,0.66 C,0,87471,,245,218,66 P,0,87471,,A M,7,87471,88191,236,200,232,194 S,6,87471,88191,-0.1326697,0
Sprite,Foreground,Centre,"sb\particle.png",0,0 F,0,87471,,0.66 C,0,87471,,245,218,66 P,0,87471,,A M,7,87471,88191,236,200,260,242 S,6,87471,88191,0.2942394,0
Sprite,Foreground,Centre,"sb\particle.png",0,0 F,0,87471,,0.66 C,0,87471,,245,218,66 P,0,87471,,A M,7,87471,88191,236,200,260,149 S,6,87471,88191,0.3028979,0
Sprite,Foreground,Centre,"sb\particle.png",0,0 F,0,87471,,0.66 C,0,87471,,245,218,66 P,0,87471,,A M,7,87471,88191,236,200,229,165 S,6,87471,88191,0.3509927,0
Sprite,Foreground,Centre,"sb\particle.png",0,0 F,0,87471,,0.66 C,0,87471,,245,218,66 P,0,87471,,A M,7,87471,88191,236,200,289,245 S,6,87471,88191,-0.04400822,0
Sprite,Foreground,Centre,"sb\particle.png",0,0 F,0,87471,,0.66 C,0,87471,,255,232,99 P,0,87471,,A M,7,87471,88191,236,200,268,216 S,6,87471,88191,0.4413778,0
Sprite,Foreground,Centre,"sb\particle.png",0,0 F,0,87471,,0.66 C,0,87471,,255,232,99 P,0,87471,,A M,7,87471,88191,236,200,238,213 S,6,87471,88191,-0.1728556,0
Sprite,Foreground,Centre,"sb\particle.png",0,0 F,0,87471,,0.66 C,0,87471,,255,232,99 P,0,87471,,A M,7,87471,88191,236,200,190,199 S,6,87471,88191,-0.2617617,0
Sprite,Foreground,Centre,"sb\particle.png",0,0 F,0,87471,,0.66 C,0,87471,,255,232,99 P,0,87471,,A M,7,87471,88191,236,200,235,236 S,6,87471,88191,-0.1553283,0
Sprite,Foreground,Centre,"sb\particle.png",0,0 F,0,87471,,0.66 C,0,87471,,255,232,99 P,0,87471,,A M,7,87471,88191,236,200,289,223 S,6,87471,88191,0.09509911,0
Sprite,Foreground,Centre,"sb\particle.png",0,0 F,0,87471,,0.66 C,0,87471,,255,232,99 P,0,87471,,A M,7,87471,88191,236,200,190,244 S,6,87471,88191,0.3603809,0
Sprite,Foreground,Centre,"sb\particle.png",0,0 F,0,87471,,0.66 C,0,87471,,255,232,99 P,0,87471,,A M,7,87471,88191,236,200,243,227 S,6,87471,88191,0.3146,0
Sprite,Foreground,Centre,"sb\particle.png",0,0 F,0,87471,,0.66 C,0,87471,,255,232,99 P,0,87471,,A M,7,87471,88191,236,200,237,212 S,6,87471,88191,0.3572504,0
Sprite,Foreground,Centre,"sb\particle.png",0,0 F,0,87471,,0.66 C,0,87471,,255,232,99 P,0,87471,,A M,7,87471,88191,236,200,214,168 S,6,87471,88191,0.1397068,0
Sprite,Foreground,Centre,"sb\particle.png",0,0 F,0,87471,,0.66 C,0,87471,,255,232,99 P,0,87471,,A M,7,87471,88191,236,200,220,217 S,6,87471,88191,0.08575534,0
Sprite,Foreground,Centre,"sb\particle.png",0,0 F,0,87660,,0.66 C,0,87660,,245,218,66 P,0,87660,,A M,7,87660,88380,236,200,214,180 S,6,87660,88380,0.2687095,0
Sprite,Foreground,Centre,"sb\particle.png",0,0 F,0,87660,,0.66 C,0,87660,,245,218,66 P,0,87660,,A M,7,87660,88380,236,200,267,233 S,6,87660,88380,0.2560011,0
Sprite,Foreground,Centre,"sb\particle.png",0,0 F,0,87660,,0.66 C,0,87660,,245,218,66 P,0,87660,,A M,7,87660,88380,236,200,207,166 S,6,87660,88380,-0.1985248,0
Sprite,Foreground,Centre,"sb\particle.png",0,0 F,0,87660,,0.66 C,0,87660,,245,218,66 P,0,87660,,A M,7,87660,88380,236,200,260,146 S,6,87660,88380,0.3576785,0
Sprite,Foreground,Centre,"sb\particle.png",0,0 F,0,87660,,0.66 C,0,87660,,245,218,66 P,0,87660,,A M,7,87660,88380,236,200,235,170 S,6,87660,88380,0.02657793,0
Sprite,Foreground,Centre,"sb\particle.png",0,0 F,0,87660,,0.66 C,0,87660,,245,218,66 P,0,87660,,A M,7,87660,88380,236,200,287,208 S,6,87660,88380,-0.08708504,0
Sprite,Foreground,Centre,"sb\particle.png",0,0 F,0,87660,,0.66 C,0,87660,,245,218,66 P,0,87660,,A M,7,87660,88380,236,200,188,164 S,6,87660,88380,-0.05936871,0
Sprite,Foreground,Centre,"sb\particle.png",0,0 F,0,87660,,0.66 C,0,87660,,255,232,99 P,0,87660,,A M,7,87660,88380,236,200,240,184 S,6,87660,88380,-0.1499811,0
Sprite,Foreground,Centre,"sb\particle.png",0,0 F,0,87660,,0.66 C,0,87660,,255,232,99 P,0,87660,,A M,7,87660,88380,236,200,273,158 S,6,87660,88380,0.3063659,0
Sprite,Foreground,Centre,"sb\particle.png",0,0 F,0,87660,,0.66 C,0,87660,,255,232,99 P,0,87660,,A M,7,87660,88380,236,200,237,154 S,6,87660,88380,-0.1908426,0
Sprite,Foreground,Centre,"sb\particle.png",0,0 F,0,87660,,0.66 C,0,87660,,255,232,99 P,0,87660,,A M,7,87660,88380,236,200,200,168 S,6,87660,88380,-0.007439316,0
Sprite,Foreground,Centre,"sb\particle.png",0,0 F,0,87660,,0.66 C,0,87660,,255,232,99 P,0,87660,,A M,7,87660,88380,236,200,185,147 S,6,87660,88380,-0.001174671,0
Sprite,Foreground,Centre,"sb\particle.png",0,0 F,0,87660,,0.66 C,0,87660,,255,232,99 P,0,87660,,A M,7,87660,88380,236,200,251,252 S,6,87660,88380,0.328545,0
Sprite,Foreground,Centre,"sb\particle.png",0,0 F,0,87660,,0.66 C,0,87660,,255,232,99 P,0,87660,,A M,7,87660,88380,236,200,246,153 S,6,87660,88380,0.4169103,0
Sprite,Foreground,Centre,"sb\particle.png",0,0 F,0,87660,,0.66 C,0,87660,,255,232,99 P,0,87660,,A M,7,87660,88380,236,200,244,162 S,6,87660,88380,-0.1513202,0
Sprite,Foreground,Centre,"sb\particle.png",0,0 F,0,87660,,0.66 C,0,87660,,255,232,99 P,0,87660,,A M,7,87660,88380,236,200,201,232 S,6,87660,88380,0.3077105,0
Sprite,Foreground,Centre,"sb\particle.png",0,0 F,0,87660,,0.66 C,0,87660,,255,232,99 P,0,87660,,A M,7,87660,88380,236,200,249,224 S,6,87660,88380,0.3810799,0
Sprite,Foreground,Centre,"sb\particle.png",0,0 F,0,88415,,0.66 C,0,88415,,245,218,66 P,0,88415,,A M,7,88415,89135,340,64,337,80 S,6,88415,89135,-0.2602407,0
Sprite,Foreground,Centre,"sb\particle.png",0,0 F,0,88415,,0.66 C,0,88415,,245,218,66 P,0,88415,,A M,7,88415,89135,340,64,325,62 S,6,88415,89135,0.248521,0
Sprite,Foreground,Centre,"sb\particle.png",0,0 F,0,88415,,0.66 C,0,88415,,245,218,66 P,0,88415,,A M,7,88415,89135,340,64,321,11 S,6,88415,89135,0.3413926,0
Sprite,Foreground,Centre,"sb\particle.png",0,0 F,0,88415,,0.66 C,0,88415,,245,218,66 P,0,88415,,A M,7,88415,89135,340,64,389,32 S,6,88415,89135,-0.1159219,0
Sprite,Foreground,Centre,"sb\particle.png",0,0 F,0,88415,,0.66 C,0,88415,,245,218,66 P,0,88415,,A M,7,88415,89135,340,64,359,21 S,6,88415,89135,-0.0500655,0
Sprite,Foreground,Centre,"sb\particle.png",0,0 F,0,88415,,0.66 C,0,88415,,245,218,66 P,0,88415,,A M,7,88415,89135,340,64,387,87 S,6,88415,89135,-0.1417906,0
Sprite,Foreground,Centre,"sb\particle.png",0,0 F,0,88415,,0.66 C,0,88415,,245,218,66 P,0,88415,,A M,7,88415,89135,340,64,341,22 S,6,88415,89135,-0.1897736,0
Sprite,Foreground,Centre,"sb\particle.png",0,0 F,0,88415,,0.66 C,0,88415,,255,232,99 P,0,88415,,A M,7,88415,89135,340,64,350,79 S,6,88415,89135,-0.2069685,0
Sprite,Foreground,Centre,"sb\particle.png",0,0 F,0,88415,,0.66 C,0,88415,,255,232,99 P,0,88415,,A M,7,88415,89135,340,64,322,28 S,6,88415,89135,-0.1300206,0
Sprite,Foreground,Centre,"sb\particle.png",0,0 F,0,88415,,0.66 C,0,88415,,255,232,99 P,0,88415,,A M,7,88415,89135,340,64,354,101 S,6,88415,89135,-0.01039616,0
Sprite,Foreground,Centre,"sb\particle.png",0,0 F,0,88415,,0.66 C,0,88415,,255,232,99 P,0,88415,,A M,7,88415,89135,340,64,363,32 S,6,88415,89135,0.1733654,0
Sprite,Foreground,Centre,"sb\particle.png",0,0 F,0,88415,,0.66 C,0,88415,,255,232,99 P,0,88415,,A M,7,88415,89135,340,64,330,23 S,6,88415,89135,0.167373,0
Sprite,Foreground,Centre,"sb\particle.png",0,0 F,0,88415,,0.66 C,0,88415,,255,232,99 P,0,88415,,A M,7,88415,89135,340,64,296,51 S,6,88415,89135,0.1962261,0
Sprite,Foreground,Centre,"sb\particle.png",0,0 F,0,88415,,0.66 C,0,88415,,255,232,99 P,0,88415,,A M,7,88415,89135,340,64,294,28 S,6,88415,89135,0.3951896,0
Sprite,Foreground,Centre,"sb\particle.png",0,0 F,0,88415,,0.66 C,0,88415,,255,232,99 P,0,88415,,A M,7,88415,89135,340,64,374,36 S,6,88415,89135,0.1057444,0
Sprite,Foreground,Centre,"sb\particle.png",0,0 F,0,88415,,0.66 C,0,88415,,255,232,99 P,0,88415,,A M,7,88415,89135,340,64,363,26 S,6,88415,89135,0.3997548,0
Sprite,Foreground,Centre,"sb\particle.png",0,0 F,0,88415,,0.66 C,0,88415,,255,232,99 P,0,88415,,A M,7,88415,89135,340,64,326,69 S,6,88415,89135,-0.02102549,0
Sprite,Foreground,Centre,"sb\particle.png",0,0 F,0,88793,,0.66 C,0,88793,,245,218,66 P,0,88793,,A M,7,88793,89513,428,116,386,168 S,6,88793,89513,0.4639177,0
Sprite,Foreground,Centre,"sb\particle.png",0,0 F,0,88793,,0.66 C,0,88793,,245,218,66 P,0,88793,,A M,7,88793,89513,428,116,435,123 S,6,88793,89513,0.3944742,0
Sprite,Foreground,Centre,"sb\particle.png",0,0 F,0,88793,,0.66 C,0,88793,,245,218,66 P,0,88793,,A M,7,88793,89513,428,116,478,158 S,6,88793,89513,0.3402118,0
Sprite,Foreground,Centre,"sb\particle.png",0,0 F,0,88793,,0.66 C,0,88793,,245,218,66 P,0,88793,,A M,7,88793,89513,428,116,462,75 S,6,88793,89513,0.3254363,0
Sprite,Foreground,Centre,"sb\particle.png",0,0 F,0,88793,,0.66 C,0,88793,,245,218,66 P,0,88793,,A M,7,88793,89513,428,116,474,141 S,6,88793,89513,0.3054343,0
Sprite,Foreground,Centre,"sb\particle.png",0,0 F,0,88793,,0.66 C,0,88793,,245,218,66 P,0,88793,,A M,7,88793,89513,428,116,445,121 S,6,88793,89513,0.4037191,0
Sprite,Foreground,Centre,"sb\particle.png",0,0 F,0,88793,,0.66 C,0,88793,,245,218,66 P,0,88793,,A M,7,88793,89513,428,116,384,164 S,6,88793,89513,-0.1243438,0
Sprite,Foreground,Centre,"sb\particle.png",0,0 F,0,88793,,0.66 C,0,88793,,255,232,99 P,0,88793,,A M,7,88793,89513,428,116,478,79 S,6,88793,89513,-0.2131402,0
Sprite,Foreground,Centre,"sb\particle.png",0,0 F,0,88793,,0.66 C,0,88793,,255,232,99 P,0,88793,,A M,7,88793,89513,428,116,396,157 S,6,88793,89513,0.2640956,0
Sprite,Foreground,Centre,"sb\particle.png",0,0 F,0,88793,,0.66 C,0,88793,,255,232,99 P,0,88793,,A M,7,88793,89513,428,116,378,130 S,6,88793,89513,-0.1241292,0
Sprite,Foreground,Centre,"sb\particle.png",0,0 F,0,88793,,0.66 C,0,88793,,255,232,99 P,0,88793,,A M,7,88793,89513,428,116,438,65 S,6,88793,89513,-0.1884001,0
Sprite,Foreground,Centre,"sb\particle.png",0,0 F,0,88793,,0.66 C,0,88793,,255,232,99 P,0,88793,,A M,7,88793,89513,428,116,379,101 S,6,88793,89513,-0.1504758,0
Sprite,Foreground,Centre,"sb\particle.png",0,0 F,0,88793,,0.66 C,0,88793,,255,232,99 P,0,88793,,A M,7,88793,89513,428,116,381,78 S,6,88793,89513,-0.2930709,0
Sprite,Foreground,Centre,"sb\particle.png",0,0 F,0,88793,,0.66 C,0,88793,,255,232,99 P,0,88793,,A M,7,88793,89513,428,116,457,142 S,6,88793,89513,0.4654192,0
Sprite,Foreground,Centre,"sb\particle.png",0,0 F,0,88793,,0.66 C,0,88793,,255,232,99 P,0,88793,,A M,7,88793,89513,428,116,397,112 S,6,88793,89513,0.03983212,0
Sprite,Foreground,Centre,"sb\particle.png",0,0 F,0,88793,,0.66 C,0,88793,,255,232,99 P,0,88793,,A M,7,88793,89513,428,116,387,73 S,6,88793,89513,-0.18583,0
Sprite,Foreground,Centre,"sb\particle.png",0,0 F,0,88793,,0.66 C,0,88793,,255,232,99 P,0,88793,,A M,7,88793,89513,428,116,424,162 S,6,88793,89513,0.2295838,0
Sprite,Foreground,Centre,"sb\particle.png",0,0 F,0,89171,,0.66 C,0,89171,,245,218,66 P,0,89171,,A M,7,89171,89891,532,88,505,76 S,6,89171,89891,-0.1697562,0
Sprite,Foreground,Centre,"sb\particle.png",0,0 F,0,89171,,0.66 C,0,89171,,245,218,66 P,0,89171,,A M,7,89171,89891,532,88,485,43 S,6,89171,89891,0.1495654,0
Sprite,Foreground,Centre,"sb\particle.png",0,0 F,0,89171,,0.66 C,0,89171,,245,218,66 P,0,89171,,A M,7,89171,89891,532,88,513,109 S,6,89171,89891,0.09056559,0
Sprite,Foreground,Centre,"sb\particle.png",0,0 F,0,89171,,0.66 C,0,89171,,245,218,66 P,0,89171,,A M,7,89171,89891,532,88,509,77 S,6,89171,89891,0.3619894,0
Sprite,Foreground,Centre,"sb\particle.png",0,0 F,0,89171,,0.66 C,0,89171,,245,218,66 P,0,89171,,A M,7,89171,89891,532,88,575,103 S,6,89171,89891,-0.2476355,0
Sprite,Foreground,Centre,"sb\particle.png",0,0 F,0,89171,,0.66 C,0,89171,,245,218,66 P,0,89171,,A M,7,89171,89891,532,88,570,43 S,6,89171,89891,-0.2882684,0
Sprite,Foreground,Centre,"sb\particle.png",0,0 F,0,89171,,0.66 C,0,89171,,245,218,66 P,0,89171,,A M,7,89171,89891,532,88,490,72 S,6,89171,89891,0.4873237,0
Sprite,Foreground,Centre,"sb\particle.png",0,0 F,0,89171,,0.66 C,0,89171,,255,232,99 P,0,89171,,A M,7,89171,89891,532,88,503,92 S,6,89171,89891,-0.002543799,0
Sprite,Foreground,Centre,"sb\particle.png",0,0 F,0,89171,,0.66 C,0,89171,,255,232,99 P,0,89171,,A M,7,89171,89891,532,88,490,69 S,6,89171,89891,0.3230976,0
Sprite,Foreground,Centre,"sb\particle.png",0,0 F,0,89171,,0.66 C,0,89171,,255,232,99 P,0,89171,,A M,7,89171,89891,532,88,500,47 S,6,89171,89891,-0.007463052,0
Sprite,Foreground,Centre,"sb\particle.png",0,0 F,0,89171,,0.66 C,0,89171,,255,232,99 P,0,89171,,A M,7,89171,89891,532,88,563,103 S,6,89171,89891,0.4247339,0
Sprite,Foreground,Centre,"sb\particle.png",0,0 F,0,89171,,0.66 C,0,89171,,255,232,99 P,0,89171,,A M,7,89171,89891,532,88,579,37 S,6,89171,89891,-0.2467316,0
Sprite,Foreground,Centre,"sb\particle.png",0,0 F,0,89171,,0.66 C,0,89171,,255,232,99 P,0,89171,,A M,7,89171,89891,532,88,528,130 S,6,89171,89891,0.4439191,0
Sprite,Foreground,Centre,"sb\particle.png",0,0 F,0,89171,,0.66 C,0,89171,,255,232,99 P,0,89171,,A M,7,89171,89891,532,88,562,125 S,6,89171,89891,-0.2490461,0
Sprite,Foreground,Centre,"sb\particle.png",0,0 F,0,89171,,0.66 C,0,89171,,255,232,99 P,0,89171,,A M,7,89171,89891,532,88,509,112 S,6,89171,89891,-0.216155,0
Sprite,Foreground,Centre,"sb\particle.png",0,0 F,0,89171,,0.66 C,0,89171,,255,232,99 P,0,89171,,A M,7,89171,89891,532,88,551,96 S,6,89171,89891,-0.283726,0
Sprite,Foreground,Centre,"sb\particle.png",0,0 F,0,89171,,0.66 C,0,89171,,255,232,99 P,0,89171,,A M,7,89171,89891,532,88,554,114 S,6,89171,89891,0.05610135,0
Sprite,Foreground,Centre,"sb\particle.png",0,0 F,0,89737,,0.66 C,0,89737,,245,218,66 P,0,89737,,A M,7,89737,90457,552,252,557,284 S,6,89737,90457,-0.01013316,0
Sprite,Foreground,Centre,"sb\particle.png",0,0 F,0,89737,,0.66 C,0,89737,,245,218,66 P,0,89737,,A M,7,89737,90457,552,252,539,219 S,6,89737,90457,0.06945242,0
Sprite,Foreground,Centre,"sb\particle.png",0,0 F,0,89737,,0.66 C,0,89737,,245,218,66 P,0,89737,,A M,7,89737,90457,552,252,510,198 S,6,89737,90457,-0.1644242,0
Sprite,Foreground,Centre,"sb\particle.png",0,0 F,0,89737,,0.66 C,0,89737,,245,218,66 P,0,89737,,A M,7,89737,90457,552,252,586,218 S,6,89737,90457,-0.2427445,0
Sprite,Foreground,Centre,"sb\particle.png",0,0 F,0,89737,,0.66 C,0,89737,,245,218,66 P,0,89737,,A M,7,89737,90457,552,252,502,216 S,6,89737,90457,-0.223968,0
Sprite,Foreground,Centre,"sb\particle.png",0,0 F,0,89737,,0.66 C,0,89737,,245,218,66 P,0,89737,,A M,7,89737,90457,552,252,517,205 S,6,89737,90457,0.09222739,0
Sprite,Foreground,Centre,"sb\particle.png",0,0 F,0,89737,,0.66 C,0,89737,,245,218,66 P,0,89737,,A M,7,89737,90457,552,252,556,255 S,6,89737,90457,0.4360287,0
Sprite,Foreground,Centre,"sb\particle.png",0,0 F,0,89737,,0.66 C,0,89737,,255,232,99 P,0,89737,,A M,7,89737,90457,552,252,503,288 S,6,89737,90457,-0.06718266,0
Sprite,Foreground,Centre,"sb\particle.png",0,0 F,0,89737,,0.66 C,0,89737,,255,232,99 P,0,89737,,A M,7,89737,90457,552,252,583,284 S,6,89737,90457,0.4502113,0
Sprite,Foreground,Centre,"sb\particle.png",0,0 F,0,89737,,0.66 C,0,89737,,255,232,99 P,0,89737,,A M,7,89737,90457,552,252,515,292 S,6,89737,90457,-0.138377,0
Sprite,Foreground,Centre,"sb\particle.png",0,0 F,0,89737,,0.66 C,0,89737,,255,232,99 P,0,89737,,A M,7,89737,90457,552,252,526,278 S,6,89737,90457,-0.2150132,0
Sprite,Foreground,Centre,"sb\particle.png",0,0 F,0,89737,,0.66 C,0,89737,,255,232,99 P,0,89737,,A M,7,89737,90457,552,252,557,291 S,6,89737,90457,0.3171854,0
Sprite,Foreground,Centre,"sb\particle.png",0,0 F,0,89737,,0.66 C,0,89737,,255,232,99 P,0,89737,,A M,7,89737,90457,552,252,594,206 S,6,89737,90457,0.07429657,0
Sprite,Foreground,Centre,"sb\particle.png",0,0 F,0,89737,,0.66 C,0,89737,,255,232,99 P,0,89737,,A M,7,89737,90457,552,252,598,289 S,6,89737,90457,0.166228,0
Sprite,Foreground,Centre,"sb\particle.png",0,0 F,0,89737,,0.66 C,0,89737,,255,232,99 P,0,89737,,A M,7,89737,90457,552,252,589,282 S,6,89737,90457,-0.153209,0
Sprite,Foreground,Centre,"sb\particle.png",0,0 F,0,89737,,0.66 C,0,89737,,255,232,99 P,0,89737,,A M,7,89737,90457,552,252,554,219 S,6,89737,90457,0.1041042,0
Sprite,Foreground,Centre,"sb\particle.png",0,0 F,0,89737,,0.66 C,0,89737,,255,232,99 P,0,89737,,A M,7,89737,90457,552,252,596,254 S,6,89737,90457,0.2368487,0
Sprite,Foreground,Centre,"sb\particle.png",0,0 F,0,90303,,0.66 C,0,90303,,245,218,66 P,0,90303,,A M,7,90303,91023,408,268,373,218 S,6,90303,91023,-0.06493881,0
Sprite,Foreground,Centre,"sb\particle.png",0,0 F,0,90303,,0.66 C,0,90303,,245,218,66 P,0,90303,,A M,7,90303,91023,408,268,408,216 S,6,90303,91023,0.3956326,0
Sprite,Foreground,Centre,"sb\particle.png",0,0 F,0,90303,,0.66 C,0,90303,,245,218,66 P,0,90303,,A M,7,90303,91023,408,268,437,260 S,6,90303,91023,0.3079177,0
Sprite,Foreground,Centre,"sb\particle.png",0,0 F,0,90303,,0.66 C,0,90303,,245,218,66 P,0,90303,,A M,7,90303,91023,408,268,388,318 S,6,90303,91023,0.4545751,0
Sprite,Foreground,Centre,"sb\particle.png",0,0 F,0,90303,,0.66 C,0,90303,,245,218,66 P,0,90303,,A M,7,90303,91023,408,268,437,230 S,6,90303,91023,0.3702883,0
Sprite,Foreground,Centre,"sb\particle.png",0,0 F,0,90303,,0.66 C,0,90303,,245,218,66 P,0,90303,,A M,7,90303,91023,408,268,408,316 S,6,90303,91023,-0.005091433,0
Sprite,Foreground,Centre,"sb\particle.png",0,0 F,0,90303,,0.66 C,0,90303,,245,218,66 P,0,90303,,A M,7,90303,91023,408,268,447,262 S,6,90303,91023,-0.09133838,0
Sprite,Foreground,Centre,"sb\particle.png",0,0 F,0,90303,,0.66 C,0,90303,,255,232,99 P,0,90303,,A M,7,90303,91023,408,268,370,254 S,6,90303,91023,0.4287666,0
Sprite,Foreground,Centre,"sb\particle.png",0,0 F,0,90303,,0.66 C,0,90303,,255,232,99 P,0,90303,,A M,7,90303,91023,408,268,354,228 S,6,90303,91023,-0.052419,0
Sprite,Foreground,Centre,"sb\particle.png",0,0 F,0,90303,,0.66 C,0,90303,,255,232,99 P,0,90303,,A M,7,90303,91023,408,268,416,303 S,6,90303,91023,0.471176,0
Sprite,Foreground,Centre,"sb\particle.png",0,0 F,0,90303,,0.66 C,0,90303,,255,232,99 P,0,90303,,A M,7,90303,91023,408,268,432,290 S,6,90303,91023,0.1803168,0
Sprite,Foreground,Centre,"sb\particle.png",0,0 F,0,90303,,0.66 C,0,90303,,255,232,99 P,0,90303,,A M,7,90303,91023,408,268,458,270 S,6,90303,91023,0.09687528,0
Sprite,Foreground,Centre,"sb\particle.png",0,0 F,0,90303,,0.66 C,0,90303,,255,232,99 P,0,90303,,A M,7,90303,91023,408,268,442,295 S,6,90303,91023,0.1215196,0
Sprite,Foreground,Centre,"sb\particle.png",0,0 F,0,90303,,0.66 C,0,90303,,255,232,99 P,0,90303,,A M,7,90303,91023,408,268,357,247 S,6,90303,91023,0.2497844,0
Sprite,Foreground,Centre,"sb\particle.png",0,0 F,0,90303,,0.66 C,0,90303,,255,232,99 P,0,90303,,A M,7,90303,91023,408,268,354,215 S,6,90303,91023,0.06985214,0
Sprite,Foreground,Centre,"sb\particle.png",0,0 F,0,90303,,0.66 C,0,90303,,255,232,99 P,0,90303,,A M,7,90303,91023,408,268,398,291 S,6,90303,91023,-0.283992,0
Sprite,Foreground,Centre,"sb\particle.png",0,0 F,0,90303,,0.66 C,0,90303,,255,232,99 P,0,90303,,A M,7,90303,91023,408,268,366,242 S,6,90303,91023,0.3901582,0
Sprite,Foreground,Centre,"sb\particle.png",0,0 F,0,90681,,0.66 C,0,90681,,245,218,66 P,0,90681,,A M,7,90681,91401,300,268,296,237 S,6,90681,91401,0.4439076,0
Sprite,Foreground,Centre,"sb\particle.png",0,0 F,0,90681,,0.66 C,0,90681,,245,218,66 P,0,90681,,A M,7,90681,91401,300,268,285,255 S,6,90681,91401,0.4833991,0
Sprite,Foreground,Centre,"sb\particle.png",0,0 F,0,90681,,0.66 C,0,90681,,245,218,66 P,0,90681,,A M,7,90681,91401,300,268,251,261 S,6,90681,91401,0.4460316,0
Sprite,Foreground,Centre,"sb\particle.png",0,0 F,0,90681,,0.66 C,0,90681,,245,218,66 P,0,90681,,A M,7,90681,91401,300,268,352,251 S,6,90681,91401,0.02247123,0
Sprite,Foreground,Centre,"sb\particle.png",0,0 F,0,90681,,0.66 C,0,90681,,245,218,66 P,0,90681,,A M,7,90681,91401,300,268,286,264 S,6,90681,91401,0.106612,0
Sprite,Foreground,Centre,"sb\particle.png",0,0 F,0,90681,,0.66 C,0,90681,,245,218,66 P,0,90681,,A M,7,90681,91401,300,268,283,273 S,6,90681,91401,0.1046433,0
Sprite,Foreground,Centre,"sb\particle.png",0,0 F,0,90681,,0.66 C,0,90681,,245,218,66 P,0,90681,,A M,7,90681,91401,300,268,256,278 S,6,90681,91401,0.1688448,0
Sprite,Foreground,Centre,"sb\particle.png",0,0 F,0,90681,,0.66 C,0,90681,,255,232,99 P,0,90681,,A M,7,90681,91401,300,268,278,271 S,6,90681,91401,0.03857192,0
Sprite,Foreground,Centre,"sb\particle.png",0,0 F,0,90681,,0.66 C,0,90681,,255,232,99 P,0,90681,,A M,7,90681,91401,300,268,273,267 S,6,90681,91401,-0.2535631,0
Sprite,Foreground,Centre,"sb\particle.png",0,0 F,0,90681,,0.66 C,0,90681,,255,232,99 P,0,90681,,A M,7,90681,91401,300,268,282,309 S,6,90681,91401,0.1791249,0
Sprite,Foreground,Centre,"sb\particle.png",0,0 F,0,90681,,0.66 C,0,90681,,255,232,99 P,0,90681,,A M,7,90681,91401,300,268,276,226 S,6,90681,91401,0.4144028,0
Sprite,Foreground,Centre,"sb\particle.png",0,0 F,0,90681,,0.66 C,0,90681,,255,232,99 P,0,90681,,A M,7,90681,91401,300,268,263,260 S,6,90681,91401,0.1772011,0
Sprite,Foreground,Centre,"sb\particle.png",0,0 F,0,90681,,0.66 C,0,90681,,255,232,99 P,0,90681,,A M,7,90681,91401,300,268,327,254 S,6,90681,91401,-0.2873947,0
Sprite,Foreground,Centre,"sb\particle.png",0,0 F,0,90681,,0.66 C,0,90681,,255,232,99 P,0,90681,,A M,7,90681,91401,300,268,353,295 S,6,90681,91401,0.4215751,0
Sprite,Foreground,Centre,"sb\particle.png",0,0 F,0,90681,,0.66 C,0,90681,,255,232,99 P,0,90681,,A M,7,90681,91401,300,268,319,226 S,6,90681,91401,0.1081407,0
Sprite,Foreground,Centre,"sb\particle.png",0,0 F,0,90681,,0.66 C,0,90681,,255,232,99 P,0,90681,,A M,7,90681,91401,300,268,275,242 S,6,90681,91401,-0.164026,0
Sprite,Foreground,Centre,"sb\particle.png",0,0 F,0,90681,,0.66 C,0,90681,,255,232,99 P,0,90681,,A M,7,90681,91401,300,268,350,224 S,6,90681,91401,0.2829476,0
Sprite,Foreground,Centre,"sb\particle.png",0,0 F,0,91436,,0.66 C,0,91436,,245,218,66 P,0,91436,,A M,7,91436,92156,184,424,237,385 S,6,91436,92156,-0.262217,0
Sprite,Foreground,Centre,"sb\particle.png",0,0 F,0,91436,,0.66 C,0,91436,,245,218,66 P,0,91436,,A M,7,91436,92156,184,424,192,370 S,6,91436,92156,0.3433463,0
Sprite,Foreground,Centre,"sb\particle.png",0,0 F,0,91436,,0.66 C,0,91436,,245,218,66 P,0,91436,,A M,7,91436,92156,184,424,140,408 S,6,91436,92156,-0.1211261,0
Sprite,Foreground,Centre,"sb\particle.png",0,0 F,0,91436,,0.66 C,0,91436,,245,218,66 P,0,91436,,A M,7,91436,92156,184,424,228,441 S,6,91436,92156,-0.0267346,0
Sprite,Foreground,Centre,"sb\particle.png",0,0 F,0,91436,,0.66 C,0,91436,,245,218,66 P,0,91436,,A M,7,91436,92156,184,424,184,399 S,6,91436,92156,-0.1287076,0
Sprite,Foreground,Centre,"sb\particle.png",0,0 F,0,91436,,0.66 C,0,91436,,245,218,66 P,0,91436,,A M,7,91436,92156,184,424,198,453 S,6,91436,92156,0.351365,0
Sprite,Foreground,Centre,"sb\particle.png",0,0 F,0,91436,,0.66 C,0,91436,,245,218,66 P,0,91436,,A M,7,91436,92156,184,424,183,442 S,6,91436,92156,0.4286035,0
Sprite,Foreground,Centre,"sb\particle.png",0,0 F,0,91436,,0.66 C,0,91436,,255,232,99 P,0,91436,,A M,7,91436,92156,184,424,232,412 S,6,91436,92156,0.1671636,0
Sprite,Foreground,Centre,"sb\particle.png",0,0 F,0,91436,,0.66 C,0,91436,,255,232,99 P,0,91436,,A M,7,91436,92156,184,424,165,467 S,6,91436,92156,0.1704738,0
Sprite,Foreground,Centre,"sb\particle.png",0,0 F,0,91436,,0.66 C,0,91436,,255,232,99 P,0,91436,,A M,7,91436,92156,184,424,215,382 S,6,91436,92156,-0.06592529,0
Sprite,Foreground,Centre,"sb\particle.png",0,0 F,0,91436,,0.66 C,0,91436,,255,232,99 P,0,91436,,A M,7,91436,92156,184,424,179,434 S,6,91436,92156,0.2659698,0
Sprite,Foreground,Centre,"sb\particle.png",0,0 F,0,91436,,0.66 C,0,91436,,255,232,99 P,0,91436,,A M,7,91436,92156,184,424,177,441 S,6,91436,92156,0.2085115,0
Sprite,Foreground,Centre,"sb\particle.png",0,0 F,0,91436,,0.66 C,0,91436,,255,232,99 P,0,91436,,A M,7,91436,92156,184,424,203,396 S,6,91436,92156,0.3102183,0
Sprite,Foreground,Centre,"sb\particle.png",0,0 F,0,91436,,0.66 C,0,91436,,255,232,99 P,0,91436,,A M,7,91436,92156,184,424,155,414 S,6,91436,92156,-0.2499791,0
Sprite,Foreground,Centre,"sb\particle.png",0,0 F,0,91436,,0.66 C,0,91436,,255,232,99 P,0,91436,,A M,7,91436,92156,184,424,188,468 S,6,91436,92156,-0.06484444,0
Sprite,Foreground,Centre,"sb\particle.png",0,0 F,0,91436,,0.66 C,0,91436,,255,232,99 P,0,91436,,A M,7,91436,92156,184,424,218,410 S,6,91436,92156,-0.2642199,0
Sprite,Foreground,Centre,"sb\particle.png",0,0 F,0,91436,,0.66 C,0,91436,,255,232,99 P,0,91436,,A M,7,91436,92156,184,424,175,460 S,6,91436,92156,0.07708082,0
Sprite,Foreground,Centre,"sb\particle.png",0,0 F,0,91814,,0.66 C,0,91814,,245,218,66 P,0,91814,,A M,7,91814,92534,80,392,80,394 S,6,91814,92534,-0.2128903,0
Sprite,Foreground,Centre,"sb\particle.png",0,0 F,0,91814,,0.66 C,0,91814,,245,218,66 P,0,91814,,A M,7,91814,92534,80,392,74,431 S,6,91814,92534,-0.2608093,0
Sprite,Foreground,Centre,"sb\particle.png",0,0 F,0,91814,,0.66 C,0,91814,,245,218,66 P,0,91814,,A M,7,91814,92534,80,392,31,410 S,6,91814,92534,0.3663802,0
Sprite,Foreground,Centre,"sb\particle.png",0,0 F,0,91814,,0.66 C,0,91814,,245,218,66 P,0,91814,,A M,7,91814,92534,80,392,131,345 S,6,91814,92534,-0.0008230323,0
Sprite,Foreground,Centre,"sb\particle.png",0,0 F,0,91814,,0.66 C,0,91814,,245,218,66 P,0,91814,,A M,7,91814,92534,80,392,119,415 S,6,91814,92534,0.2333502,0
Sprite,Foreground,Centre,"sb\particle.png",0,0 F,0,91814,,0.66 C,0,91814,,245,218,66 P,0,91814,,A M,7,91814,92534,80,392,79,415 S,6,91814,92534,0.05610496,0
Sprite,Foreground,Centre,"sb\particle.png",0,0 F,0,91814,,0.66 C,0,91814,,245,218,66 P,0,91814,,A M,7,91814,92534,80,392,97,356 S,6,91814,92534,0.156658,0
Sprite,Foreground,Centre,"sb\particle.png",0,0 F,0,91814,,0.66 C,0,91814,,255,232,99 P,0,91814,,A M,7,91814,92534,80,392,98,421 S,6,91814,92534,0.1058932,0
Sprite,Foreground,Centre,"sb\particle.png",0,0 F,0,91814,,0.66 C,0,91814,,255,232,99 P,0,91814,,A M,7,91814,92534,80,392,125,356 S,6,91814,92534,0.2726933,0
Sprite,Foreground,Centre,"sb\particle.png",0,0 F,0,91814,,0.66 C,0,91814,,255,232,99 P,0,91814,,A M,7,91814,92534,80,392,119,374 S,6,91814,92534,0.3106473,0
Sprite,Foreground,Centre,"sb\particle.png",0,0 F,0,91814,,0.66 C,0,91814,,255,232,99 P,0,91814,,A M,7,91814,92534,80,392,38,389 S,6,91814,92534,0.1555914,0
Sprite,Foreground,Centre,"sb\particle.png",0,0 F,0,91814,,0.66 C,0,91814,,255,232,99 P,0,91814,,A M,7,91814,92534,80,392,59,400 S,6,91814,92534,0.1539368,0
Sprite,Foreground,Centre,"sb\particle.png",0,0 F,0,91814,,0.66 C,0,91814,,255,232,99 P,0,91814,,A M,7,91814,92534,80,392,50,415 S,6,91814,92534,0.1506185,0
Sprite,Foreground,Centre,"sb\particle.png",0,0 F,0,91814,,0.66 C,0,91814,,255,232,99 P,0,91814,,A M,7,91814,92534,80,392,88,436 S,6,91814,92534,-0.1790061,0
Sprite,Foreground,Centre,"sb\particle.png",0,0 F,0,91814,,0.66 C,0,91814,,255,232,99 P,0,91814,,A M,7,91814,92534,80,392,85,340 S,6,91814,92534,-0.09779889,0
Sprite,Foreground,Centre,"sb\particle.png",0,0 F,0,91814,,0.66 C,0,91814,,255,232,99 P,0,91814,,A M,7,91814,92534,80,392,123,339 S,6,91814,92534,0.3684222,0
Sprite,Foreground,Centre,"sb\particle.png",0,0 F,0,91814,,0.66 C,0,91814,,255,232,99 P,0,91814,,A M,7,91814,92534,80,392,65,395 S,6,91814,92534,-0.196477,0
Sprite,Foreground,Centre,"sb\particle.png",0,0 F,0,92191,,0.66 C,0,92191,,245,218,66 P,0,92191,,A M,7,92191,92911,96,284,77,325 S,6,92191,92911,0.09724806,0
Sprite,Foreground,Centre,"sb\particle.png",0,0 F,0,92191,,0.66 C,0,92191,,245,218,66 P,0,92191,,A M,7,92191,92911,96,284,121,251 S,6,92191,92911,0.1885297,0
Sprite,Foreground,Centre,"sb\particle.png",0,0 F,0,92191,,0.66 C,0,92191,,245,218,66 P,0,92191,,A M,7,92191,92911,96,284,122,255 S,6,92191,92911,0.4442178,0
Sprite,Foreground,Centre,"sb\particle.png",0,0 F,0,92191,,0.66 C,0,92191,,245,218,66 P,0,92191,,A M,7,92191,92911,96,284,140,246 S,6,92191,92911,-0.1943363,0
Sprite,Foreground,Centre,"sb\particle.png",0,0 F,0,92191,,0.66 C,0,92191,,245,218,66 P,0,92191,,A M,7,92191,92911,96,284,52,316 S,6,92191,92911,0.3843764,0
Sprite,Foreground,Centre,"sb\particle.png",0,0 F,0,92191,,0.66 C,0,92191,,245,218,66 P,0,92191,,A M,7,92191,92911,96,284,130,288 S,6,92191,92911,-0.2887769,0
Sprite,Foreground,Centre,"sb\particle.png",0,0 F,0,92191,,0.66 C,0,92191,,245,218,66 P,0,92191,,A M,7,92191,92911,96,284,106,294 S,6,92191,92911,0.0276454,0
Sprite,Foreground,Centre,"sb\particle.png",0,0 F,0,92191,,0.66 C,0,92191,,255,232,99 P,0,92191,,A M,7,92191,92911,96,284,116,298 S,6,92191,92911,0.07915533,0
Sprite,Foreground,Centre,"sb\particle.png",0,0 F,0,92191,,0.66 C,0,92191,,255,232,99 P,0,92191,,A M,7,92191,92911,96,284,122,336 S,6,92191,92911,-0.00487303,0
Sprite,Foreground,Centre,"sb\particle.png",0,0 F,0,92191,,0.66 C,0,92191,,255,232,99 P,0,92191,,A M,7,92191,92911,96,284,46,327 S,6,92191,92911,-0.2725613,0
Sprite,Foreground,Centre,"sb\particle.png",0,0 F,0,92191,,0.66 C,0,92191,,255,232,99 P,0,92191,,A M,7,92191,92911,96,284,115,255 S,6,92191,92911,0.2863927,0
Sprite,Foreground,Centre,"sb\particle.png",0,0 F,0,92191,,0.66 C,0,92191,,255,232,99 P,0,92191,,A M,7,92191,92911,96,284,131,300 S,6,92191,92911,-0.03269856,0
Sprite,Foreground,Centre,"sb\particle.png",0,0 F,0,92191,,0.66 C,0,92191,,255,232,99 P,0,92191,,A M,7,92191,92911,96,284,65,312 S,6,92191,92911,0.2051546,0
Sprite,Foreground,Centre,"sb\particle.png",0,0 F,0,92191,,0.66 C,0,92191,,255,232,99 P,0,92191,,A M,7,92191,92911,96,284,90,258 S,6,92191,92911,-0.2639536,0
Sprite,Foreground,Centre,"sb\particle.png",0,0 F,0,92191,,0.66 C,0,92191,,255,232,99 P,0,92191,,A M,7,92191,92911,96,284,43,251 S,6,92191,92911,0.3131689,0
Sprite,Foreground,Centre,"sb\particle.png",0,0 F,0,92191,,0.66 C,0,92191,,255,232,99 P,0,92191,,A M,7,92191,92911,96,284,119,303 S,6,92191,92911,0.2098306,0
Sprite,Foreground,Centre,"sb\particle.png",0,0 F,0,92191,,0.66 C,0,92191,,255,232,99 P,0,92191,,A M,7,92191,92911,96,284,120,306 S,6,92191,92911,0.3911111,0
Sprite,Foreground,Centre,"sb\particle.png",0,0 F,0,92569,,0.66 C,0,92569,,245,218,66 P,0,92569,,A M,7,92569,93289,184,216,170,233 S,6,92569,93289,-0.2764925,0
Sprite,Foreground,Centre,"sb\particle.png",0,0 F,0,92569,,0.66 C,0,92569,,245,218,66 P,0,92569,,A M,7,92569,93289,184,216,205,174 S,6,92569,93289,-0.221775,0
Sprite,Foreground,Centre,"sb\particle.png",0,0 F,0,92569,,0.66 C,0,92569,,245,218,66 P,0,92569,,A M,7,92569,93289,184,216,174,223 S,6,92569,93289,0.07672733,0
Sprite,Foreground,Centre,"sb\particle.png",0,0 F,0,92569,,0.66 C,0,92569,,245,218,66 P,0,92569,,A M,7,92569,93289,184,216,148,249 S,6,92569,93289,-0.1484634,0
Sprite,Foreground,Centre,"sb\particle.png",0,0 F,0,92569,,0.66 C,0,92569,,245,218,66 P,0,92569,,A M,7,92569,93289,184,216,158,193 S,6,92569,93289,0.2177611,0
Sprite,Foreground,Centre,"sb\particle.png",0,0 F,0,92569,,0.66 C,0,92569,,245,218,66 P,0,92569,,A M,7,92569,93289,184,216,218,206 S,6,92569,93289,-0.174494,0
Sprite,Foreground,Centre,"sb\particle.png",0,0 F,0,92569,,0.66 C,0,92569,,245,218,66 P,0,92569,,A M,7,92569,93289,184,216,187,184 S,6,92569,93289,0.3585648,0
Sprite,Foreground,Centre,"sb\particle.png",0,0 F,0,92569,,0.66 C,0,92569,,255,232,99 P,0,92569,,A M,7,92569,93289,184,216,148,219 S,6,92569,93289,0.1162782,0
Sprite,Foreground,Centre,"sb\particle.png",0,0 F,0,92569,,0.66 C,0,92569,,255,232,99 P,0,92569,,A M,7,92569,93289,184,216,167,210 S,6,92569,93289,0.03949947,0
Sprite,Foreground,Centre,"sb\particle.png",0,0 F,0,92569,,0.66 C,0,92569,,255,232,99 P,0,92569,,A M,7,92569,93289,184,216,132,242 S,6,92569,93289,-0.2450744,0
Sprite,Foreground,Centre,"sb\particle.png",0,0 F,0,92569,,0.66 C,0,92569,,255,232,99 P,0,92569,,A M,7,92569,93289,184,216,202,209 S,6,92569,93289,-0.1467314,0
Sprite,Foreground,Centre,"sb\particle.png",0,0 F,0,92569,,0.66 C,0,92569,,255,232,99 P,0,92569,,A M,7,92569,93289,184,216,230,244 S,6,92569,93289,0.4017265,0
Sprite,Foreground,Centre,"sb\particle.png",0,0 F,0,92569,,0.66 C,0,92569,,255,232,99 P,0,92569,,A M,7,92569,93289,184,216,192,217 S,6,92569,93289,0.373608,0
Sprite,Foreground,Centre,"sb\particle.png",0,0 F,0,92569,,0.66 C,0,92569,,255,232,99 P,0,92569,,A M,7,92569,93289,184,216,180,197 S,6,92569,93289,-0.2418835,0
Sprite,Foreground,Centre,"sb\particle.png",0,0 F,0,92569,,0.66 C,0,92569,,255,232,99 P,0,92569,,A M,7,92569,93289,184,216,218,253 S,6,92569,93289,0.1099333,0
Sprite,Foreground,Centre,"sb\particle.png",0,0 F,0,92569,,0.66 C,0,92569,,255,232,99 P,0,92569,,A M,7,92569,93289,184,216,134,185 S,6,92569,93289,-0.1305004,0
Sprite,Foreground,Centre,"sb\particle.png",0,0 F,0,92569,,0.66 C,0,92569,,255,232,99 P,0,92569,,A M,7,92569,93289,184,216,193,177 S,6,92569,93289,0.2968156,0
Sprite,Foreground,Centre,"sb\particle.png",0,0 F,0,92757,,0.66 C,0,92757,,245,218,66 P,0,92757,,A M,7,92757,93477,184,216,236,167 S,6,92757,93477,0.2789089,0
Sprite,Foreground,Centre,"sb\particle.png",0,0 F,0,92757,,0.66 C,0,92757,,245,218,66 P,0,92757,,A M,7,92757,93477,184,216,156,246 S,6,92757,93477,-0.2033891,0
Sprite,Foreground,Centre,"sb\particle.png",0,0 F,0,92757,,0.66 C,0,92757,,245,218,66 P,0,92757,,A M,7,92757,93477,184,216,193,254 S,6,92757,93477,-0.08911222,0
Sprite,Foreground,Centre,"sb\particle.png",0,0 F,0,92757,,0.66 C,0,92757,,245,218,66 P,0,92757,,A M,7,92757,93477,184,216,136,185 S,6,92757,93477,-0.1206566,0
Sprite,Foreground,Centre,"sb\particle.png",0,0 F,0,92757,,0.66 C,0,92757,,245,218,66 P,0,92757,,A M,7,92757,93477,184,216,201,167 S,6,92757,93477,-0.04982702,0
Sprite,Foreground,Centre,"sb\particle.png",0,0 F,0,92757,,0.66 C,0,92757,,245,218,66 P,0,92757,,A M,7,92757,93477,184,216,213,265 S,6,92757,93477,-0.2633333,0
Sprite,Foreground,Centre,"sb\particle.png",0,0 F,0,92757,,0.66 C,0,92757,,245,218,66 P,0,92757,,A M,7,92757,93477,184,216,235,182 S,6,92757,93477,0.4450521,0
Sprite,Foreground,Centre,"sb\particle.png",0,0 F,0,92757,,0.66 C,0,92757,,255,232,99 P,0,92757,,A M,7,92757,93477,184,216,192,209 S,6,92757,93477,0.07872371,0
Sprite,Foreground,Centre,"sb\particle.png",0,0 F,0,92757,,0.66 C,0,92757,,255,232,99 P,0,92757,,A M,7,92757,93477,184,216,221,206 S,6,92757,93477,0.1335516,0
Sprite,Foreground,Centre,"sb\particle.png",0,0 F,0,92757,,0.66 C,0,92757,,255,232,99 P,0,92757,,A M,7,92757,93477,184,216,135,180 S,6,92757,93477,0.2483266,0
Sprite,Foreground,Centre,"sb\particle.png",0,0 F,0,92757,,0.66 C,0,92757,,255,232,99 P,0,92757,,A M,7,92757,93477,184,216,218,207 S,6,92757,93477,0.3804102,0
Sprite,Foreground,Centre,"sb\particle.png",0,0 F,0,92757,,0.66 C,0,92757,,255,232,99 P,0,92757,,A M,7,92757,93477,184,216,194,227 S,6,92757,93477,0.1916592,0
Sprite,Foreground,Centre,"sb\particle.png",0,0 F,0,92757,,0.66 C,0,92757,,255,232,99 P,0,92757,,A M,7,92757,93477,184,216,217,251 S,6,92757,93477,0.3052248,0
Sprite,Foreground,Centre,"sb\particle.png",0,0 F,0,92757,,0.66 C,0,92757,,255,232,99 P,0,92757,,A M,7,92757,93477,184,216,180,197 S,6,92757,93477,0.2823734,0
Sprite,Foreground,Centre,"sb\particle.png",0,0 F,0,92757,,0.66 C,0,92757,,255,232,99 P,0,92757,,A M,7,92757,93477,184,216,177,180 S,6,92757,93477,0.01937863,0
Sprite,Foreground,Centre,"sb\particle.png",0,0 F,0,92757,,0.66 C,0,92757,,255,232,99 P,0,92757,,A M,7,92757,93477,184,216,217,190 S,6,92757,93477,0.02704255,0
Sprite,Foreground,Centre,"sb\particle.png",0,0 F,0,92757,,0.66 C,0,92757,,255,232,99 P,0,92757,,A M,7,92757,93477,184,216,163,247 S,6,92757,93477,-0.08189897,0
Sprite,Foreground,Centre,"sb\particle.png",0,0 F,0,93324,,0.66 C,0,93324,,245,218,66 P,0,93324,,A M,7,93324,94044,336,268,287,263 S,6,93324,94044,-0.226486,0
Sprite,Foreground,Centre,"sb\particle.png",0,0 F,0,93324,,0.66 C,0,93324,,245,218,66 P,0,93324,,A M,7,93324,94044,336,268,378,232 S,6,93324,94044,0.1310168,0
Sprite,Foreground,Centre,"sb\particle.png",0,0 F,0,93324,,0.66 C,0,93324,,245,218,66 P,0,93324,,A M,7,93324,94044,336,268,372,281 S,6,93324,94044,0.3327437,0
Sprite,Foreground,Centre,"sb\particle.png",0,0 F,0,93324,,0.66 C,0,93324,,245,218,66 P,0,93324,,A M,7,93324,94044,336,268,300,225 S,6,93324,94044,0.05812463,0
Sprite,Foreground,Centre,"sb\particle.png",0,0 F,0,93324,,0.66 C,0,93324,,245,218,66 P,0,93324,,A M,7,93324,94044,336,268,321,320 S,6,93324,94044,-0.2188672,0
Sprite,Foreground,Centre,"sb\particle.png",0,0 F,0,93324,,0.66 C,0,93324,,245,218,66 P,0,93324,,A M,7,93324,94044,336,268,385,282 S,6,93324,94044,-0.1605766,0
Sprite,Foreground,Centre,"sb\particle.png",0,0 F,0,93324,,0.66 C,0,93324,,245,218,66 P,0,93324,,A M,7,93324,94044,336,268,384,229 S,6,93324,94044,-0.07128723,0
Sprite,Foreground,Centre,"sb\particle.png",0,0 F,0,93324,,0.66 C,0,93324,,255,232,99 P,0,93324,,A M,7,93324,94044,336,268,322,286 S,6,93324,94044,0.4634699,0
Sprite,Foreground,Centre,"sb\particle.png",0,0 F,0,93324,,0.66 C,0,93324,,255,232,99 P,0,93324,,A M,7,93324,94044,336,268,327,297 S,6,93324,94044,-0.1313939,0
Sprite,Foreground,Centre,"sb\particle.png",0,0 F,0,93324,,0.66 C,0,93324,,255,232,99 P,0,93324,,A M,7,93324,94044,336,268,288,226 S,6,93324,94044,0.3153044,0
Sprite,Foreground,Centre,"sb\particle.png",0,0 F,0,93324,,0.66 C,0,93324,,255,232,99 P,0,93324,,A M,7,93324,94044,336,268,298,314 S,6,93324,94044,0.2737147,0
Sprite,Foreground,Centre,"sb\particle.png",0,0 F,0,93324,,0.66 C,0,93324,,255,232,99 P,0,93324,,A M,7,93324,94044,336,268,375,263 S,6,93324,94044,0.3685872,0
Sprite,Foreground,Centre,"sb\particle.png",0,0 F,0,93324,,0.66 C,0,93324,,255,232,99 P,0,93324,,A M,7,93324,94044,336,268,383,292 S,6,93324,94044,-0.08931759,0
Sprite,Foreground,Centre,"sb\particle.png",0,0 F,0,93324,,0.66 C,0,93324,,255,232,99 P,0,93324,,A M,7,93324,94044,336,268,326,283 S,6,93324,94044,0.2706307,0
Sprite,Foreground,Centre,"sb\particle.png",0,0 F,0,93324,,0.66 C,0,93324,,255,232,99 P,0,93324,,A M,7,93324,94044,336,268,331,319 S,6,93324,94044,-0.1664031,0
Sprite,Foreground,Centre,"sb\particle.png",0,0 F,0,93324,,0.66 C,0,93324,,255,232,99 P,0,93324,,A M,7,93324,94044,336,268,388,308 S,6,93324,94044,0.2419506,0
Sprite,Foreground,Centre,"sb\particle.png",0,0 F,0,93324,,0.66 C,0,93324,,255,232,99 P,0,93324,,A M,7,93324,94044,336,268,305,252 S,6,93324,94044,-0.2030931,0
Sprite,Foreground,Centre,"sb\particle.png",0,0 F,0,93701,,0.66 C,0,93701,,245,218,66 P,0,93701,,A M,7,93701,94421,420,208,433,156 S,6,93701,94421,0.242357,0
Sprite,Foreground,Centre,"sb\particle.png",0,0 F,0,93701,,0.66 C,0,93701,,245,218,66 P,0,93701,,A M,7,93701,94421,420,208,461,159 S,6,93701,94421,0.2428202,0
Sprite,Foreground,Centre,"sb\particle.png",0,0 F,0,93701,,0.66 C,0,93701,,245,218,66 P,0,93701,,A M,7,93701,94421,420,208,388,159 S,6,93701,94421,-0.04389977,0
Sprite,Foreground,Centre,"sb\particle.png",0,0 F,0,93701,,0.66 C,0,93701,,245,218,66 P,0,93701,,A M,7,93701,94421,420,208,419,253 S,6,93701,94421,-0.05342264,0
Sprite,Foreground,Centre,"sb\particle.png",0,0 F,0,93701,,0.66 C,0,93701,,245,218,66 P,0,93701,,A M,7,93701,94421,420,208,378,192 S,6,93701,94421,0.1475088,0
Sprite,Foreground,Centre,"sb\particle.png",0,0 F,0,93701,,0.66 C,0,93701,,245,218,66 P,0,93701,,A M,7,93701,94421,420,208,399,233 S,6,93701,94421,0.07819919,0
Sprite,Foreground,Centre,"sb\particle.png",0,0 F,0,93701,,0.66 C,0,93701,,245,218,66 P,0,93701,,A M,7,93701,94421,420,208,404,187 S,6,93701,94421,0.1118535,0
Sprite,Foreground,Centre,"sb\particle.png",0,0 F,0,93701,,0.66 C,0,93701,,255,232,99 P,0,93701,,A M,7,93701,94421,420,208,391,250 S,6,93701,94421,0.05131221,0
Sprite,Foreground,Centre,"sb\particle.png",0,0 F,0,93701,,0.66 C,0,93701,,255,232,99 P,0,93701,,A M,7,93701,94421,420,208,462,167 S,6,93701,94421,-0.01084485,0
Sprite,Foreground,Centre,"sb\particle.png",0,0 F,0,93701,,0.66 C,0,93701,,255,232,99 P,0,93701,,A M,7,93701,94421,420,208,405,165 S,6,93701,94421,0.2966551,0
Sprite,Foreground,Centre,"sb\particle.png",0,0 F,0,93701,,0.66 C,0,93701,,255,232,99 P,0,93701,,A M,7,93701,94421,420,208,453,226 S,6,93701,94421,-0.09272736,0
Sprite,Foreground,Centre,"sb\particle.png",0,0 F,0,93701,,0.66 C,0,93701,,255,232,99 P,0,93701,,A M,7,93701,94421,420,208,407,155 S,6,93701,94421,-0.008569212,0
Sprite,Foreground,Centre,"sb\particle.png",0,0 F,0,93701,,0.66 C,0,93701,,255,232,99 P,0,93701,,A M,7,93701,94421,420,208,408,228 S,6,93701,94421,0.4637151,0
Sprite,Foreground,Centre,"sb\particle.png",0,0 F,0,93701,,0.66 C,0,93701,,255,232,99 P,0,93701,,A M,7,93701,94421,420,208,453,187 S,6,93701,94421,0.04187941,0
Sprite,Foreground,Centre,"sb\particle.png",0,0 F,0,93701,,0.66 C,0,93701,,255,232,99 P,0,93701,,A M,7,93701,94421,420,208,405,160 S,6,93701,94421,0.4270312,0
Sprite,Foreground,Centre,"sb\particle.png",0,0 F,0,93701,,0.66 C,0,93701,,255,232,99 P,0,93701,,A M,7,93701,94421,420,208,431,236 S,6,93701,94421,0.01374735,0
Sprite,Foreground,Centre,"sb\particle.png",0,0 F,0,93701,,0.66 C,0,93701,,255,232,99 P,0,93701,,A M,7,93701,94421,420,208,432,156 S,6,93701,94421,0.3308603,0
Sprite,Foreground,Centre,"sb\particle.png",0,0 F,0,94457,,0.66 C,0,94457,,245,218,66 P,0,94457,,A M,7,94457,95177,320,60,357,17 S,6,94457,95177,-0.1269818,0
Sprite,Foreground,Centre,"sb\particle.png",0,0 F,0,94457,,0.66 C,0,94457,,245,218,66 P,0,94457,,A M,7,94457,95177,320,60,293,65 S,6,94457,95177,0.1499222,0
Sprite,Foreground,Centre,"sb\particle.png",0,0 F,0,94457,,0.66 C,0,94457,,245,218,66 P,0,94457,,A M,7,94457,95177,320,60,298,80 S,6,94457,95177,0.06629204,0
Sprite,Foreground,Centre,"sb\particle.png",0,0 F,0,94457,,0.66 C,0,94457,,245,218,66 P,0,94457,,A M,7,94457,95177,320,60,298,57 S,6,94457,95177,-0.2272886,0
Sprite,Foreground,Centre,"sb\particle.png",0,0 F,0,94457,,0.66 C,0,94457,,245,218,66 P,0,94457,,A M,7,94457,95177,320,60,373,42 S,6,94457,95177,0.3585673,0
Sprite,Foreground,Centre,"sb\particle.png",0,0 F,0,94457,,0.66 C,0,94457,,245,218,66 P,0,94457,,A M,7,94457,95177,320,60,284,59 S,6,94457,95177,0.263535,0
Sprite,Foreground,Centre,"sb\particle.png",0,0 F,0,94457,,0.66 C,0,94457,,245,218,66 P,0,94457,,A M,7,94457,95177,320,60,299,19 S,6,94457,95177,-0.2000787,0
Sprite,Foreground,Centre,"sb\particle.png",0,0 F,0,94457,,0.66 C,0,94457,,255,232,99 P,0,94457,,A M,7,94457,95177,320,60,298,62 S,6,94457,95177,0.08264898,0
Sprite,Foreground,Centre,"sb\particle.png",0,0 F,0,94457,,0.66 C,0,94457,,255,232,99 P,0,94457,,A M,7,94457,95177,320,60,371,41 S,6,94457,95177,0.2399214,0
Sprite,Foreground,Centre,"sb\particle.png",0,0 F,0,94457,,0.66 C,0,94457,,255,232,99 P,0,94457,,A M,7,94457,95177,320,60,291,82 S,6,94457,95177,0.1993114,0
Sprite,Foreground,Centre,"sb\particle.png",0,0 F,0,94457,,0.66 C,0,94457,,255,232,99 P,0,94457,,A M,7,94457,95177,320,60,294,25 S,6,94457,95177,-0.1584877,0
Sprite,Foreground,Centre,"sb\particle.png",0,0 F,0,94457,,0.66 C,0,94457,,255,232,99 P,0,94457,,A M,7,94457,95177,320,60,341,60 S,6,94457,95177,-0.2051175,0
Sprite,Foreground,Centre,"sb\particle.png",0,0 F,0,94457,,0.66 C,0,94457,,255,232,99 P,0,94457,,A M,7,94457,95177,320,60,370,55 S,6,94457,95177,-0.2425502,0
Sprite,Foreground,Centre,"sb\particle.png",0,0 F,0,94457,,0.66 C,0,94457,,255,232,99 P,0,94457,,A M,7,94457,95177,320,60,327,91 S,6,94457,95177,0.3264861,0
Sprite,Foreground,Centre,"sb\particle.png",0,0 F,0,94457,,0.66 C,0,94457,,255,232,99 P,0,94457,,A M,7,94457,95177,320,60,289,74 S,6,94457,95177,0.08614233,0
Sprite,Foreground,Centre,"sb\particle.png",0,0 F,0,94457,,0.66 C,0,94457,,255,232,99 P,0,94457,,A M,7,94457,95177,320,60,337,53 S,6,94457,95177,0.1392896,0
Sprite,Foreground,Centre,"sb\particle.png",0,0 F,0,94457,,0.66 C,0,94457,,255,232,99 P,0,94457,,A M,7,94457,95177,320,60,274,57 S,6,94457,95177,0.1647764,0
Sprite,Foreground,Centre,"sb\particle.png",0,0 F,0,94834,,0.66 C,0,94834,,245,218,66 P,0,94834,,A M,7,94834,95554,228,112,241,125 S,6,94834,95554,0.2988226,0
Sprite,Foreground,Centre,"sb\particle.png",0,0 F,0,94834,,0.66 C,0,94834,,245,218,66 P,0,94834,,A M,7,94834,95554,228,112,270,83 S,6,94834,95554,0.07339999,0
Sprite,Foreground,Centre,"sb\particle.png",0,0 F,0,94834,,0.66 C,0,94834,,245,218,66 P,0,94834,,A M,7,94834,95554,228,112,252,74 S,6,94834,95554,0.4850964,0
Sprite,Foreground,Centre,"sb\particle.png",0,0 F,0,94834,,0.66 C,0,94834,,245,218,66 P,0,94834,,A M,7,94834,95554,228,112,245,92 S,6,94834,95554,-0.2931832,0
Sprite,Foreground,Centre,"sb\particle.png",0,0 F,0,94834,,0.66 C,0,94834,,245,218,66 P,0,94834,,A M,7,94834,95554,228,112,195,99 S,6,94834,95554,0.2310623,0
Sprite,Foreground,Centre,"sb\particle.png",0,0 F,0,94834,,0.66 C,0,94834,,245,218,66 P,0,94834,,A M,7,94834,95554,228,112,250,117 S,6,94834,95554,0.2306582,0
Sprite,Foreground,Centre,"sb\particle.png",0,0 F,0,94834,,0.66 C,0,94834,,245,218,66 P,0,94834,,A M,7,94834,95554,228,112,256,132 S,6,94834,95554,-0.1331128,0
Sprite,Foreground,Centre,"sb\particle.png",0,0 F,0,94834,,0.66 C,0,94834,,255,232,99 P,0,94834,,A M,7,94834,95554,228,112,177,88 S,6,94834,95554,0.4405938,0
Sprite,Foreground,Centre,"sb\particle.png",0,0 F,0,94834,,0.66 C,0,94834,,255,232,99 P,0,94834,,A M,7,94834,95554,228,112,193,157 S,6,94834,95554,0.2446249,0
Sprite,Foreground,Centre,"sb\particle.png",0,0 F,0,94834,,0.66 C,0,94834,,255,232,99 P,0,94834,,A M,7,94834,95554,228,112,249,89 S,6,94834,95554,0.315115,0
Sprite,Foreground,Centre,"sb\particle.png",0,0 F,0,94834,,0.66 C,0,94834,,255,232,99 P,0,94834,,A M,7,94834,95554,228,112,226,76 S,6,94834,95554,-0.1232352,0
Sprite,Foreground,Centre,"sb\particle.png",0,0 F,0,94834,,0.66 C,0,94834,,255,232,99 P,0,94834,,A M,7,94834,95554,228,112,192,96 S,6,94834,95554,0.03297715,0
Sprite,Foreground,Centre,"sb\particle.png",0,0 F,0,94834,,0.66 C,0,94834,,255,232,99 P,0,94834,,A M,7,94834,95554,228,112,260,62 S,6,94834,95554,0.1440957,0
Sprite,Foreground,Centre,"sb\particle.png",0,0 F,0,94834,,0.66 C,0,94834,,255,232,99 P,0,94834,,A M,7,94834,95554,228,112,184,91 S,6,94834,95554,0.4998768,0
Sprite,Foreground,Centre,"sb\particle.png",0,0 F,0,94834,,0.66 C,0,94834,,255,232,99 P,0,94834,,A M,7,94834,95554,228,112,264,61 S,6,94834,95554,0.01268003,0
Sprite,Foreground,Centre,"sb\particle.png",0,0 F,0,94834,,0.66 C,0,94834,,255,232,99 P,0,94834,,A M,7,94834,95554,228,112,214,76 S,6,94834,95554,0.1738161,0
Sprite,Foreground,Centre,"sb\particle.png",0,0 F,0,94834,,0.66 C,0,94834,,255,232,99 P,0,94834,,A M,7,94834,95554,228,112,207,86 S,6,94834,95554,-0.0714206,0
Sprite,Foreground,Centre,"sb\particle.png",0,0 F,0,95212,,0.66 C,0,95212,,245,218,66 P,0,95212,,A M,7,95212,95932,120,92,71,106 S,6,95212,95932,0.250915,0
Sprite,Foreground,Centre,"sb\particle.png",0,0 F,0,95212,,0.66 C,0,95212,,245,218,66 P,0,95212,,A M,7,95212,95932,120,92,91,105 S,6,95212,95932,-0.1082982,0
Sprite,Foreground,Centre,"sb\particle.png",0,0 F,0,95212,,0.66 C,0,95212,,245,218,66 P,0,95212,,A M,7,95212,95932,120,92,142,61 S,6,95212,95932,0.3654616,0
Sprite,Foreground,Centre,"sb\particle.png",0,0 F,0,95212,,0.66 C,0,95212,,245,218,66 P,0,95212,,A M,7,95212,95932,120,92,104,73 S,6,95212,95932,0.09047462,0
Sprite,Foreground,Centre,"sb\particle.png",0,0 F,0,95212,,0.66 C,0,95212,,245,218,66 P,0,95212,,A M,7,95212,95932,120,92,103,76 S,6,95212,95932,-0.1678841,0
Sprite,Foreground,Centre,"sb\particle.png",0,0 F,0,95212,,0.66 C,0,95212,,245,218,66 P,0,95212,,A M,7,95212,95932,120,92,143,89 S,6,95212,95932,0.4468382,0
Sprite,Foreground,Centre,"sb\particle.png",0,0 F,0,95212,,0.66 C,0,95212,,245,218,66 P,0,95212,,A M,7,95212,95932,120,92,154,104 S,6,95212,95932,0.4471329,0
Sprite,Foreground,Centre,"sb\particle.png",0,0 F,0,95212,,0.66 C,0,95212,,255,232,99 P,0,95212,,A M,7,95212,95932,120,92,136,93 S,6,95212,95932,0.40235,0
Sprite,Foreground,Centre,"sb\particle.png",0,0 F,0,95212,,0.66 C,0,95212,,255,232,99 P,0,95212,,A M,7,95212,95932,120,92,130,42 S,6,95212,95932,-0.1902208,0
Sprite,Foreground,Centre,"sb\particle.png",0,0 F,0,95212,,0.66 C,0,95212,,255,232,99 P,0,95212,,A M,7,95212,95932,120,92,169,63 S,6,95212,95932,-0.1429671,0
Sprite,Foreground,Centre,"sb\particle.png",0,0 F,0,95212,,0.66 C,0,95212,,255,232,99 P,0,95212,,A M,7,95212,95932,120,92,149,42 S,6,95212,95932,-0.2095253,0
Sprite,Foreground,Centre,"sb\particle.png",0,0 F,0,95212,,0.66 C,0,95212,,255,232,99 P,0,95212,,A M,7,95212,95932,120,92,100,112 S,6,95212,95932,0.4102746,0
Sprite,Foreground,Centre,"sb\particle.png",0,0 F,0,95212,,0.66 C,0,95212,,255,232,99 P,0,95212,,A M,7,95212,95932,120,92,84,96 S,6,95212,95932,0.08456298,0
Sprite,Foreground,Centre,"sb\particle.png",0,0 F,0,95212,,0.66 C,0,95212,,255,232,99 P,0,95212,,A M,7,95212,95932,120,92,69,73 S,6,95212,95932,-0.1342268,0
Sprite,Foreground,Centre,"sb\particle.png",0,0 F,0,95212,,0.66 C,0,95212,,255,232,99 P,0,95212,,A M,7,95212,95932,120,92,160,132 S,6,95212,95932,0.2493342,0
Sprite,Foreground,Centre,"sb\particle.png",0,0 F,0,95212,,0.66 C,0,95212,,255,232,99 P,0,95212,,A M,7,95212,95932,120,92,103,55 S,6,95212,95932,0.01843465,0
Sprite,Foreground,Centre,"sb\particle.png",0,0 F,0,95212,,0.66 C,0,95212,,255,232,99 P,0,95212,,A M,7,95212,95932,120,92,146,63 S,6,95212,95932,0.2104203,0
Sprite,Foreground,Centre,"sb\particle.png",0,0 F,0,95589,,0.66 C,0,95589,,245,218,66 P,0,95589,,A M,7,95589,96309,84,196,91,187 S,6,95589,96309,0.173677,0
Sprite,Foreground,Centre,"sb\particle.png",0,0 F,0,95589,,0.66 C,0,95589,,245,218,66 P,0,95589,,A M,7,95589,96309,84,196,63,181 S,6,95589,96309,-0.06655823,0
Sprite,Foreground,Centre,"sb\particle.png",0,0 F,0,95589,,0.66 C,0,95589,,245,218,66 P,0,95589,,A M,7,95589,96309,84,196,91,176 S,6,95589,96309,-0.1637929,0
Sprite,Foreground,Centre,"sb\particle.png",0,0 F,0,95589,,0.66 C,0,95589,,245,218,66 P,0,95589,,A M,7,95589,96309,84,196,32,181 S,6,95589,96309,0.1920176,0
Sprite,Foreground,Centre,"sb\particle.png",0,0 F,0,95589,,0.66 C,0,95589,,245,218,66 P,0,95589,,A M,7,95589,96309,84,196,130,201 S,6,95589,96309,0.01505487,0
Sprite,Foreground,Centre,"sb\particle.png",0,0 F,0,95589,,0.66 C,0,95589,,245,218,66 P,0,95589,,A M,7,95589,96309,84,196,132,179 S,6,95589,96309,0.4801573,0
Sprite,Foreground,Centre,"sb\particle.png",0,0 F,0,95589,,0.66 C,0,95589,,245,218,66 P,0,95589,,A M,7,95589,96309,84,196,30,201 S,6,95589,96309,0.3222407,0
Sprite,Foreground,Centre,"sb\particle.png",0,0 F,0,95589,,0.66 C,0,95589,,255,232,99 P,0,95589,,A M,7,95589,96309,84,196,58,205 S,6,95589,96309,0.2078257,0
Sprite,Foreground,Centre,"sb\particle.png",0,0 F,0,95589,,0.66 C,0,95589,,255,232,99 P,0,95589,,A M,7,95589,96309,84,196,33,181 S,6,95589,96309,0.2252724,0
Sprite,Foreground,Centre,"sb\particle.png",0,0 F,0,95589,,0.66 C,0,95589,,255,232,99 P,0,95589,,A M,7,95589,96309,84,196,125,206 S,6,95589,96309,-0.2039698,0
Sprite,Foreground,Centre,"sb\particle.png",0,0 F,0,95589,,0.66 C,0,95589,,255,232,99 P,0,95589,,A M,7,95589,96309,84,196,80,188 S,6,95589,96309,0.1607382,0
Sprite,Foreground,Centre,"sb\particle.png",0,0 F,0,95589,,0.66 C,0,95589,,255,232,99 P,0,95589,,A M,7,95589,96309,84,196,48,177 S,6,95589,96309,0.2672121,0
Sprite,Foreground,Centre,"sb\particle.png",0,0 F,0,95589,,0.66 C,0,95589,,255,232,99 P,0,95589,,A M,7,95589,96309,84,196,33,169 S,6,95589,96309,0.3781179,0
Sprite,Foreground,Centre,"sb\particle.png",0,0 F,0,95589,,0.66 C,0,95589,,255,232,99 P,0,95589,,A M,7,95589,96309,84,196,44,218 S,6,95589,96309,0.4663916,0
Sprite,Foreground,Centre,"sb\particle.png",0,0 F,0,95589,,0.66 C,0,95589,,255,232,99 P,0,95589,,A M,7,95589,96309,84,196,78,225 S,6,95589,96309,-0.1413114,0
Sprite,Foreground,Centre,"sb\particle.png",0,0 F,0,95589,,0.66 C,0,95589,,255,232,99 P,0,95589,,A M,7,95589,96309,84,196,122,162 S,6,95589,96309,-0.05341971,0
Sprite,Foreground,Centre,"sb\particle.png",0,0 F,0,95589,,0.66 C,0,95589,,255,232,99 P,0,95589,,A M,7,95589,96309,84,196,109,166 S,6,95589,96309,-0.09312815,0
Sprite,Foreground,Centre,"sb\particle.png",0,0 F,0,95779,,0.66 C,0,95779,,245,218,66 P,0,95779,,A M,7,95779,96499,84,196,128,210 S,6,95779,96499,0.158733,0
Sprite,Foreground,Centre,"sb\particle.png",0,0 F,0,95779,,0.66 C,0,95779,,245,218,66 P,0,95779,,A M,7,95779,96499,84,196,38,194 S,6,95779,96499,0.09598739,0
Sprite,Foreground,Centre,"sb\particle.png",0,0 F,0,95779,,0.66 C,0,95779,,245,218,66 P,0,95779,,A M,7,95779,96499,84,196,79,155 S,6,95779,96499,0.03880726,0
Sprite,Foreground,Centre,"sb\particle.png",0,0 F,0,95779,,0.66 C,0,95779,,245,218,66 P,0,95779,,A M,7,95779,96499,84,196,96,225 S,6,95779,96499,0.340735,0
Sprite,Foreground,Centre,"sb\particle.png",0,0 F,0,95779,,0.66 C,0,95779,,245,218,66 P,0,95779,,A M,7,95779,96499,84,196,62,197 S,6,95779,96499,0.1158402,0
Sprite,Foreground,Centre,"sb\particle.png",0,0 F,0,95779,,0.66 C,0,95779,,245,218,66 P,0,95779,,A M,7,95779,96499,84,196,110,201 S,6,95779,96499,0.115027,0
Sprite,Foreground,Centre,"sb\particle.png",0,0 F,0,95779,,0.66 C,0,95779,,245,218,66 P,0,95779,,A M,7,95779,96499,84,196,54,241 S,6,95779,96499,0.3385202,0
Sprite,Foreground,Centre,"sb\particle.png",0,0 F,0,95779,,0.66 C,0,95779,,255,232,99 P,0,95779,,A M,7,95779,96499,84,196,125,220 S,6,95779,96499,0.1982424,0
Sprite,Foreground,Centre,"sb\particle.png",0,0 F,0,95779,,0.66 C,0,95779,,255,232,99 P,0,95779,,A M,7,95779,96499,84,196,130,222 S,6,95779,96499,0.2092115,0
Sprite,Foreground,Centre,"sb\particle.png",0,0 F,0,95779,,0.66 C,0,95779,,255,232,99 P,0,95779,,A M,7,95779,96499,84,196,67,213 S,6,95779,96499,-0.1152952,0
Sprite,Foreground,Centre,"sb\particle.png",0,0 F,0,95779,,0.66 C,0,95779,,255,232,99 P,0,95779,,A M,7,95779,96499,84,196,38,226 S,6,95779,96499,0.07083317,0
Sprite,Foreground,Centre,"sb\particle.png",0,0 F,0,95779,,0.66 C,0,95779,,255,232,99 P,0,95779,,A M,7,95779,96499,84,196,113,145 S,6,95779,96499,-0.2936036,0
Sprite,Foreground,Centre,"sb\particle.png",0,0 F,0,95779,,0.66 C,0,95779,,255,232,99 P,0,95779,,A M,7,95779,96499,84,196,87,225 S,6,95779,96499,0.3623395,0
Sprite,Foreground,Centre,"sb\particle.png",0,0 F,0,95779,,0.66 C,0,95779,,255,232,99 P,0,95779,,A M,7,95779,96499,84,196,104,191 S,6,95779,96499,-0.0276605,0
Sprite,Foreground,Centre,"sb\particle.png",0,0 F,0,95779,,0.66 C,0,95779,,255,232,99 P,0,95779,,A M,7,95779,96499,84,196,90,172 S,6,95779,96499,0.3486821,0
Sprite,Foreground,Centre,"sb\particle.png",0,0 F,0,95779,,0.66 C,0,95779,,255,232,99 P,0,95779,,A M,7,95779,96499,84,196,79,219 S,6,95779,96499,-0.2805543,0
Sprite,Foreground,Centre,"sb\particle.png",0,0 F,0,95779,,0.66 C,0,95779,,255,232,99 P,0,95779,,A M,7,95779,96499,84,196,122,187 S,6,95779,96499,0.1523376,0
Sprite,Foreground,Centre,"sb\particle.png",0,0 F,0,96345,,0.66 C,0,96345,,245,218,66 P,0,96345,,A M,7,96345,97065,144,344,178,350 S,6,96345,97065,0.3091399,0
Sprite,Foreground,Centre,"sb\particle.png",0,0 F,0,96345,,0.66 C,0,96345,,245,218,66 P,0,96345,,A M,7,96345,97065,144,344,92,335 S,6,96345,97065,0.1560301,0
Sprite,Foreground,Centre,"sb\particle.png",0,0 F,0,96345,,0.66 C,0,96345,,245,218,66 P,0,96345,,A M,7,96345,97065,144,344,114,368 S,6,96345,97065,-0.1631923,0
Sprite,Foreground,Centre,"sb\particle.png",0,0 F,0,96345,,0.66 C,0,96345,,245,218,66 P,0,96345,,A M,7,96345,97065,144,344,167,299 S,6,96345,97065,0.3000377,0
Sprite,Foreground,Centre,"sb\particle.png",0,0 F,0,96345,,0.66 C,0,96345,,245,218,66 P,0,96345,,A M,7,96345,97065,144,344,113,366 S,6,96345,97065,-0.2819099,0
Sprite,Foreground,Centre,"sb\particle.png",0,0 F,0,96345,,0.66 C,0,96345,,245,218,66 P,0,96345,,A M,7,96345,97065,144,344,185,311 S,6,96345,97065,-0.04289255,0
Sprite,Foreground,Centre,"sb\particle.png",0,0 F,0,96345,,0.66 C,0,96345,,245,218,66 P,0,96345,,A M,7,96345,97065,144,344,96,307 S,6,96345,97065,-0.2695329,0
Sprite,Foreground,Centre,"sb\particle.png",0,0 F,0,96345,,0.66 C,0,96345,,255,232,99 P,0,96345,,A M,7,96345,97065,144,344,128,314 S,6,96345,97065,0.2147011,0
Sprite,Foreground,Centre,"sb\particle.png",0,0 F,0,96345,,0.66 C,0,96345,,255,232,99 P,0,96345,,A M,7,96345,97065,144,344,145,374 S,6,96345,97065,-0.162017,0
Sprite,Foreground,Centre,"sb\particle.png",0,0 F,0,96345,,0.66 C,0,96345,,255,232,99 P,0,96345,,A M,7,96345,97065,144,344,94,325 S,6,96345,97065,0.05056552,0
Sprite,Foreground,Centre,"sb\particle.png",0,0 F,0,96345,,0.66 C,0,96345,,255,232,99 P,0,96345,,A M,7,96345,97065,144,344,138,360 S,6,96345,97065,0.3184444,0
Sprite,Foreground,Centre,"sb\particle.png",0,0 F,0,96345,,0.66 C,0,96345,,255,232,99 P,0,96345,,A M,7,96345,97065,144,344,176,352 S,6,96345,97065,0.4656783,0
Sprite,Foreground,Centre,"sb\particle.png",0,0 F,0,96345,,0.66 C,0,96345,,255,232,99 P,0,96345,,A M,7,96345,97065,144,344,108,362 S,6,96345,97065,0.3723054,0
Sprite,Foreground,Centre,"sb\particle.png",0,0 F,0,96345,,0.66 C,0,96345,,255,232,99 P,0,96345,,A M,7,96345,97065,144,344,101,393 S,6,96345,97065,0.05026162,0
Sprite,Foreground,Centre,"sb\particle.png",0,0 F,0,96345,,0.66 C,0,96345,,255,232,99 P,0,96345,,A M,7,96345,97065,144,344,104,366 S,6,96345,97065,0.2549483,0
Sprite,Foreground,Centre,"sb\particle.png",0,0 F,0,96345,,0.66 C,0,96345,,255,232,99 P,0,96345,,A M,7,96345,97065,144,344,146,319 S,6,96345,97065,0.07444593,0
Sprite,Foreground,Centre,"sb\particle.png",0,0 F,0,96345,,0.66 C,0,96345,,255,232,99 P,0,96345,,A M,7,96345,97065,144,344,174,361 S,6,96345,97065,-0.2578316,0
Sprite,Foreground,Centre,"sb\particle.png",0,0 F,0,96722,,0.66 C,0,96722,,245,218,66 P,0,96722,,A M,7,96722,97442,244,304,195,294 S,6,96722,97442,0.3772208,0
Sprite,Foreground,Centre,"sb\particle.png",0,0 F,0,96722,,0.66 C,0,96722,,245,218,66 P,0,96722,,A M,7,96722,97442,244,304,249,255 S,6,96722,97442,-0.05052787,0
Sprite,Foreground,Centre,"sb\particle.png",0,0 F,0,96722,,0.66 C,0,96722,,245,218,66 P,0,96722,,A M,7,96722,97442,244,304,273,256 S,6,96722,97442,-0.2439319,0
Sprite,Foreground,Centre,"sb\particle.png",0,0 F,0,96722,,0.66 C,0,96722,,245,218,66 P,0,96722,,A M,7,96722,97442,244,304,223,295 S,6,96722,97442,0.1132107,0
Sprite,Foreground,Centre,"sb\particle.png",0,0 F,0,96722,,0.66 C,0,96722,,245,218,66 P,0,96722,,A M,7,96722,97442,244,304,201,280 S,6,96722,97442,-0.004163156,0
Sprite,Foreground,Centre,"sb\particle.png",0,0 F,0,96722,,0.66 C,0,96722,,245,218,66 P,0,96722,,A M,7,96722,97442,244,304,207,256 S,6,96722,97442,-0.0900869,0
Sprite,Foreground,Centre,"sb\particle.png",0,0 F,0,96722,,0.66 C,0,96722,,245,218,66 P,0,96722,,A M,7,96722,97442,244,304,263,324 S,6,96722,97442,-0.2795034,0
Sprite,Foreground,Centre,"sb\particle.png",0,0 F,0,96722,,0.66 C,0,96722,,255,232,99 P,0,96722,,A M,7,96722,97442,244,304,240,345 S,6,96722,97442,0.4493687,0
Sprite,Foreground,Centre,"sb\particle.png",0,0 F,0,96722,,0.66 C,0,96722,,255,232,99 P,0,96722,,A M,7,96722,97442,244,304,208,301 S,6,96722,97442,-0.2028882,0
Sprite,Foreground,Centre,"sb\particle.png",0,0 F,0,96722,,0.66 C,0,96722,,255,232,99 P,0,96722,,A M,7,96722,97442,244,304,202,302 S,6,96722,97442,0.1540167,0
Sprite,Foreground,Centre,"sb\particle.png",0,0 F,0,96722,,0.66 C,0,96722,,255,232,99 P,0,96722,,A M,7,96722,97442,244,304,248,340 S,6,96722,97442,-0.04168901,0
Sprite,Foreground,Centre,"sb\particle.png",0,0 F,0,96722,,0.66 C,0,96722,,255,232,99 P,0,96722,,A M,7,96722,97442,244,304,221,265 S,6,96722,97442,-0.2621048,0
Sprite,Foreground,Centre,"sb\particle.png",0,0 F,0,96722,,0.66 C,0,96722,,255,232,99 P,0,96722,,A M,7,96722,97442,244,304,229,327 S,6,96722,97442,0.3606908,0
Sprite,Foreground,Centre,"sb\particle.png",0,0 F,0,96722,,0.66 C,0,96722,,255,232,99 P,0,96722,,A M,7,96722,97442,244,304,234,313 S,6,96722,97442,-0.1739663,0
Sprite,Foreground,Centre,"sb\particle.png",0,0 F,0,96722,,0.66 C,0,96722,,255,232,99 P,0,96722,,A M,7,96722,97442,244,304,223,279 S,6,96722,97442,-0.2253493,0
Sprite,Foreground,Centre,"sb\particle.png",0,0 F,0,96722,,0.66 C,0,96722,,255,232,99 P,0,96722,,A M,7,96722,97442,244,304,192,309 S,6,96722,97442,0.1689287,0
Sprite,Foreground,Centre,"sb\particle.png",0,0 F,0,96722,,0.66 C,0,96722,,255,232,99 P,0,96722,,A M,7,96722,97442,244,304,201,321 S,6,96722,97442,-0.1849227,0
Sprite,Foreground,Centre,"sb\particle.png",0,0 F,0,97478,,0.66 C,0,97478,,245,218,66 P,0,97478,,A M,7,97478,98198,436,400,452,446 S,6,97478,98198,0.168492,0
Sprite,Foreground,Centre,"sb\particle.png",0,0 F,0,97478,,0.66 C,0,97478,,245,218,66 P,0,97478,,A M,7,97478,98198,436,400,437,379 S,6,97478,98198,0.459194,0
Sprite,Foreground,Centre,"sb\particle.png",0,0 F,0,97478,,0.66 C,0,97478,,245,218,66 P,0,97478,,A M,7,97478,98198,436,400,442,394 S,6,97478,98198,0.3017759,0
Sprite,Foreground,Centre,"sb\particle.png",0,0 F,0,97478,,0.66 C,0,97478,,245,218,66 P,0,97478,,A M,7,97478,98198,436,400,383,425 S,6,97478,98198,0.476651,0
Sprite,Foreground,Centre,"sb\particle.png",0,0 F,0,97478,,0.66 C,0,97478,,245,218,66 P,0,97478,,A M,7,97478,98198,436,400,450,350 S,6,97478,98198,-0.05608766,0
Sprite,Foreground,Centre,"sb\particle.png",0,0 F,0,97478,,0.66 C,0,97478,,245,218,66 P,0,97478,,A M,7,97478,98198,436,400,401,401 S,6,97478,98198,-0.01118581,0
Sprite,Foreground,Centre,"sb\particle.png",0,0 F,0,97478,,0.66 C,0,97478,,245,218,66 P,0,97478,,A M,7,97478,98198,436,400,388,383 S,6,97478,98198,-0.299201,0
Sprite,Foreground,Centre,"sb\particle.png",0,0 F,0,97478,,0.66 C,0,97478,,255,232,99 P,0,97478,,A M,7,97478,98198,436,400,473,450 S,6,97478,98198,0.2745147,0
Sprite,Foreground,Centre,"sb\particle.png",0,0 F,0,97478,,0.66 C,0,97478,,255,232,99 P,0,97478,,A M,7,97478,98198,436,400,383,421 S,6,97478,98198,-0.2887936,0
Sprite,Foreground,Centre,"sb\particle.png",0,0 F,0,97478,,0.66 C,0,97478,,255,232,99 P,0,97478,,A M,7,97478,98198,436,400,453,349 S,6,97478,98198,-0.1246296,0
Sprite,Foreground,Centre,"sb\particle.png",0,0 F,0,97478,,0.66 C,0,97478,,255,232,99 P,0,97478,,A M,7,97478,98198,436,400,394,400 S,6,97478,98198,0.3257015,0
Sprite,Foreground,Centre,"sb\particle.png",0,0 F,0,97478,,0.66 C,0,97478,,255,232,99 P,0,97478,,A M,7,97478,98198,436,400,415,451 S,6,97478,98198,0.4747176,0
Sprite,Foreground,Centre,"sb\particle.png",0,0 F,0,97478,,0.66 C,0,97478,,255,232,99 P,0,97478,,A M,7,97478,98198,436,400,425,411 S,6,97478,98198,-0.06418207,0
Sprite,Foreground,Centre,"sb\particle.png",0,0 F,0,97478,,0.66 C,0,97478,,255,232,99 P,0,97478,,A M,7,97478,98198,436,400,387,391 S,6,97478,98198,0.2777594,0
Sprite,Foreground,Centre,"sb\particle.png",0,0 F,0,97478,,0.66 C,0,97478,,255,232,99 P,0,97478,,A M,7,97478,98198,436,400,425,347 S,6,97478,98198,0.308183,0
Sprite,Foreground,Centre,"sb\particle.png",0,0 F,0,97478,,0.66 C,0,97478,,255,232,99 P,0,97478,,A M,7,97478,98198,436,400,397,347 S,6,97478,98198,0.3395607,0
Sprite,Foreground,Centre,"sb\particle.png",0,0 F,0,97478,,0.66 C,0,97478,,255,232,99 P,0,97478,,A M,7,97478,98198,436,400,445,390 S,6,97478,98198,0.4494292,0
Sprite,Foreground,Centre,"sb\particle.png",0,0 F,0,97855,,0.66 C,0,97855,,245,218,66 P,0,97855,,A M,7,97855,98575,528,348,532,363 S,6,97855,98575,0.2766436,0
Sprite,Foreground,Centre,"sb\particle.png",0,0 F,0,97855,,0.66 C,0,97855,,245,218,66 P,0,97855,,A M,7,97855,98575,528,348,579,301 S,6,97855,98575,0.3012806,0
Sprite,Foreground,Centre,"sb\particle.png",0,0 F,0,97855,,0.66 C,0,97855,,245,218,66 P,0,97855,,A M,7,97855,98575,528,348,530,352 S,6,97855,98575,-0.1130029,0
Sprite,Foreground,Centre,"sb\particle.png",0,0 F,0,97855,,0.66 C,0,97855,,245,218,66 P,0,97855,,A M,7,97855,98575,528,348,495,372 S,6,97855,98575,-0.2585742,0
Sprite,Foreground,Centre,"sb\particle.png",0,0 F,0,97855,,0.66 C,0,97855,,245,218,66 P,0,97855,,A M,7,97855,98575,528,348,484,371 S,6,97855,98575,0.01376081,0
Sprite,Foreground,Centre,"sb\particle.png",0,0 F,0,97855,,0.66 C,0,97855,,245,218,66 P,0,97855,,A M,7,97855,98575,528,348,507,354 S,6,97855,98575,0.4055248,0
Sprite,Foreground,Centre,"sb\particle.png",0,0 F,0,97855,,0.66 C,0,97855,,245,218,66 P,0,97855,,A M,7,97855,98575,528,348,544,325 S,6,97855,98575,-0.2267543,0
Sprite,Foreground,Centre,"sb\particle.png",0,0 F,0,97855,,0.66 C,0,97855,,255,232,99 P,0,97855,,A M,7,97855,98575,528,348,581,303 S,6,97855,98575,-0.008306422,0
Sprite,Foreground,Centre,"sb\particle.png",0,0 F,0,97855,,0.66 C,0,97855,,255,232,99 P,0,97855,,A M,7,97855,98575,528,348,496,323 S,6,97855,98575,-0.1817055,0
Sprite,Foreground,Centre,"sb\particle.png",0,0 F,0,97855,,0.66 C,0,97855,,255,232,99 P,0,97855,,A M,7,97855,98575,528,348,514,323 S,6,97855,98575,0.0955237,0
Sprite,Foreground,Centre,"sb\particle.png",0,0 F,0,97855,,0.66 C,0,97855,,255,232,99 P,0,97855,,A M,7,97855,98575,528,348,509,369 S,6,97855,98575,0.2476141,0
Sprite,Foreground,Centre,"sb\particle.png",0,0 F,0,97855,,0.66 C,0,97855,,255,232,99 P,0,97855,,A M,7,97855,98575,528,348,508,344 S,6,97855,98575,0.1090917,0
Sprite,Foreground,Centre,"sb\particle.png",0,0 F,0,97855,,0.66 C,0,97855,,255,232,99 P,0,97855,,A M,7,97855,98575,528,348,526,337 S,6,97855,98575,-0.1353049,0
Sprite,Foreground,Centre,"sb\particle.png",0,0 F,0,97855,,0.66 C,0,97855,,255,232,99 P,0,97855,,A M,7,97855,98575,528,348,479,320 S,6,97855,98575,0.3005176,0
Sprite,Foreground,Centre,"sb\particle.png",0,0 F,0,97855,,0.66 C,0,97855,,255,232,99 P,0,97855,,A M,7,97855,98575,528,348,526,337 S,6,97855,98575,-0.06231954,0
Sprite,Foreground,Centre,"sb\particle.png",0,0 F,0,97855,,0.66 C,0,97855,,255,232,99 P,0,97855,,A M,7,97855,98575,528,348,565,311 S,6,97855,98575,0.1382986,0
Sprite,Foreground,Centre,"sb\particle.png",0,0 F,0,97855,,0.66 C,0,97855,,255,232,99 P,0,97855,,A M,7,97855,98575,528,348,550,304 S,6,97855,98575,0.1339311,0
Sprite,Foreground,Centre,"sb\particle.png",0,0 F,0,98233,,0.66 C,0,98233,,245,218,66 P,0,98233,,A M,7,98233,98953,500,240,486,205 S,6,98233,98953,0.4696425,0
Sprite,Foreground,Centre,"sb\particle.png",0,0 F,0,98233,,0.66 C,0,98233,,245,218,66 P,0,98233,,A M,7,98233,98953,500,240,533,224 S,6,98233,98953,0.1459021,0
Sprite,Foreground,Centre,"sb\particle.png",0,0 F,0,98233,,0.66 C,0,98233,,245,218,66 P,0,98233,,A M,7,98233,98953,500,240,528,187 S,6,98233,98953,-0.03792603,0
Sprite,Foreground,Centre,"sb\particle.png",0,0 F,0,98233,,0.66 C,0,98233,,245,218,66 P,0,98233,,A M,7,98233,98953,500,240,537,280 S,6,98233,98953,0.1509089,0
Sprite,Foreground,Centre,"sb\particle.png",0,0 F,0,98233,,0.66 C,0,98233,,245,218,66 P,0,98233,,A M,7,98233,98953,500,240,460,252 S,6,98233,98953,0.2527665,0
Sprite,Foreground,Centre,"sb\particle.png",0,0 F,0,98233,,0.66 C,0,98233,,245,218,66 P,0,98233,,A M,7,98233,98953,500,240,522,250 S,6,98233,98953,0.03468241,0
Sprite,Foreground,Centre,"sb\particle.png",0,0 F,0,98233,,0.66 C,0,98233,,245,218,66 P,0,98233,,A M,7,98233,98953,500,240,470,198 S,6,98233,98953,-0.06551798,0
Sprite,Foreground,Centre,"sb\particle.png",0,0 F,0,98233,,0.66 C,0,98233,,255,232,99 P,0,98233,,A M,7,98233,98953,500,240,526,251 S,6,98233,98953,0.3769275,0
Sprite,Foreground,Centre,"sb\particle.png",0,0 F,0,98233,,0.66 C,0,98233,,255,232,99 P,0,98233,,A M,7,98233,98953,500,240,481,195 S,6,98233,98953,0.3201284,0
Sprite,Foreground,Centre,"sb\particle.png",0,0 F,0,98233,,0.66 C,0,98233,,255,232,99 P,0,98233,,A M,7,98233,98953,500,240,509,241 S,6,98233,98953,0.1944442,0
Sprite,Foreground,Centre,"sb\particle.png",0,0 F,0,98233,,0.66 C,0,98233,,255,232,99 P,0,98233,,A M,7,98233,98953,500,240,481,200 S,6,98233,98953,0.1211199,0
Sprite,Foreground,Centre,"sb\particle.png",0,0 F,0,98233,,0.66 C,0,98233,,255,232,99 P,0,98233,,A M,7,98233,98953,500,240,488,286 S,6,98233,98953,-0.2727266,0
Sprite,Foreground,Centre,"sb\particle.png",0,0 F,0,98233,,0.66 C,0,98233,,255,232,99 P,0,98233,,A M,7,98233,98953,500,240,491,202 S,6,98233,98953,0.2078658,0
Sprite,Foreground,Centre,"sb\particle.png",0,0 F,0,98233,,0.66 C,0,98233,,255,232,99 P,0,98233,,A M,7,98233,98953,500,240,519,290 S,6,98233,98953,-0.176583,0
Sprite,Foreground,Centre,"sb\particle.png",0,0 F,0,98233,,0.66 C,0,98233,,255,232,99 P,0,98233,,A M,7,98233,98953,500,240,536,289 S,6,98233,98953,0.1717644,0
Sprite,Foreground,Centre,"sb\particle.png",0,0 F,0,98233,,0.66 C,0,98233,,255,232,99 P,0,98233,,A M,7,98233,98953,500,240,472,236 S,6,98233,98953,0.2043034,0
Sprite,Foreground,Centre,"sb\particle.png",0,0 F,0,98233,,0.66 C,0,98233,,255,232,99 P,0,98233,,A M,7,98233,98953,500,240,501,204 S,6,98233,98953,-0.1177825,0
Sprite,Foreground,Centre,"sb\particle.png",0,0 F,0,98610,,0.66 C,0,98610,,245,218,66 P,0,98610,,A M,7,98610,99330,400,192,452,155 S,6,98610,99330,0.3486858,0
Sprite,Foreground,Centre,"sb\particle.png",0,0 F,0,98610,,0.66 C,0,98610,,245,218,66 P,0,98610,,A M,7,98610,99330,400,192,356,169 S,6,98610,99330,0.4564646,0
Sprite,Foreground,Centre,"sb\particle.png",0,0 F,0,98610,,0.66 C,0,98610,,245,218,66 P,0,98610,,A M,7,98610,99330,400,192,433,190 S,6,98610,99330,0.2300327,0
Sprite,Foreground,Centre,"sb\particle.png",0,0 F,0,98610,,0.66 C,0,98610,,245,218,66 P,0,98610,,A M,7,98610,99330,400,192,430,145 S,6,98610,99330,-0.2792294,0
Sprite,Foreground,Centre,"sb\particle.png",0,0 F,0,98610,,0.66 C,0,98610,,245,218,66 P,0,98610,,A M,7,98610,99330,400,192,367,184 S,6,98610,99330,-0.1868188,0
Sprite,Foreground,Centre,"sb\particle.png",0,0 F,0,98610,,0.66 C,0,98610,,245,218,66 P,0,98610,,A M,7,98610,99330,400,192,368,157 S,6,98610,99330,-0.1786962,0
Sprite,Foreground,Centre,"sb\particle.png",0,0 F,0,98610,,0.66 C,0,98610,,245,218,66 P,0,98610,,A M,7,98610,99330,400,192,390,233 S,6,98610,99330,-0.05722069,0
Sprite,Foreground,Centre,"sb\particle.png",0,0 F,0,98610,,0.66 C,0,98610,,255,232,99 P,0,98610,,A M,7,98610,99330,400,192,434,213 S,6,98610,99330,0.4277644,0
Sprite,Foreground,Centre,"sb\particle.png",0,0 F,0,98610,,0.66 C,0,98610,,255,232,99 P,0,98610,,A M,7,98610,99330,400,192,361,155 S,6,98610,99330,0.3038516,0
Sprite,Foreground,Centre,"sb\particle.png",0,0 F,0,98610,,0.66 C,0,98610,,255,232,99 P,0,98610,,A M,7,98610,99330,400,192,383,180 S,6,98610,99330,0.2357244,0
Sprite,Foreground,Centre,"sb\particle.png",0,0 F,0,98610,,0.66 C,0,98610,,255,232,99 P,0,98610,,A M,7,98610,99330,400,192,440,187 S,6,98610,99330,0.1897578,0
Sprite,Foreground,Centre,"sb\particle.png",0,0 F,0,98610,,0.66 C,0,98610,,255,232,99 P,0,98610,,A M,7,98610,99330,400,192,404,164 S,6,98610,99330,-0.1473355,0
Sprite,Foreground,Centre,"sb\particle.png",0,0 F,0,98610,,0.66 C,0,98610,,255,232,99 P,0,98610,,A M,7,98610,99330,400,192,399,161 S,6,98610,99330,-0.2546149,0
Sprite,Foreground,Centre,"sb\particle.png",0,0 F,0,98610,,0.66 C,0,98610,,255,232,99 P,0,98610,,A M,7,98610,99330,400,192,363,208 S,6,98610,99330,-0.2137321,0
Sprite,Foreground,Centre,"sb\particle.png",0,0 F,0,98610,,0.66 C,0,98610,,255,232,99 P,0,98610,,A M,7,98610,99330,400,192,391,180 S,6,98610,99330,0.203264,0
Sprite,Foreground,Centre,"sb\particle.png",0,0 F,0,98610,,0.66 C,0,98610,,255,232,99 P,0,98610,,A M,7,98610,99330,400,192,445,171 S,6,98610,99330,-0.1621426,0
Sprite,Foreground,Centre,"sb\particle.png",0,0 F,0,98610,,0.66 C,0,98610,,255,232,99 P,0,98610,,A M,7,98610,99330,400,192,386,152 S,6,98610,99330,0.3387176,0
Sprite,Foreground,Centre,"sb\particle.png",0,0 F,0,98799,,0.66 C,0,98799,,245,218,66 P,0,98799,,A M,7,98799,99519,400,192,351,203 S,6,98799,99519,-0.08839787,0
Sprite,Foreground,Centre,"sb\particle.png",0,0 F,0,98799,,0.66 C,0,98799,,245,218,66 P,0,98799,,A M,7,98799,99519,400,192,385,215 S,6,98799,99519,-0.01495385,0
Sprite,Foreground,Centre,"sb\particle.png",0,0 F,0,98799,,0.66 C,0,98799,,245,218,66 P,0,98799,,A M,7,98799,99519,400,192,380,242 S,6,98799,99519,0.4833186,0
Sprite,Foreground,Centre,"sb\particle.png",0,0 F,0,98799,,0.66 C,0,98799,,245,218,66 P,0,98799,,A M,7,98799,99519,400,192,450,199 S,6,98799,99519,0.1886825,0
Sprite,Foreground,Centre,"sb\particle.png",0,0 F,0,98799,,0.66 C,0,98799,,245,218,66 P,0,98799,,A M,7,98799,99519,400,192,369,231 S,6,98799,99519,-0.2306027,0
Sprite,Foreground,Centre,"sb\particle.png",0,0 F,0,98799,,0.66 C,0,98799,,245,218,66 P,0,98799,,A M,7,98799,99519,400,192,446,160 S,6,98799,99519,0.1975587,0
Sprite,Foreground,Centre,"sb\particle.png",0,0 F,0,98799,,0.66 C,0,98799,,245,218,66 P,0,98799,,A M,7,98799,99519,400,192,346,165 S,6,98799,99519,0.397251,0
Sprite,Foreground,Centre,"sb\particle.png",0,0 F,0,98799,,0.66 C,0,98799,,255,232,99 P,0,98799,,A M,7,98799,99519,400,192,385,221 S,6,98799,99519,-0.03852186,0
Sprite,Foreground,Centre,"sb\particle.png",0,0 F,0,98799,,0.66 C,0,98799,,255,232,99 P,0,98799,,A M,7,98799,99519,400,192,384,223 S,6,98799,99519,0.0357749,0
Sprite,Foreground,Centre,"sb\particle.png",0,0 F,0,98799,,0.66 C,0,98799,,255,232,99 P,0,98799,,A M,7,98799,99519,400,192,397,244 S,6,98799,99519,0.190687,0
Sprite,Foreground,Centre,"sb\particle.png",0,0 F,0,98799,,0.66 C,0,98799,,255,232,99 P,0,98799,,A M,7,98799,99519,400,192,409,161 S,6,98799,99519,-0.1182178,0
Sprite,Foreground,Centre,"sb\particle.png",0,0 F,0,98799,,0.66 C,0,98799,,255,232,99 P,0,98799,,A M,7,98799,99519,400,192,420,156 S,6,98799,99519,-0.1441675,0
Sprite,Foreground,Centre,"sb\particle.png",0,0 F,0,98799,,0.66 C,0,98799,,255,232,99 P,0,98799,,A M,7,98799,99519,400,192,359,241 S,6,98799,99519,0.05859789,0
Sprite,Foreground,Centre,"sb\particle.png",0,0 F,0,98799,,0.66 C,0,98799,,255,232,99 P,0,98799,,A M,7,98799,99519,400,192,428,182 S,6,98799,99519,0.370041,0
Sprite,Foreground,Centre,"sb\particle.png",0,0 F,0,98799,,0.66 C,0,98799,,255,232,99 P,0,98799,,A M,7,98799,99519,400,192,372,164 S,6,98799,99519,-0.203132,0
Sprite,Foreground,Centre,"sb\particle.png",0,0 F,0,98799,,0.66 C,0,98799,,255,232,99 P,0,98799,,A M,7,98799,99519,400,192,446,237 S,6,98799,99519,0.2517005,0
Sprite,Foreground,Centre,"sb\particle.png",0,0 F,0,98799,,0.66 C,0,98799,,255,232,99 P,0,98799,,A M,7,98799,99519,400,192,388,168 S,6,98799,99519,0.4975129,0
Sprite,Foreground,Centre,"sb\particle.png",0,0 F,0,99366,,0.66 C,0,99366,,245,218,66 P,0,99366,,A M,7,99366,100086,276,184,319,176 S,6,99366,100086,0.4913135,0
Sprite,Foreground,Centre,"sb\particle.png",0,0 F,0,99366,,0.66 C,0,99366,,245,218,66 P,0,99366,,A M,7,99366,100086,276,184,233,139 S,6,99366,100086,0.4979955,0
Sprite,Foreground,Centre,"sb\particle.png",0,0 F,0,99366,,0.66 C,0,99366,,245,218,66 P,0,99366,,A M,7,99366,100086,276,184,290,199 S,6,99366,100086,0.4396868,0
Sprite,Foreground,Centre,"sb\particle.png",0,0 F,0,99366,,0.66 C,0,99366,,245,218,66 P,0,99366,,A M,7,99366,100086,276,184,303,236 S,6,99366,100086,0.4439136,0
Sprite,Foreground,Centre,"sb\particle.png",0,0 F,0,99366,,0.66 C,0,99366,,245,218,66 P,0,99366,,A M,7,99366,100086,276,184,309,233 S,6,99366,100086,0.4318039,0
Sprite,Foreground,Centre,"sb\particle.png",0,0 F,0,99366,,0.66 C,0,99366,,245,218,66 P,0,99366,,A M,7,99366,100086,276,184,281,199 S,6,99366,100086,0.1250505,0
Sprite,Foreground,Centre,"sb\particle.png",0,0 F,0,99366,,0.66 C,0,99366,,245,218,66 P,0,99366,,A M,7,99366,100086,276,184,224,228 S,6,99366,100086,-0.08332626,0
Sprite,Foreground,Centre,"sb\particle.png",0,0 F,0,99366,,0.66 C,0,99366,,255,232,99 P,0,99366,,A M,7,99366,100086,276,184,240,205 S,6,99366,100086,0.4758327,0
Sprite,Foreground,Centre,"sb\particle.png",0,0 F,0,99366,,0.66 C,0,99366,,255,232,99 P,0,99366,,A M,7,99366,100086,276,184,296,210 S,6,99366,100086,0.303616,0
Sprite,Foreground,Centre,"sb\particle.png",0,0 F,0,99366,,0.66 C,0,99366,,255,232,99 P,0,99366,,A M,7,99366,100086,276,184,323,181 S,6,99366,100086,-0.2080395,0
Sprite,Foreground,Centre,"sb\particle.png",0,0 F,0,99366,,0.66 C,0,99366,,255,232,99 P,0,99366,,A M,7,99366,100086,276,184,304,162 S,6,99366,100086,-0.1883643,0
Sprite,Foreground,Centre,"sb\particle.png",0,0 F,0,99366,,0.66 C,0,99366,,255,232,99 P,0,99366,,A M,7,99366,100086,276,184,258,208 S,6,99366,100086,-0.2051239,0
Sprite,Foreground,Centre,"sb\particle.png",0,0 F,0,99366,,0.66 C,0,99366,,255,232,99 P,0,99366,,A M,7,99366,100086,276,184,320,178 S,6,99366,100086,0.08782248,0
Sprite,Foreground,Centre,"sb\particle.png",0,0 F,0,99366,,0.66 C,0,99366,,255,232,99 P,0,99366,,A M,7,99366,100086,276,184,239,192 S,6,99366,100086,-0.2903373,0
Sprite,Foreground,Centre,"sb\particle.png",0,0 F,0,99366,,0.66 C,0,99366,,255,232,99 P,0,99366,,A M,7,99366,100086,276,184,237,150 S,6,99366,100086,0.08267379,0
Sprite,Foreground,Centre,"sb\particle.png",0,0 F,0,99366,,0.66 C,0,99366,,255,232,99 P,0,99366,,A M,7,99366,100086,276,184,300,189 S,6,99366,100086,0.2815165,0
Sprite,Foreground,Centre,"sb\particle.png",0,0 F,0,99366,,0.66 C,0,99366,,255,232,99 P,0,99366,,A M,7,99366,100086,276,184,235,156 S,6,99366,100086,-0.05494699,0
Sprite,Foreground,Centre,"sb\particle.png",0,0 F,0,99743,,0.66 C,0,99743,,245,218,66 P,0,99743,,A M,7,99743,100463,304,84,345,68 S,6,99743,100463,0.06167682,0
Sprite,Foreground,Centre,"sb\particle.png",0,0 F,0,99743,,0.66 C,0,99743,,245,218,66 P,0,99743,,A M,7,99743,100463,304,84,356,34 S,6,99743,100463,0.3519531,0
Sprite,Foreground,Centre,"sb\particle.png",0,0 F,0,99743,,0.66 C,0,99743,,245,218,66 P,0,99743,,A M,7,99743,100463,304,84,254,101 S,6,99743,100463,0.3856308,0
Sprite,Foreground,Centre,"sb\particle.png",0,0 F,0,99743,,0.66 C,0,99743,,245,218,66 P,0,99743,,A M,7,99743,100463,304,84,338,84 S,6,99743,100463,-0.1478808,0
Sprite,Foreground,Centre,"sb\particle.png",0,0 F,0,99743,,0.66 C,0,99743,,245,218,66 P,0,99743,,A M,7,99743,100463,304,84,347,83 S,6,99743,100463,0.35472,0
Sprite,Foreground,Centre,"sb\particle.png",0,0 F,0,99743,,0.66 C,0,99743,,245,218,66 P,0,99743,,A M,7,99743,100463,304,84,347,114 S,6,99743,100463,-0.09085063,0
Sprite,Foreground,Centre,"sb\particle.png",0,0 F,0,99743,,0.66 C,0,99743,,245,218,66 P,0,99743,,A M,7,99743,100463,304,84,312,72 S,6,99743,100463,0.1635553,0
Sprite,Foreground,Centre,"sb\particle.png",0,0 F,0,99743,,0.66 C,0,99743,,255,232,99 P,0,99743,,A M,7,99743,100463,304,84,311,60 S,6,99743,100463,-0.1490748,0
Sprite,Foreground,Centre,"sb\particle.png",0,0 F,0,99743,,0.66 C,0,99743,,255,232,99 P,0,99743,,A M,7,99743,100463,304,84,310,62 S,6,99743,100463,-0.2710305,0
Sprite,Foreground,Centre,"sb\particle.png",0,0 F,0,99743,,0.66 C,0,99743,,255,232,99 P,0,99743,,A M,7,99743,100463,304,84,346,65 S,6,99743,100463,0.4809144,0
Sprite,Foreground,Centre,"sb\particle.png",0,0 F,0,99743,,0.66 C,0,99743,,255,232,99 P,0,99743,,A M,7,99743,100463,304,84,332,41 S,6,99743,100463,0.06867739,0
Sprite,Foreground,Centre,"sb\particle.png",0,0 F,0,99743,,0.66 C,0,99743,,255,232,99 P,0,99743,,A M,7,99743,100463,304,84,304,54 S,6,99743,100463,0.09775323,0
Sprite,Foreground,Centre,"sb\particle.png",0,0 F,0,99743,,0.66 C,0,99743,,255,232,99 P,0,99743,,A M,7,99743,100463,304,84,266,37 S,6,99743,100463,-0.04426616,0
Sprite,Foreground,Centre,"sb\particle.png",0,0 F,0,99743,,0.66 C,0,99743,,255,232,99 P,0,99743,,A M,7,99743,100463,304,84,355,90 S,6,99743,100463,0.4261192,0
Sprite,Foreground,Centre,"sb\particle.png",0,0 F,0,99743,,0.66 C,0,99743,,255,232,99 P,0,99743,,A M,7,99743,100463,304,84,338,131 S,6,99743,100463,0.286509,0
Sprite,Foreground,Centre,"sb\particle.png",0,0 F,0,99743,,0.66 C,0,99743,,255,232,99 P,0,99743,,A M,7,99743,100463,304,84,328,114 S,6,99743,100463,-0.04999584,0
Sprite,Foreground,Centre,"sb\particle.png",0,0 F,0,99743,,0.66 C,0,99743,,255,232,99 P,0,99743,,A M,7,99743,100463,304,84,341,43 S,6,99743,100463,-0.09707483,0
Sprite,Foreground,Centre,"sb\particle.png",0,0 F,0,100498,,0.66 C,0,100498,,245,218,66 P,0,100498,,A M,7,100498,101218,512,148,458,103 S,6,100498,101218,0.1209743,0
Sprite,Foreground,Centre,"sb\particle.png",0,0 F,0,100498,,0.66 C,0,100498,,245,218,66 P,0,100498,,A M,7,100498,101218,512,148,481,159 S,6,100498,101218,-0.1287953,0
Sprite,Foreground,Centre,"sb\particle.png",0,0 F,0,100498,,0.66 C,0,100498,,245,218,66 P,0,100498,,A M,7,100498,101218,512,148,473,135 S,6,100498,101218,-0.1019441,0
Sprite,Foreground,Centre,"sb\particle.png",0,0 F,0,100498,,0.66 C,0,100498,,245,218,66 P,0,100498,,A M,7,100498,101218,512,148,531,129 S,6,100498,101218,0.30659,0
Sprite,Foreground,Centre,"sb\particle.png",0,0 F,0,100498,,0.66 C,0,100498,,245,218,66 P,0,100498,,A M,7,100498,101218,512,148,467,161 S,6,100498,101218,0.1100629,0
Sprite,Foreground,Centre,"sb\particle.png",0,0 F,0,100498,,0.66 C,0,100498,,245,218,66 P,0,100498,,A M,7,100498,101218,512,148,554,107 S,6,100498,101218,-0.2914134,0
Sprite,Foreground,Centre,"sb\particle.png",0,0 F,0,100498,,0.66 C,0,100498,,245,218,66 P,0,100498,,A M,7,100498,101218,512,148,492,161 S,6,100498,101218,0.4299712,0
Sprite,Foreground,Centre,"sb\particle.png",0,0 F,0,100498,,0.66 C,0,100498,,255,232,99 P,0,100498,,A M,7,100498,101218,512,148,468,165 S,6,100498,101218,0.4321019,0
Sprite,Foreground,Centre,"sb\particle.png",0,0 F,0,100498,,0.66 C,0,100498,,255,232,99 P,0,100498,,A M,7,100498,101218,512,148,478,187 S,6,100498,101218,0.2545598,0
Sprite,Foreground,Centre,"sb\particle.png",0,0 F,0,100498,,0.66 C,0,100498,,255,232,99 P,0,100498,,A M,7,100498,101218,512,148,494,121 S,6,100498,101218,0.3565704,0
Sprite,Foreground,Centre,"sb\particle.png",0,0 F,0,100498,,0.66 C,0,100498,,255,232,99 P,0,100498,,A M,7,100498,101218,512,148,502,149 S,6,100498,101218,0.2030576,0
Sprite,Foreground,Centre,"sb\particle.png",0,0 F,0,100498,,0.66 C,0,100498,,255,232,99 P,0,100498,,A M,7,100498,101218,512,148,468,101 S,6,100498,101218,0.1731104,0
Sprite,Foreground,Centre,"sb\particle.png",0,0 F,0,100498,,0.66 C,0,100498,,255,232,99 P,0,100498,,A M,7,100498,101218,512,148,529,149 S,6,100498,101218,-0.1884288,0
Sprite,Foreground,Centre,"sb\particle.png",0,0 F,0,100498,,0.66 C,0,100498,,255,232,99 P,0,100498,,A M,7,100498,101218,512,148,469,118 S,6,100498,101218,-0.1285652,0
Sprite,Foreground,Centre,"sb\particle.png",0,0 F,0,100498,,0.66 C,0,100498,,255,232,99 P,0,100498,,A M,7,100498,101218,512,148,503,196 S,6,100498,101218,-0.1193171,0
Sprite,Foreground,Centre,"sb\particle.png",0,0 F,0,100498,,0.66 C,0,100498,,255,232,99 P,0,100498,,A M,7,100498,101218,512,148,494,133 S,6,100498,101218,0.4319259,0
Sprite,Foreground,Centre,"sb\particle.png",0,0 F,0,100498,,0.66 C,0,100498,,255,232,99 P,0,100498,,A M,7,100498,101218,512,148,532,95 S,6,100498,101218,-0.2836589,0
Sprite,Foreground,Centre,"sb\particle.png",0,0 F,0,100876,,0.66 C,0,100876,,245,218,66 P,0,100876,,A M,7,100876,101596,468,236,462,182 S,6,100876,101596,0.4913961,0
Sprite,Foreground,Centre,"sb\particle.png",0,0 F,0,100876,,0.66 C,0,100876,,245,218,66 P,0,100876,,A M,7,100876,101596,468,236,447,288 S,6,100876,101596,0.4500196,0
Sprite,Foreground,Centre,"sb\particle.png",0,0 F,0,100876,,0.66 C,0,100876,,245,218,66 P,0,100876,,A M,7,100876,101596,468,236,487,194 S,6,100876,101596,0.06349584,0
Sprite,Foreground,Centre,"sb\particle.png",0,0 F,0,100876,,0.66 C,0,100876,,245,218,66 P,0,100876,,A M,7,100876,101596,468,236,502,235 S,6,100876,101596,0.4288252,0
Sprite,Foreground,Centre,"sb\particle.png",0,0 F,0,100876,,0.66 C,0,100876,,245,218,66 P,0,100876,,A M,7,100876,101596,468,236,492,211 S,6,100876,101596,0.02227452,0
Sprite,Foreground,Centre,"sb\particle.png",0,0 F,0,100876,,0.66 C,0,100876,,245,218,66 P,0,100876,,A M,7,100876,101596,468,236,465,182 S,6,100876,101596,-0.003113302,0
Sprite,Foreground,Centre,"sb\particle.png",0,0 F,0,100876,,0.66 C,0,100876,,245,218,66 P,0,100876,,A M,7,100876,101596,468,236,496,256 S,6,100876,101596,0.09702558,0
Sprite,Foreground,Centre,"sb\particle.png",0,0 F,0,100876,,0.66 C,0,100876,,255,232,99 P,0,100876,,A M,7,100876,101596,468,236,494,200 S,6,100876,101596,-0.1174488,0
Sprite,Foreground,Centre,"sb\particle.png",0,0 F,0,100876,,0.66 C,0,100876,,255,232,99 P,0,100876,,A M,7,100876,101596,468,236,463,198 S,6,100876,101596,0.4870179,0
Sprite,Foreground,Centre,"sb\particle.png",0,0 F,0,100876,,0.66 C,0,100876,,255,232,99 P,0,100876,,A M,7,100876,101596,468,236,480,197 S,6,100876,101596,0.2992632,0
Sprite,Foreground,Centre,"sb\particle.png",0,0 F,0,100876,,0.66 C,0,100876,,255,232,99 P,0,100876,,A M,7,100876,101596,468,236,477,217 S,6,100876,101596,0.2366672,0
Sprite,Foreground,Centre,"sb\particle.png",0,0 F,0,100876,,0.66 C,0,100876,,255,232,99 P,0,100876,,A M,7,100876,101596,468,236,504,249 S,6,100876,101596,0.4974073,0
Sprite,Foreground,Centre,"sb\particle.png",0,0 F,0,100876,,0.66 C,0,100876,,255,232,99 P,0,100876,,A M,7,100876,101596,468,236,496,184 S,6,100876,101596,0.1823436,0
Sprite,Foreground,Centre,"sb\particle.png",0,0 F,0,100876,,0.66 C,0,100876,,255,232,99 P,0,100876,,A M,7,100876,101596,468,236,516,203 S,6,100876,101596,0.4506795,0
Sprite,Foreground,Centre,"sb\particle.png",0,0 F,0,100876,,0.66 C,0,100876,,255,232,99 P,0,100876,,A M,7,100876,101596,468,236,461,227 S,6,100876,101596,-0.2980519,0
Sprite,Foreground,Centre,"sb\particle.png",0,0 F,0,100876,,0.66 C,0,100876,,255,232,99 P,0,100876,,A M,7,100876,101596,468,236,470,245 S,6,100876,101596,0.2598242,0
Sprite,Foreground,Centre,"sb\particle.png",0,0 F,0,100876,,0.66 C,0,100876,,255,232,99 P,0,100876,,A M,7,100876,101596,468,236,495,198 S,6,100876,101596,0.08433742,0
Sprite,Foreground,Centre,"sb\particle.png",0,0 F,0,101254,,0.66 C,0,101254,,245,218,66 P,0,101254,,A M,7,101254,101974,480,344,500,391 S,6,101254,101974,-0.0511453,0
Sprite,Foreground,Centre,"sb\particle.png",0,0 F,0,101254,,0.66 C,0,101254,,245,218,66 P,0,101254,,A M,7,101254,101974,480,344,473,385 S,6,101254,101974,-0.1704381,0
Sprite,Foreground,Centre,"sb\particle.png",0,0 F,0,101254,,0.66 C,0,101254,,245,218,66 P,0,101254,,A M,7,101254,101974,480,344,441,392 S,6,101254,101974,-0.0286219,0
Sprite,Foreground,Centre,"sb\particle.png",0,0 F,0,101254,,0.66 C,0,101254,,245,218,66 P,0,101254,,A M,7,101254,101974,480,344,517,326 S,6,101254,101974,0.1300765,0
Sprite,Foreground,Centre,"sb\particle.png",0,0 F,0,101254,,0.66 C,0,101254,,245,218,66 P,0,101254,,A M,7,101254,101974,480,344,508,333 S,6,101254,101974,0.08116265,0
Sprite,Foreground,Centre,"sb\particle.png",0,0 F,0,101254,,0.66 C,0,101254,,245,218,66 P,0,101254,,A M,7,101254,101974,480,344,457,334 S,6,101254,101974,-0.113889,0
Sprite,Foreground,Centre,"sb\particle.png",0,0 F,0,101254,,0.66 C,0,101254,,245,218,66 P,0,101254,,A M,7,101254,101974,480,344,447,293 S,6,101254,101974,0.3567845,0
Sprite,Foreground,Centre,"sb\particle.png",0,0 F,0,101254,,0.66 C,0,101254,,255,232,99 P,0,101254,,A M,7,101254,101974,480,344,487,315 S,6,101254,101974,0.4749114,0
Sprite,Foreground,Centre,"sb\particle.png",0,0 F,0,101254,,0.66 C,0,101254,,255,232,99 P,0,101254,,A M,7,101254,101974,480,344,443,330 S,6,101254,101974,0.2973709,0
Sprite,Foreground,Centre,"sb\particle.png",0,0 F,0,101254,,0.66 C,0,101254,,255,232,99 P,0,101254,,A M,7,101254,101974,480,344,481,329 S,6,101254,101974,0.2412328,0
Sprite,Foreground,Centre,"sb\particle.png",0,0 F,0,101254,,0.66 C,0,101254,,255,232,99 P,0,101254,,A M,7,101254,101974,480,344,431,376 S,6,101254,101974,0.05908428,0
Sprite,Foreground,Centre,"sb\particle.png",0,0 F,0,101254,,0.66 C,0,101254,,255,232,99 P,0,101254,,A M,7,101254,101974,480,344,443,351 S,6,101254,101974,-0.2972026,0
Sprite,Foreground,Centre,"sb\particle.png",0,0 F,0,101254,,0.66 C,0,101254,,255,232,99 P,0,101254,,A M,7,101254,101974,480,344,490,343 S,6,101254,101974,0.1717771,0
Sprite,Foreground,Centre,"sb\particle.png",0,0 F,0,101254,,0.66 C,0,101254,,255,232,99 P,0,101254,,A M,7,101254,101974,480,344,490,301 S,6,101254,101974,-0.2618471,0
Sprite,Foreground,Centre,"sb\particle.png",0,0 F,0,101254,,0.66 C,0,101254,,255,232,99 P,0,101254,,A M,7,101254,101974,480,344,469,336 S,6,101254,101974,0.2843667,0
Sprite,Foreground,Centre,"sb\particle.png",0,0 F,0,101254,,0.66 C,0,101254,,255,232,99 P,0,101254,,A M,7,101254,101974,480,344,497,393 S,6,101254,101974,-0.1970733,0
Sprite,Foreground,Centre,"sb\particle.png",0,0 F,0,101254,,0.66 C,0,101254,,255,232,99 P,0,101254,,A M,7,101254,101974,480,344,524,355 S,6,101254,101974,-0.297415,0
Sprite,Foreground,Centre,"sb\particle.png",0,0 F,0,101820,,0.66 C,0,101820,,245,218,66 P,0,101820,,A M,7,101820,102540,332,408,320,369 S,6,101820,102540,0.4803059,0
Sprite,Foreground,Centre,"sb\particle.png",0,0 F,0,101820,,0.66 C,0,101820,,245,218,66 P,0,101820,,A M,7,101820,102540,332,408,383,442 S,6,101820,102540,0.3888437,0
Sprite,Foreground,Centre,"sb\particle.png",0,0 F,0,101820,,0.66 C,0,101820,,245,218,66 P,0,101820,,A M,7,101820,102540,332,408,354,418 S,6,101820,102540,-0.1797431,0
Sprite,Foreground,Centre,"sb\particle.png",0,0 F,0,101820,,0.66 C,0,101820,,245,218,66 P,0,101820,,A M,7,101820,102540,332,408,356,457 S,6,101820,102540,-0.2408603,0
Sprite,Foreground,Centre,"sb\particle.png",0,0 F,0,101820,,0.66 C,0,101820,,245,218,66 P,0,101820,,A M,7,101820,102540,332,408,299,460 S,6,101820,102540,-0.03811065,0
Sprite,Foreground,Centre,"sb\particle.png",0,0 F,0,101820,,0.66 C,0,101820,,245,218,66 P,0,101820,,A M,7,101820,102540,332,408,329,422 S,6,101820,102540,-0.2071873,0
Sprite,Foreground,Centre,"sb\particle.png",0,0 F,0,101820,,0.66 C,0,101820,,245,218,66 P,0,101820,,A M,7,101820,102540,332,408,361,447 S,6,101820,102540,-0.03450486,0
Sprite,Foreground,Centre,"sb\particle.png",0,0 F,0,101820,,0.66 C,0,101820,,255,232,99 P,0,101820,,A M,7,101820,102540,332,408,312,435 S,6,101820,102540,0.1768951,0
Sprite,Foreground,Centre,"sb\particle.png",0,0 F,0,101820,,0.66 C,0,101820,,255,232,99 P,0,101820,,A M,7,101820,102540,332,408,355,369 S,6,101820,102540,-0.02367027,0
Sprite,Foreground,Centre,"sb\particle.png",0,0 F,0,101820,,0.66 C,0,101820,,255,232,99 P,0,101820,,A M,7,101820,102540,332,408,369,375 S,6,101820,102540,-0.2298598,0
Sprite,Foreground,Centre,"sb\particle.png",0,0 F,0,101820,,0.66 C,0,101820,,255,232,99 P,0,101820,,A M,7,101820,102540,332,408,371,357 S,6,101820,102540,0.1989955,0
Sprite,Foreground,Centre,"sb\particle.png",0,0 F,0,101820,,0.66 C,0,101820,,255,232,99 P,0,101820,,A M,7,101820,102540,332,408,344,382 S,6,101820,102540,0.4963597,0
Sprite,Foreground,Centre,"sb\particle.png",0,0 F,0,101820,,0.66 C,0,101820,,255,232,99 P,0,101820,,A M,7,101820,102540,332,408,374,366 S,6,101820,102540,0.2399055,0
Sprite,Foreground,Centre,"sb\particle.png",0,0 F,0,101820,,0.66 C,0,101820,,255,232,99 P,0,101820,,A M,7,101820,102540,332,408,357,445 S,6,101820,102540,-0.0343364,0
Sprite,Foreground,Centre,"sb\particle.png",0,0 F,0,101820,,0.66 C,0,101820,,255,232,99 P,0,101820,,A M,7,101820,102540,332,408,347,362 S,6,101820,102540,-0.257496,0
Sprite,Foreground,Centre,"sb\particle.png",0,0 F,0,101820,,0.66 C,0,101820,,255,232,99 P,0,101820,,A M,7,101820,102540,332,408,350,385 S,6,101820,102540,-0.2366886,0
Sprite,Foreground,Centre,"sb\particle.png",0,0 F,0,101820,,0.66 C,0,101820,,255,232,99 P,0,101820,,A M,7,101820,102540,332,408,301,355 S,6,101820,102540,-0.1858743,0
Sprite,Foreground,Centre,"sb\particle.png",0,0 F,0,102198,,0.66 C,0,102198,,245,218,66 P,0,102198,,A M,7,102198,102918,224,394,209,389 S,6,102198,102918,0.4622779,0
Sprite,Foreground,Centre,"sb\particle.png",0,0 F,0,102198,,0.66 C,0,102198,,245,218,66 P,0,102198,,A M,7,102198,102918,224,394,178,352 S,6,102198,102918,0.4889995,0
Sprite,Foreground,Centre,"sb\particle.png",0,0 F,0,102198,,0.66 C,0,102198,,245,218,66 P,0,102198,,A M,7,102198,102918,224,394,206,443 S,6,102198,102918,-0.1163741,0
Sprite,Foreground,Centre,"sb\particle.png",0,0 F,0,102198,,0.66 C,0,102198,,245,218,66 P,0,102198,,A M,7,102198,102918,224,394,193,341 S,6,102198,102918,0.1026827,0
Sprite,Foreground,Centre,"sb\particle.png",0,0 F,0,102198,,0.66 C,0,102198,,245,218,66 P,0,102198,,A M,7,102198,102918,224,394,254,406 S,6,102198,102918,-0.1291717,0
Sprite,Foreground,Centre,"sb\particle.png",0,0 F,0,102198,,0.66 C,0,102198,,245,218,66 P,0,102198,,A M,7,102198,102918,224,394,261,432 S,6,102198,102918,-0.07195049,0
Sprite,Foreground,Centre,"sb\particle.png",0,0 F,0,102198,,0.66 C,0,102198,,245,218,66 P,0,102198,,A M,7,102198,102918,224,394,213,420 S,6,102198,102918,0.4644683,0
Sprite,Foreground,Centre,"sb\particle.png",0,0 F,0,102198,,0.66 C,0,102198,,255,232,99 P,0,102198,,A M,7,102198,102918,224,394,199,427 S,6,102198,102918,-0.01663274,0
Sprite,Foreground,Centre,"sb\particle.png",0,0 F,0,102198,,0.66 C,0,102198,,255,232,99 P,0,102198,,A M,7,102198,102918,224,394,255,404 S,6,102198,102918,0.08176535,0
Sprite,Foreground,Centre,"sb\particle.png",0,0 F,0,102198,,0.66 C,0,102198,,255,232,99 P,0,102198,,A M,7,102198,102918,224,394,235,342 S,6,102198,102918,0.3207434,0
Sprite,Foreground,Centre,"sb\particle.png",0,0 F,0,102198,,0.66 C,0,102198,,255,232,99 P,0,102198,,A M,7,102198,102918,224,394,228,351 S,6,102198,102918,0.455618,0
Sprite,Foreground,Centre,"sb\particle.png",0,0 F,0,102198,,0.66 C,0,102198,,255,232,99 P,0,102198,,A M,7,102198,102918,224,394,234,378 S,6,102198,102918,0.3277167,0
Sprite,Foreground,Centre,"sb\particle.png",0,0 F,0,102198,,0.66 C,0,102198,,255,232,99 P,0,102198,,A M,7,102198,102918,224,394,181,386 S,6,102198,102918,0.04729257,0
Sprite,Foreground,Centre,"sb\particle.png",0,0 F,0,102198,,0.66 C,0,102198,,255,232,99 P,0,102198,,A M,7,102198,102918,224,394,217,446 S,6,102198,102918,0.06626153,0
Sprite,Foreground,Centre,"sb\particle.png",0,0 F,0,102198,,0.66 C,0,102198,,255,232,99 P,0,102198,,A M,7,102198,102918,224,394,195,396 S,6,102198,102918,0.07774009,0
Sprite,Foreground,Centre,"sb\particle.png",0,0 F,0,102198,,0.66 C,0,102198,,255,232,99 P,0,102198,,A M,7,102198,102918,224,394,190,387 S,6,102198,102918,-0.2246412,0
Sprite,Foreground,Centre,"sb\particle.png",0,0 F,0,102198,,0.66 C,0,102198,,255,232,99 P,0,102198,,A M,7,102198,102918,224,394,252,383 S,6,102198,102918,-0.1458196,0
Sprite,Foreground,Centre,"sb\particle.png",0,0 F,0,102386,,0.66 C,0,102386,,245,218,66 P,0,102386,,A M,7,102386,103106,184,355,222,364 S,6,102386,103106,-0.1313261,0
Sprite,Foreground,Centre,"sb\particle.png",0,0 F,0,102386,,0.66 C,0,102386,,245,218,66 P,0,102386,,A M,7,102386,103106,184,355,148,344 S,6,102386,103106,0.2819393,0
Sprite,Foreground,Centre,"sb\particle.png",0,0 F,0,102386,,0.66 C,0,102386,,245,218,66 P,0,102386,,A M,7,102386,103106,184,355,156,356 S,6,102386,103106,0.06664675,0
Sprite,Foreground,Centre,"sb\particle.png",0,0 F,0,102386,,0.66 C,0,102386,,245,218,66 P,0,102386,,A M,7,102386,103106,184,355,183,399 S,6,102386,103106,0.2497224,0
Sprite,Foreground,Centre,"sb\particle.png",0,0 F,0,102386,,0.66 C,0,102386,,245,218,66 P,0,102386,,A M,7,102386,103106,184,355,196,396 S,6,102386,103106,0.1210871,0
Sprite,Foreground,Centre,"sb\particle.png",0,0 F,0,102386,,0.66 C,0,102386,,245,218,66 P,0,102386,,A M,7,102386,103106,184,355,151,377 S,6,102386,103106,-0.2076319,0
Sprite,Foreground,Centre,"sb\particle.png",0,0 F,0,102386,,0.66 C,0,102386,,245,218,66 P,0,102386,,A M,7,102386,103106,184,355,147,340 S,6,102386,103106,-0.07535152,0
Sprite,Foreground,Centre,"sb\particle.png",0,0 F,0,102386,,0.66 C,0,102386,,255,232,99 P,0,102386,,A M,7,102386,103106,184,355,232,398 S,6,102386,103106,0.4023433,0
Sprite,Foreground,Centre,"sb\particle.png",0,0 F,0,102386,,0.66 C,0,102386,,255,232,99 P,0,102386,,A M,7,102386,103106,184,355,166,362 S,6,102386,103106,0.4194299,0
Sprite,Foreground,Centre,"sb\particle.png",0,0 F,0,102386,,0.66 C,0,102386,,255,232,99 P,0,102386,,A M,7,102386,103106,184,355,188,372 S,6,102386,103106,-0.204122,0
Sprite,Foreground,Centre,"sb\particle.png",0,0 F,0,102386,,0.66 C,0,102386,,255,232,99 P,0,102386,,A M,7,102386,103106,184,355,150,373 S,6,102386,103106,0.4133638,0
Sprite,Foreground,Centre,"sb\particle.png",0,0 F,0,102386,,0.66 C,0,102386,,255,232,99 P,0,102386,,A M,7,102386,103106,184,355,158,372 S,6,102386,103106,0.4397908,0
Sprite,Foreground,Centre,"sb\particle.png",0,0 F,0,102386,,0.66 C,0,102386,,255,232,99 P,0,102386,,A M,7,102386,103106,184,355,237,330 S,6,102386,103106,0.2937135,0
Sprite,Foreground,Centre,"sb\particle.png",0,0 F,0,102386,,0.66 C,0,102386,,255,232,99 P,0,102386,,A M,7,102386,103106,184,355,193,305 S,6,102386,103106,0.2285703,0
Sprite,Foreground,Centre,"sb\particle.png",0,0 F,0,102386,,0.66 C,0,102386,,255,232,99 P,0,102386,,A M,7,102386,103106,184,355,226,401 S,6,102386,103106,0.01469769,0
Sprite,Foreground,Centre,"sb\particle.png",0,0 F,0,102386,,0.66 C,0,102386,,255,232,99 P,0,102386,,A M,7,102386,103106,184,355,228,335 S,6,102386,103106,0.4230952,0
Sprite,Foreground,Centre,"sb\particle.png",0,0 F,0,102386,,0.66 C,0,102386,,255,232,99 P,0,102386,,A M,7,102386,103106,184,355,186,346 S,6,102386,103106,0.01046483,0
Sprite,Foreground,Centre,"sb\particle.png",0,0 F,0,30266,,0.66 C,0,30266,,245,218,66 P,0,30266,,A M,7,30266,30986,116,272,138,262 S,6,30266,30986,-0.09009185,0
Sprite,Foreground,Centre,"sb\particle.png",0,0 F,0,30266,,0.66 C,0,30266,,245,218,66 P,0,30266,,A M,7,30266,30986,116,272,101,284 S,6,30266,30986,-0.09470674,0
Sprite,Foreground,Centre,"sb\particle.png",0,0 F,0,30266,,0.66 C,0,30266,,245,218,66 P,0,30266,,A M,7,30266,30986,116,272,136,293 S,6,30266,30986,0.4969222,0
Sprite,Foreground,Centre,"sb\particle.png",0,0 F,0,30266,,0.66 C,0,30266,,245,218,66 P,0,30266,,A M,7,30266,30986,116,272,89,277 S,6,30266,30986,-0.1941083,0
Sprite,Foreground,Centre,"sb\particle.png",0,0 F,0,30266,,0.66 C,0,30266,,245,218,66 P,0,30266,,A M,7,30266,30986,116,272,106,265 S,6,30266,30986,-0.273592,0
Sprite,Foreground,Centre,"sb\particle.png",0,0 F,0,30266,,0.66 C,0,30266,,245,218,66 P,0,30266,,A M,7,30266,30986,116,272,107,263 S,6,30266,30986,-0.2052443,0
Sprite,Foreground,Centre,"sb\particle.png",0,0 F,0,30266,,0.66 C,0,30266,,245,218,66 P,0,30266,,A M,7,30266,30986,116,272,160,283 S,6,30266,30986,-0.008235491,0
Sprite,Foreground,Centre,"sb\particle.png",0,0 F,0,30266,,0.66 C,0,30266,,255,232,99 P,0,30266,,A M,7,30266,30986,116,272,90,224 S,6,30266,30986,-0.2736902,0
Sprite,Foreground,Centre,"sb\particle.png",0,0 F,0,30266,,0.66 C,0,30266,,255,232,99 P,0,30266,,A M,7,30266,30986,116,272,128,310 S,6,30266,30986,0.09670524,0
Sprite,Foreground,Centre,"sb\particle.png",0,0 F,0,30266,,0.66 C,0,30266,,255,232,99 P,0,30266,,A M,7,30266,30986,116,272,100,255 S,6,30266,30986,0.1427685,0
Sprite,Foreground,Centre,"sb\particle.png",0,0 F,0,30266,,0.66 C,0,30266,,255,232,99 P,0,30266,,A M,7,30266,30986,116,272,119,221 S,6,30266,30986,-0.2895176,0
Sprite,Foreground,Centre,"sb\particle.png",0,0 F,0,30266,,0.66 C,0,30266,,255,232,99 P,0,30266,,A M,7,30266,30986,116,272,154,307 S,6,30266,30986,-0.06142476,0
Sprite,Foreground,Centre,"sb\particle.png",0,0 F,0,30266,,0.66 C,0,30266,,255,232,99 P,0,30266,,A M,7,30266,30986,116,272,139,268 S,6,30266,30986,0.42925,0
Sprite,Foreground,Centre,"sb\particle.png",0,0 F,0,30266,,0.66 C,0,30266,,255,232,99 P,0,30266,,A M,7,30266,30986,116,272,131,280 S,6,30266,30986,-0.252948,0
Sprite,Foreground,Centre,"sb\particle.png",0,0 F,0,30266,,0.66 C,0,30266,,255,232,99 P,0,30266,,A M,7,30266,30986,116,272,153,306 S,6,30266,30986,0.444408,0
Sprite,Foreground,Centre,"sb\particle.png",0,0 F,0,30266,,0.66 C,0,30266,,255,232,99 P,0,30266,,A M,7,30266,30986,116,272,82,252 S,6,30266,30986,0.05310228,0
Sprite,Foreground,Centre,"sb\particle.png",0,0 F,0,30266,,0.66 C,0,30266,,255,232,99 P,0,30266,,A M,7,30266,30986,116,272,125,234 S,6,30266,30986,0.210379,0
Sprite,Foreground,Centre,"sb\particle.png",0,0 F,0,31021,,0.66 C,0,31021,,245,218,66 P,0,31021,,A M,7,31021,31741,324,304,290,353 S,6,31021,31741,0.2222342,0
Sprite,Foreground,Centre,"sb\particle.png",0,0 F,0,31021,,0.66 C,0,31021,,245,218,66 P,0,31021,,A M,7,31021,31741,324,304,334,271 S,6,31021,31741,0.1631233,0
Sprite,Foreground,Centre,"sb\particle.png",0,0 F,0,31021,,0.66 C,0,31021,,245,218,66 P,0,31021,,A M,7,31021,31741,324,304,364,294 S,6,31021,31741,-0.2592083,0
Sprite,Foreground,Centre,"sb\particle.png",0,0 F,0,31021,,0.66 C,0,31021,,245,218,66 P,0,31021,,A M,7,31021,31741,324,304,334,293 S,6,31021,31741,-0.09255992,0
Sprite,Foreground,Centre,"sb\particle.png",0,0 F,0,31021,,0.66 C,0,31021,,245,218,66 P,0,31021,,A M,7,31021,31741,324,304,336,298 S,6,31021,31741,0.4196419,0
Sprite,Foreground,Centre,"sb\particle.png",0,0 F,0,31021,,0.66 C,0,31021,,245,218,66 P,0,31021,,A M,7,31021,31741,324,304,329,286 S,6,31021,31741,-0.1385069,0
Sprite,Foreground,Centre,"sb\particle.png",0,0 F,0,31021,,0.66 C,0,31021,,245,218,66 P,0,31021,,A M,7,31021,31741,324,304,292,298 S,6,31021,31741,-0.2478662,0
Sprite,Foreground,Centre,"sb\particle.png",0,0 F,0,31021,,0.66 C,0,31021,,255,232,99 P,0,31021,,A M,7,31021,31741,324,304,343,322 S,6,31021,31741,0.1394838,0
Sprite,Foreground,Centre,"sb\particle.png",0,0 F,0,31021,,0.66 C,0,31021,,255,232,99 P,0,31021,,A M,7,31021,31741,324,304,295,327 S,6,31021,31741,-0.1533902,0
Sprite,Foreground,Centre,"sb\particle.png",0,0 F,0,31021,,0.66 C,0,31021,,255,232,99 P,0,31021,,A M,7,31021,31741,324,304,363,308 S,6,31021,31741,-0.02460403,0
Sprite,Foreground,Centre,"sb\particle.png",0,0 F,0,31021,,0.66 C,0,31021,,255,232,99 P,0,31021,,A M,7,31021,31741,324,304,306,305 S,6,31021,31741,-0.2473876,0
Sprite,Foreground,Centre,"sb\particle.png",0,0 F,0,31021,,0.66 C,0,31021,,255,232,99 P,0,31021,,A M,7,31021,31741,324,304,303,306 S,6,31021,31741,-0.1090589,0
Sprite,Foreground,Centre,"sb\particle.png",0,0 F,0,31021,,0.66 C,0,31021,,255,232,99 P,0,31021,,A M,7,31021,31741,324,304,270,322 S,6,31021,31741,-0.1026269,0
Sprite,Foreground,Centre,"sb\particle.png",0,0 F,0,31021,,0.66 C,0,31021,,255,232,99 P,0,31021,,A M,7,31021,31741,324,304,321,309 S,6,31021,31741,-0.07079521,0
Sprite,Foreground,Centre,"sb\particle.png",0,0 F,0,31021,,0.66 C,0,31021,,255,232,99 P,0,31021,,A M,7,31021,31741,324,304,366,251 S,6,31021,31741,-0.1924667,0
Sprite,Foreground,Centre,"sb\particle.png",0,0 F,0,31021,,0.66 C,0,31021,,255,232,99 P,0,31021,,A M,7,31021,31741,324,304,331,283 S,6,31021,31741,0.1101455,0
Sprite,Foreground,Centre,"sb\particle.png",0,0 F,0,31021,,0.66 C,0,31021,,255,232,99 P,0,31021,,A M,7,31021,31741,324,304,339,266 S,6,31021,31741,-0.02399694,0
Sprite,Foreground,Centre,"sb\particle.png",0,0 F,0,31398,,0.66 C,0,31398,,245,218,66 P,0,31398,,A M,7,31398,32118,412,356,433,362 S,6,31398,32118,0.1082777,0
Sprite,Foreground,Centre,"sb\particle.png",0,0 F,0,31398,,0.66 C,0,31398,,245,218,66 P,0,31398,,A M,7,31398,32118,412,356,396,360 S,6,31398,32118,0.4320441,0
Sprite,Foreground,Centre,"sb\particle.png",0,0 F,0,31398,,0.66 C,0,31398,,245,218,66 P,0,31398,,A M,7,31398,32118,412,356,387,403 S,6,31398,32118,0.2022543,0
Sprite,Foreground,Centre,"sb\particle.png",0,0 F,0,31398,,0.66 C,0,31398,,245,218,66 P,0,31398,,A M,7,31398,32118,412,356,360,331 S,6,31398,32118,0.4135269,0
Sprite,Foreground,Centre,"sb\particle.png",0,0 F,0,31398,,0.66 C,0,31398,,245,218,66 P,0,31398,,A M,7,31398,32118,412,356,462,350 S,6,31398,32118,0.01247414,0
Sprite,Foreground,Centre,"sb\particle.png",0,0 F,0,31398,,0.66 C,0,31398,,245,218,66 P,0,31398,,A M,7,31398,32118,412,356,387,374 S,6,31398,32118,-0.09782398,0
Sprite,Foreground,Centre,"sb\particle.png",0,0 F,0,31398,,0.66 C,0,31398,,245,218,66 P,0,31398,,A M,7,31398,32118,412,356,384,409 S,6,31398,32118,0.12279,0
Sprite,Foreground,Centre,"sb\particle.png",0,0 F,0,31398,,0.66 C,0,31398,,255,232,99 P,0,31398,,A M,7,31398,32118,412,356,376,362 S,6,31398,32118,0.4336455,0
Sprite,Foreground,Centre,"sb\particle.png",0,0 F,0,31398,,0.66 C,0,31398,,255,232,99 P,0,31398,,A M,7,31398,32118,412,356,361,313 S,6,31398,32118,-0.2606713,0
Sprite,Foreground,Centre,"sb\particle.png",0,0 F,0,31398,,0.66 C,0,31398,,255,232,99 P,0,31398,,A M,7,31398,32118,412,356,456,383 S,6,31398,32118,0.04348843,0
Sprite,Foreground,Centre,"sb\particle.png",0,0 F,0,31398,,0.66 C,0,31398,,255,232,99 P,0,31398,,A M,7,31398,32118,412,356,430,373 S,6,31398,32118,0.09798261,0
Sprite,Foreground,Centre,"sb\particle.png",0,0 F,0,31398,,0.66 C,0,31398,,255,232,99 P,0,31398,,A M,7,31398,32118,412,356,454,395 S,6,31398,32118,0.1338085,0
Sprite,Foreground,Centre,"sb\particle.png",0,0 F,0,31398,,0.66 C,0,31398,,255,232,99 P,0,31398,,A M,7,31398,32118,412,356,429,348 S,6,31398,32118,0.3957587,0
Sprite,Foreground,Centre,"sb\particle.png",0,0 F,0,31398,,0.66 C,0,31398,,255,232,99 P,0,31398,,A M,7,31398,32118,412,356,432,307 S,6,31398,32118,-0.1542289,0
Sprite,Foreground,Centre,"sb\particle.png",0,0 F,0,31398,,0.66 C,0,31398,,255,232,99 P,0,31398,,A M,7,31398,32118,412,356,383,369 S,6,31398,32118,0.2184507,0
Sprite,Foreground,Centre,"sb\particle.png",0,0 F,0,31398,,0.66 C,0,31398,,255,232,99 P,0,31398,,A M,7,31398,32118,412,356,446,370 S,6,31398,32118,0.1207284,0
Sprite,Foreground,Centre,"sb\particle.png",0,0 F,0,31398,,0.66 C,0,31398,,255,232,99 P,0,31398,,A M,7,31398,32118,412,356,425,395 S,6,31398,32118,0.4042697,0
Sprite,Foreground,Centre,"sb\particle.png",0,0 F,0,31776,,0.66 C,0,31776,,245,218,66 P,0,31776,,A M,7,31776,32496,512,312,482,365 S,6,31776,32496,0.3950121,0
Sprite,Foreground,Centre,"sb\particle.png",0,0 F,0,31776,,0.66 C,0,31776,,245,218,66 P,0,31776,,A M,7,31776,32496,512,312,474,296 S,6,31776,32496,0.07003842,0
Sprite,Foreground,Centre,"sb\particle.png",0,0 F,0,31776,,0.66 C,0,31776,,245,218,66 P,0,31776,,A M,7,31776,32496,512,312,489,343 S,6,31776,32496,0.02932529,0
Sprite,Foreground,Centre,"sb\particle.png",0,0 F,0,31776,,0.66 C,0,31776,,245,218,66 P,0,31776,,A M,7,31776,32496,512,312,501,276 S,6,31776,32496,-0.01194911,0
Sprite,Foreground,Centre,"sb\particle.png",0,0 F,0,31776,,0.66 C,0,31776,,245,218,66 P,0,31776,,A M,7,31776,32496,512,312,533,297 S,6,31776,32496,-0.2193564,0
Sprite,Foreground,Centre,"sb\particle.png",0,0 F,0,31776,,0.66 C,0,31776,,245,218,66 P,0,31776,,A M,7,31776,32496,512,312,504,355 S,6,31776,32496,0.3217216,0
Sprite,Foreground,Centre,"sb\particle.png",0,0 F,0,31776,,0.66 C,0,31776,,245,218,66 P,0,31776,,A M,7,31776,32496,512,312,503,351 S,6,31776,32496,0.2535098,0
Sprite,Foreground,Centre,"sb\particle.png",0,0 F,0,31776,,0.66 C,0,31776,,255,232,99 P,0,31776,,A M,7,31776,32496,512,312,504,340 S,6,31776,32496,-0.2905819,0
Sprite,Foreground,Centre,"sb\particle.png",0,0 F,0,31776,,0.66 C,0,31776,,255,232,99 P,0,31776,,A M,7,31776,32496,512,312,543,282 S,6,31776,32496,0.2332488,0
Sprite,Foreground,Centre,"sb\particle.png",0,0 F,0,31776,,0.66 C,0,31776,,255,232,99 P,0,31776,,A M,7,31776,32496,512,312,526,306 S,6,31776,32496,0.2178615,0
Sprite,Foreground,Centre,"sb\particle.png",0,0 F,0,31776,,0.66 C,0,31776,,255,232,99 P,0,31776,,A M,7,31776,32496,512,312,517,339 S,6,31776,32496,0.3319384,0
Sprite,Foreground,Centre,"sb\particle.png",0,0 F,0,31776,,0.66 C,0,31776,,255,232,99 P,0,31776,,A M,7,31776,32496,512,312,535,299 S,6,31776,32496,0.4188856,0
Sprite,Foreground,Centre,"sb\particle.png",0,0 F,0,31776,,0.66 C,0,31776,,255,232,99 P,0,31776,,A M,7,31776,32496,512,312,541,263 S,6,31776,32496,0.3662141,0
Sprite,Foreground,Centre,"sb\particle.png",0,0 F,0,31776,,0.66 C,0,31776,,255,232,99 P,0,31776,,A M,7,31776,32496,512,312,488,316 S,6,31776,32496,0.2725695,0
Sprite,Foreground,Centre,"sb\particle.png",0,0 F,0,31776,,0.66 C,0,31776,,255,232,99 P,0,31776,,A M,7,31776,32496,512,312,468,269 S,6,31776,32496,0.3111411,0
Sprite,Foreground,Centre,"sb\particle.png",0,0 F,0,31776,,0.66 C,0,31776,,255,232,99 P,0,31776,,A M,7,31776,32496,512,312,478,346 S,6,31776,32496,0.3399567,0
Sprite,Foreground,Centre,"sb\particle.png",0,0 F,0,31776,,0.66 C,0,31776,,255,232,99 P,0,31776,,A M,7,31776,32496,512,312,495,295 S,6,31776,32496,0.2367727,0
Sprite,Foreground,Centre,"sb\particle.png",0,0 F,0,32343,,0.66 C,0,32343,,245,218,66 P,0,32343,,A M,7,32343,33063,488,168,501,216 S,6,32343,33063,0.4669049,0
Sprite,Foreground,Centre,"sb\particle.png",0,0 F,0,32343,,0.66 C,0,32343,,245,218,66 P,0,32343,,A M,7,32343,33063,488,168,452,171 S,6,32343,33063,0.2701894,0
Sprite,Foreground,Centre,"sb\particle.png",0,0 F,0,32343,,0.66 C,0,32343,,245,218,66 P,0,32343,,A M,7,32343,33063,488,168,450,179 S,6,32343,33063,0.4213524,0
Sprite,Foreground,Centre,"sb\particle.png",0,0 F,0,32343,,0.66 C,0,32343,,245,218,66 P,0,32343,,A M,7,32343,33063,488,168,439,125 S,6,32343,33063,-0.2555085,0
Sprite,Foreground,Centre,"sb\particle.png",0,0 F,0,32343,,0.66 C,0,32343,,245,218,66 P,0,32343,,A M,7,32343,33063,488,168,490,143 S,6,32343,33063,0.2134417,0
Sprite,Foreground,Centre,"sb\particle.png",0,0 F,0,32343,,0.66 C,0,32343,,245,218,66 P,0,32343,,A M,7,32343,33063,488,168,539,221 S,6,32343,33063,0.2489605,0
Sprite,Foreground,Centre,"sb\particle.png",0,0 F,0,32343,,0.66 C,0,32343,,245,218,66 P,0,32343,,A M,7,32343,33063,488,168,536,164 S,6,32343,33063,0.3834898,0
Sprite,Foreground,Centre,"sb\particle.png",0,0 F,0,32343,,0.66 C,0,32343,,255,232,99 P,0,32343,,A M,7,32343,33063,488,168,494,127 S,6,32343,33063,0.1381093,0
Sprite,Foreground,Centre,"sb\particle.png",0,0 F,0,32343,,0.66 C,0,32343,,255,232,99 P,0,32343,,A M,7,32343,33063,488,168,522,165 S,6,32343,33063,-0.0448374,0
Sprite,Foreground,Centre,"sb\particle.png",0,0 F,0,32343,,0.66 C,0,32343,,255,232,99 P,0,32343,,A M,7,32343,33063,488,168,481,157 S,6,32343,33063,0.3409973,0
Sprite,Foreground,Centre,"sb\particle.png",0,0 F,0,32343,,0.66 C,0,32343,,255,232,99 P,0,32343,,A M,7,32343,33063,488,168,536,213 S,6,32343,33063,0.3495409,0
Sprite,Foreground,Centre,"sb\particle.png",0,0 F,0,32343,,0.66 C,0,32343,,255,232,99 P,0,32343,,A M,7,32343,33063,488,168,505,212 S,6,32343,33063,0.2385185,0
Sprite,Foreground,Centre,"sb\particle.png",0,0 F,0,32343,,0.66 C,0,32343,,255,232,99 P,0,32343,,A M,7,32343,33063,488,168,521,198 S,6,32343,33063,-0.2593878,0
Sprite,Foreground,Centre,"sb\particle.png",0,0 F,0,32343,,0.66 C,0,32343,,255,232,99 P,0,32343,,A M,7,32343,33063,488,168,487,117 S,6,32343,33063,0.1373182,0
Sprite,Foreground,Centre,"sb\particle.png",0,0 F,0,32343,,0.66 C,0,32343,,255,232,99 P,0,32343,,A M,7,32343,33063,488,168,522,139 S,6,32343,33063,0.4014348,0
Sprite,Foreground,Centre,"sb\particle.png",0,0 F,0,32343,,0.66 C,0,32343,,255,232,99 P,0,32343,,A M,7,32343,33063,488,168,522,219 S,6,32343,33063,-0.245308,0
Sprite,Foreground,Centre,"sb\particle.png",0,0 F,0,32343,,0.66 C,0,32343,,255,232,99 P,0,32343,,A M,7,32343,33063,488,168,540,179 S,6,32343,33063,0.4114452,0
Sprite,Foreground,Centre,"sb\particle.png",0,0 F,0,32720,,0.66 C,0,32720,,245,218,66 P,0,32720,,A M,7,32720,33440,416,88,451,38 S,6,32720,33440,0.102018,0
Sprite,Foreground,Centre,"sb\particle.png",0,0 F,0,32720,,0.66 C,0,32720,,245,218,66 P,0,32720,,A M,7,32720,33440,416,88,363,106 S,6,32720,33440,-0.09650578,0
Sprite,Foreground,Centre,"sb\particle.png",0,0 F,0,32720,,0.66 C,0,32720,,245,218,66 P,0,32720,,A M,7,32720,33440,416,88,423,71 S,6,32720,33440,-0.1256787,0
Sprite,Foreground,Centre,"sb\particle.png",0,0 F,0,32720,,0.66 C,0,32720,,245,218,66 P,0,32720,,A M,7,32720,33440,416,88,368,53 S,6,32720,33440,-0.2829833,0
Sprite,Foreground,Centre,"sb\particle.png",0,0 F,0,32720,,0.66 C,0,32720,,245,218,66 P,0,32720,,A M,7,32720,33440,416,88,391,103 S,6,32720,33440,-0.2457756,0
Sprite,Foreground,Centre,"sb\particle.png",0,0 F,0,32720,,0.66 C,0,32720,,245,218,66 P,0,32720,,A M,7,32720,33440,416,88,422,67 S,6,32720,33440,-0.05622503,0
Sprite,Foreground,Centre,"sb\particle.png",0,0 F,0,32720,,0.66 C,0,32720,,245,218,66 P,0,32720,,A M,7,32720,33440,416,88,467,89 S,6,32720,33440,0.1178875,0
Sprite,Foreground,Centre,"sb\particle.png",0,0 F,0,32720,,0.66 C,0,32720,,255,232,99 P,0,32720,,A M,7,32720,33440,416,88,370,36 S,6,32720,33440,0.3212238,0
Sprite,Foreground,Centre,"sb\particle.png",0,0 F,0,32720,,0.66 C,0,32720,,255,232,99 P,0,32720,,A M,7,32720,33440,416,88,451,50 S,6,32720,33440,-0.1950005,0
Sprite,Foreground,Centre,"sb\particle.png",0,0 F,0,32720,,0.66 C,0,32720,,255,232,99 P,0,32720,,A M,7,32720,33440,416,88,384,72 S,6,32720,33440,0.4781154,0
Sprite,Foreground,Centre,"sb\particle.png",0,0 F,0,32720,,0.66 C,0,32720,,255,232,99 P,0,32720,,A M,7,32720,33440,416,88,429,135 S,6,32720,33440,-0.05080098,0
Sprite,Foreground,Centre,"sb\particle.png",0,0 F,0,32720,,0.66 C,0,32720,,255,232,99 P,0,32720,,A M,7,32720,33440,416,88,366,69 S,6,32720,33440,-0.1823123,0
Sprite,Foreground,Centre,"sb\particle.png",0,0 F,0,32720,,0.66 C,0,32720,,255,232,99 P,0,32720,,A M,7,32720,33440,416,88,397,112 S,6,32720,33440,0.3090651,0
Sprite,Foreground,Centre,"sb\particle.png",0,0 F,0,32720,,0.66 C,0,32720,,255,232,99 P,0,32720,,A M,7,32720,33440,416,88,387,103 S,6,32720,33440,0.2990585,0
Sprite,Foreground,Centre,"sb\particle.png",0,0 F,0,32720,,0.66 C,0,32720,,255,232,99 P,0,32720,,A M,7,32720,33440,416,88,417,88 S,6,32720,33440,0.07657314,0
Sprite,Foreground,Centre,"sb\particle.png",0,0 F,0,32720,,0.66 C,0,32720,,255,232,99 P,0,32720,,A M,7,32720,33440,416,88,401,110 S,6,32720,33440,0.3023059,0
Sprite,Foreground,Centre,"sb\particle.png",0,0 F,0,32720,,0.66 C,0,32720,,255,232,99 P,0,32720,,A M,7,32720,33440,416,88,458,134 S,6,32720,33440,0.04313175,0
Sprite,Foreground,Centre,"sb\particle.png",0,0 F,0,33098,,0.66 C,0,33098,,245,218,66 P,0,33098,,A M,7,33098,33818,324,148,317,120 S,6,33098,33818,0.389893,0
Sprite,Foreground,Centre,"sb\particle.png",0,0 F,0,33098,,0.66 C,0,33098,,245,218,66 P,0,33098,,A M,7,33098,33818,324,148,284,198 S,6,33098,33818,-0.2610987,0
Sprite,Foreground,Centre,"sb\particle.png",0,0 F,0,33098,,0.66 C,0,33098,,245,218,66 P,0,33098,,A M,7,33098,33818,324,148,339,170 S,6,33098,33818,-0.209693,0
Sprite,Foreground,Centre,"sb\particle.png",0,0 F,0,33098,,0.66 C,0,33098,,245,218,66 P,0,33098,,A M,7,33098,33818,324,148,294,94 S,6,33098,33818,-0.08629575,0
Sprite,Foreground,Centre,"sb\particle.png",0,0 F,0,33098,,0.66 C,0,33098,,245,218,66 P,0,33098,,A M,7,33098,33818,324,148,360,173 S,6,33098,33818,0.333829,0
Sprite,Foreground,Centre,"sb\particle.png",0,0 F,0,33098,,0.66 C,0,33098,,245,218,66 P,0,33098,,A M,7,33098,33818,324,148,271,168 S,6,33098,33818,0.3521734,0
Sprite,Foreground,Centre,"sb\particle.png",0,0 F,0,33098,,0.66 C,0,33098,,245,218,66 P,0,33098,,A M,7,33098,33818,324,148,369,108 S,6,33098,33818,-0.2031928,0
Sprite,Foreground,Centre,"sb\particle.png",0,0 F,0,33098,,0.66 C,0,33098,,255,232,99 P,0,33098,,A M,7,33098,33818,324,148,337,132 S,6,33098,33818,0.4282806,0
Sprite,Foreground,Centre,"sb\particle.png",0,0 F,0,33098,,0.66 C,0,33098,,255,232,99 P,0,33098,,A M,7,33098,33818,324,148,298,143 S,6,33098,33818,0.1832828,0
Sprite,Foreground,Centre,"sb\particle.png",0,0 F,0,33098,,0.66 C,0,33098,,255,232,99 P,0,33098,,A M,7,33098,33818,324,148,311,115 S,6,33098,33818,-0.1550262,0
Sprite,Foreground,Centre,"sb\particle.png",0,0 F,0,33098,,0.66 C,0,33098,,255,232,99 P,0,33098,,A M,7,33098,33818,324,148,367,131 S,6,33098,33818,0.07310387,0
Sprite,Foreground,Centre,"sb\particle.png",0,0 F,0,33098,,0.66 C,0,33098,,255,232,99 P,0,33098,,A M,7,33098,33818,324,148,337,103 S,6,33098,33818,0.1228763,0
Sprite,Foreground,Centre,"sb\particle.png",0,0 F,0,33098,,0.66 C,0,33098,,255,232,99 P,0,33098,,A M,7,33098,33818,324,148,338,100 S,6,33098,33818,-0.07265981,0
Sprite,Foreground,Centre,"sb\particle.png",0,0 F,0,33098,,0.66 C,0,33098,,255,232,99 P,0,33098,,A M,7,33098,33818,324,148,348,97 S,6,33098,33818,0.1597287,0
Sprite,Foreground,Centre,"sb\particle.png",0,0 F,0,33098,,0.66 C,0,33098,,255,232,99 P,0,33098,,A M,7,33098,33818,324,148,349,130 S,6,33098,33818,0.3062922,0
Sprite,Foreground,Centre,"sb\particle.png",0,0 F,0,33098,,0.66 C,0,33098,,255,232,99 P,0,33098,,A M,7,33098,33818,324,148,303,194 S,6,33098,33818,0.3535191,0
Sprite,Foreground,Centre,"sb\particle.png",0,0 F,0,33098,,0.66 C,0,33098,,255,232,99 P,0,33098,,A M,7,33098,33818,324,148,276,95 S,6,33098,33818,0.3299198,0
Sprite,Foreground,Centre,"sb\particle.png",0,0 F,0,33286,,0.66 C,0,33286,,245,218,66 P,0,33286,,A M,7,33286,34006,324,148,274,108 S,6,33286,34006,0.4286956,0
Sprite,Foreground,Centre,"sb\particle.png",0,0 F,0,33286,,0.66 C,0,33286,,245,218,66 P,0,33286,,A M,7,33286,34006,324,148,355,160 S,6,33286,34006,-0.2312696,0
Sprite,Foreground,Centre,"sb\particle.png",0,0 F,0,33286,,0.66 C,0,33286,,245,218,66 P,0,33286,,A M,7,33286,34006,324,148,370,136 S,6,33286,34006,0.101569,0
Sprite,Foreground,Centre,"sb\particle.png",0,0 F,0,33286,,0.66 C,0,33286,,245,218,66 P,0,33286,,A M,7,33286,34006,324,148,370,118 S,6,33286,34006,-0.150593,0
Sprite,Foreground,Centre,"sb\particle.png",0,0 F,0,33286,,0.66 C,0,33286,,245,218,66 P,0,33286,,A M,7,33286,34006,324,148,312,152 S,6,33286,34006,-0.2528215,0
Sprite,Foreground,Centre,"sb\particle.png",0,0 F,0,33286,,0.66 C,0,33286,,245,218,66 P,0,33286,,A M,7,33286,34006,324,148,282,171 S,6,33286,34006,0.1486388,0
Sprite,Foreground,Centre,"sb\particle.png",0,0 F,0,33286,,0.66 C,0,33286,,245,218,66 P,0,33286,,A M,7,33286,34006,324,148,348,188 S,6,33286,34006,0.006854381,0
Sprite,Foreground,Centre,"sb\particle.png",0,0 F,0,33286,,0.66 C,0,33286,,255,232,99 P,0,33286,,A M,7,33286,34006,324,148,299,201 S,6,33286,34006,-0.0801865,0
Sprite,Foreground,Centre,"sb\particle.png",0,0 F,0,33286,,0.66 C,0,33286,,255,232,99 P,0,33286,,A M,7,33286,34006,324,148,296,167 S,6,33286,34006,-0.2853368,0
Sprite,Foreground,Centre,"sb\particle.png",0,0 F,0,33286,,0.66 C,0,33286,,255,232,99 P,0,33286,,A M,7,33286,34006,324,148,318,145 S,6,33286,34006,0.4626265,0
Sprite,Foreground,Centre,"sb\particle.png",0,0 F,0,33286,,0.66 C,0,33286,,255,232,99 P,0,33286,,A M,7,33286,34006,324,148,312,181 S,6,33286,34006,0.2800559,0
Sprite,Foreground,Centre,"sb\particle.png",0,0 F,0,33286,,0.66 C,0,33286,,255,232,99 P,0,33286,,A M,7,33286,34006,324,148,323,190 S,6,33286,34006,-0.0303383,0
Sprite,Foreground,Centre,"sb\particle.png",0,0 F,0,33286,,0.66 C,0,33286,,255,232,99 P,0,33286,,A M,7,33286,34006,324,148,277,196 S,6,33286,34006,0.3471576,0
Sprite,Foreground,Centre,"sb\particle.png",0,0 F,0,33286,,0.66 C,0,33286,,255,232,99 P,0,33286,,A M,7,33286,34006,324,148,293,193 S,6,33286,34006,-0.1008539,0
Sprite,Foreground,Centre,"sb\particle.png",0,0 F,0,33286,,0.66 C,0,33286,,255,232,99 P,0,33286,,A M,7,33286,34006,324,148,345,111 S,6,33286,34006,-0.1554338,0
Sprite,Foreground,Centre,"sb\particle.png",0,0 F,0,33286,,0.66 C,0,33286,,255,232,99 P,0,33286,,A M,7,33286,34006,324,148,313,196 S,6,33286,34006,0.3147325,0
Sprite,Foreground,Centre,"sb\particle.png",0,0 F,0,33286,,0.66 C,0,33286,,255,232,99 P,0,33286,,A M,7,33286,34006,324,148,306,141 S,6,33286,34006,0.3701527,0
Sprite,Foreground,Centre,"sb\particle.png",0,0 F,0,34042,,0.66 C,0,34042,,245,218,66 P,0,34042,,A M,7,34042,34762,112,164,156,148 S,6,34042,34762,-0.2771718,0
Sprite,Foreground,Centre,"sb\particle.png",0,0 F,0,34042,,0.66 C,0,34042,,245,218,66 P,0,34042,,A M,7,34042,34762,112,164,154,193 S,6,34042,34762,-0.1132195,0
Sprite,Foreground,Centre,"sb\particle.png",0,0 F,0,34042,,0.66 C,0,34042,,245,218,66 P,0,34042,,A M,7,34042,34762,112,164,165,189 S,6,34042,34762,-0.2718063,0
Sprite,Foreground,Centre,"sb\particle.png",0,0 F,0,34042,,0.66 C,0,34042,,245,218,66 P,0,34042,,A M,7,34042,34762,112,164,82,217 S,6,34042,34762,-0.2490702,0
Sprite,Foreground,Centre,"sb\particle.png",0,0 F,0,34042,,0.66 C,0,34042,,245,218,66 P,0,34042,,A M,7,34042,34762,112,164,100,210 S,6,34042,34762,0.04805494,0
Sprite,Foreground,Centre,"sb\particle.png",0,0 F,0,34042,,0.66 C,0,34042,,245,218,66 P,0,34042,,A M,7,34042,34762,112,164,75,209 S,6,34042,34762,0.2261818,0
Sprite,Foreground,Centre,"sb\particle.png",0,0 F,0,34042,,0.66 C,0,34042,,245,218,66 P,0,34042,,A M,7,34042,34762,112,164,108,147 S,6,34042,34762,0.2680062,0
Sprite,Foreground,Centre,"sb\particle.png",0,0 F,0,34042,,0.66 C,0,34042,,255,232,99 P,0,34042,,A M,7,34042,34762,112,164,150,195 S,6,34042,34762,0.4939148,0
Sprite,Foreground,Centre,"sb\particle.png",0,0 F,0,34042,,0.66 C,0,34042,,255,232,99 P,0,34042,,A M,7,34042,34762,112,164,58,201 S,6,34042,34762,-0.09278914,0
Sprite,Foreground,Centre,"sb\particle.png",0,0 F,0,34042,,0.66 C,0,34042,,255,232,99 P,0,34042,,A M,7,34042,34762,112,164,88,137 S,6,34042,34762,0.01326375,0
Sprite,Foreground,Centre,"sb\particle.png",0,0 F,0,34042,,0.66 C,0,34042,,255,232,99 P,0,34042,,A M,7,34042,34762,112,164,164,121 S,6,34042,34762,-0.2646685,0
Sprite,Foreground,Centre,"sb\particle.png",0,0 F,0,34042,,0.66 C,0,34042,,255,232,99 P,0,34042,,A M,7,34042,34762,112,164,156,146 S,6,34042,34762,0.08652298,0
Sprite,Foreground,Centre,"sb\particle.png",0,0 F,0,34042,,0.66 C,0,34042,,255,232,99 P,0,34042,,A M,7,34042,34762,112,164,81,168 S,6,34042,34762,0.08336381,0
Sprite,Foreground,Centre,"sb\particle.png",0,0 F,0,34042,,0.66 C,0,34042,,255,232,99 P,0,34042,,A M,7,34042,34762,112,164,84,152 S,6,34042,34762,0.4750105,0
Sprite,Foreground,Centre,"sb\particle.png",0,0 F,0,34042,,0.66 C,0,34042,,255,232,99 P,0,34042,,A M,7,34042,34762,112,164,123,132 S,6,34042,34762,0.4916965,0
Sprite,Foreground,Centre,"sb\particle.png",0,0 F,0,34042,,0.66 C,0,34042,,255,232,99 P,0,34042,,A M,7,34042,34762,112,164,71,179 S,6,34042,34762,-0.253224,0
Sprite,Foreground,Centre,"sb\particle.png",0,0 F,0,34042,,0.66 C,0,34042,,255,232,99 P,0,34042,,A M,7,34042,34762,112,164,142,137 S,6,34042,34762,-0.1177267,0
Sprite,Foreground,Centre,"sb\particle.png",0,0 F,0,34419,,0.66 C,0,34419,,245,218,66 P,0,34419,,A M,7,34419,35139,148,264,173,245 S,6,34419,35139,0.3239414,0
Sprite,Foreground,Centre,"sb\particle.png",0,0 F,0,34419,,0.66 C,0,34419,,245,218,66 P,0,34419,,A M,7,34419,35139,148,264,166,287 S,6,34419,35139,0.237666,0
Sprite,Foreground,Centre,"sb\particle.png",0,0 F,0,34419,,0.66 C,0,34419,,245,218,66 P,0,34419,,A M,7,34419,35139,148,264,137,299 S,6,34419,35139,0.01791998,0
Sprite,Foreground,Centre,"sb\particle.png",0,0 F,0,34419,,0.66 C,0,34419,,245,218,66 P,0,34419,,A M,7,34419,35139,148,264,183,305 S,6,34419,35139,0.2950275,0
Sprite,Foreground,Centre,"sb\particle.png",0,0 F,0,34419,,0.66 C,0,34419,,245,218,66 P,0,34419,,A M,7,34419,35139,148,264,199,281 S,6,34419,35139,-0.1630158,0
Sprite,Foreground,Centre,"sb\particle.png",0,0 F,0,34419,,0.66 C,0,34419,,245,218,66 P,0,34419,,A M,7,34419,35139,148,264,167,272 S,6,34419,35139,-0.0660386,0
Sprite,Foreground,Centre,"sb\particle.png",0,0 F,0,34419,,0.66 C,0,34419,,245,218,66 P,0,34419,,A M,7,34419,35139,148,264,159,274 S,6,34419,35139,0.05874682,0
Sprite,Foreground,Centre,"sb\particle.png",0,0 F,0,34419,,0.66 C,0,34419,,255,232,99 P,0,34419,,A M,7,34419,35139,148,264,99,256 S,6,34419,35139,0.0955255,0
Sprite,Foreground,Centre,"sb\particle.png",0,0 F,0,34419,,0.66 C,0,34419,,255,232,99 P,0,34419,,A M,7,34419,35139,148,264,175,270 S,6,34419,35139,0.03646391,0
Sprite,Foreground,Centre,"sb\particle.png",0,0 F,0,34419,,0.66 C,0,34419,,255,232,99 P,0,34419,,A M,7,34419,35139,148,264,179,315 S,6,34419,35139,0.3956959,0
Sprite,Foreground,Centre,"sb\particle.png",0,0 F,0,34419,,0.66 C,0,34419,,255,232,99 P,0,34419,,A M,7,34419,35139,148,264,110,259 S,6,34419,35139,0.04701089,0
Sprite,Foreground,Centre,"sb\particle.png",0,0 F,0,34419,,0.66 C,0,34419,,255,232,99 P,0,34419,,A M,7,34419,35139,148,264,181,259 S,6,34419,35139,0.03685327,0
Sprite,Foreground,Centre,"sb\particle.png",0,0 F,0,34419,,0.66 C,0,34419,,255,232,99 P,0,34419,,A M,7,34419,35139,148,264,155,226 S,6,34419,35139,0.3266347,0
Sprite,Foreground,Centre,"sb\particle.png",0,0 F,0,34419,,0.66 C,0,34419,,255,232,99 P,0,34419,,A M,7,34419,35139,148,264,129,214 S,6,34419,35139,0.4651624,0
Sprite,Foreground,Centre,"sb\particle.png",0,0 F,0,34419,,0.66 C,0,34419,,255,232,99 P,0,34419,,A M,7,34419,35139,148,264,134,316 S,6,34419,35139,-0.1532794,0
Sprite,Foreground,Centre,"sb\particle.png",0,0 F,0,34419,,0.66 C,0,34419,,255,232,99 P,0,34419,,A M,7,34419,35139,148,264,178,257 S,6,34419,35139,0.2548143,0
Sprite,Foreground,Centre,"sb\particle.png",0,0 F,0,34419,,0.66 C,0,34419,,255,232,99 P,0,34419,,A M,7,34419,35139,148,264,117,224 S,6,34419,35139,0.4375497,0
Sprite,Foreground,Centre,"sb\particle.png",0,0 F,0,34797,,0.66 C,0,34797,,245,218,66 P,0,34797,,A M,7,34797,35517,148,372,200,409 S,6,34797,35517,0.03456099,0
Sprite,Foreground,Centre,"sb\particle.png",0,0 F,0,34797,,0.66 C,0,34797,,245,218,66 P,0,34797,,A M,7,34797,35517,148,372,123,328 S,6,34797,35517,0.3993316,0
Sprite,Foreground,Centre,"sb\particle.png",0,0 F,0,34797,,0.66 C,0,34797,,245,218,66 P,0,34797,,A M,7,34797,35517,148,372,183,339 S,6,34797,35517,-0.001699165,0
Sprite,Foreground,Centre,"sb\particle.png",0,0 F,0,34797,,0.66 C,0,34797,,245,218,66 P,0,34797,,A M,7,34797,35517,148,372,118,333 S,6,34797,35517,0.08690874,0
Sprite,Foreground,Centre,"sb\particle.png",0,0 F,0,34797,,0.66 C,0,34797,,245,218,66 P,0,34797,,A M,7,34797,35517,148,372,113,412 S,6,34797,35517,-0.06147362,0
Sprite,Foreground,Centre,"sb\particle.png",0,0 F,0,34797,,0.66 C,0,34797,,245,218,66 P,0,34797,,A M,7,34797,35517,148,372,171,411 S,6,34797,35517,0.3908198,0
Sprite,Foreground,Centre,"sb\particle.png",0,0 F,0,34797,,0.66 C,0,34797,,245,218,66 P,0,34797,,A M,7,34797,35517,148,372,119,366 S,6,34797,35517,-0.2282563,0
Sprite,Foreground,Centre,"sb\particle.png",0,0 F,0,34797,,0.66 C,0,34797,,255,232,99 P,0,34797,,A M,7,34797,35517,148,372,140,320 S,6,34797,35517,0.358287,0
Sprite,Foreground,Centre,"sb\particle.png",0,0 F,0,34797,,0.66 C,0,34797,,255,232,99 P,0,34797,,A M,7,34797,35517,148,372,140,357 S,6,34797,35517,-0.09729566,0
Sprite,Foreground,Centre,"sb\particle.png",0,0 F,0,34797,,0.66 C,0,34797,,255,232,99 P,0,34797,,A M,7,34797,35517,148,372,126,329 S,6,34797,35517,0.2607857,0
Sprite,Foreground,Centre,"sb\particle.png",0,0 F,0,34797,,0.66 C,0,34797,,255,232,99 P,0,34797,,A M,7,34797,35517,148,372,156,404 S,6,34797,35517,-0.1774705,0
Sprite,Foreground,Centre,"sb\particle.png",0,0 F,0,34797,,0.66 C,0,34797,,255,232,99 P,0,34797,,A M,7,34797,35517,148,372,149,343 S,6,34797,35517,-0.19455,0
Sprite,Foreground,Centre,"sb\particle.png",0,0 F,0,34797,,0.66 C,0,34797,,255,232,99 P,0,34797,,A M,7,34797,35517,148,372,157,407 S,6,34797,35517,-0.1787189,0
Sprite,Foreground,Centre,"sb\particle.png",0,0 F,0,34797,,0.66 C,0,34797,,255,232,99 P,0,34797,,A M,7,34797,35517,148,372,126,369 S,6,34797,35517,0.08500008,0
Sprite,Foreground,Centre,"sb\particle.png",0,0 F,0,34797,,0.66 C,0,34797,,255,232,99 P,0,34797,,A M,7,34797,35517,148,372,199,321 S,6,34797,35517,0.3145814,0
Sprite,Foreground,Centre,"sb\particle.png",0,0 F,0,34797,,0.66 C,0,34797,,255,232,99 P,0,34797,,A M,7,34797,35517,148,372,183,412 S,6,34797,35517,0.1414318,0
Sprite,Foreground,Centre,"sb\particle.png",0,0 F,0,34797,,0.66 C,0,34797,,255,232,99 P,0,34797,,A M,7,34797,35517,148,372,123,406 S,6,34797,35517,0.05618133,0
Sprite,Foreground,Centre,"sb\particle.png",0,0 F,0,35363,,0.66 C,0,35363,,245,218,66 P,0,35363,,A M,7,35363,36083,304,412,312,413 S,6,35363,36083,-0.0855682,0
Sprite,Foreground,Centre,"sb\particle.png",0,0 F,0,35363,,0.66 C,0,35363,,245,218,66 P,0,35363,,A M,7,35363,36083,304,412,356,448 S,6,35363,36083,0.326123,0
Sprite,Foreground,Centre,"sb\particle.png",0,0 F,0,35363,,0.66 C,0,35363,,245,218,66 P,0,35363,,A M,7,35363,36083,304,412,315,366 S,6,35363,36083,-0.192618,0
Sprite,Foreground,Centre,"sb\particle.png",0,0 F,0,35363,,0.66 C,0,35363,,245,218,66 P,0,35363,,A M,7,35363,36083,304,412,301,434 S,6,35363,36083,-0.01713361,0
Sprite,Foreground,Centre,"sb\particle.png",0,0 F,0,35363,,0.66 C,0,35363,,245,218,66 P,0,35363,,A M,7,35363,36083,304,412,260,388 S,6,35363,36083,-0.09298594,0
Sprite,Foreground,Centre,"sb\particle.png",0,0 F,0,35363,,0.66 C,0,35363,,245,218,66 P,0,35363,,A M,7,35363,36083,304,412,313,405 S,6,35363,36083,0.06060119,0
Sprite,Foreground,Centre,"sb\particle.png",0,0 F,0,35363,,0.66 C,0,35363,,245,218,66 P,0,35363,,A M,7,35363,36083,304,412,256,394 S,6,35363,36083,-0.1633358,0
Sprite,Foreground,Centre,"sb\particle.png",0,0 F,0,35363,,0.66 C,0,35363,,255,232,99 P,0,35363,,A M,7,35363,36083,304,412,273,379 S,6,35363,36083,-0.2751429,0
Sprite,Foreground,Centre,"sb\particle.png",0,0 F,0,35363,,0.66 C,0,35363,,255,232,99 P,0,35363,,A M,7,35363,36083,304,412,339,408 S,6,35363,36083,0.3021596,0
Sprite,Foreground,Centre,"sb\particle.png",0,0 F,0,35363,,0.66 C,0,35363,,255,232,99 P,0,35363,,A M,7,35363,36083,304,412,286,424 S,6,35363,36083,0.1840333,0
Sprite,Foreground,Centre,"sb\particle.png",0,0 F,0,35363,,0.66 C,0,35363,,255,232,99 P,0,35363,,A M,7,35363,36083,304,412,316,436 S,6,35363,36083,-0.04757026,0
Sprite,Foreground,Centre,"sb\particle.png",0,0 F,0,35363,,0.66 C,0,35363,,255,232,99 P,0,35363,,A M,7,35363,36083,304,412,267,358 S,6,35363,36083,-0.1199302,0
Sprite,Foreground,Centre,"sb\particle.png",0,0 F,0,35363,,0.66 C,0,35363,,255,232,99 P,0,35363,,A M,7,35363,36083,304,412,287,428 S,6,35363,36083,0.102469,0
Sprite,Foreground,Centre,"sb\particle.png",0,0 F,0,35363,,0.66 C,0,35363,,255,232,99 P,0,35363,,A M,7,35363,36083,304,412,302,456 S,6,35363,36083,0.158792,0
Sprite,Foreground,Centre,"sb\particle.png",0,0 F,0,35363,,0.66 C,0,35363,,255,232,99 P,0,35363,,A M,7,35363,36083,304,412,353,399 S,6,35363,36083,0.4422764,0
Sprite,Foreground,Centre,"sb\particle.png",0,0 F,0,35363,,0.66 C,0,35363,,255,232,99 P,0,35363,,A M,7,35363,36083,304,412,279,448 S,6,35363,36083,-0.01321113,0
Sprite,Foreground,Centre,"sb\particle.png",0,0 F,0,35363,,0.66 C,0,35363,,255,232,99 P,0,35363,,A M,7,35363,36083,304,412,337,373 S,6,35363,36083,0.4650606,0
Sprite,Foreground,Centre,"sb\particle.png",0,0 F,0,35741,,0.66 C,0,35741,,245,218,66 P,0,35741,,A M,7,35741,36461,376,328,414,286 S,6,35741,36461,0.1176694,0
Sprite,Foreground,Centre,"sb\particle.png",0,0 F,0,35741,,0.66 C,0,35741,,245,218,66 P,0,35741,,A M,7,35741,36461,376,328,376,314 S,6,35741,36461,0.2988331,0
Sprite,Foreground,Centre,"sb\particle.png",0,0 F,0,35741,,0.66 C,0,35741,,245,218,66 P,0,35741,,A M,7,35741,36461,376,328,374,334 S,6,35741,36461,-0.296777,0
Sprite,Foreground,Centre,"sb\particle.png",0,0 F,0,35741,,0.66 C,0,35741,,245,218,66 P,0,35741,,A M,7,35741,36461,376,328,385,287 S,6,35741,36461,-0.06962778,0
Sprite,Foreground,Centre,"sb\particle.png",0,0 F,0,35741,,0.66 C,0,35741,,245,218,66 P,0,35741,,A M,7,35741,36461,376,328,412,343 S,6,35741,36461,0.1161544,0
Sprite,Foreground,Centre,"sb\particle.png",0,0 F,0,35741,,0.66 C,0,35741,,245,218,66 P,0,35741,,A M,7,35741,36461,376,328,418,366 S,6,35741,36461,0.1984698,0
Sprite,Foreground,Centre,"sb\particle.png",0,0 F,0,35741,,0.66 C,0,35741,,245,218,66 P,0,35741,,A M,7,35741,36461,376,328,428,286 S,6,35741,36461,-0.2575674,0
Sprite,Foreground,Centre,"sb\particle.png",0,0 F,0,35741,,0.66 C,0,35741,,255,232,99 P,0,35741,,A M,7,35741,36461,376,328,361,316 S,6,35741,36461,0.4777732,0
Sprite,Foreground,Centre,"sb\particle.png",0,0 F,0,35741,,0.66 C,0,35741,,255,232,99 P,0,35741,,A M,7,35741,36461,376,328,404,278 S,6,35741,36461,-0.05579473,0
Sprite,Foreground,Centre,"sb\particle.png",0,0 F,0,35741,,0.66 C,0,35741,,255,232,99 P,0,35741,,A M,7,35741,36461,376,328,340,370 S,6,35741,36461,0.2137389,0
Sprite,Foreground,Centre,"sb\particle.png",0,0 F,0,35741,,0.66 C,0,35741,,255,232,99 P,0,35741,,A M,7,35741,36461,376,328,334,354 S,6,35741,36461,0.3599487,0
Sprite,Foreground,Centre,"sb\particle.png",0,0 F,0,35741,,0.66 C,0,35741,,255,232,99 P,0,35741,,A M,7,35741,36461,376,328,429,377 S,6,35741,36461,0.4400882,0
Sprite,Foreground,Centre,"sb\particle.png",0,0 F,0,35741,,0.66 C,0,35741,,255,232,99 P,0,35741,,A M,7,35741,36461,376,328,383,305 S,6,35741,36461,-0.00497209,0
Sprite,Foreground,Centre,"sb\particle.png",0,0 F,0,35741,,0.66 C,0,35741,,255,232,99 P,0,35741,,A M,7,35741,36461,376,328,352,282 S,6,35741,36461,0.3033628,0
Sprite,Foreground,Centre,"sb\particle.png",0,0 F,0,35741,,0.66 C,0,35741,,255,232,99 P,0,35741,,A M,7,35741,36461,376,328,372,323 S,6,35741,36461,0.2570868,0
Sprite,Foreground,Centre,"sb\particle.png",0,0 F,0,35741,,0.66 C,0,35741,,255,232,99 P,0,35741,,A M,7,35741,36461,376,328,419,332 S,6,35741,36461,0.08759593,0
Sprite,Foreground,Centre,"sb\particle.png",0,0 F,0,35741,,0.66 C,0,35741,,255,232,99 P,0,35741,,A M,7,35741,36461,376,328,365,367 S,6,35741,36461,0.4877892,0
Sprite,Foreground,Centre,"sb\particle.png",0,0 F,0,36118,,0.66 C,0,36118,,245,218,66 P,0,36118,,A M,7,36118,36838,332,248,297,205 S,6,36118,36838,-0.2137792,0
Sprite,Foreground,Centre,"sb\particle.png",0,0 F,0,36118,,0.66 C,0,36118,,245,218,66 P,0,36118,,A M,7,36118,36838,332,248,321,296 S,6,36118,36838,0.2166333,0
Sprite,Foreground,Centre,"sb\particle.png",0,0 F,0,36118,,0.66 C,0,36118,,245,218,66 P,0,36118,,A M,7,36118,36838,332,248,356,291 S,6,36118,36838,0.2794614,0
Sprite,Foreground,Centre,"sb\particle.png",0,0 F,0,36118,,0.66 C,0,36118,,245,218,66 P,0,36118,,A M,7,36118,36838,332,248,379,197 S,6,36118,36838,0.2009697,0
Sprite,Foreground,Centre,"sb\particle.png",0,0 F,0,36118,,0.66 C,0,36118,,245,218,66 P,0,36118,,A M,7,36118,36838,332,248,284,296 S,6,36118,36838,0.3108782,0
Sprite,Foreground,Centre,"sb\particle.png",0,0 F,0,36118,,0.66 C,0,36118,,245,218,66 P,0,36118,,A M,7,36118,36838,332,248,290,282 S,6,36118,36838,-0.07339782,0
Sprite,Foreground,Centre,"sb\particle.png",0,0 F,0,36118,,0.66 C,0,36118,,245,218,66 P,0,36118,,A M,7,36118,36838,332,248,359,290 S,6,36118,36838,0.3089152,0
Sprite,Foreground,Centre,"sb\particle.png",0,0 F,0,36118,,0.66 C,0,36118,,255,232,99 P,0,36118,,A M,7,36118,36838,332,248,369,269 S,6,36118,36838,0.2239135,0
Sprite,Foreground,Centre,"sb\particle.png",0,0 F,0,36118,,0.66 C,0,36118,,255,232,99 P,0,36118,,A M,7,36118,36838,332,248,289,247 S,6,36118,36838,0.01372729,0
Sprite,Foreground,Centre,"sb\particle.png",0,0 F,0,36118,,0.66 C,0,36118,,255,232,99 P,0,36118,,A M,7,36118,36838,332,248,381,227 S,6,36118,36838,0.1257471,0
Sprite,Foreground,Centre,"sb\particle.png",0,0 F,0,36118,,0.66 C,0,36118,,255,232,99 P,0,36118,,A M,7,36118,36838,332,248,365,213 S,6,36118,36838,0.06934815,0
Sprite,Foreground,Centre,"sb\particle.png",0,0 F,0,36118,,0.66 C,0,36118,,255,232,99 P,0,36118,,A M,7,36118,36838,332,248,382,227 S,6,36118,36838,0.005436764,0
Sprite,Foreground,Centre,"sb\particle.png",0,0 F,0,36118,,0.66 C,0,36118,,255,232,99 P,0,36118,,A M,7,36118,36838,332,248,281,223 S,6,36118,36838,0.1246302,0
Sprite,Foreground,Centre,"sb\particle.png",0,0 F,0,36118,,0.66 C,0,36118,,255,232,99 P,0,36118,,A M,7,36118,36838,332,248,358,290 S,6,36118,36838,-0.1882502,0
Sprite,Foreground,Centre,"sb\particle.png",0,0 F,0,36118,,0.66 C,0,36118,,255,232,99 P,0,36118,,A M,7,36118,36838,332,248,318,290 S,6,36118,36838,0.1036515,0
Sprite,Foreground,Centre,"sb\particle.png",0,0 F,0,36118,,0.66 C,0,36118,,255,232,99 P,0,36118,,A M,7,36118,36838,332,248,302,270 S,6,36118,36838,-0.03552291,0
Sprite,Foreground,Centre,"sb\particle.png",0,0 F,0,36118,,0.66 C,0,36118,,255,232,99 P,0,36118,,A M,7,36118,36838,332,248,309,267 S,6,36118,36838,0.1328403,0
Sprite,Foreground,Centre,"sb\particle.png",0,0 F,0,36307,,0.66 C,0,36307,,245,218,66 P,0,36307,,A M,7,36307,37027,332,248,314,200 S,6,36307,37027,0.03036424,0
Sprite,Foreground,Centre,"sb\particle.png",0,0 F,0,36307,,0.66 C,0,36307,,245,218,66 P,0,36307,,A M,7,36307,37027,332,248,319,202 S,6,36307,37027,-0.2247774,0
Sprite,Foreground,Centre,"sb\particle.png",0,0 F,0,36307,,0.66 C,0,36307,,245,218,66 P,0,36307,,A M,7,36307,37027,332,248,304,276 S,6,36307,37027,0.2221938,0
Sprite,Foreground,Centre,"sb\particle.png",0,0 F,0,36307,,0.66 C,0,36307,,245,218,66 P,0,36307,,A M,7,36307,37027,332,248,364,233 S,6,36307,37027,-0.04652234,0
Sprite,Foreground,Centre,"sb\particle.png",0,0 F,0,36307,,0.66 C,0,36307,,245,218,66 P,0,36307,,A M,7,36307,37027,332,248,318,244 S,6,36307,37027,0.08801475,0
Sprite,Foreground,Centre,"sb\particle.png",0,0 F,0,36307,,0.66 C,0,36307,,245,218,66 P,0,36307,,A M,7,36307,37027,332,248,323,265 S,6,36307,37027,0.4185217,0
Sprite,Foreground,Centre,"sb\particle.png",0,0 F,0,36307,,0.66 C,0,36307,,245,218,66 P,0,36307,,A M,7,36307,37027,332,248,358,276 S,6,36307,37027,0.200303,0
Sprite,Foreground,Centre,"sb\particle.png",0,0 F,0,36307,,0.66 C,0,36307,,255,232,99 P,0,36307,,A M,7,36307,37027,332,248,331,269 S,6,36307,37027,-0.005527686,0
Sprite,Foreground,Centre,"sb\particle.png",0,0 F,0,36307,,0.66 C,0,36307,,255,232,99 P,0,36307,,A M,7,36307,37027,332,248,367,199 S,6,36307,37027,0.01821621,0
Sprite,Foreground,Centre,"sb\particle.png",0,0 F,0,36307,,0.66 C,0,36307,,255,232,99 P,0,36307,,A M,7,36307,37027,332,248,362,278 S,6,36307,37027,-0.2547145,0
Sprite,Foreground,Centre,"sb\particle.png",0,0 F,0,36307,,0.66 C,0,36307,,255,232,99 P,0,36307,,A M,7,36307,37027,332,248,312,290 S,6,36307,37027,0.1935372,0
Sprite,Foreground,Centre,"sb\particle.png",0,0 F,0,36307,,0.66 C,0,36307,,255,232,99 P,0,36307,,A M,7,36307,37027,332,248,294,232 S,6,36307,37027,0.4870871,0
Sprite,Foreground,Centre,"sb\particle.png",0,0 F,0,36307,,0.66 C,0,36307,,255,232,99 P,0,36307,,A M,7,36307,37027,332,248,330,219 S,6,36307,37027,0.153687,0
Sprite,Foreground,Centre,"sb\particle.png",0,0 F,0,36307,,0.66 C,0,36307,,255,232,99 P,0,36307,,A M,7,36307,37027,332,248,282,223 S,6,36307,37027,0.2908593,0
Sprite,Foreground,Centre,"sb\particle.png",0,0 F,0,36307,,0.66 C,0,36307,,255,232,99 P,0,36307,,A M,7,36307,37027,332,248,376,275 S,6,36307,37027,0.1268449,0
Sprite,Foreground,Centre,"sb\particle.png",0,0 F,0,36307,,0.66 C,0,36307,,255,232,99 P,0,36307,,A M,7,36307,37027,332,248,376,211 S,6,36307,37027,0.3707164,0
Sprite,Foreground,Centre,"sb\particle.png",0,0 F,0,36307,,0.66 C,0,36307,,255,232,99 P,0,36307,,A M,7,36307,37027,332,248,354,245 S,6,36307,37027,-0.08485541,0
Sprite,Foreground,Centre,"sb\particle.png",0,0 F,0,37062,,0.66 C,0,37062,,245,218,66 P,0,37062,,A M,7,37062,37782,420,92,457,125 S,6,37062,37782,0.3979865,0
Sprite,Foreground,Centre,"sb\particle.png",0,0 F,0,37062,,0.66 C,0,37062,,245,218,66 P,0,37062,,A M,7,37062,37782,420,92,451,100 S,6,37062,37782,-0.09180783,0
Sprite,Foreground,Centre,"sb\particle.png",0,0 F,0,37062,,0.66 C,0,37062,,245,218,66 P,0,37062,,A M,7,37062,37782,420,92,372,99 S,6,37062,37782,0.1346151,0
Sprite,Foreground,Centre,"sb\particle.png",0,0 F,0,37062,,0.66 C,0,37062,,245,218,66 P,0,37062,,A M,7,37062,37782,420,92,373,43 S,6,37062,37782,0.2991126,0
Sprite,Foreground,Centre,"sb\particle.png",0,0 F,0,37062,,0.66 C,0,37062,,245,218,66 P,0,37062,,A M,7,37062,37782,420,92,448,142 S,6,37062,37782,0.01199381,0
Sprite,Foreground,Centre,"sb\particle.png",0,0 F,0,37062,,0.66 C,0,37062,,245,218,66 P,0,37062,,A M,7,37062,37782,420,92,469,60 S,6,37062,37782,-0.002348757,0
Sprite,Foreground,Centre,"sb\particle.png",0,0 F,0,37062,,0.66 C,0,37062,,245,218,66 P,0,37062,,A M,7,37062,37782,420,92,367,48 S,6,37062,37782,0.09505625,0
Sprite,Foreground,Centre,"sb\particle.png",0,0 F,0,37062,,0.66 C,0,37062,,255,232,99 P,0,37062,,A M,7,37062,37782,420,92,435,61 S,6,37062,37782,-0.298268,0
Sprite,Foreground,Centre,"sb\particle.png",0,0 F,0,37062,,0.66 C,0,37062,,255,232,99 P,0,37062,,A M,7,37062,37782,420,92,462,89 S,6,37062,37782,0.46276,0
Sprite,Foreground,Centre,"sb\particle.png",0,0 F,0,37062,,0.66 C,0,37062,,255,232,99 P,0,37062,,A M,7,37062,37782,420,92,381,49 S,6,37062,37782,0.3545355,0
Sprite,Foreground,Centre,"sb\particle.png",0,0 F,0,37062,,0.66 C,0,37062,,255,232,99 P,0,37062,,A M,7,37062,37782,420,92,385,95 S,6,37062,37782,0.1915696,0
Sprite,Foreground,Centre,"sb\particle.png",0,0 F,0,37062,,0.66 C,0,37062,,255,232,99 P,0,37062,,A M,7,37062,37782,420,92,449,141 S,6,37062,37782,0.07389116,0
Sprite,Foreground,Centre,"sb\particle.png",0,0 F,0,37062,,0.66 C,0,37062,,255,232,99 P,0,37062,,A M,7,37062,37782,420,92,387,67 S,6,37062,37782,0.3728296,0
Sprite,Foreground,Centre,"sb\particle.png",0,0 F,0,37062,,0.66 C,0,37062,,255,232,99 P,0,37062,,A M,7,37062,37782,420,92,427,41 S,6,37062,37782,0.1205435,0
Sprite,Foreground,Centre,"sb\particle.png",0,0 F,0,37062,,0.66 C,0,37062,,255,232,99 P,0,37062,,A M,7,37062,37782,420,92,460,54 S,6,37062,37782,0.1871574,0
Sprite,Foreground,Centre,"sb\particle.png",0,0 F,0,37062,,0.66 C,0,37062,,255,232,99 P,0,37062,,A M,7,37062,37782,420,92,449,72 S,6,37062,37782,-0.1400452,0
Sprite,Foreground,Centre,"sb\particle.png",0,0 F,0,37062,,0.66 C,0,37062,,255,232,99 P,0,37062,,A M,7,37062,37782,420,92,428,38 S,6,37062,37782,-0.004320847,0
Sprite,Foreground,Centre,"sb\particle.png",0,0 F,0,37440,,0.66 C,0,37440,,245,218,66 P,0,37440,,A M,7,37440,38160,524,128,481,138 S,6,37440,38160,0.05193184,0
Sprite,Foreground,Centre,"sb\particle.png",0,0 F,0,37440,,0.66 C,0,37440,,245,218,66 P,0,37440,,A M,7,37440,38160,524,128,515,171 S,6,37440,38160,0.4445771,0
Sprite,Foreground,Centre,"sb\particle.png",0,0 F,0,37440,,0.66 C,0,37440,,245,218,66 P,0,37440,,A M,7,37440,38160,524,128,532,120 S,6,37440,38160,-0.2993509,0
Sprite,Foreground,Centre,"sb\particle.png",0,0 F,0,37440,,0.66 C,0,37440,,245,218,66 P,0,37440,,A M,7,37440,38160,524,128,470,138 S,6,37440,38160,0.1789756,0
Sprite,Foreground,Centre,"sb\particle.png",0,0 F,0,37440,,0.66 C,0,37440,,245,218,66 P,0,37440,,A M,7,37440,38160,524,128,528,83 S,6,37440,38160,-0.1238811,0
Sprite,Foreground,Centre,"sb\particle.png",0,0 F,0,37440,,0.66 C,0,37440,,245,218,66 P,0,37440,,A M,7,37440,38160,524,128,571,76 S,6,37440,38160,-0.2764668,0
Sprite,Foreground,Centre,"sb\particle.png",0,0 F,0,37440,,0.66 C,0,37440,,245,218,66 P,0,37440,,A M,7,37440,38160,524,128,568,178 S,6,37440,38160,0.08771996,0
Sprite,Foreground,Centre,"sb\particle.png",0,0 F,0,37440,,0.66 C,0,37440,,255,232,99 P,0,37440,,A M,7,37440,38160,524,128,556,122 S,6,37440,38160,-0.2668635,0
Sprite,Foreground,Centre,"sb\particle.png",0,0 F,0,37440,,0.66 C,0,37440,,255,232,99 P,0,37440,,A M,7,37440,38160,524,128,523,77 S,6,37440,38160,0.174319,0
Sprite,Foreground,Centre,"sb\particle.png",0,0 F,0,37440,,0.66 C,0,37440,,255,232,99 P,0,37440,,A M,7,37440,38160,524,128,536,94 S,6,37440,38160,0.06587982,0
Sprite,Foreground,Centre,"sb\particle.png",0,0 F,0,37440,,0.66 C,0,37440,,255,232,99 P,0,37440,,A M,7,37440,38160,524,128,563,143 S,6,37440,38160,0.3043123,0
Sprite,Foreground,Centre,"sb\particle.png",0,0 F,0,37440,,0.66 C,0,37440,,255,232,99 P,0,37440,,A M,7,37440,38160,524,128,515,160 S,6,37440,38160,-0.1915271,0
Sprite,Foreground,Centre,"sb\particle.png",0,0 F,0,37440,,0.66 C,0,37440,,255,232,99 P,0,37440,,A M,7,37440,38160,524,128,526,163 S,6,37440,38160,0.3957974,0
Sprite,Foreground,Centre,"sb\particle.png",0,0 F,0,37440,,0.66 C,0,37440,,255,232,99 P,0,37440,,A M,7,37440,38160,524,128,526,128 S,6,37440,38160,0.1439694,0
Sprite,Foreground,Centre,"sb\particle.png",0,0 F,0,37440,,0.66 C,0,37440,,255,232,99 P,0,37440,,A M,7,37440,38160,524,128,497,134 S,6,37440,38160,0.185306,0
Sprite,Foreground,Centre,"sb\particle.png",0,0 F,0,37440,,0.66 C,0,37440,,255,232,99 P,0,37440,,A M,7,37440,38160,524,128,565,118 S,6,37440,38160,-0.0571481,0
Sprite,Foreground,Centre,"sb\particle.png",0,0 F,0,37440,,0.66 C,0,37440,,255,232,99 P,0,37440,,A M,7,37440,38160,524,128,563,97 S,6,37440,38160,0.04722321,0
Sprite,Foreground,Centre,"sb\particle.png",0,0 F,0,37818,,0.66 C,0,37818,,245,218,66 P,0,37818,,A M,7,37818,38538,508,236,560,255 S,6,37818,38538,0.3492591,0
Sprite,Foreground,Centre,"sb\particle.png",0,0 F,0,37818,,0.66 C,0,37818,,245,218,66 P,0,37818,,A M,7,37818,38538,508,236,521,288 S,6,37818,38538,-0.1869043,0
Sprite,Foreground,Centre,"sb\particle.png",0,0 F,0,37818,,0.66 C,0,37818,,245,218,66 P,0,37818,,A M,7,37818,38538,508,236,526,230 S,6,37818,38538,-0.2594939,0
Sprite,Foreground,Centre,"sb\particle.png",0,0 F,0,37818,,0.66 C,0,37818,,245,218,66 P,0,37818,,A M,7,37818,38538,508,236,469,211 S,6,37818,38538,0.189771,0
Sprite,Foreground,Centre,"sb\particle.png",0,0 F,0,37818,,0.66 C,0,37818,,245,218,66 P,0,37818,,A M,7,37818,38538,508,236,537,275 S,6,37818,38538,0.2284258,0
Sprite,Foreground,Centre,"sb\particle.png",0,0 F,0,37818,,0.66 C,0,37818,,245,218,66 P,0,37818,,A M,7,37818,38538,508,236,480,281 S,6,37818,38538,-0.01437446,0
Sprite,Foreground,Centre,"sb\particle.png",0,0 F,0,37818,,0.66 C,0,37818,,245,218,66 P,0,37818,,A M,7,37818,38538,508,236,509,240 S,6,37818,38538,0.2739732,0
Sprite,Foreground,Centre,"sb\particle.png",0,0 F,0,37818,,0.66 C,0,37818,,255,232,99 P,0,37818,,A M,7,37818,38538,508,236,457,203 S,6,37818,38538,0.2118555,0
Sprite,Foreground,Centre,"sb\particle.png",0,0 F,0,37818,,0.66 C,0,37818,,255,232,99 P,0,37818,,A M,7,37818,38538,508,236,459,265 S,6,37818,38538,0.2749021,0
Sprite,Foreground,Centre,"sb\particle.png",0,0 F,0,37818,,0.66 C,0,37818,,255,232,99 P,0,37818,,A M,7,37818,38538,508,236,512,275 S,6,37818,38538,-0.2765149,0
Sprite,Foreground,Centre,"sb\particle.png",0,0 F,0,37818,,0.66 C,0,37818,,255,232,99 P,0,37818,,A M,7,37818,38538,508,236,503,254 S,6,37818,38538,0.2706353,0
Sprite,Foreground,Centre,"sb\particle.png",0,0 F,0,37818,,0.66 C,0,37818,,255,232,99 P,0,37818,,A M,7,37818,38538,508,236,480,243 S,6,37818,38538,-0.2422457,0
Sprite,Foreground,Centre,"sb\particle.png",0,0 F,0,37818,,0.66 C,0,37818,,255,232,99 P,0,37818,,A M,7,37818,38538,508,236,508,193 S,6,37818,38538,-0.2091958,0
Sprite,Foreground,Centre,"sb\particle.png",0,0 F,0,37818,,0.66 C,0,37818,,255,232,99 P,0,37818,,A M,7,37818,38538,508,236,533,220 S,6,37818,38538,-0.1204666,0
Sprite,Foreground,Centre,"sb\particle.png",0,0 F,0,37818,,0.66 C,0,37818,,255,232,99 P,0,37818,,A M,7,37818,38538,508,236,460,206 S,6,37818,38538,-0.04006964,0
Sprite,Foreground,Centre,"sb\particle.png",0,0 F,0,37818,,0.66 C,0,37818,,255,232,99 P,0,37818,,A M,7,37818,38538,508,236,531,276 S,6,37818,38538,0.4648217,0
Sprite,Foreground,Centre,"sb\particle.png",0,0 F,0,37818,,0.66 C,0,37818,,255,232,99 P,0,37818,,A M,7,37818,38538,508,236,491,277 S,6,37818,38538,-0.226388,0
Sprite,Foreground,Centre,"sb\particle.png",0,0 F,0,38384,,0.66 C,0,38384,,245,218,66 P,0,38384,,A M,7,38384,39104,536,376,585,396 S,6,38384,39104,-0.1522548,0
Sprite,Foreground,Centre,"sb\particle.png",0,0 F,0,38384,,0.66 C,0,38384,,245,218,66 P,0,38384,,A M,7,38384,39104,536,376,504,400 S,6,38384,39104,0.1662859,0
Sprite,Foreground,Centre,"sb\particle.png",0,0 F,0,38384,,0.66 C,0,38384,,245,218,66 P,0,38384,,A M,7,38384,39104,536,376,516,343 S,6,38384,39104,0.3603116,0
Sprite,Foreground,Centre,"sb\particle.png",0,0 F,0,38384,,0.66 C,0,38384,,245,218,66 P,0,38384,,A M,7,38384,39104,536,376,554,344 S,6,38384,39104,-0.2070987,0
Sprite,Foreground,Centre,"sb\particle.png",0,0 F,0,38384,,0.66 C,0,38384,,245,218,66 P,0,38384,,A M,7,38384,39104,536,376,529,341 S,6,38384,39104,0.1895722,0
Sprite,Foreground,Centre,"sb\particle.png",0,0 F,0,38384,,0.66 C,0,38384,,245,218,66 P,0,38384,,A M,7,38384,39104,536,376,562,397 S,6,38384,39104,0.3547496,0
Sprite,Foreground,Centre,"sb\particle.png",0,0 F,0,38384,,0.66 C,0,38384,,245,218,66 P,0,38384,,A M,7,38384,39104,536,376,485,352 S,6,38384,39104,0.03101443,0
Sprite,Foreground,Centre,"sb\particle.png",0,0 F,0,38384,,0.66 C,0,38384,,255,232,99 P,0,38384,,A M,7,38384,39104,536,376,535,379 S,6,38384,39104,0.24892,0
Sprite,Foreground,Centre,"sb\particle.png",0,0 F,0,38384,,0.66 C,0,38384,,255,232,99 P,0,38384,,A M,7,38384,39104,536,376,498,387 S,6,38384,39104,0.4806117,0
Sprite,Foreground,Centre,"sb\particle.png",0,0 F,0,38384,,0.66 C,0,38384,,255,232,99 P,0,38384,,A M,7,38384,39104,536,376,572,416 S,6,38384,39104,0.006734976,0
Sprite,Foreground,Centre,"sb\particle.png",0,0 F,0,38384,,0.66 C,0,38384,,255,232,99 P,0,38384,,A M,7,38384,39104,536,376,522,351 S,6,38384,39104,-0.04428186,0
Sprite,Foreground,Centre,"sb\particle.png",0,0 F,0,38384,,0.66 C,0,38384,,255,232,99 P,0,38384,,A M,7,38384,39104,536,376,579,382 S,6,38384,39104,0.1280606,0
Sprite,Foreground,Centre,"sb\particle.png",0,0 F,0,38384,,0.66 C,0,38384,,255,232,99 P,0,38384,,A M,7,38384,39104,536,376,525,356 S,6,38384,39104,0.006932018,0
Sprite,Foreground,Centre,"sb\particle.png",0,0 F,0,38384,,0.66 C,0,38384,,255,232,99 P,0,38384,,A M,7,38384,39104,536,376,497,401 S,6,38384,39104,-0.2163222,0
Sprite,Foreground,Centre,"sb\particle.png",0,0 F,0,38384,,0.66 C,0,38384,,255,232,99 P,0,38384,,A M,7,38384,39104,536,376,505,406 S,6,38384,39104,-0.2473918,0
Sprite,Foreground,Centre,"sb\particle.png",0,0 F,0,38384,,0.66 C,0,38384,,255,232,99 P,0,38384,,A M,7,38384,39104,536,376,555,410 S,6,38384,39104,0.06983817,0
Sprite,Foreground,Centre,"sb\particle.png",0,0 F,0,38384,,0.66 C,0,38384,,255,232,99 P,0,38384,,A M,7,38384,39104,536,376,486,362 S,6,38384,39104,0.04069971,0
Sprite,Foreground,Centre,"sb\particle.png",0,0 F,0,38762,,0.66 C,0,38762,,245,218,66 P,0,38762,,A M,7,38762,39482,440,428,422,401 S,6,38762,39482,0.4570191,0
Sprite,Foreground,Centre,"sb\particle.png",0,0 F,0,38762,,0.66 C,0,38762,,245,218,66 P,0,38762,,A M,7,38762,39482,440,428,434,414 S,6,38762,39482,0.2861663,0
Sprite,Foreground,Centre,"sb\particle.png",0,0 F,0,38762,,0.66 C,0,38762,,245,218,66 P,0,38762,,A M,7,38762,39482,440,428,392,471 S,6,38762,39482,0.06924883,0
Sprite,Foreground,Centre,"sb\particle.png",0,0 F,0,38762,,0.66 C,0,38762,,245,218,66 P,0,38762,,A M,7,38762,39482,440,428,405,414 S,6,38762,39482,0.4305581,0
Sprite,Foreground,Centre,"sb\particle.png",0,0 F,0,38762,,0.66 C,0,38762,,245,218,66 P,0,38762,,A M,7,38762,39482,440,428,439,428 S,6,38762,39482,-0.2242561,0
Sprite,Foreground,Centre,"sb\particle.png",0,0 F,0,38762,,0.66 C,0,38762,,245,218,66 P,0,38762,,A M,7,38762,39482,440,428,437,388 S,6,38762,39482,0.0391079,0
Sprite,Foreground,Centre,"sb\particle.png",0,0 F,0,38762,,0.66 C,0,38762,,245,218,66 P,0,38762,,A M,7,38762,39482,440,428,435,476 S,6,38762,39482,0.2823114,0
Sprite,Foreground,Centre,"sb\particle.png",0,0 F,0,38762,,0.66 C,0,38762,,255,232,99 P,0,38762,,A M,7,38762,39482,440,428,406,465 S,6,38762,39482,0.3179746,0
Sprite,Foreground,Centre,"sb\particle.png",0,0 F,0,38762,,0.66 C,0,38762,,255,232,99 P,0,38762,,A M,7,38762,39482,440,428,446,391 S,6,38762,39482,-0.1267072,0
Sprite,Foreground,Centre,"sb\particle.png",0,0 F,0,38762,,0.66 C,0,38762,,255,232,99 P,0,38762,,A M,7,38762,39482,440,428,487,448 S,6,38762,39482,-0.05393232,0
Sprite,Foreground,Centre,"sb\particle.png",0,0 F,0,38762,,0.66 C,0,38762,,255,232,99 P,0,38762,,A M,7,38762,39482,440,428,416,411 S,6,38762,39482,0.06220266,0
Sprite,Foreground,Centre,"sb\particle.png",0,0 F,0,38762,,0.66 C,0,38762,,255,232,99 P,0,38762,,A M,7,38762,39482,440,428,486,442 S,6,38762,39482,-0.1072462,0
Sprite,Foreground,Centre,"sb\particle.png",0,0 F,0,38762,,0.66 C,0,38762,,255,232,99 P,0,38762,,A M,7,38762,39482,440,428,455,413 S,6,38762,39482,-0.2737629,0
Sprite,Foreground,Centre,"sb\particle.png",0,0 F,0,38762,,0.66 C,0,38762,,255,232,99 P,0,38762,,A M,7,38762,39482,440,428,446,389 S,6,38762,39482,0.1668537,0
Sprite,Foreground,Centre,"sb\particle.png",0,0 F,0,38762,,0.66 C,0,38762,,255,232,99 P,0,38762,,A M,7,38762,39482,440,428,492,377 S,6,38762,39482,-0.2237729,0
Sprite,Foreground,Centre,"sb\particle.png",0,0 F,0,38762,,0.66 C,0,38762,,255,232,99 P,0,38762,,A M,7,38762,39482,440,428,461,388 S,6,38762,39482,-0.1800736,0
Sprite,Foreground,Centre,"sb\particle.png",0,0 F,0,38762,,0.66 C,0,38762,,255,232,99 P,0,38762,,A M,7,38762,39482,440,428,451,404 S,6,38762,39482,-0.1617971,0
Sprite,Foreground,Centre,"sb\particle.png",0,0 F,0,39139,,0.66 C,0,39139,,245,218,66 P,0,39139,,A M,7,39139,39859,336,392,373,372 S,6,39139,39859,0.3187636,0
Sprite,Foreground,Centre,"sb\particle.png",0,0 F,0,39139,,0.66 C,0,39139,,245,218,66 P,0,39139,,A M,7,39139,39859,336,392,353,384 S,6,39139,39859,0.1844904,0
Sprite,Foreground,Centre,"sb\particle.png",0,0 F,0,39139,,0.66 C,0,39139,,245,218,66 P,0,39139,,A M,7,39139,39859,336,392,305,354 S,6,39139,39859,-0.2069397,0
Sprite,Foreground,Centre,"sb\particle.png",0,0 F,0,39139,,0.66 C,0,39139,,245,218,66 P,0,39139,,A M,7,39139,39859,336,392,372,411 S,6,39139,39859,0.09176726,0
Sprite,Foreground,Centre,"sb\particle.png",0,0 F,0,39139,,0.66 C,0,39139,,245,218,66 P,0,39139,,A M,7,39139,39859,336,392,305,439 S,6,39139,39859,-0.00956516,0
Sprite,Foreground,Centre,"sb\particle.png",0,0 F,0,39139,,0.66 C,0,39139,,245,218,66 P,0,39139,,A M,7,39139,39859,336,392,366,359 S,6,39139,39859,0.2065195,0
Sprite,Foreground,Centre,"sb\particle.png",0,0 F,0,39139,,0.66 C,0,39139,,245,218,66 P,0,39139,,A M,7,39139,39859,336,392,346,405 S,6,39139,39859,-0.1116512,0
Sprite,Foreground,Centre,"sb\particle.png",0,0 F,0,39139,,0.66 C,0,39139,,255,232,99 P,0,39139,,A M,7,39139,39859,336,392,302,338 S,6,39139,39859,0.4914155,0
Sprite,Foreground,Centre,"sb\particle.png",0,0 F,0,39139,,0.66 C,0,39139,,255,232,99 P,0,39139,,A M,7,39139,39859,336,392,300,383 S,6,39139,39859,0.4019248,0
Sprite,Foreground,Centre,"sb\particle.png",0,0 F,0,39139,,0.66 C,0,39139,,255,232,99 P,0,39139,,A M,7,39139,39859,336,392,300,427 S,6,39139,39859,0.2153387,0
Sprite,Foreground,Centre,"sb\particle.png",0,0 F,0,39139,,0.66 C,0,39139,,255,232,99 P,0,39139,,A M,7,39139,39859,336,392,381,428 S,6,39139,39859,0.3956653,0
Sprite,Foreground,Centre,"sb\particle.png",0,0 F,0,39139,,0.66 C,0,39139,,255,232,99 P,0,39139,,A M,7,39139,39859,336,392,322,443 S,6,39139,39859,0.0309368,0
Sprite,Foreground,Centre,"sb\particle.png",0,0 F,0,39139,,0.66 C,0,39139,,255,232,99 P,0,39139,,A M,7,39139,39859,336,392,332,349 S,6,39139,39859,-0.1842075,0
Sprite,Foreground,Centre,"sb\particle.png",0,0 F,0,39139,,0.66 C,0,39139,,255,232,99 P,0,39139,,A M,7,39139,39859,336,392,298,388 S,6,39139,39859,-0.03204653,0
Sprite,Foreground,Centre,"sb\particle.png",0,0 F,0,39139,,0.66 C,0,39139,,255,232,99 P,0,39139,,A M,7,39139,39859,336,392,321,359 S,6,39139,39859,0.4841394,0
Sprite,Foreground,Centre,"sb\particle.png",0,0 F,0,39139,,0.66 C,0,39139,,255,232,99 P,0,39139,,A M,7,39139,39859,336,392,383,412 S,6,39139,39859,0.2293717,0
Sprite,Foreground,Centre,"sb\particle.png",0,0 F,0,39139,,0.66 C,0,39139,,255,232,99 P,0,39139,,A M,7,39139,39859,336,392,329,345 S,6,39139,39859,0.04655424,0
Sprite,Foreground,Centre,"sb\particle.png",0,0 F,0,39328,,0.66 C,0,39328,,245,218,66 P,0,39328,,A M,7,39328,40048,336,392,318,391 S,6,39328,40048,-0.0696968,0
Sprite,Foreground,Centre,"sb\particle.png",0,0 F,0,39328,,0.66 C,0,39328,,245,218,66 P,0,39328,,A M,7,39328,40048,336,392,369,392 S,6,39328,40048,0.3764286,0
Sprite,Foreground,Centre,"sb\particle.png",0,0 F,0,39328,,0.66 C,0,39328,,245,218,66 P,0,39328,,A M,7,39328,40048,336,392,314,349 S,6,39328,40048,0.3766637,0
Sprite,Foreground,Centre,"sb\particle.png",0,0 F,0,39328,,0.66 C,0,39328,,245,218,66 P,0,39328,,A M,7,39328,40048,336,392,368,373 S,6,39328,40048,-0.09224117,0
Sprite,Foreground,Centre,"sb\particle.png",0,0 F,0,39328,,0.66 C,0,39328,,245,218,66 P,0,39328,,A M,7,39328,40048,336,392,301,346 S,6,39328,40048,-0.1987481,0
Sprite,Foreground,Centre,"sb\particle.png",0,0 F,0,39328,,0.66 C,0,39328,,245,218,66 P,0,39328,,A M,7,39328,40048,336,392,372,396 S,6,39328,40048,0.1470526,0
Sprite,Foreground,Centre,"sb\particle.png",0,0 F,0,39328,,0.66 C,0,39328,,245,218,66 P,0,39328,,A M,7,39328,40048,336,392,311,394 S,6,39328,40048,-0.09295669,0
Sprite,Foreground,Centre,"sb\particle.png",0,0 F,0,39328,,0.66 C,0,39328,,255,232,99 P,0,39328,,A M,7,39328,40048,336,392,354,372 S,6,39328,40048,0.1201973,0
Sprite,Foreground,Centre,"sb\particle.png",0,0 F,0,39328,,0.66 C,0,39328,,255,232,99 P,0,39328,,A M,7,39328,40048,336,392,384,343 S,6,39328,40048,0.1936962,0
Sprite,Foreground,Centre,"sb\particle.png",0,0 F,0,39328,,0.66 C,0,39328,,255,232,99 P,0,39328,,A M,7,39328,40048,336,392,368,430 S,6,39328,40048,-0.1881206,0
Sprite,Foreground,Centre,"sb\particle.png",0,0 F,0,39328,,0.66 C,0,39328,,255,232,99 P,0,39328,,A M,7,39328,40048,336,392,381,349 S,6,39328,40048,-0.1565098,0
Sprite,Foreground,Centre,"sb\particle.png",0,0 F,0,39328,,0.66 C,0,39328,,255,232,99 P,0,39328,,A M,7,39328,40048,336,392,318,429 S,6,39328,40048,-0.2584043,0
Sprite,Foreground,Centre,"sb\particle.png",0,0 F,0,39328,,0.66 C,0,39328,,255,232,99 P,0,39328,,A M,7,39328,40048,336,392,334,404 S,6,39328,40048,0.150683,0
Sprite,Foreground,Centre,"sb\particle.png",0,0 F,0,39328,,0.66 C,0,39328,,255,232,99 P,0,39328,,A M,7,39328,40048,336,392,378,379 S,6,39328,40048,0.3486021,0
Sprite,Foreground,Centre,"sb\particle.png",0,0 F,0,39328,,0.66 C,0,39328,,255,232,99 P,0,39328,,A M,7,39328,40048,336,392,371,420 S,6,39328,40048,0.4344332,0
Sprite,Foreground,Centre,"sb\particle.png",0,0 F,0,39328,,0.66 C,0,39328,,255,232,99 P,0,39328,,A M,7,39328,40048,336,392,300,442 S,6,39328,40048,0.2311051,0
Sprite,Foreground,Centre,"sb\particle.png",0,0 F,0,39328,,0.66 C,0,39328,,255,232,99 P,0,39328,,A M,7,39328,40048,336,392,387,427 S,6,39328,40048,0.416608,0
Sprite,Foreground,Centre,"sb\particle.png",0,0 F,0,40083,,0.66 C,0,40083,,245,218,66 P,0,40083,,A M,7,40083,40803,124,408,143,376 S,6,40083,40803,0.4922643,0
Sprite,Foreground,Centre,"sb\particle.png",0,0 F,0,40083,,0.66 C,0,40083,,245,218,66 P,0,40083,,A M,7,40083,40803,124,408,99,411 S,6,40083,40803,-0.2041205,0
Sprite,Foreground,Centre,"sb\particle.png",0,0 F,0,40083,,0.66 C,0,40083,,245,218,66 P,0,40083,,A M,7,40083,40803,124,408,98,459 S,6,40083,40803,-0.01525215,0
Sprite,Foreground,Centre,"sb\particle.png",0,0 F,0,40083,,0.66 C,0,40083,,245,218,66 P,0,40083,,A M,7,40083,40803,124,408,176,393 S,6,40083,40803,-0.123526,0
Sprite,Foreground,Centre,"sb\particle.png",0,0 F,0,40083,,0.66 C,0,40083,,245,218,66 P,0,40083,,A M,7,40083,40803,124,408,93,452 S,6,40083,40803,0.2132841,0
Sprite,Foreground,Centre,"sb\particle.png",0,0 F,0,40083,,0.66 C,0,40083,,245,218,66 P,0,40083,,A M,7,40083,40803,124,408,156,443 S,6,40083,40803,0.4173043,0
Sprite,Foreground,Centre,"sb\particle.png",0,0 F,0,40083,,0.66 C,0,40083,,245,218,66 P,0,40083,,A M,7,40083,40803,124,408,86,368 S,6,40083,40803,0.04984952,0
Sprite,Foreground,Centre,"sb\particle.png",0,0 F,0,40083,,0.66 C,0,40083,,255,232,99 P,0,40083,,A M,7,40083,40803,124,408,161,363 S,6,40083,40803,-0.06911926,0
Sprite,Foreground,Centre,"sb\particle.png",0,0 F,0,40083,,0.66 C,0,40083,,255,232,99 P,0,40083,,A M,7,40083,40803,124,408,88,420 S,6,40083,40803,0.2914822,0
Sprite,Foreground,Centre,"sb\particle.png",0,0 F,0,40083,,0.66 C,0,40083,,255,232,99 P,0,40083,,A M,7,40083,40803,124,408,107,365 S,6,40083,40803,0.167859,0
Sprite,Foreground,Centre,"sb\particle.png",0,0 F,0,40083,,0.66 C,0,40083,,255,232,99 P,0,40083,,A M,7,40083,40803,124,408,161,432 S,6,40083,40803,0.09902547,0
Sprite,Foreground,Centre,"sb\particle.png",0,0 F,0,40083,,0.66 C,0,40083,,255,232,99 P,0,40083,,A M,7,40083,40803,124,408,101,390 S,6,40083,40803,0.440152,0
Sprite,Foreground,Centre,"sb\particle.png",0,0 F,0,40083,,0.66 C,0,40083,,255,232,99 P,0,40083,,A M,7,40083,40803,124,408,119,380 S,6,40083,40803,0.3708375,0
Sprite,Foreground,Centre,"sb\particle.png",0,0 F,0,40083,,0.66 C,0,40083,,255,232,99 P,0,40083,,A M,7,40083,40803,124,408,71,385 S,6,40083,40803,0.1262269,0
Sprite,Foreground,Centre,"sb\particle.png",0,0 F,0,40083,,0.66 C,0,40083,,255,232,99 P,0,40083,,A M,7,40083,40803,124,408,162,391 S,6,40083,40803,0.3748204,0
Sprite,Foreground,Centre,"sb\particle.png",0,0 F,0,40083,,0.66 C,0,40083,,255,232,99 P,0,40083,,A M,7,40083,40803,124,408,119,418 S,6,40083,40803,0.3637033,0
Sprite,Foreground,Centre,"sb\particle.png",0,0 F,0,40083,,0.66 C,0,40083,,255,232,99 P,0,40083,,A M,7,40083,40803,124,408,96,457 S,6,40083,40803,0.4553913,0
Sprite,Foreground,Centre,"sb\particle.png",0,0 F,0,40461,,0.66 C,0,40461,,245,218,66 P,0,40461,,A M,7,40461,41181,164,316,166,266 S,6,40461,41181,-0.1006512,0
Sprite,Foreground,Centre,"sb\particle.png",0,0 F,0,40461,,0.66 C,0,40461,,245,218,66 P,0,40461,,A M,7,40461,41181,164,316,123,263 S,6,40461,41181,0.208615,0
Sprite,Foreground,Centre,"sb\particle.png",0,0 F,0,40461,,0.66 C,0,40461,,245,218,66 P,0,40461,,A M,7,40461,41181,164,316,150,282 S,6,40461,41181,0.2629623,0
Sprite,Foreground,Centre,"sb\particle.png",0,0 F,0,40461,,0.66 C,0,40461,,245,218,66 P,0,40461,,A M,7,40461,41181,164,316,160,297 S,6,40461,41181,0.184657,0
Sprite,Foreground,Centre,"sb\particle.png",0,0 F,0,40461,,0.66 C,0,40461,,245,218,66 P,0,40461,,A M,7,40461,41181,164,316,134,355 S,6,40461,41181,-0.148288,0
Sprite,Foreground,Centre,"sb\particle.png",0,0 F,0,40461,,0.66 C,0,40461,,245,218,66 P,0,40461,,A M,7,40461,41181,164,316,157,330 S,6,40461,41181,-0.1484642,0
Sprite,Foreground,Centre,"sb\particle.png",0,0 F,0,40461,,0.66 C,0,40461,,245,218,66 P,0,40461,,A M,7,40461,41181,164,316,175,369 S,6,40461,41181,0.04299155,0
Sprite,Foreground,Centre,"sb\particle.png",0,0 F,0,40461,,0.66 C,0,40461,,255,232,99 P,0,40461,,A M,7,40461,41181,164,316,152,305 S,6,40461,41181,0.03616271,0
Sprite,Foreground,Centre,"sb\particle.png",0,0 F,0,40461,,0.66 C,0,40461,,255,232,99 P,0,40461,,A M,7,40461,41181,164,316,216,264 S,6,40461,41181,0.2792515,0
Sprite,Foreground,Centre,"sb\particle.png",0,0 F,0,40461,,0.66 C,0,40461,,255,232,99 P,0,40461,,A M,7,40461,41181,164,316,167,273 S,6,40461,41181,0.2062296,0
Sprite,Foreground,Centre,"sb\particle.png",0,0 F,0,40461,,0.66 C,0,40461,,255,232,99 P,0,40461,,A M,7,40461,41181,164,316,205,296 S,6,40461,41181,-0.1354946,0
Sprite,Foreground,Centre,"sb\particle.png",0,0 F,0,40461,,0.66 C,0,40461,,255,232,99 P,0,40461,,A M,7,40461,41181,164,316,187,304 S,6,40461,41181,0.3598589,0
Sprite,Foreground,Centre,"sb\particle.png",0,0 F,0,40461,,0.66 C,0,40461,,255,232,99 P,0,40461,,A M,7,40461,41181,164,316,199,302 S,6,40461,41181,0.01273818,0
Sprite,Foreground,Centre,"sb\particle.png",0,0 F,0,40461,,0.66 C,0,40461,,255,232,99 P,0,40461,,A M,7,40461,41181,164,316,215,297 S,6,40461,41181,-0.08495352,0
Sprite,Foreground,Centre,"sb\particle.png",0,0 F,0,40461,,0.66 C,0,40461,,255,232,99 P,0,40461,,A M,7,40461,41181,164,316,151,314 S,6,40461,41181,-0.102504,0
Sprite,Foreground,Centre,"sb\particle.png",0,0 F,0,40461,,0.66 C,0,40461,,255,232,99 P,0,40461,,A M,7,40461,41181,164,316,165,267 S,6,40461,41181,-0.1926019,0
Sprite,Foreground,Centre,"sb\particle.png",0,0 F,0,40461,,0.66 C,0,40461,,255,232,99 P,0,40461,,A M,7,40461,41181,164,316,173,262 S,6,40461,41181,0.2194506,0
Sprite,Foreground,Centre,"sb\particle.png",0,0 F,0,40838,,0.66 C,0,40838,,245,218,66 P,0,40838,,A M,7,40838,41558,132,224,148,269 S,6,40838,41558,0.1763438,0
Sprite,Foreground,Centre,"sb\particle.png",0,0 F,0,40838,,0.66 C,0,40838,,245,218,66 P,0,40838,,A M,7,40838,41558,132,224,118,255 S,6,40838,41558,0.4784274,0
Sprite,Foreground,Centre,"sb\particle.png",0,0 F,0,40838,,0.66 C,0,40838,,245,218,66 P,0,40838,,A M,7,40838,41558,132,224,115,229 S,6,40838,41558,0.07392575,0
Sprite,Foreground,Centre,"sb\particle.png",0,0 F,0,40838,,0.66 C,0,40838,,245,218,66 P,0,40838,,A M,7,40838,41558,132,224,83,216 S,6,40838,41558,0.08076323,0
Sprite,Foreground,Centre,"sb\particle.png",0,0 F,0,40838,,0.66 C,0,40838,,245,218,66 P,0,40838,,A M,7,40838,41558,132,224,162,207 S,6,40838,41558,-0.2564558,0
Sprite,Foreground,Centre,"sb\particle.png",0,0 F,0,40838,,0.66 C,0,40838,,245,218,66 P,0,40838,,A M,7,40838,41558,132,224,118,231 S,6,40838,41558,0.3852188,0
Sprite,Foreground,Centre,"sb\particle.png",0,0 F,0,40838,,0.66 C,0,40838,,245,218,66 P,0,40838,,A M,7,40838,41558,132,224,83,180 S,6,40838,41558,0.1943429,0
Sprite,Foreground,Centre,"sb\particle.png",0,0 F,0,40838,,0.66 C,0,40838,,255,232,99 P,0,40838,,A M,7,40838,41558,132,224,103,277 S,6,40838,41558,0.3107792,0
Sprite,Foreground,Centre,"sb\particle.png",0,0 F,0,40838,,0.66 C,0,40838,,255,232,99 P,0,40838,,A M,7,40838,41558,132,224,140,261 S,6,40838,41558,-0.09918392,0
Sprite,Foreground,Centre,"sb\particle.png",0,0 F,0,40838,,0.66 C,0,40838,,255,232,99 P,0,40838,,A M,7,40838,41558,132,224,100,233 S,6,40838,41558,0.1870107,0
Sprite,Foreground,Centre,"sb\particle.png",0,0 F,0,40838,,0.66 C,0,40838,,255,232,99 P,0,40838,,A M,7,40838,41558,132,224,175,170 S,6,40838,41558,-0.1130792,0
Sprite,Foreground,Centre,"sb\particle.png",0,0 F,0,40838,,0.66 C,0,40838,,255,232,99 P,0,40838,,A M,7,40838,41558,132,224,79,194 S,6,40838,41558,0.04131638,0
Sprite,Foreground,Centre,"sb\particle.png",0,0 F,0,40838,,0.66 C,0,40838,,255,232,99 P,0,40838,,A M,7,40838,41558,132,224,164,172 S,6,40838,41558,-0.02853033,0
Sprite,Foreground,Centre,"sb\particle.png",0,0 F,0,40838,,0.66 C,0,40838,,255,232,99 P,0,40838,,A M,7,40838,41558,132,224,175,202 S,6,40838,41558,0.06885556,0
Sprite,Foreground,Centre,"sb\particle.png",0,0 F,0,40838,,0.66 C,0,40838,,255,232,99 P,0,40838,,A M,7,40838,41558,132,224,160,176 S,6,40838,41558,0.0958114,0
Sprite,Foreground,Centre,"sb\particle.png",0,0 F,0,40838,,0.66 C,0,40838,,255,232,99 P,0,40838,,A M,7,40838,41558,132,224,81,176 S,6,40838,41558,0.03083764,0
Sprite,Foreground,Centre,"sb\particle.png",0,0 F,0,40838,,0.66 C,0,40838,,255,232,99 P,0,40838,,A M,7,40838,41558,132,224,81,264 S,6,40838,41558,0.01524706,0
Sprite,Foreground,Centre,"sb\particle.png",0,0 F,0,41405,,0.66 C,0,41405,,245,218,66 P,0,41405,,A M,7,41405,42125,160,84,115,109 S,6,41405,42125,0.4035376,0
Sprite,Foreground,Centre,"sb\particle.png",0,0 F,0,41405,,0.66 C,0,41405,,245,218,66 P,0,41405,,A M,7,41405,42125,160,84,131,53 S,6,41405,42125,0.3937526,0
Sprite,Foreground,Centre,"sb\particle.png",0,0 F,0,41405,,0.66 C,0,41405,,245,218,66 P,0,41405,,A M,7,41405,42125,160,84,200,66 S,6,41405,42125,-0.03710546,0
Sprite,Foreground,Centre,"sb\particle.png",0,0 F,0,41405,,0.66 C,0,41405,,245,218,66 P,0,41405,,A M,7,41405,42125,160,84,122,66 S,6,41405,42125,0.3742101,0
Sprite,Foreground,Centre,"sb\particle.png",0,0 F,0,41405,,0.66 C,0,41405,,245,218,66 P,0,41405,,A M,7,41405,42125,160,84,172,110 S,6,41405,42125,0.1737178,0
Sprite,Foreground,Centre,"sb\particle.png",0,0 F,0,41405,,0.66 C,0,41405,,245,218,66 P,0,41405,,A M,7,41405,42125,160,84,124,50 S,6,41405,42125,0.006174027,0
Sprite,Foreground,Centre,"sb\particle.png",0,0 F,0,41405,,0.66 C,0,41405,,245,218,66 P,0,41405,,A M,7,41405,42125,160,84,207,80 S,6,41405,42125,-0.05635915,0
Sprite,Foreground,Centre,"sb\particle.png",0,0 F,0,41405,,0.66 C,0,41405,,255,232,99 P,0,41405,,A M,7,41405,42125,160,84,126,67 S,6,41405,42125,-0.2530595,0
Sprite,Foreground,Centre,"sb\particle.png",0,0 F,0,41405,,0.66 C,0,41405,,255,232,99 P,0,41405,,A M,7,41405,42125,160,84,165,63 S,6,41405,42125,0.4811368,0
Sprite,Foreground,Centre,"sb\particle.png",0,0 F,0,41405,,0.66 C,0,41405,,255,232,99 P,0,41405,,A M,7,41405,42125,160,84,144,63 S,6,41405,42125,0.08475735,0
Sprite,Foreground,Centre,"sb\particle.png",0,0 F,0,41405,,0.66 C,0,41405,,255,232,99 P,0,41405,,A M,7,41405,42125,160,84,180,133 S,6,41405,42125,0.4375832,0
Sprite,Foreground,Centre,"sb\particle.png",0,0 F,0,41405,,0.66 C,0,41405,,255,232,99 P,0,41405,,A M,7,41405,42125,160,84,116,120 S,6,41405,42125,0.1523986,0
Sprite,Foreground,Centre,"sb\particle.png",0,0 F,0,41405,,0.66 C,0,41405,,255,232,99 P,0,41405,,A M,7,41405,42125,160,84,120,73 S,6,41405,42125,0.1875058,0
Sprite,Foreground,Centre,"sb\particle.png",0,0 F,0,41405,,0.66 C,0,41405,,255,232,99 P,0,41405,,A M,7,41405,42125,160,84,187,62 S,6,41405,42125,0.05138987,0
Sprite,Foreground,Centre,"sb\particle.png",0,0 F,0,41405,,0.66 C,0,41405,,255,232,99 P,0,41405,,A M,7,41405,42125,160,84,132,109 S,6,41405,42125,0.151576,0
Sprite,Foreground,Centre,"sb\particle.png",0,0 F,0,41405,,0.66 C,0,41405,,255,232,99 P,0,41405,,A M,7,41405,42125,160,84,115,93 S,6,41405,42125,0.4230744,0
Sprite,Foreground,Centre,"sb\particle.png",0,0 F,0,41405,,0.66 C,0,41405,,255,232,99 P,0,41405,,A M,7,41405,42125,160,84,123,35 S,6,41405,42125,-0.0470877,0
Sprite,Foreground,Centre,"sb\particle.png",0,0 F,0,41971,,0.66 C,0,41971,,245,218,66 P,0,41971,,A M,7,41971,42691,312,140,355,125 S,6,41971,42691,-0.2869174,0
Sprite,Foreground,Centre,"sb\particle.png",0,0 F,0,41971,,0.66 C,0,41971,,245,218,66 P,0,41971,,A M,7,41971,42691,312,140,361,191 S,6,41971,42691,-0.01054719,0
Sprite,Foreground,Centre,"sb\particle.png",0,0 F,0,41971,,0.66 C,0,41971,,245,218,66 P,0,41971,,A M,7,41971,42691,312,140,358,170 S,6,41971,42691,0.2264731,0
Sprite,Foreground,Centre,"sb\particle.png",0,0 F,0,41971,,0.66 C,0,41971,,245,218,66 P,0,41971,,A M,7,41971,42691,312,140,293,115 S,6,41971,42691,-0.07339444,0
Sprite,Foreground,Centre,"sb\particle.png",0,0 F,0,41971,,0.66 C,0,41971,,245,218,66 P,0,41971,,A M,7,41971,42691,312,140,298,89 S,6,41971,42691,0.4251075,0
Sprite,Foreground,Centre,"sb\particle.png",0,0 F,0,41971,,0.66 C,0,41971,,245,218,66 P,0,41971,,A M,7,41971,42691,312,140,308,109 S,6,41971,42691,-0.1254147,0
Sprite,Foreground,Centre,"sb\particle.png",0,0 F,0,41971,,0.66 C,0,41971,,245,218,66 P,0,41971,,A M,7,41971,42691,312,140,318,167 S,6,41971,42691,-0.209055,0
Sprite,Foreground,Centre,"sb\particle.png",0,0 F,0,41971,,0.66 C,0,41971,,255,232,99 P,0,41971,,A M,7,41971,42691,312,140,284,143 S,6,41971,42691,0.3956947,0
Sprite,Foreground,Centre,"sb\particle.png",0,0 F,0,41971,,0.66 C,0,41971,,255,232,99 P,0,41971,,A M,7,41971,42691,312,140,354,153 S,6,41971,42691,-0.06338895,0
Sprite,Foreground,Centre,"sb\particle.png",0,0 F,0,41971,,0.66 C,0,41971,,255,232,99 P,0,41971,,A M,7,41971,42691,312,140,351,89 S,6,41971,42691,-0.1625402,0
Sprite,Foreground,Centre,"sb\particle.png",0,0 F,0,41971,,0.66 C,0,41971,,255,232,99 P,0,41971,,A M,7,41971,42691,312,140,279,98 S,6,41971,42691,-0.2071215,0
Sprite,Foreground,Centre,"sb\particle.png",0,0 F,0,41971,,0.66 C,0,41971,,255,232,99 P,0,41971,,A M,7,41971,42691,312,140,328,166 S,6,41971,42691,0.4747298,0
Sprite,Foreground,Centre,"sb\particle.png",0,0 F,0,41971,,0.66 C,0,41971,,255,232,99 P,0,41971,,A M,7,41971,42691,312,140,342,140 S,6,41971,42691,0.428717,0
Sprite,Foreground,Centre,"sb\particle.png",0,0 F,0,41971,,0.66 C,0,41971,,255,232,99 P,0,41971,,A M,7,41971,42691,312,140,315,108 S,6,41971,42691,-0.1535013,0
Sprite,Foreground,Centre,"sb\particle.png",0,0 F,0,41971,,0.66 C,0,41971,,255,232,99 P,0,41971,,A M,7,41971,42691,312,140,305,105 S,6,41971,42691,0.02576545,0
Sprite,Foreground,Centre,"sb\particle.png",0,0 F,0,41971,,0.66 C,0,41971,,255,232,99 P,0,41971,,A M,7,41971,42691,312,140,279,125 S,6,41971,42691,0.2252314,0
Sprite,Foreground,Centre,"sb\particle.png",0,0 F,0,41971,,0.66 C,0,41971,,255,232,99 P,0,41971,,A M,7,41971,42691,312,140,269,188 S,6,41971,42691,0.07825262,0
Sprite,Foreground,Centre,"sb\particle.png",0,0 F,0,42349,,0.66 C,0,42349,,245,218,66 P,0,42349,,A M,7,42349,43069,404,92,418,136 S,6,42349,43069,0.2023028,0
Sprite,Foreground,Centre,"sb\particle.png",0,0 F,0,42349,,0.66 C,0,42349,,245,218,66 P,0,42349,,A M,7,42349,43069,404,92,420,81 S,6,42349,43069,-0.2108542,0
Sprite,Foreground,Centre,"sb\particle.png",0,0 F,0,42349,,0.66 C,0,42349,,245,218,66 P,0,42349,,A M,7,42349,43069,404,92,368,137 S,6,42349,43069,0.02644344,0
Sprite,Foreground,Centre,"sb\particle.png",0,0 F,0,42349,,0.66 C,0,42349,,245,218,66 P,0,42349,,A M,7,42349,43069,404,92,427,48 S,6,42349,43069,0.1543239,0
Sprite,Foreground,Centre,"sb\particle.png",0,0 F,0,42349,,0.66 C,0,42349,,245,218,66 P,0,42349,,A M,7,42349,43069,404,92,413,126 S,6,42349,43069,0.1870901,0
Sprite,Foreground,Centre,"sb\particle.png",0,0 F,0,42349,,0.66 C,0,42349,,245,218,66 P,0,42349,,A M,7,42349,43069,404,92,434,119 S,6,42349,43069,-0.172277,0
Sprite,Foreground,Centre,"sb\particle.png",0,0 F,0,42349,,0.66 C,0,42349,,245,218,66 P,0,42349,,A M,7,42349,43069,404,92,360,109 S,6,42349,43069,0.2379386,0
Sprite,Foreground,Centre,"sb\particle.png",0,0 F,0,42349,,0.66 C,0,42349,,255,232,99 P,0,42349,,A M,7,42349,43069,404,92,362,112 S,6,42349,43069,-0.2707243,0
Sprite,Foreground,Centre,"sb\particle.png",0,0 F,0,42349,,0.66 C,0,42349,,255,232,99 P,0,42349,,A M,7,42349,43069,404,92,436,67 S,6,42349,43069,-0.002106526,0
Sprite,Foreground,Centre,"sb\particle.png",0,0 F,0,42349,,0.66 C,0,42349,,255,232,99 P,0,42349,,A M,7,42349,43069,404,92,368,128 S,6,42349,43069,-0.04501226,0
Sprite,Foreground,Centre,"sb\particle.png",0,0 F,0,42349,,0.66 C,0,42349,,255,232,99 P,0,42349,,A M,7,42349,43069,404,92,355,88 S,6,42349,43069,-0.177386,0
Sprite,Foreground,Centre,"sb\particle.png",0,0 F,0,42349,,0.66 C,0,42349,,255,232,99 P,0,42349,,A M,7,42349,43069,404,92,377,44 S,6,42349,43069,0.1838077,0
Sprite,Foreground,Centre,"sb\particle.png",0,0 F,0,42349,,0.66 C,0,42349,,255,232,99 P,0,42349,,A M,7,42349,43069,404,92,433,42 S,6,42349,43069,0.2764953,0
Sprite,Foreground,Centre,"sb\particle.png",0,0 F,0,42349,,0.66 C,0,42349,,255,232,99 P,0,42349,,A M,7,42349,43069,404,92,413,66 S,6,42349,43069,0.1748772,0
Sprite,Foreground,Centre,"sb\particle.png",0,0 F,0,42349,,0.66 C,0,42349,,255,232,99 P,0,42349,,A M,7,42349,43069,404,92,444,46 S,6,42349,43069,0.05773984,0
Sprite,Foreground,Centre,"sb\particle.png",0,0 F,0,42349,,0.66 C,0,42349,,255,232,99 P,0,42349,,A M,7,42349,43069,404,92,436,63 S,6,42349,43069,0.1149449,0
Sprite,Foreground,Centre,"sb\particle.png",0,0 F,0,42349,,0.66 C,0,42349,,255,232,99 P,0,42349,,A M,7,42349,43069,404,92,389,42 S,6,42349,43069,-0.05406724,0
Sprite,Foreground,Centre,"sb\particle.png",0,0 F,0,43104,,0.66 C,0,43104,,245,218,66 P,0,43104,,A M,7,43104,43824,560,224,592,171 S,6,43104,43824,0.1530108,0
Sprite,Foreground,Centre,"sb\particle.png",0,0 F,0,43104,,0.66 C,0,43104,,245,218,66 P,0,43104,,A M,7,43104,43824,560,224,515,270 S,6,43104,43824,-0.1006638,0
Sprite,Foreground,Centre,"sb\particle.png",0,0 F,0,43104,,0.66 C,0,43104,,245,218,66 P,0,43104,,A M,7,43104,43824,560,224,564,207 S,6,43104,43824,0.2926646,0
Sprite,Foreground,Centre,"sb\particle.png",0,0 F,0,43104,,0.66 C,0,43104,,245,218,66 P,0,43104,,A M,7,43104,43824,560,224,583,234 S,6,43104,43824,0.4215929,0
Sprite,Foreground,Centre,"sb\particle.png",0,0 F,0,43104,,0.66 C,0,43104,,245,218,66 P,0,43104,,A M,7,43104,43824,560,224,559,231 S,6,43104,43824,0.2037409,0
Sprite,Foreground,Centre,"sb\particle.png",0,0 F,0,43104,,0.66 C,0,43104,,245,218,66 P,0,43104,,A M,7,43104,43824,560,224,510,268 S,6,43104,43824,0.3958261,0
Sprite,Foreground,Centre,"sb\particle.png",0,0 F,0,43104,,0.66 C,0,43104,,245,218,66 P,0,43104,,A M,7,43104,43824,560,224,579,253 S,6,43104,43824,-0.2779015,0
Sprite,Foreground,Centre,"sb\particle.png",0,0 F,0,43104,,0.66 C,0,43104,,255,232,99 P,0,43104,,A M,7,43104,43824,560,224,538,204 S,6,43104,43824,0.007316587,0
Sprite,Foreground,Centre,"sb\particle.png",0,0 F,0,43104,,0.66 C,0,43104,,255,232,99 P,0,43104,,A M,7,43104,43824,560,224,515,190 S,6,43104,43824,0.3590515,0
Sprite,Foreground,Centre,"sb\particle.png",0,0 F,0,43104,,0.66 C,0,43104,,255,232,99 P,0,43104,,A M,7,43104,43824,560,224,518,207 S,6,43104,43824,0.3998459,0
Sprite,Foreground,Centre,"sb\particle.png",0,0 F,0,43104,,0.66 C,0,43104,,255,232,99 P,0,43104,,A M,7,43104,43824,560,224,570,255 S,6,43104,43824,-0.1329556,0
Sprite,Foreground,Centre,"sb\particle.png",0,0 F,0,43104,,0.66 C,0,43104,,255,232,99 P,0,43104,,A M,7,43104,43824,560,224,574,186 S,6,43104,43824,-0.1049118,0
Sprite,Foreground,Centre,"sb\particle.png",0,0 F,0,43104,,0.66 C,0,43104,,255,232,99 P,0,43104,,A M,7,43104,43824,560,224,598,195 S,6,43104,43824,-0.1775496,0
Sprite,Foreground,Centre,"sb\particle.png",0,0 F,0,43104,,0.66 C,0,43104,,255,232,99 P,0,43104,,A M,7,43104,43824,560,224,601,265 S,6,43104,43824,-0.1634269,0
Sprite,Foreground,Centre,"sb\particle.png",0,0 F,0,43104,,0.66 C,0,43104,,255,232,99 P,0,43104,,A M,7,43104,43824,560,224,557,204 S,6,43104,43824,0.1751336,0
Sprite,Foreground,Centre,"sb\particle.png",0,0 F,0,43104,,0.66 C,0,43104,,255,232,99 P,0,43104,,A M,7,43104,43824,560,224,536,246 S,6,43104,43824,0.1037031,0
Sprite,Foreground,Centre,"sb\particle.png",0,0 F,0,43104,,0.66 C,0,43104,,255,232,99 P,0,43104,,A M,7,43104,43824,560,224,564,234 S,6,43104,43824,-0.1701204,0
Sprite,Foreground,Centre,"sb\particle.png",0,0 F,0,43482,,0.66 C,0,43482,,245,218,66 P,0,43482,,A M,7,43482,44202,508,296,531,315 S,6,43482,44202,0.01318393,0
Sprite,Foreground,Centre,"sb\particle.png",0,0 F,0,43482,,0.66 C,0,43482,,245,218,66 P,0,43482,,A M,7,43482,44202,508,296,456,294 S,6,43482,44202,-0.278253,0
Sprite,Foreground,Centre,"sb\particle.png",0,0 F,0,43482,,0.66 C,0,43482,,245,218,66 P,0,43482,,A M,7,43482,44202,508,296,551,325 S,6,43482,44202,0.01071363,0
Sprite,Foreground,Centre,"sb\particle.png",0,0 F,0,43482,,0.66 C,0,43482,,245,218,66 P,0,43482,,A M,7,43482,44202,508,296,549,317 S,6,43482,44202,-0.1136732,0
Sprite,Foreground,Centre,"sb\particle.png",0,0 F,0,43482,,0.66 C,0,43482,,245,218,66 P,0,43482,,A M,7,43482,44202,508,296,500,323 S,6,43482,44202,0.331513,0
Sprite,Foreground,Centre,"sb\particle.png",0,0 F,0,43482,,0.66 C,0,43482,,245,218,66 P,0,43482,,A M,7,43482,44202,508,296,542,292 S,6,43482,44202,0.3511745,0
Sprite,Foreground,Centre,"sb\particle.png",0,0 F,0,43482,,0.66 C,0,43482,,245,218,66 P,0,43482,,A M,7,43482,44202,508,296,487,295 S,6,43482,44202,-0.02013969,0
Sprite,Foreground,Centre,"sb\particle.png",0,0 F,0,43482,,0.66 C,0,43482,,255,232,99 P,0,43482,,A M,7,43482,44202,508,296,508,295 S,6,43482,44202,0.4584773,0
Sprite,Foreground,Centre,"sb\particle.png",0,0 F,0,43482,,0.66 C,0,43482,,255,232,99 P,0,43482,,A M,7,43482,44202,508,296,472,252 S,6,43482,44202,0.4189689,0
Sprite,Foreground,Centre,"sb\particle.png",0,0 F,0,43482,,0.66 C,0,43482,,255,232,99 P,0,43482,,A M,7,43482,44202,508,296,519,321 S,6,43482,44202,0.2931212,0
Sprite,Foreground,Centre,"sb\particle.png",0,0 F,0,43482,,0.66 C,0,43482,,255,232,99 P,0,43482,,A M,7,43482,44202,508,296,514,334 S,6,43482,44202,0.06902875,0
Sprite,Foreground,Centre,"sb\particle.png",0,0 F,0,43482,,0.66 C,0,43482,,255,232,99 P,0,43482,,A M,7,43482,44202,508,296,467,348 S,6,43482,44202,-0.2174173,0
Sprite,Foreground,Centre,"sb\particle.png",0,0 F,0,43482,,0.66 C,0,43482,,255,232,99 P,0,43482,,A M,7,43482,44202,508,296,538,332 S,6,43482,44202,0.1741176,0
Sprite,Foreground,Centre,"sb\particle.png",0,0 F,0,43482,,0.66 C,0,43482,,255,232,99 P,0,43482,,A M,7,43482,44202,508,296,544,342 S,6,43482,44202,0.09232134,0
Sprite,Foreground,Centre,"sb\particle.png",0,0 F,0,43482,,0.66 C,0,43482,,255,232,99 P,0,43482,,A M,7,43482,44202,508,296,527,266 S,6,43482,44202,-0.264924,0
Sprite,Foreground,Centre,"sb\particle.png",0,0 F,0,43482,,0.66 C,0,43482,,255,232,99 P,0,43482,,A M,7,43482,44202,508,296,541,305 S,6,43482,44202,-0.1325424,0
Sprite,Foreground,Centre,"sb\particle.png",0,0 F,0,43482,,0.66 C,0,43482,,255,232,99 P,0,43482,,A M,7,43482,44202,508,296,511,298 S,6,43482,44202,0.385181,0
Sprite,Foreground,Centre,"sb\particle.png",0,0 F,0,43859,,0.66 C,0,43859,,245,218,66 P,0,43859,,A M,7,43859,44579,516,404,462,379 S,6,43859,44579,0.2213895,0
Sprite,Foreground,Centre,"sb\particle.png",0,0 F,0,43859,,0.66 C,0,43859,,245,218,66 P,0,43859,,A M,7,43859,44579,516,404,492,359 S,6,43859,44579,0.09320563,0
Sprite,Foreground,Centre,"sb\particle.png",0,0 F,0,43859,,0.66 C,0,43859,,245,218,66 P,0,43859,,A M,7,43859,44579,516,404,556,447 S,6,43859,44579,-0.08759499,0
Sprite,Foreground,Centre,"sb\particle.png",0,0 F,0,43859,,0.66 C,0,43859,,245,218,66 P,0,43859,,A M,7,43859,44579,516,404,551,350 S,6,43859,44579,0.2498873,0
Sprite,Foreground,Centre,"sb\particle.png",0,0 F,0,43859,,0.66 C,0,43859,,245,218,66 P,0,43859,,A M,7,43859,44579,516,404,484,419 S,6,43859,44579,0.1118518,0
Sprite,Foreground,Centre,"sb\particle.png",0,0 F,0,43859,,0.66 C,0,43859,,245,218,66 P,0,43859,,A M,7,43859,44579,516,404,557,427 S,6,43859,44579,-0.07860543,0
Sprite,Foreground,Centre,"sb\particle.png",0,0 F,0,43859,,0.66 C,0,43859,,245,218,66 P,0,43859,,A M,7,43859,44579,516,404,490,351 S,6,43859,44579,0.4212024,0
Sprite,Foreground,Centre,"sb\particle.png",0,0 F,0,43859,,0.66 C,0,43859,,255,232,99 P,0,43859,,A M,7,43859,44579,516,404,534,351 S,6,43859,44579,0.359447,0
Sprite,Foreground,Centre,"sb\particle.png",0,0 F,0,43859,,0.66 C,0,43859,,255,232,99 P,0,43859,,A M,7,43859,44579,516,404,478,410 S,6,43859,44579,0.003925646,0
Sprite,Foreground,Centre,"sb\particle.png",0,0 F,0,43859,,0.66 C,0,43859,,255,232,99 P,0,43859,,A M,7,43859,44579,516,404,563,383 S,6,43859,44579,-0.1388155,0
Sprite,Foreground,Centre,"sb\particle.png",0,0 F,0,43859,,0.66 C,0,43859,,255,232,99 P,0,43859,,A M,7,43859,44579,516,404,552,350 S,6,43859,44579,-0.19553,0
Sprite,Foreground,Centre,"sb\particle.png",0,0 F,0,43859,,0.66 C,0,43859,,255,232,99 P,0,43859,,A M,7,43859,44579,516,404,495,406 S,6,43859,44579,0.4513795,0
Sprite,Foreground,Centre,"sb\particle.png",0,0 F,0,43859,,0.66 C,0,43859,,255,232,99 P,0,43859,,A M,7,43859,44579,516,404,486,392 S,6,43859,44579,0.3814878,0
Sprite,Foreground,Centre,"sb\particle.png",0,0 F,0,43859,,0.66 C,0,43859,,255,232,99 P,0,43859,,A M,7,43859,44579,516,404,505,360 S,6,43859,44579,-0.06183253,0
Sprite,Foreground,Centre,"sb\particle.png",0,0 F,0,43859,,0.66 C,0,43859,,255,232,99 P,0,43859,,A M,7,43859,44579,516,404,496,400 S,6,43859,44579,0.1185392,0
Sprite,Foreground,Centre,"sb\particle.png",0,0 F,0,43859,,0.66 C,0,43859,,255,232,99 P,0,43859,,A M,7,43859,44579,516,404,565,421 S,6,43859,44579,-0.03284192,0
Sprite,Foreground,Centre,"sb\particle.png",0,0 F,0,43859,,0.66 C,0,43859,,255,232,99 P,0,43859,,A M,7,43859,44579,516,404,490,414 S,6,43859,44579,-0.02941492,0
Sprite,Foreground,Centre,"sb\particle.png",0,0 F,0,44237,,0.66 C,0,44237,,245,218,66 P,0,44237,,A M,7,44237,44957,408,420,407,458 S,6,44237,44957,0.4607546,0
Sprite,Foreground,Centre,"sb\particle.png",0,0 F,0,44237,,0.66 C,0,44237,,245,218,66 P,0,44237,,A M,7,44237,44957,408,420,394,372 S,6,44237,44957,0.08870277,0
Sprite,Foreground,Centre,"sb\particle.png",0,0 F,0,44237,,0.66 C,0,44237,,245,218,66 P,0,44237,,A M,7,44237,44957,408,420,393,435 S,6,44237,44957,0.2464622,0
Sprite,Foreground,Centre,"sb\particle.png",0,0 F,0,44237,,0.66 C,0,44237,,245,218,66 P,0,44237,,A M,7,44237,44957,408,420,393,429 S,6,44237,44957,0.4710685,0
Sprite,Foreground,Centre,"sb\particle.png",0,0 F,0,44237,,0.66 C,0,44237,,245,218,66 P,0,44237,,A M,7,44237,44957,408,420,388,427 S,6,44237,44957,0.1029334,0
Sprite,Foreground,Centre,"sb\particle.png",0,0 F,0,44237,,0.66 C,0,44237,,245,218,66 P,0,44237,,A M,7,44237,44957,408,420,401,451 S,6,44237,44957,-0.1385277,0
Sprite,Foreground,Centre,"sb\particle.png",0,0 F,0,44237,,0.66 C,0,44237,,245,218,66 P,0,44237,,A M,7,44237,44957,408,420,371,444 S,6,44237,44957,0.3154149,0
Sprite,Foreground,Centre,"sb\particle.png",0,0 F,0,44237,,0.66 C,0,44237,,255,232,99 P,0,44237,,A M,7,44237,44957,408,420,452,446 S,6,44237,44957,0.2550797,0
Sprite,Foreground,Centre,"sb\particle.png",0,0 F,0,44237,,0.66 C,0,44237,,255,232,99 P,0,44237,,A M,7,44237,44957,408,420,412,466 S,6,44237,44957,0.166969,0
Sprite,Foreground,Centre,"sb\particle.png",0,0 F,0,44237,,0.66 C,0,44237,,255,232,99 P,0,44237,,A M,7,44237,44957,408,420,411,419 S,6,44237,44957,0.1775182,0
Sprite,Foreground,Centre,"sb\particle.png",0,0 F,0,44237,,0.66 C,0,44237,,255,232,99 P,0,44237,,A M,7,44237,44957,408,420,362,377 S,6,44237,44957,-0.0808383,0
Sprite,Foreground,Centre,"sb\particle.png",0,0 F,0,44237,,0.66 C,0,44237,,255,232,99 P,0,44237,,A M,7,44237,44957,408,420,405,383 S,6,44237,44957,0.3066536,0
Sprite,Foreground,Centre,"sb\particle.png",0,0 F,0,44237,,0.66 C,0,44237,,255,232,99 P,0,44237,,A M,7,44237,44957,408,420,420,367 S,6,44237,44957,0.4662689,0
Sprite,Foreground,Centre,"sb\particle.png",0,0 F,0,44237,,0.66 C,0,44237,,255,232,99 P,0,44237,,A M,7,44237,44957,408,420,456,396 S,6,44237,44957,0.06104514,0
Sprite,Foreground,Centre,"sb\particle.png",0,0 F,0,44237,,0.66 C,0,44237,,255,232,99 P,0,44237,,A M,7,44237,44957,408,420,450,415 S,6,44237,44957,0.1332473,0
Sprite,Foreground,Centre,"sb\particle.png",0,0 F,0,44237,,0.66 C,0,44237,,255,232,99 P,0,44237,,A M,7,44237,44957,408,420,415,425 S,6,44237,44957,0.1646286,0
Sprite,Foreground,Centre,"sb\particle.png",0,0 F,0,44237,,0.66 C,0,44237,,255,232,99 P,0,44237,,A M,7,44237,44957,408,420,394,469 S,6,44237,44957,0.4581562,0
Sprite,Foreground,Centre,"sb\particle.png",0,0 F,0,44425,,0.66 C,0,44425,,245,218,66 P,0,44425,,A M,7,44425,45145,408,420,438,430 S,6,44425,45145,-0.1517694,0
Sprite,Foreground,Centre,"sb\particle.png",0,0 F,0,44425,,0.66 C,0,44425,,245,218,66 P,0,44425,,A M,7,44425,45145,408,420,365,371 S,6,44425,45145,-0.006449752,0
Sprite,Foreground,Centre,"sb\particle.png",0,0 F,0,44425,,0.66 C,0,44425,,245,218,66 P,0,44425,,A M,7,44425,45145,408,420,380,416 S,6,44425,45145,0.1778334,0
Sprite,Foreground,Centre,"sb\particle.png",0,0 F,0,44425,,0.66 C,0,44425,,245,218,66 P,0,44425,,A M,7,44425,45145,408,420,384,422 S,6,44425,45145,0.2815858,0
Sprite,Foreground,Centre,"sb\particle.png",0,0 F,0,44425,,0.66 C,0,44425,,245,218,66 P,0,44425,,A M,7,44425,45145,408,420,397,378 S,6,44425,45145,0.3040714,0
Sprite,Foreground,Centre,"sb\particle.png",0,0 F,0,44425,,0.66 C,0,44425,,245,218,66 P,0,44425,,A M,7,44425,45145,408,420,356,379 S,6,44425,45145,-0.2716122,0
Sprite,Foreground,Centre,"sb\particle.png",0,0 F,0,44425,,0.66 C,0,44425,,245,218,66 P,0,44425,,A M,7,44425,45145,408,420,459,410 S,6,44425,45145,-0.1420063,0
Sprite,Foreground,Centre,"sb\particle.png",0,0 F,0,44425,,0.66 C,0,44425,,255,232,99 P,0,44425,,A M,7,44425,45145,408,420,367,430 S,6,44425,45145,-0.1909165,0
Sprite,Foreground,Centre,"sb\particle.png",0,0 F,0,44425,,0.66 C,0,44425,,255,232,99 P,0,44425,,A M,7,44425,45145,408,420,358,443 S,6,44425,45145,0.4726855,0
Sprite,Foreground,Centre,"sb\particle.png",0,0 F,0,44425,,0.66 C,0,44425,,255,232,99 P,0,44425,,A M,7,44425,45145,408,420,388,401 S,6,44425,45145,-0.2769792,0
Sprite,Foreground,Centre,"sb\particle.png",0,0 F,0,44425,,0.66 C,0,44425,,255,232,99 P,0,44425,,A M,7,44425,45145,408,420,371,437 S,6,44425,45145,0.04347464,0
Sprite,Foreground,Centre,"sb\particle.png",0,0 F,0,44425,,0.66 C,0,44425,,255,232,99 P,0,44425,,A M,7,44425,45145,408,420,445,456 S,6,44425,45145,0.09052526,0
Sprite,Foreground,Centre,"sb\particle.png",0,0 F,0,44425,,0.66 C,0,44425,,255,232,99 P,0,44425,,A M,7,44425,45145,408,420,446,376 S,6,44425,45145,0.1867531,0
Sprite,Foreground,Centre,"sb\particle.png",0,0 F,0,44425,,0.66 C,0,44425,,255,232,99 P,0,44425,,A M,7,44425,45145,408,420,400,438 S,6,44425,45145,0.3510988,0
Sprite,Foreground,Centre,"sb\particle.png",0,0 F,0,44425,,0.66 C,0,44425,,255,232,99 P,0,44425,,A M,7,44425,45145,408,420,413,472 S,6,44425,45145,0.4665336,0
Sprite,Foreground,Centre,"sb\particle.png",0,0 F,0,44425,,0.66 C,0,44425,,255,232,99 P,0,44425,,A M,7,44425,45145,408,420,435,416 S,6,44425,45145,0.2276181,0
Sprite,Foreground,Centre,"sb\particle.png",0,0 F,0,44425,,0.66 C,0,44425,,255,232,99 P,0,44425,,A M,7,44425,45145,408,420,452,428 S,6,44425,45145,-0.04147812,0
Sprite,Foreground,Centre,"sb\particle.png",0,0 F,0,44992,,0.66 C,0,44992,,245,218,66 P,0,44992,,A M,7,44992,45712,248,384,223,430 S,6,44992,45712,-0.08263811,0
Sprite,Foreground,Centre,"sb\particle.png",0,0 F,0,44992,,0.66 C,0,44992,,245,218,66 P,0,44992,,A M,7,44992,45712,248,384,247,351 S,6,44992,45712,0.258565,0
Sprite,Foreground,Centre,"sb\particle.png",0,0 F,0,44992,,0.66 C,0,44992,,245,218,66 P,0,44992,,A M,7,44992,45712,248,384,220,378 S,6,44992,45712,0.1216213,0
Sprite,Foreground,Centre,"sb\particle.png",0,0 F,0,44992,,0.66 C,0,44992,,245,218,66 P,0,44992,,A M,7,44992,45712,248,384,214,405 S,6,44992,45712,-0.1525252,0
Sprite,Foreground,Centre,"sb\particle.png",0,0 F,0,44992,,0.66 C,0,44992,,245,218,66 P,0,44992,,A M,7,44992,45712,248,384,246,383 S,6,44992,45712,-0.2209391,0
Sprite,Foreground,Centre,"sb\particle.png",0,0 F,0,44992,,0.66 C,0,44992,,245,218,66 P,0,44992,,A M,7,44992,45712,248,384,214,409 S,6,44992,45712,0.4991143,0
Sprite,Foreground,Centre,"sb\particle.png",0,0 F,0,44992,,0.66 C,0,44992,,245,218,66 P,0,44992,,A M,7,44992,45712,248,384,225,380 S,6,44992,45712,0.416203,0
Sprite,Foreground,Centre,"sb\particle.png",0,0 F,0,44992,,0.66 C,0,44992,,255,232,99 P,0,44992,,A M,7,44992,45712,248,384,299,407 S,6,44992,45712,0.01535357,0
Sprite,Foreground,Centre,"sb\particle.png",0,0 F,0,44992,,0.66 C,0,44992,,255,232,99 P,0,44992,,A M,7,44992,45712,248,384,254,419 S,6,44992,45712,-0.1731556,0
Sprite,Foreground,Centre,"sb\particle.png",0,0 F,0,44992,,0.66 C,0,44992,,255,232,99 P,0,44992,,A M,7,44992,45712,248,384,285,391 S,6,44992,45712,0.06767883,0
Sprite,Foreground,Centre,"sb\particle.png",0,0 F,0,44992,,0.66 C,0,44992,,255,232,99 P,0,44992,,A M,7,44992,45712,248,384,254,393 S,6,44992,45712,0.1658499,0
Sprite,Foreground,Centre,"sb\particle.png",0,0 F,0,44992,,0.66 C,0,44992,,255,232,99 P,0,44992,,A M,7,44992,45712,248,384,206,409 S,6,44992,45712,0.48171,0
Sprite,Foreground,Centre,"sb\particle.png",0,0 F,0,44992,,0.66 C,0,44992,,255,232,99 P,0,44992,,A M,7,44992,45712,248,384,224,427 S,6,44992,45712,-0.008419071,0
Sprite,Foreground,Centre,"sb\particle.png",0,0 F,0,44992,,0.66 C,0,44992,,255,232,99 P,0,44992,,A M,7,44992,45712,248,384,243,409 S,6,44992,45712,0.2211016,0
Sprite,Foreground,Centre,"sb\particle.png",0,0 F,0,44992,,0.66 C,0,44992,,255,232,99 P,0,44992,,A M,7,44992,45712,248,384,244,358 S,6,44992,45712,0.05820464,0
Sprite,Foreground,Centre,"sb\particle.png",0,0 F,0,44992,,0.66 C,0,44992,,255,232,99 P,0,44992,,A M,7,44992,45712,248,384,240,341 S,6,44992,45712,-0.0634006,0
Sprite,Foreground,Centre,"sb\particle.png",0,0 F,0,44992,,0.66 C,0,44992,,255,232,99 P,0,44992,,A M,7,44992,45712,248,384,281,384 S,6,44992,45712,-0.1898125,0
Sprite,Foreground,Centre,"sb\particle.png",0,0 F,0,45369,,0.66 C,0,45369,,245,218,66 P,0,45369,,A M,7,45369,46089,140,404,95,407 S,6,45369,46089,0.4667892,0
Sprite,Foreground,Centre,"sb\particle.png",0,0 F,0,45369,,0.66 C,0,45369,,245,218,66 P,0,45369,,A M,7,45369,46089,140,404,115,441 S,6,45369,46089,0.279796,0
Sprite,Foreground,Centre,"sb\particle.png",0,0 F,0,45369,,0.66 C,0,45369,,245,218,66 P,0,45369,,A M,7,45369,46089,140,404,186,447 S,6,45369,46089,-0.07893752,0
Sprite,Foreground,Centre,"sb\particle.png",0,0 F,0,45369,,0.66 C,0,45369,,245,218,66 P,0,45369,,A M,7,45369,46089,140,404,135,367 S,6,45369,46089,0.4051942,0
Sprite,Foreground,Centre,"sb\particle.png",0,0 F,0,45369,,0.66 C,0,45369,,245,218,66 P,0,45369,,A M,7,45369,46089,140,404,119,403 S,6,45369,46089,0.4919806,0
Sprite,Foreground,Centre,"sb\particle.png",0,0 F,0,45369,,0.66 C,0,45369,,245,218,66 P,0,45369,,A M,7,45369,46089,140,404,161,397 S,6,45369,46089,0.02445795,0
Sprite,Foreground,Centre,"sb\particle.png",0,0 F,0,45369,,0.66 C,0,45369,,245,218,66 P,0,45369,,A M,7,45369,46089,140,404,126,420 S,6,45369,46089,0.1654313,0
Sprite,Foreground,Centre,"sb\particle.png",0,0 F,0,45369,,0.66 C,0,45369,,255,232,99 P,0,45369,,A M,7,45369,46089,140,404,182,378 S,6,45369,46089,-0.0821377,0
Sprite,Foreground,Centre,"sb\particle.png",0,0 F,0,45369,,0.66 C,0,45369,,255,232,99 P,0,45369,,A M,7,45369,46089,140,404,124,400 S,6,45369,46089,-0.01794681,0
Sprite,Foreground,Centre,"sb\particle.png",0,0 F,0,45369,,0.66 C,0,45369,,255,232,99 P,0,45369,,A M,7,45369,46089,140,404,94,406 S,6,45369,46089,0.06733173,0
Sprite,Foreground,Centre,"sb\particle.png",0,0 F,0,45369,,0.66 C,0,45369,,255,232,99 P,0,45369,,A M,7,45369,46089,140,404,133,439 S,6,45369,46089,-0.03731162,0
Sprite,Foreground,Centre,"sb\particle.png",0,0 F,0,45369,,0.66 C,0,45369,,255,232,99 P,0,45369,,A M,7,45369,46089,140,404,96,397 S,6,45369,46089,0.1432453,0
Sprite,Foreground,Centre,"sb\particle.png",0,0 F,0,45369,,0.66 C,0,45369,,255,232,99 P,0,45369,,A M,7,45369,46089,140,404,126,355 S,6,45369,46089,-0.2872204,0
Sprite,Foreground,Centre,"sb\particle.png",0,0 F,0,45369,,0.66 C,0,45369,,255,232,99 P,0,45369,,A M,7,45369,46089,140,404,188,425 S,6,45369,46089,0.05033823,0
Sprite,Foreground,Centre,"sb\particle.png",0,0 F,0,45369,,0.66 C,0,45369,,255,232,99 P,0,45369,,A M,7,45369,46089,140,404,150,433 S,6,45369,46089,-0.1779273,0
Sprite,Foreground,Centre,"sb\particle.png",0,0 F,0,45369,,0.66 C,0,45369,,255,232,99 P,0,45369,,A M,7,45369,46089,140,404,146,380 S,6,45369,46089,-0.1490319,0
Sprite,Foreground,Centre,"sb\particle.png",0,0 F,0,45369,,0.66 C,0,45369,,255,232,99 P,0,45369,,A M,7,45369,46089,140,404,148,442 S,6,45369,46089,-0.005024346,0
Sprite,Foreground,Centre,"sb\particle.png",0,0 F,0,46125,,0.66 C,0,46125,,245,218,66 P,0,46125,,A M,7,46125,46845,228,244,236,270 S,6,46125,46845,0.2996635,0
Sprite,Foreground,Centre,"sb\particle.png",0,0 F,0,46125,,0.66 C,0,46125,,245,218,66 P,0,46125,,A M,7,46125,46845,228,244,231,198 S,6,46125,46845,0.03786246,0
Sprite,Foreground,Centre,"sb\particle.png",0,0 F,0,46125,,0.66 C,0,46125,,245,218,66 P,0,46125,,A M,7,46125,46845,228,244,267,261 S,6,46125,46845,-0.1644833,0
Sprite,Foreground,Centre,"sb\particle.png",0,0 F,0,46125,,0.66 C,0,46125,,245,218,66 P,0,46125,,A M,7,46125,46845,228,244,201,201 S,6,46125,46845,-0.04969875,0
Sprite,Foreground,Centre,"sb\particle.png",0,0 F,0,46125,,0.66 C,0,46125,,245,218,66 P,0,46125,,A M,7,46125,46845,228,244,262,259 S,6,46125,46845,0.1267774,0
Sprite,Foreground,Centre,"sb\particle.png",0,0 F,0,46125,,0.66 C,0,46125,,245,218,66 P,0,46125,,A M,7,46125,46845,228,244,259,285 S,6,46125,46845,-0.2343759,0
Sprite,Foreground,Centre,"sb\particle.png",0,0 F,0,46125,,0.66 C,0,46125,,245,218,66 P,0,46125,,A M,7,46125,46845,228,244,230,252 S,6,46125,46845,0.1506275,0
Sprite,Foreground,Centre,"sb\particle.png",0,0 F,0,46125,,0.66 C,0,46125,,255,232,99 P,0,46125,,A M,7,46125,46845,228,244,236,268 S,6,46125,46845,0.4876618,0
Sprite,Foreground,Centre,"sb\particle.png",0,0 F,0,46125,,0.66 C,0,46125,,255,232,99 P,0,46125,,A M,7,46125,46845,228,244,192,273 S,6,46125,46845,-0.1655555,0
Sprite,Foreground,Centre,"sb\particle.png",0,0 F,0,46125,,0.66 C,0,46125,,255,232,99 P,0,46125,,A M,7,46125,46845,228,244,224,258 S,6,46125,46845,-0.0660447,0
Sprite,Foreground,Centre,"sb\particle.png",0,0 F,0,46125,,0.66 C,0,46125,,255,232,99 P,0,46125,,A M,7,46125,46845,228,244,261,259 S,6,46125,46845,0.2003756,0
Sprite,Foreground,Centre,"sb\particle.png",0,0 F,0,46125,,0.66 C,0,46125,,255,232,99 P,0,46125,,A M,7,46125,46845,228,244,226,192 S,6,46125,46845,-0.06898794,0
Sprite,Foreground,Centre,"sb\particle.png",0,0 F,0,46125,,0.66 C,0,46125,,255,232,99 P,0,46125,,A M,7,46125,46845,228,244,203,289 S,6,46125,46845,-0.02572673,0
Sprite,Foreground,Centre,"sb\particle.png",0,0 F,0,46125,,0.66 C,0,46125,,255,232,99 P,0,46125,,A M,7,46125,46845,228,244,228,274 S,6,46125,46845,-0.2820212,0
Sprite,Foreground,Centre,"sb\particle.png",0,0 F,0,46125,,0.66 C,0,46125,,255,232,99 P,0,46125,,A M,7,46125,46845,228,244,216,231 S,6,46125,46845,-0.2988265,0
Sprite,Foreground,Centre,"sb\particle.png",0,0 F,0,46125,,0.66 C,0,46125,,255,232,99 P,0,46125,,A M,7,46125,46845,228,244,260,220 S,6,46125,46845,0.4972463,0
Sprite,Foreground,Centre,"sb\particle.png",0,0 F,0,46125,,0.66 C,0,46125,,255,232,99 P,0,46125,,A M,7,46125,46845,228,244,184,278 S,6,46125,46845,-0.1008044,0
Sprite,Foreground,Centre,"sb\particle.png",0,0 F,0,46502,,0.66 C,0,46502,,245,218,66 P,0,46502,,A M,7,46502,47222,320,296,341,283 S,6,46502,47222,0.1300209,0
Sprite,Foreground,Centre,"sb\particle.png",0,0 F,0,46502,,0.66 C,0,46502,,245,218,66 P,0,46502,,A M,7,46502,47222,320,296,308,311 S,6,46502,47222,-0.283654,0
Sprite,Foreground,Centre,"sb\particle.png",0,0 F,0,46502,,0.66 C,0,46502,,245,218,66 P,0,46502,,A M,7,46502,47222,320,296,266,349 S,6,46502,47222,-0.2496375,0
Sprite,Foreground,Centre,"sb\particle.png",0,0 F,0,46502,,0.66 C,0,46502,,245,218,66 P,0,46502,,A M,7,46502,47222,320,296,348,270 S,6,46502,47222,0.1761431,0
Sprite,Foreground,Centre,"sb\particle.png",0,0 F,0,46502,,0.66 C,0,46502,,245,218,66 P,0,46502,,A M,7,46502,47222,320,296,290,274 S,6,46502,47222,0.2121237,0
Sprite,Foreground,Centre,"sb\particle.png",0,0 F,0,46502,,0.66 C,0,46502,,245,218,66 P,0,46502,,A M,7,46502,47222,320,296,365,291 S,6,46502,47222,0.1664656,0
Sprite,Foreground,Centre,"sb\particle.png",0,0 F,0,46502,,0.66 C,0,46502,,245,218,66 P,0,46502,,A M,7,46502,47222,320,296,294,263 S,6,46502,47222,0.2646802,0
Sprite,Foreground,Centre,"sb\particle.png",0,0 F,0,46502,,0.66 C,0,46502,,255,232,99 P,0,46502,,A M,7,46502,47222,320,296,350,269 S,6,46502,47222,0.2515415,0
Sprite,Foreground,Centre,"sb\particle.png",0,0 F,0,46502,,0.66 C,0,46502,,255,232,99 P,0,46502,,A M,7,46502,47222,320,296,267,334 S,6,46502,47222,0.3352089,0
Sprite,Foreground,Centre,"sb\particle.png",0,0 F,0,46502,,0.66 C,0,46502,,255,232,99 P,0,46502,,A M,7,46502,47222,320,296,352,293 S,6,46502,47222,0.2844595,0
Sprite,Foreground,Centre,"sb\particle.png",0,0 F,0,46502,,0.66 C,0,46502,,255,232,99 P,0,46502,,A M,7,46502,47222,320,296,363,244 S,6,46502,47222,0.2848006,0
Sprite,Foreground,Centre,"sb\particle.png",0,0 F,0,46502,,0.66 C,0,46502,,255,232,99 P,0,46502,,A M,7,46502,47222,320,296,368,244 S,6,46502,47222,0.1081788,0
Sprite,Foreground,Centre,"sb\particle.png",0,0 F,0,46502,,0.66 C,0,46502,,255,232,99 P,0,46502,,A M,7,46502,47222,320,296,369,291 S,6,46502,47222,0.2068237,0
Sprite,Foreground,Centre,"sb\particle.png",0,0 F,0,46502,,0.66 C,0,46502,,255,232,99 P,0,46502,,A M,7,46502,47222,320,296,341,261 S,6,46502,47222,-0.1677756,0
Sprite,Foreground,Centre,"sb\particle.png",0,0 F,0,46502,,0.66 C,0,46502,,255,232,99 P,0,46502,,A M,7,46502,47222,320,296,274,302 S,6,46502,47222,0.4130265,0
Sprite,Foreground,Centre,"sb\particle.png",0,0 F,0,46502,,0.66 C,0,46502,,255,232,99 P,0,46502,,A M,7,46502,47222,320,296,324,295 S,6,46502,47222,0.4351701,0
Sprite,Foreground,Centre,"sb\particle.png",0,0 F,0,46502,,0.66 C,0,46502,,255,232,99 P,0,46502,,A M,7,46502,47222,320,296,368,274 S,6,46502,47222,-0.2933319,0
Sprite,Foreground,Centre,"sb\particle.png",0,0 F,0,46880,,0.66 C,0,46880,,245,218,66 P,0,46880,,A M,7,46880,47600,424,304,393,267 S,6,46880,47600,0.1711939,0
Sprite,Foreground,Centre,"sb\particle.png",0,0 F,0,46880,,0.66 C,0,46880,,245,218,66 P,0,46880,,A M,7,46880,47600,424,304,459,299 S,6,46880,47600,0.3916837,0
Sprite,Foreground,Centre,"sb\particle.png",0,0 F,0,46880,,0.66 C,0,46880,,245,218,66 P,0,46880,,A M,7,46880,47600,424,304,405,279 S,6,46880,47600,0.03486446,0
Sprite,Foreground,Centre,"sb\particle.png",0,0 F,0,46880,,0.66 C,0,46880,,245,218,66 P,0,46880,,A M,7,46880,47600,424,304,466,328 S,6,46880,47600,0.2100077,0
Sprite,Foreground,Centre,"sb\particle.png",0,0 F,0,46880,,0.66 C,0,46880,,245,218,66 P,0,46880,,A M,7,46880,47600,424,304,451,297 S,6,46880,47600,-0.1036157,0
Sprite,Foreground,Centre,"sb\particle.png",0,0 F,0,46880,,0.66 C,0,46880,,245,218,66 P,0,46880,,A M,7,46880,47600,424,304,441,281 S,6,46880,47600,0.1807535,0
Sprite,Foreground,Centre,"sb\particle.png",0,0 F,0,46880,,0.66 C,0,46880,,245,218,66 P,0,46880,,A M,7,46880,47600,424,304,386,304 S,6,46880,47600,0.4703122,0
Sprite,Foreground,Centre,"sb\particle.png",0,0 F,0,46880,,0.66 C,0,46880,,255,232,99 P,0,46880,,A M,7,46880,47600,424,304,395,322 S,6,46880,47600,0.148992,0
Sprite,Foreground,Centre,"sb\particle.png",0,0 F,0,46880,,0.66 C,0,46880,,255,232,99 P,0,46880,,A M,7,46880,47600,424,304,395,254 S,6,46880,47600,0.3180479,0
Sprite,Foreground,Centre,"sb\particle.png",0,0 F,0,46880,,0.66 C,0,46880,,255,232,99 P,0,46880,,A M,7,46880,47600,424,304,416,282 S,6,46880,47600,0.02604041,0
Sprite,Foreground,Centre,"sb\particle.png",0,0 F,0,46880,,0.66 C,0,46880,,255,232,99 P,0,46880,,A M,7,46880,47600,424,304,407,331 S,6,46880,47600,-0.003577541,0
Sprite,Foreground,Centre,"sb\particle.png",0,0 F,0,46880,,0.66 C,0,46880,,255,232,99 P,0,46880,,A M,7,46880,47600,424,304,456,321 S,6,46880,47600,0.04294017,0
Sprite,Foreground,Centre,"sb\particle.png",0,0 F,0,46880,,0.66 C,0,46880,,255,232,99 P,0,46880,,A M,7,46880,47600,424,304,450,327 S,6,46880,47600,-0.1496669,0
Sprite,Foreground,Centre,"sb\particle.png",0,0 F,0,46880,,0.66 C,0,46880,,255,232,99 P,0,46880,,A M,7,46880,47600,424,304,418,315 S,6,46880,47600,-0.06186892,0
Sprite,Foreground,Centre,"sb\particle.png",0,0 F,0,46880,,0.66 C,0,46880,,255,232,99 P,0,46880,,A M,7,46880,47600,424,304,398,340 S,6,46880,47600,0.05483526,0
Sprite,Foreground,Centre,"sb\particle.png",0,0 F,0,46880,,0.66 C,0,46880,,255,232,99 P,0,46880,,A M,7,46880,47600,424,304,374,291 S,6,46880,47600,0.4833935,0
Sprite,Foreground,Centre,"sb\particle.png",0,0 F,0,46880,,0.66 C,0,46880,,255,232,99 P,0,46880,,A M,7,46880,47600,424,304,467,271 S,6,46880,47600,0.2013623,0
Sprite,Foreground,Centre,"sb\particle.png",0,0 F,0,47257,,0.66 C,0,47257,,245,218,66 P,0,47257,,A M,7,47257,47977,504,228,509,259 S,6,47257,47977,-0.2072247,0
Sprite,Foreground,Centre,"sb\particle.png",0,0 F,0,47257,,0.66 C,0,47257,,245,218,66 P,0,47257,,A M,7,47257,47977,504,228,538,206 S,6,47257,47977,-0.1160327,0
Sprite,Foreground,Centre,"sb\particle.png",0,0 F,0,47257,,0.66 C,0,47257,,245,218,66 P,0,47257,,A M,7,47257,47977,504,228,493,247 S,6,47257,47977,0.4985704,0
Sprite,Foreground,Centre,"sb\particle.png",0,0 F,0,47257,,0.66 C,0,47257,,245,218,66 P,0,47257,,A M,7,47257,47977,504,228,557,273 S,6,47257,47977,0.3371947,0
Sprite,Foreground,Centre,"sb\particle.png",0,0 F,0,47257,,0.66 C,0,47257,,245,218,66 P,0,47257,,A M,7,47257,47977,504,228,528,194 S,6,47257,47977,-0.1067295,0
Sprite,Foreground,Centre,"sb\particle.png",0,0 F,0,47257,,0.66 C,0,47257,,245,218,66 P,0,47257,,A M,7,47257,47977,504,228,493,274 S,6,47257,47977,-0.1348754,0
Sprite,Foreground,Centre,"sb\particle.png",0,0 F,0,47257,,0.66 C,0,47257,,245,218,66 P,0,47257,,A M,7,47257,47977,504,228,513,277 S,6,47257,47977,0.09888799,0
Sprite,Foreground,Centre,"sb\particle.png",0,0 F,0,47257,,0.66 C,0,47257,,255,232,99 P,0,47257,,A M,7,47257,47977,504,228,551,194 S,6,47257,47977,0.2806667,0
Sprite,Foreground,Centre,"sb\particle.png",0,0 F,0,47257,,0.66 C,0,47257,,255,232,99 P,0,47257,,A M,7,47257,47977,504,228,452,242 S,6,47257,47977,0.3908708,0
Sprite,Foreground,Centre,"sb\particle.png",0,0 F,0,47257,,0.66 C,0,47257,,255,232,99 P,0,47257,,A M,7,47257,47977,504,228,468,202 S,6,47257,47977,-0.2849026,0
Sprite,Foreground,Centre,"sb\particle.png",0,0 F,0,47257,,0.66 C,0,47257,,255,232,99 P,0,47257,,A M,7,47257,47977,504,228,518,248 S,6,47257,47977,0.2045846,0
Sprite,Foreground,Centre,"sb\particle.png",0,0 F,0,47257,,0.66 C,0,47257,,255,232,99 P,0,47257,,A M,7,47257,47977,504,228,490,231 S,6,47257,47977,0.3148158,0
Sprite,Foreground,Centre,"sb\particle.png",0,0 F,0,47257,,0.66 C,0,47257,,255,232,99 P,0,47257,,A M,7,47257,47977,504,228,482,210 S,6,47257,47977,-0.08956286,0
Sprite,Foreground,Centre,"sb\particle.png",0,0 F,0,47257,,0.66 C,0,47257,,255,232,99 P,0,47257,,A M,7,47257,47977,504,228,477,271 S,6,47257,47977,0.3430854,0
Sprite,Foreground,Centre,"sb\particle.png",0,0 F,0,47257,,0.66 C,0,47257,,255,232,99 P,0,47257,,A M,7,47257,47977,504,228,512,234 S,6,47257,47977,0.4528026,0
Sprite,Foreground,Centre,"sb\particle.png",0,0 F,0,47257,,0.66 C,0,47257,,255,232,99 P,0,47257,,A M,7,47257,47977,504,228,463,195 S,6,47257,47977,0.1945007,0
Sprite,Foreground,Centre,"sb\particle.png",0,0 F,0,47257,,0.66 C,0,47257,,255,232,99 P,0,47257,,A M,7,47257,47977,504,228,511,181 S,6,47257,47977,-0.1374951,0
Sprite,Foreground,Centre,"sb\particle.png",0,0 F,0,47446,,0.66 C,0,47446,,245,218,66 P,0,47446,,A M,7,47446,48166,504,228,508,279 S,6,47446,48166,0.28415,0
Sprite,Foreground,Centre,"sb\particle.png",0,0 F,0,47446,,0.66 C,0,47446,,245,218,66 P,0,47446,,A M,7,47446,48166,504,228,475,254 S,6,47446,48166,0.3220973,0
Sprite,Foreground,Centre,"sb\particle.png",0,0 F,0,47446,,0.66 C,0,47446,,245,218,66 P,0,47446,,A M,7,47446,48166,504,228,459,227 S,6,47446,48166,-0.2394951,0
Sprite,Foreground,Centre,"sb\particle.png",0,0 F,0,47446,,0.66 C,0,47446,,245,218,66 P,0,47446,,A M,7,47446,48166,504,228,543,205 S,6,47446,48166,0.3677704,0
Sprite,Foreground,Centre,"sb\particle.png",0,0 F,0,47446,,0.66 C,0,47446,,245,218,66 P,0,47446,,A M,7,47446,48166,504,228,538,237 S,6,47446,48166,-0.16992,0
Sprite,Foreground,Centre,"sb\particle.png",0,0 F,0,47446,,0.66 C,0,47446,,245,218,66 P,0,47446,,A M,7,47446,48166,504,228,452,269 S,6,47446,48166,0.3239725,0
Sprite,Foreground,Centre,"sb\particle.png",0,0 F,0,47446,,0.66 C,0,47446,,245,218,66 P,0,47446,,A M,7,47446,48166,504,228,490,262 S,6,47446,48166,-0.0002163841,0
Sprite,Foreground,Centre,"sb\particle.png",0,0 F,0,47446,,0.66 C,0,47446,,255,232,99 P,0,47446,,A M,7,47446,48166,504,228,482,271 S,6,47446,48166,-0.1499252,0
Sprite,Foreground,Centre,"sb\particle.png",0,0 F,0,47446,,0.66 C,0,47446,,255,232,99 P,0,47446,,A M,7,47446,48166,504,228,539,262 S,6,47446,48166,-0.2729833,0
Sprite,Foreground,Centre,"sb\particle.png",0,0 F,0,47446,,0.66 C,0,47446,,255,232,99 P,0,47446,,A M,7,47446,48166,504,228,510,233 S,6,47446,48166,-0.1500608,0
Sprite,Foreground,Centre,"sb\particle.png",0,0 F,0,47446,,0.66 C,0,47446,,255,232,99 P,0,47446,,A M,7,47446,48166,504,228,535,192 S,6,47446,48166,0.1554107,0
Sprite,Foreground,Centre,"sb\particle.png",0,0 F,0,47446,,0.66 C,0,47446,,255,232,99 P,0,47446,,A M,7,47446,48166,504,228,453,191 S,6,47446,48166,0.3084303,0
Sprite,Foreground,Centre,"sb\particle.png",0,0 F,0,47446,,0.66 C,0,47446,,255,232,99 P,0,47446,,A M,7,47446,48166,504,228,528,234 S,6,47446,48166,0.272505,0
Sprite,Foreground,Centre,"sb\particle.png",0,0 F,0,47446,,0.66 C,0,47446,,255,232,99 P,0,47446,,A M,7,47446,48166,504,228,488,190 S,6,47446,48166,0.4723943,0
Sprite,Foreground,Centre,"sb\particle.png",0,0 F,0,47446,,0.66 C,0,47446,,255,232,99 P,0,47446,,A M,7,47446,48166,504,228,513,251 S,6,47446,48166,0.3016626,0
Sprite,Foreground,Centre,"sb\particle.png",0,0 F,0,47446,,0.66 C,0,47446,,255,232,99 P,0,47446,,A M,7,47446,48166,504,228,539,261 S,6,47446,48166,-0.1114389,0
Sprite,Foreground,Centre,"sb\particle.png",0,0 F,0,47446,,0.66 C,0,47446,,255,232,99 P,0,47446,,A M,7,47446,48166,504,228,510,178 S,6,47446,48166,0.4628041,0
Sprite,Foreground,Centre,"sb\particle.png",0,0 F,0,48013,,0.66 C,0,48013,,245,218,66 P,0,48013,,A M,7,48013,48733,464,92,416,138 S,6,48013,48733,0.1222399,0
Sprite,Foreground,Centre,"sb\particle.png",0,0 F,0,48013,,0.66 C,0,48013,,245,218,66 P,0,48013,,A M,7,48013,48733,464,92,507,117 S,6,48013,48733,0.2178312,0
Sprite,Foreground,Centre,"sb\particle.png",0,0 F,0,48013,,0.66 C,0,48013,,245,218,66 P,0,48013,,A M,7,48013,48733,464,92,413,82 S,6,48013,48733,-0.006973458,0
Sprite,Foreground,Centre,"sb\particle.png",0,0 F,0,48013,,0.66 C,0,48013,,245,218,66 P,0,48013,,A M,7,48013,48733,464,92,503,72 S,6,48013,48733,0.2998728,0
Sprite,Foreground,Centre,"sb\particle.png",0,0 F,0,48013,,0.66 C,0,48013,,245,218,66 P,0,48013,,A M,7,48013,48733,464,92,476,112 S,6,48013,48733,0.3502009,0
Sprite,Foreground,Centre,"sb\particle.png",0,0 F,0,48013,,0.66 C,0,48013,,245,218,66 P,0,48013,,A M,7,48013,48733,464,92,414,57 S,6,48013,48733,0.4783474,0
Sprite,Foreground,Centre,"sb\particle.png",0,0 F,0,48013,,0.66 C,0,48013,,245,218,66 P,0,48013,,A M,7,48013,48733,464,92,460,41 S,6,48013,48733,0.06133052,0
Sprite,Foreground,Centre,"sb\particle.png",0,0 F,0,48013,,0.66 C,0,48013,,255,232,99 P,0,48013,,A M,7,48013,48733,464,92,444,102 S,6,48013,48733,-0.08817427,0
Sprite,Foreground,Centre,"sb\particle.png",0,0 F,0,48013,,0.66 C,0,48013,,255,232,99 P,0,48013,,A M,7,48013,48733,464,92,450,60 S,6,48013,48733,0.2786509,0
Sprite,Foreground,Centre,"sb\particle.png",0,0 F,0,48013,,0.66 C,0,48013,,255,232,99 P,0,48013,,A M,7,48013,48733,464,92,466,98 S,6,48013,48733,0.1958647,0
Sprite,Foreground,Centre,"sb\particle.png",0,0 F,0,48013,,0.66 C,0,48013,,255,232,99 P,0,48013,,A M,7,48013,48733,464,92,499,56 S,6,48013,48733,-0.1396593,0
Sprite,Foreground,Centre,"sb\particle.png",0,0 F,0,48013,,0.66 C,0,48013,,255,232,99 P,0,48013,,A M,7,48013,48733,464,92,498,94 S,6,48013,48733,0.452668,0
Sprite,Foreground,Centre,"sb\particle.png",0,0 F,0,48013,,0.66 C,0,48013,,255,232,99 P,0,48013,,A M,7,48013,48733,464,92,474,75 S,6,48013,48733,0.2810731,0
Sprite,Foreground,Centre,"sb\particle.png",0,0 F,0,48013,,0.66 C,0,48013,,255,232,99 P,0,48013,,A M,7,48013,48733,464,92,416,96 S,6,48013,48733,-0.2874795,0
Sprite,Foreground,Centre,"sb\particle.png",0,0 F,0,48013,,0.66 C,0,48013,,255,232,99 P,0,48013,,A M,7,48013,48733,464,92,431,134 S,6,48013,48733,0.1218505,0
Sprite,Foreground,Centre,"sb\particle.png",0,0 F,0,48013,,0.66 C,0,48013,,255,232,99 P,0,48013,,A M,7,48013,48733,464,92,464,139 S,6,48013,48733,0.2930595,0
Sprite,Foreground,Centre,"sb\particle.png",0,0 F,0,48013,,0.66 C,0,48013,,255,232,99 P,0,48013,,A M,7,48013,48733,464,92,461,99 S,6,48013,48733,-0.08541007,0
Sprite,Foreground,Centre,"sb\particle.png",0,0 F,0,48390,,0.66 C,0,48390,,245,218,66 P,0,48390,,A M,7,48390,49110,356,100,335,53 S,6,48390,49110,0.3445342,0
Sprite,Foreground,Centre,"sb\particle.png",0,0 F,0,48390,,0.66 C,0,48390,,245,218,66 P,0,48390,,A M,7,48390,49110,356,100,330,131 S,6,48390,49110,-0.195992,0
Sprite,Foreground,Centre,"sb\particle.png",0,0 F,0,48390,,0.66 C,0,48390,,245,218,66 P,0,48390,,A M,7,48390,49110,356,100,386,101 S,6,48390,49110,-0.05430261,0
Sprite,Foreground,Centre,"sb\particle.png",0,0 F,0,48390,,0.66 C,0,48390,,245,218,66 P,0,48390,,A M,7,48390,49110,356,100,357,151 S,6,48390,49110,-0.1740235,0
Sprite,Foreground,Centre,"sb\particle.png",0,0 F,0,48390,,0.66 C,0,48390,,245,218,66 P,0,48390,,A M,7,48390,49110,356,100,358,103 S,6,48390,49110,-0.21347,0
Sprite,Foreground,Centre,"sb\particle.png",0,0 F,0,48390,,0.66 C,0,48390,,245,218,66 P,0,48390,,A M,7,48390,49110,356,100,400,153 S,6,48390,49110,-0.1159608,0
Sprite,Foreground,Centre,"sb\particle.png",0,0 F,0,48390,,0.66 C,0,48390,,245,218,66 P,0,48390,,A M,7,48390,49110,356,100,318,123 S,6,48390,49110,-0.1511699,0
Sprite,Foreground,Centre,"sb\particle.png",0,0 F,0,48390,,0.66 C,0,48390,,255,232,99 P,0,48390,,A M,7,48390,49110,356,100,391,81 S,6,48390,49110,0.06716304,0
Sprite,Foreground,Centre,"sb\particle.png",0,0 F,0,48390,,0.66 C,0,48390,,255,232,99 P,0,48390,,A M,7,48390,49110,356,100,375,53 S,6,48390,49110,0.09649769,0
Sprite,Foreground,Centre,"sb\particle.png",0,0 F,0,48390,,0.66 C,0,48390,,255,232,99 P,0,48390,,A M,7,48390,49110,356,100,369,128 S,6,48390,49110,-0.1984972,0
Sprite,Foreground,Centre,"sb\particle.png",0,0 F,0,48390,,0.66 C,0,48390,,255,232,99 P,0,48390,,A M,7,48390,49110,356,100,395,71 S,6,48390,49110,0.3348335,0
Sprite,Foreground,Centre,"sb\particle.png",0,0 F,0,48390,,0.66 C,0,48390,,255,232,99 P,0,48390,,A M,7,48390,49110,356,100,351,112 S,6,48390,49110,0.1337108,0
Sprite,Foreground,Centre,"sb\particle.png",0,0 F,0,48390,,0.66 C,0,48390,,255,232,99 P,0,48390,,A M,7,48390,49110,356,100,378,89 S,6,48390,49110,0.2436389,0
Sprite,Foreground,Centre,"sb\particle.png",0,0 F,0,48390,,0.66 C,0,48390,,255,232,99 P,0,48390,,A M,7,48390,49110,356,100,409,144 S,6,48390,49110,0.01494353,0
Sprite,Foreground,Centre,"sb\particle.png",0,0 F,0,48390,,0.66 C,0,48390,,255,232,99 P,0,48390,,A M,7,48390,49110,356,100,391,82 S,6,48390,49110,0.3015966,0
Sprite,Foreground,Centre,"sb\particle.png",0,0 F,0,48390,,0.66 C,0,48390,,255,232,99 P,0,48390,,A M,7,48390,49110,356,100,310,103 S,6,48390,49110,0.08036073,0
Sprite,Foreground,Centre,"sb\particle.png",0,0 F,0,48390,,0.66 C,0,48390,,255,232,99 P,0,48390,,A M,7,48390,49110,356,100,337,93 S,6,48390,49110,0.06302184,0
Sprite,Foreground,Centre,"sb\particle.png",0,0 F,0,49145,,0.66 C,0,49145,,245,218,66 P,0,49145,,A M,7,49145,49865,160,84,137,121 S,6,49145,49865,0.1342535,0
Sprite,Foreground,Centre,"sb\particle.png",0,0 F,0,49145,,0.66 C,0,49145,,245,218,66 P,0,49145,,A M,7,49145,49865,160,84,156,67 S,6,49145,49865,-0.2755263,0
Sprite,Foreground,Centre,"sb\particle.png",0,0 F,0,49145,,0.66 C,0,49145,,245,218,66 P,0,49145,,A M,7,49145,49865,160,84,177,61 S,6,49145,49865,-0.2437591,0
Sprite,Foreground,Centre,"sb\particle.png",0,0 F,0,49145,,0.66 C,0,49145,,245,218,66 P,0,49145,,A M,7,49145,49865,160,84,138,52 S,6,49145,49865,0.3148612,0
Sprite,Foreground,Centre,"sb\particle.png",0,0 F,0,49145,,0.66 C,0,49145,,245,218,66 P,0,49145,,A M,7,49145,49865,160,84,171,63 S,6,49145,49865,0.3235936,0
Sprite,Foreground,Centre,"sb\particle.png",0,0 F,0,49145,,0.66 C,0,49145,,245,218,66 P,0,49145,,A M,7,49145,49865,160,84,204,96 S,6,49145,49865,0.248755,0
Sprite,Foreground,Centre,"sb\particle.png",0,0 F,0,49145,,0.66 C,0,49145,,245,218,66 P,0,49145,,A M,7,49145,49865,160,84,113,89 S,6,49145,49865,-0.0932038,0
Sprite,Foreground,Centre,"sb\particle.png",0,0 F,0,49145,,0.66 C,0,49145,,255,232,99 P,0,49145,,A M,7,49145,49865,160,84,123,60 S,6,49145,49865,-0.06987529,0
Sprite,Foreground,Centre,"sb\particle.png",0,0 F,0,49145,,0.66 C,0,49145,,255,232,99 P,0,49145,,A M,7,49145,49865,160,84,169,62 S,6,49145,49865,-0.2042349,0
Sprite,Foreground,Centre,"sb\particle.png",0,0 F,0,49145,,0.66 C,0,49145,,255,232,99 P,0,49145,,A M,7,49145,49865,160,84,144,90 S,6,49145,49865,-0.08438341,0
Sprite,Foreground,Centre,"sb\particle.png",0,0 F,0,49145,,0.66 C,0,49145,,255,232,99 P,0,49145,,A M,7,49145,49865,160,84,181,133 S,6,49145,49865,-0.1674304,0
Sprite,Foreground,Centre,"sb\particle.png",0,0 F,0,49145,,0.66 C,0,49145,,255,232,99 P,0,49145,,A M,7,49145,49865,160,84,129,91 S,6,49145,49865,0.2678233,0
Sprite,Foreground,Centre,"sb\particle.png",0,0 F,0,49145,,0.66 C,0,49145,,255,232,99 P,0,49145,,A M,7,49145,49865,160,84,140,111 S,6,49145,49865,0.122608,0
Sprite,Foreground,Centre,"sb\particle.png",0,0 F,0,49145,,0.66 C,0,49145,,255,232,99 P,0,49145,,A M,7,49145,49865,160,84,153,91 S,6,49145,49865,-0.05783373,0
Sprite,Foreground,Centre,"sb\particle.png",0,0 F,0,49145,,0.66 C,0,49145,,255,232,99 P,0,49145,,A M,7,49145,49865,160,84,166,44 S,6,49145,49865,0.3259133,0
Sprite,Foreground,Centre,"sb\particle.png",0,0 F,0,49145,,0.66 C,0,49145,,255,232,99 P,0,49145,,A M,7,49145,49865,160,84,127,42 S,6,49145,49865,-0.1965423,0
Sprite,Foreground,Centre,"sb\particle.png",0,0 F,0,49145,,0.66 C,0,49145,,255,232,99 P,0,49145,,A M,7,49145,49865,160,84,112,95 S,6,49145,49865,0.05246244,0
Sprite,Foreground,Centre,"sb\particle.png",0,0 F,0,49523,,0.66 C,0,49523,,245,218,66 P,0,49523,,A M,7,49523,50243,80,144,84,104 S,6,49523,50243,0.1063125,0
Sprite,Foreground,Centre,"sb\particle.png",0,0 F,0,49523,,0.66 C,0,49523,,245,218,66 P,0,49523,,A M,7,49523,50243,80,144,27,182 S,6,49523,50243,0.09924463,0
Sprite,Foreground,Centre,"sb\particle.png",0,0 F,0,49523,,0.66 C,0,49523,,245,218,66 P,0,49523,,A M,7,49523,50243,80,144,124,127 S,6,49523,50243,0.231034,0
Sprite,Foreground,Centre,"sb\particle.png",0,0 F,0,49523,,0.66 C,0,49523,,245,218,66 P,0,49523,,A M,7,49523,50243,80,144,63,138 S,6,49523,50243,0.07647414,0
Sprite,Foreground,Centre,"sb\particle.png",0,0 F,0,49523,,0.66 C,0,49523,,245,218,66 P,0,49523,,A M,7,49523,50243,80,144,65,162 S,6,49523,50243,0.09944678,0
Sprite,Foreground,Centre,"sb\particle.png",0,0 F,0,49523,,0.66 C,0,49523,,245,218,66 P,0,49523,,A M,7,49523,50243,80,144,29,193 S,6,49523,50243,0.02617823,0
Sprite,Foreground,Centre,"sb\particle.png",0,0 F,0,49523,,0.66 C,0,49523,,245,218,66 P,0,49523,,A M,7,49523,50243,80,144,118,167 S,6,49523,50243,0.2301853,0
Sprite,Foreground,Centre,"sb\particle.png",0,0 F,0,49523,,0.66 C,0,49523,,255,232,99 P,0,49523,,A M,7,49523,50243,80,144,132,182 S,6,49523,50243,0.1793079,0
Sprite,Foreground,Centre,"sb\particle.png",0,0 F,0,49523,,0.66 C,0,49523,,255,232,99 P,0,49523,,A M,7,49523,50243,80,144,42,144 S,6,49523,50243,-0.195229,0
Sprite,Foreground,Centre,"sb\particle.png",0,0 F,0,49523,,0.66 C,0,49523,,255,232,99 P,0,49523,,A M,7,49523,50243,80,144,86,196 S,6,49523,50243,-0.2595724,0
Sprite,Foreground,Centre,"sb\particle.png",0,0 F,0,49523,,0.66 C,0,49523,,255,232,99 P,0,49523,,A M,7,49523,50243,80,144,88,137 S,6,49523,50243,0.3523901,0
Sprite,Foreground,Centre,"sb\particle.png",0,0 F,0,49523,,0.66 C,0,49523,,255,232,99 P,0,49523,,A M,7,49523,50243,80,144,81,119 S,6,49523,50243,-0.2244986,0
Sprite,Foreground,Centre,"sb\particle.png",0,0 F,0,49523,,0.66 C,0,49523,,255,232,99 P,0,49523,,A M,7,49523,50243,80,144,95,91 S,6,49523,50243,-0.1259754,0
Sprite,Foreground,Centre,"sb\particle.png",0,0 F,0,49523,,0.66 C,0,49523,,255,232,99 P,0,49523,,A M,7,49523,50243,80,144,38,120 S,6,49523,50243,0.2567789,0
Sprite,Foreground,Centre,"sb\particle.png",0,0 F,0,49523,,0.66 C,0,49523,,255,232,99 P,0,49523,,A M,7,49523,50243,80,144,36,155 S,6,49523,50243,-0.0240481,0
Sprite,Foreground,Centre,"sb\particle.png",0,0 F,0,49523,,0.66 C,0,49523,,255,232,99 P,0,49523,,A M,7,49523,50243,80,144,110,123 S,6,49523,50243,0.1394792,0
Sprite,Foreground,Centre,"sb\particle.png",0,0 F,0,49523,,0.66 C,0,49523,,255,232,99 P,0,49523,,A M,7,49523,50243,80,144,53,144 S,6,49523,50243,-0.02151753,0
Sprite,Foreground,Centre,"sb\particle.png",0,0 F,0,49901,,0.66 C,0,49901,,245,218,66 P,0,49901,,A M,7,49901,50621,108,252,138,261 S,6,49901,50621,0.241932,0
Sprite,Foreground,Centre,"sb\particle.png",0,0 F,0,49901,,0.66 C,0,49901,,245,218,66 P,0,49901,,A M,7,49901,50621,108,252,144,294 S,6,49901,50621,0.0360465,0
Sprite,Foreground,Centre,"sb\particle.png",0,0 F,0,49901,,0.66 C,0,49901,,245,218,66 P,0,49901,,A M,7,49901,50621,108,252,139,222 S,6,49901,50621,-0.07682713,0
Sprite,Foreground,Centre,"sb\particle.png",0,0 F,0,49901,,0.66 C,0,49901,,245,218,66 P,0,49901,,A M,7,49901,50621,108,252,135,213 S,6,49901,50621,0.4173706,0
Sprite,Foreground,Centre,"sb\particle.png",0,0 F,0,49901,,0.66 C,0,49901,,245,218,66 P,0,49901,,A M,7,49901,50621,108,252,136,267 S,6,49901,50621,0.2183727,0
Sprite,Foreground,Centre,"sb\particle.png",0,0 F,0,49901,,0.66 C,0,49901,,245,218,66 P,0,49901,,A M,7,49901,50621,108,252,87,221 S,6,49901,50621,0.3263806,0
Sprite,Foreground,Centre,"sb\particle.png",0,0 F,0,49901,,0.66 C,0,49901,,245,218,66 P,0,49901,,A M,7,49901,50621,108,252,95,232 S,6,49901,50621,0.01679133,0
Sprite,Foreground,Centre,"sb\particle.png",0,0 F,0,49901,,0.66 C,0,49901,,255,232,99 P,0,49901,,A M,7,49901,50621,108,252,110,205 S,6,49901,50621,-0.01218665,0
Sprite,Foreground,Centre,"sb\particle.png",0,0 F,0,49901,,0.66 C,0,49901,,255,232,99 P,0,49901,,A M,7,49901,50621,108,252,134,215 S,6,49901,50621,-0.0639694,0
Sprite,Foreground,Centre,"sb\particle.png",0,0 F,0,49901,,0.66 C,0,49901,,255,232,99 P,0,49901,,A M,7,49901,50621,108,252,87,270 S,6,49901,50621,0.4953432,0
Sprite,Foreground,Centre,"sb\particle.png",0,0 F,0,49901,,0.66 C,0,49901,,255,232,99 P,0,49901,,A M,7,49901,50621,108,252,109,276 S,6,49901,50621,0.4692003,0
Sprite,Foreground,Centre,"sb\particle.png",0,0 F,0,49901,,0.66 C,0,49901,,255,232,99 P,0,49901,,A M,7,49901,50621,108,252,95,282 S,6,49901,50621,0.4105718,0
Sprite,Foreground,Centre,"sb\particle.png",0,0 F,0,49901,,0.66 C,0,49901,,255,232,99 P,0,49901,,A M,7,49901,50621,108,252,99,302 S,6,49901,50621,-0.02846186,0
Sprite,Foreground,Centre,"sb\particle.png",0,0 F,0,49901,,0.66 C,0,49901,,255,232,99 P,0,49901,,A M,7,49901,50621,108,252,130,230 S,6,49901,50621,-0.1960956,0
Sprite,Foreground,Centre,"sb\particle.png",0,0 F,0,49901,,0.66 C,0,49901,,255,232,99 P,0,49901,,A M,7,49901,50621,108,252,79,205 S,6,49901,50621,0.4501047,0
Sprite,Foreground,Centre,"sb\particle.png",0,0 F,0,49901,,0.66 C,0,49901,,255,232,99 P,0,49901,,A M,7,49901,50621,108,252,156,212 S,6,49901,50621,-0.09112176,0
Sprite,Foreground,Centre,"sb\particle.png",0,0 F,0,49901,,0.66 C,0,49901,,255,232,99 P,0,49901,,A M,7,49901,50621,108,252,111,283 S,6,49901,50621,0.2427709,0
Sprite,Foreground,Centre,"sb\particle.png",0,0 F,0,50278,,0.66 C,0,50278,,245,218,66 P,0,50278,,A M,7,50278,50998,164,348,163,355 S,6,50278,50998,0.1863781,0
Sprite,Foreground,Centre,"sb\particle.png",0,0 F,0,50278,,0.66 C,0,50278,,245,218,66 P,0,50278,,A M,7,50278,50998,164,348,189,383 S,6,50278,50998,0.4220273,0
Sprite,Foreground,Centre,"sb\particle.png",0,0 F,0,50278,,0.66 C,0,50278,,245,218,66 P,0,50278,,A M,7,50278,50998,164,348,137,392 S,6,50278,50998,0.03180229,0
Sprite,Foreground,Centre,"sb\particle.png",0,0 F,0,50278,,0.66 C,0,50278,,245,218,66 P,0,50278,,A M,7,50278,50998,164,348,166,321 S,6,50278,50998,0.0203652,0
Sprite,Foreground,Centre,"sb\particle.png",0,0 F,0,50278,,0.66 C,0,50278,,245,218,66 P,0,50278,,A M,7,50278,50998,164,348,163,342 S,6,50278,50998,0.04302409,0
Sprite,Foreground,Centre,"sb\particle.png",0,0 F,0,50278,,0.66 C,0,50278,,245,218,66 P,0,50278,,A M,7,50278,50998,164,348,115,364 S,6,50278,50998,0.1405492,0
Sprite,Foreground,Centre,"sb\particle.png",0,0 F,0,50278,,0.66 C,0,50278,,245,218,66 P,0,50278,,A M,7,50278,50998,164,348,159,300 S,6,50278,50998,-0.1446768,0
Sprite,Foreground,Centre,"sb\particle.png",0,0 F,0,50278,,0.66 C,0,50278,,255,232,99 P,0,50278,,A M,7,50278,50998,164,348,134,351 S,6,50278,50998,0.1669561,0
Sprite,Foreground,Centre,"sb\particle.png",0,0 F,0,50278,,0.66 C,0,50278,,255,232,99 P,0,50278,,A M,7,50278,50998,164,348,203,303 S,6,50278,50998,0.4939128,0
Sprite,Foreground,Centre,"sb\particle.png",0,0 F,0,50278,,0.66 C,0,50278,,255,232,99 P,0,50278,,A M,7,50278,50998,164,348,128,398 S,6,50278,50998,0.2695439,0
Sprite,Foreground,Centre,"sb\particle.png",0,0 F,0,50278,,0.66 C,0,50278,,255,232,99 P,0,50278,,A M,7,50278,50998,164,348,144,313 S,6,50278,50998,0.3472279,0
Sprite,Foreground,Centre,"sb\particle.png",0,0 F,0,50278,,0.66 C,0,50278,,255,232,99 P,0,50278,,A M,7,50278,50998,164,348,175,362 S,6,50278,50998,0.330622,0
Sprite,Foreground,Centre,"sb\particle.png",0,0 F,0,50278,,0.66 C,0,50278,,255,232,99 P,0,50278,,A M,7,50278,50998,164,348,187,325 S,6,50278,50998,0.2705169,0
Sprite,Foreground,Centre,"sb\particle.png",0,0 F,0,50278,,0.66 C,0,50278,,255,232,99 P,0,50278,,A M,7,50278,50998,164,348,162,328 S,6,50278,50998,0.1186671,0
Sprite,Foreground,Centre,"sb\particle.png",0,0 F,0,50278,,0.66 C,0,50278,,255,232,99 P,0,50278,,A M,7,50278,50998,164,348,132,387 S,6,50278,50998,0.08053388,0
Sprite,Foreground,Centre,"sb\particle.png",0,0 F,0,50278,,0.66 C,0,50278,,255,232,99 P,0,50278,,A M,7,50278,50998,164,348,162,316 S,6,50278,50998,-0.08856983,0
Sprite,Foreground,Centre,"sb\particle.png",0,0 F,0,50278,,0.66 C,0,50278,,255,232,99 P,0,50278,,A M,7,50278,50998,164,348,136,312 S,6,50278,50998,-0.2679637,0
Sprite,Foreground,Centre,"sb\particle.png",0,0 F,0,50467,,0.66 C,0,50467,,245,218,66 P,0,50467,,A M,7,50467,51187,164,348,138,309 S,6,50467,51187,0.05411014,0
Sprite,Foreground,Centre,"sb\particle.png",0,0 F,0,50467,,0.66 C,0,50467,,245,218,66 P,0,50467,,A M,7,50467,51187,164,348,139,302 S,6,50467,51187,0.2508214,0
Sprite,Foreground,Centre,"sb\particle.png",0,0 F,0,50467,,0.66 C,0,50467,,245,218,66 P,0,50467,,A M,7,50467,51187,164,348,128,322 S,6,50467,51187,0.4634299,0
Sprite,Foreground,Centre,"sb\particle.png",0,0 F,0,50467,,0.66 C,0,50467,,245,218,66 P,0,50467,,A M,7,50467,51187,164,348,154,384 S,6,50467,51187,0.456022,0
Sprite,Foreground,Centre,"sb\particle.png",0,0 F,0,50467,,0.66 C,0,50467,,245,218,66 P,0,50467,,A M,7,50467,51187,164,348,182,365 S,6,50467,51187,0.4191065,0
Sprite,Foreground,Centre,"sb\particle.png",0,0 F,0,50467,,0.66 C,0,50467,,245,218,66 P,0,50467,,A M,7,50467,51187,164,348,154,382 S,6,50467,51187,0.2755708,0
Sprite,Foreground,Centre,"sb\particle.png",0,0 F,0,50467,,0.66 C,0,50467,,245,218,66 P,0,50467,,A M,7,50467,51187,164,348,174,322 S,6,50467,51187,-0.1178208,0
Sprite,Foreground,Centre,"sb\particle.png",0,0 F,0,50467,,0.66 C,0,50467,,255,232,99 P,0,50467,,A M,7,50467,51187,164,348,123,321 S,6,50467,51187,0.4500601,0
Sprite,Foreground,Centre,"sb\particle.png",0,0 F,0,50467,,0.66 C,0,50467,,255,232,99 P,0,50467,,A M,7,50467,51187,164,348,164,377 S,6,50467,51187,-0.06735563,0
Sprite,Foreground,Centre,"sb\particle.png",0,0 F,0,50467,,0.66 C,0,50467,,255,232,99 P,0,50467,,A M,7,50467,51187,164,348,178,316 S,6,50467,51187,0.4658771,0
Sprite,Foreground,Centre,"sb\particle.png",0,0 F,0,50467,,0.66 C,0,50467,,255,232,99 P,0,50467,,A M,7,50467,51187,164,348,179,332 S,6,50467,51187,-0.082008,0
Sprite,Foreground,Centre,"sb\particle.png",0,0 F,0,50467,,0.66 C,0,50467,,255,232,99 P,0,50467,,A M,7,50467,51187,164,348,157,373 S,6,50467,51187,-0.1248655,0
Sprite,Foreground,Centre,"sb\particle.png",0,0 F,0,50467,,0.66 C,0,50467,,255,232,99 P,0,50467,,A M,7,50467,51187,164,348,171,343 S,6,50467,51187,0.3395169,0
Sprite,Foreground,Centre,"sb\particle.png",0,0 F,0,50467,,0.66 C,0,50467,,255,232,99 P,0,50467,,A M,7,50467,51187,164,348,198,325 S,6,50467,51187,0.1683411,0
Sprite,Foreground,Centre,"sb\particle.png",0,0 F,0,50467,,0.66 C,0,50467,,255,232,99 P,0,50467,,A M,7,50467,51187,164,348,201,317 S,6,50467,51187,0.4908508,0
Sprite,Foreground,Centre,"sb\particle.png",0,0 F,0,50467,,0.66 C,0,50467,,255,232,99 P,0,50467,,A M,7,50467,51187,164,348,197,299 S,6,50467,51187,-0.1934189,0
Sprite,Foreground,Centre,"sb\particle.png",0,0 F,0,50467,,0.66 C,0,50467,,255,232,99 P,0,50467,,A M,7,50467,51187,164,348,125,367 S,6,50467,51187,-0.1507516,0
Sprite,Foreground,Centre,"sb\particle.png",0,0 F,0,51033,,0.66 C,0,51033,,245,218,66 P,0,51033,,A M,7,51033,51753,292,268,333,275 S,6,51033,51753,0.2952658,0
Sprite,Foreground,Centre,"sb\particle.png",0,0 F,0,51033,,0.66 C,0,51033,,245,218,66 P,0,51033,,A M,7,51033,51753,292,268,240,236 S,6,51033,51753,0.490145,0
Sprite,Foreground,Centre,"sb\particle.png",0,0 F,0,51033,,0.66 C,0,51033,,245,218,66 P,0,51033,,A M,7,51033,51753,292,268,240,246 S,6,51033,51753,0.3907126,0
Sprite,Foreground,Centre,"sb\particle.png",0,0 F,0,51033,,0.66 C,0,51033,,245,218,66 P,0,51033,,A M,7,51033,51753,292,268,311,272 S,6,51033,51753,-0.07690913,0
Sprite,Foreground,Centre,"sb\particle.png",0,0 F,0,51033,,0.66 C,0,51033,,245,218,66 P,0,51033,,A M,7,51033,51753,292,268,279,281 S,6,51033,51753,0.3132277,0
Sprite,Foreground,Centre,"sb\particle.png",0,0 F,0,51033,,0.66 C,0,51033,,245,218,66 P,0,51033,,A M,7,51033,51753,292,268,249,287 S,6,51033,51753,0.4693383,0
Sprite,Foreground,Centre,"sb\particle.png",0,0 F,0,51033,,0.66 C,0,51033,,245,218,66 P,0,51033,,A M,7,51033,51753,292,268,341,283 S,6,51033,51753,0.4714808,0
Sprite,Foreground,Centre,"sb\particle.png",0,0 F,0,51033,,0.66 C,0,51033,,255,232,99 P,0,51033,,A M,7,51033,51753,292,268,246,226 S,6,51033,51753,-0.1577822,0
Sprite,Foreground,Centre,"sb\particle.png",0,0 F,0,51033,,0.66 C,0,51033,,255,232,99 P,0,51033,,A M,7,51033,51753,292,268,336,257 S,6,51033,51753,0.3035518,0
Sprite,Foreground,Centre,"sb\particle.png",0,0 F,0,51033,,0.66 C,0,51033,,255,232,99 P,0,51033,,A M,7,51033,51753,292,268,301,311 S,6,51033,51753,0.4560623,0
Sprite,Foreground,Centre,"sb\particle.png",0,0 F,0,51033,,0.66 C,0,51033,,255,232,99 P,0,51033,,A M,7,51033,51753,292,268,308,262 S,6,51033,51753,0.3599714,0
Sprite,Foreground,Centre,"sb\particle.png",0,0 F,0,51033,,0.66 C,0,51033,,255,232,99 P,0,51033,,A M,7,51033,51753,292,268,322,302 S,6,51033,51753,0.1163808,0
Sprite,Foreground,Centre,"sb\particle.png",0,0 F,0,51033,,0.66 C,0,51033,,255,232,99 P,0,51033,,A M,7,51033,51753,292,268,315,269 S,6,51033,51753,-0.163482,0
Sprite,Foreground,Centre,"sb\particle.png",0,0 F,0,51033,,0.66 C,0,51033,,255,232,99 P,0,51033,,A M,7,51033,51753,292,268,277,233 S,6,51033,51753,-0.2633706,0
Sprite,Foreground,Centre,"sb\particle.png",0,0 F,0,51033,,0.66 C,0,51033,,255,232,99 P,0,51033,,A M,7,51033,51753,292,268,241,236 S,6,51033,51753,0.09595892,0
Sprite,Foreground,Centre,"sb\particle.png",0,0 F,0,51033,,0.66 C,0,51033,,255,232,99 P,0,51033,,A M,7,51033,51753,292,268,261,271 S,6,51033,51753,0.3458535,0
Sprite,Foreground,Centre,"sb\particle.png",0,0 F,0,51033,,0.66 C,0,51033,,255,232,99 P,0,51033,,A M,7,51033,51753,292,268,241,255 S,6,51033,51753,-0.2368701,0
Sprite,Foreground,Centre,"sb\particle.png",0,0 F,0,51411,,0.66 C,0,51411,,245,218,66 P,0,51411,,A M,7,51411,52131,388,284,363,311 S,6,51411,52131,0.4688999,0
Sprite,Foreground,Centre,"sb\particle.png",0,0 F,0,51411,,0.66 C,0,51411,,245,218,66 P,0,51411,,A M,7,51411,52131,388,284,343,333 S,6,51411,52131,-0.03297142,0
Sprite,Foreground,Centre,"sb\particle.png",0,0 F,0,51411,,0.66 C,0,51411,,245,218,66 P,0,51411,,A M,7,51411,52131,388,284,412,248 S,6,51411,52131,-0.1495079,0
Sprite,Foreground,Centre,"sb\particle.png",0,0 F,0,51411,,0.66 C,0,51411,,245,218,66 P,0,51411,,A M,7,51411,52131,388,284,365,322 S,6,51411,52131,-0.1529342,0
Sprite,Foreground,Centre,"sb\particle.png",0,0 F,0,51411,,0.66 C,0,51411,,245,218,66 P,0,51411,,A M,7,51411,52131,388,284,381,266 S,6,51411,52131,0.06225137,0
Sprite,Foreground,Centre,"sb\particle.png",0,0 F,0,51411,,0.66 C,0,51411,,245,218,66 P,0,51411,,A M,7,51411,52131,388,284,377,272 S,6,51411,52131,-0.1481677,0
Sprite,Foreground,Centre,"sb\particle.png",0,0 F,0,51411,,0.66 C,0,51411,,245,218,66 P,0,51411,,A M,7,51411,52131,388,284,338,230 S,6,51411,52131,-0.1071933,0
Sprite,Foreground,Centre,"sb\particle.png",0,0 F,0,51411,,0.66 C,0,51411,,255,232,99 P,0,51411,,A M,7,51411,52131,388,284,392,284 S,6,51411,52131,0.3968205,0
Sprite,Foreground,Centre,"sb\particle.png",0,0 F,0,51411,,0.66 C,0,51411,,255,232,99 P,0,51411,,A M,7,51411,52131,388,284,378,240 S,6,51411,52131,-0.1381448,0
Sprite,Foreground,Centre,"sb\particle.png",0,0 F,0,51411,,0.66 C,0,51411,,255,232,99 P,0,51411,,A M,7,51411,52131,388,284,381,313 S,6,51411,52131,-0.1737469,0
Sprite,Foreground,Centre,"sb\particle.png",0,0 F,0,51411,,0.66 C,0,51411,,255,232,99 P,0,51411,,A M,7,51411,52131,388,284,417,254 S,6,51411,52131,0.3087286,0
Sprite,Foreground,Centre,"sb\particle.png",0,0 F,0,51411,,0.66 C,0,51411,,255,232,99 P,0,51411,,A M,7,51411,52131,388,284,343,307 S,6,51411,52131,-0.1489664,0
Sprite,Foreground,Centre,"sb\particle.png",0,0 F,0,51411,,0.66 C,0,51411,,255,232,99 P,0,51411,,A M,7,51411,52131,388,284,426,331 S,6,51411,52131,0.2944397,0
Sprite,Foreground,Centre,"sb\particle.png",0,0 F,0,51411,,0.66 C,0,51411,,255,232,99 P,0,51411,,A M,7,51411,52131,388,284,350,287 S,6,51411,52131,0.3155162,0
Sprite,Foreground,Centre,"sb\particle.png",0,0 F,0,51411,,0.66 C,0,51411,,255,232,99 P,0,51411,,A M,7,51411,52131,388,284,377,236 S,6,51411,52131,-0.2760921,0
Sprite,Foreground,Centre,"sb\particle.png",0,0 F,0,51411,,0.66 C,0,51411,,255,232,99 P,0,51411,,A M,7,51411,52131,388,284,424,292 S,6,51411,52131,0.2823186,0
Sprite,Foreground,Centre,"sb\particle.png",0,0 F,0,51411,,0.66 C,0,51411,,255,232,99 P,0,51411,,A M,7,51411,52131,388,284,342,239 S,6,51411,52131,0.4402947,0
Sprite,Foreground,Centre,"sb\particle.png",0,0 F,0,52166,,0.66 C,0,52166,,245,218,66 P,0,52166,,A M,7,52166,52886,508,424,510,472 S,6,52166,52886,0.03360997,0
Sprite,Foreground,Centre,"sb\particle.png",0,0 F,0,52166,,0.66 C,0,52166,,245,218,66 P,0,52166,,A M,7,52166,52886,508,424,508,414 S,6,52166,52886,-0.2791873,0
Sprite,Foreground,Centre,"sb\particle.png",0,0 F,0,52166,,0.66 C,0,52166,,245,218,66 P,0,52166,,A M,7,52166,52886,508,424,526,382 S,6,52166,52886,-0.1296671,0
Sprite,Foreground,Centre,"sb\particle.png",0,0 F,0,52166,,0.66 C,0,52166,,245,218,66 P,0,52166,,A M,7,52166,52886,508,424,528,438 S,6,52166,52886,-0.216965,0
Sprite,Foreground,Centre,"sb\particle.png",0,0 F,0,52166,,0.66 C,0,52166,,245,218,66 P,0,52166,,A M,7,52166,52886,508,424,545,387 S,6,52166,52886,-0.05909044,0
Sprite,Foreground,Centre,"sb\particle.png",0,0 F,0,52166,,0.66 C,0,52166,,245,218,66 P,0,52166,,A M,7,52166,52886,508,424,474,439 S,6,52166,52886,-0.1969853,0
Sprite,Foreground,Centre,"sb\particle.png",0,0 F,0,52166,,0.66 C,0,52166,,245,218,66 P,0,52166,,A M,7,52166,52886,508,424,556,406 S,6,52166,52886,-0.05188596,0
Sprite,Foreground,Centre,"sb\particle.png",0,0 F,0,52166,,0.66 C,0,52166,,255,232,99 P,0,52166,,A M,7,52166,52886,508,424,469,419 S,6,52166,52886,-0.1020274,0
Sprite,Foreground,Centre,"sb\particle.png",0,0 F,0,52166,,0.66 C,0,52166,,255,232,99 P,0,52166,,A M,7,52166,52886,508,424,516,451 S,6,52166,52886,0.1174461,0
Sprite,Foreground,Centre,"sb\particle.png",0,0 F,0,52166,,0.66 C,0,52166,,255,232,99 P,0,52166,,A M,7,52166,52886,508,424,526,425 S,6,52166,52886,-0.2193074,0
Sprite,Foreground,Centre,"sb\particle.png",0,0 F,0,52166,,0.66 C,0,52166,,255,232,99 P,0,52166,,A M,7,52166,52886,508,424,479,469 S,6,52166,52886,0.0525273,0
Sprite,Foreground,Centre,"sb\particle.png",0,0 F,0,52166,,0.66 C,0,52166,,255,232,99 P,0,52166,,A M,7,52166,52886,508,424,479,471 S,6,52166,52886,-0.271359,0
Sprite,Foreground,Centre,"sb\particle.png",0,0 F,0,52166,,0.66 C,0,52166,,255,232,99 P,0,52166,,A M,7,52166,52886,508,424,514,416 S,6,52166,52886,0.2716642,0
Sprite,Foreground,Centre,"sb\particle.png",0,0 F,0,52166,,0.66 C,0,52166,,255,232,99 P,0,52166,,A M,7,52166,52886,508,424,548,379 S,6,52166,52886,0.1294137,0
Sprite,Foreground,Centre,"sb\particle.png",0,0 F,0,52166,,0.66 C,0,52166,,255,232,99 P,0,52166,,A M,7,52166,52886,508,424,512,435 S,6,52166,52886,0.2982347,0
Sprite,Foreground,Centre,"sb\particle.png",0,0 F,0,52166,,0.66 C,0,52166,,255,232,99 P,0,52166,,A M,7,52166,52886,508,424,520,374 S,6,52166,52886,0.004411445,0
Sprite,Foreground,Centre,"sb\particle.png",0,0 F,0,52166,,0.66 C,0,52166,,255,232,99 P,0,52166,,A M,7,52166,52886,508,424,472,375 S,6,52166,52886,0.06075044,0
Sprite,Foreground,Centre,"sb\particle.png",0,0 F,0,52544,,0.66 C,0,52544,,245,218,66 P,0,52544,,A M,7,52544,53264,576,360,537,384 S,6,52544,53264,0.2607331,0
Sprite,Foreground,Centre,"sb\particle.png",0,0 F,0,52544,,0.66 C,0,52544,,245,218,66 P,0,52544,,A M,7,52544,53264,576,360,527,409 S,6,52544,53264,-0.2976576,0
Sprite,Foreground,Centre,"sb\particle.png",0,0 F,0,52544,,0.66 C,0,52544,,245,218,66 P,0,52544,,A M,7,52544,53264,576,360,587,331 S,6,52544,53264,0.4094685,0
Sprite,Foreground,Centre,"sb\particle.png",0,0 F,0,52544,,0.66 C,0,52544,,245,218,66 P,0,52544,,A M,7,52544,53264,576,360,548,327 S,6,52544,53264,0.4106865,0
Sprite,Foreground,Centre,"sb\particle.png",0,0 F,0,52544,,0.66 C,0,52544,,245,218,66 P,0,52544,,A M,7,52544,53264,576,360,620,395 S,6,52544,53264,0.4039733,0
Sprite,Foreground,Centre,"sb\particle.png",0,0 F,0,52544,,0.66 C,0,52544,,245,218,66 P,0,52544,,A M,7,52544,53264,576,360,599,403 S,6,52544,53264,0.2232067,0
Sprite,Foreground,Centre,"sb\particle.png",0,0 F,0,52544,,0.66 C,0,52544,,245,218,66 P,0,52544,,A M,7,52544,53264,576,360,617,322 S,6,52544,53264,0.3726663,0
Sprite,Foreground,Centre,"sb\particle.png",0,0 F,0,52544,,0.66 C,0,52544,,255,232,99 P,0,52544,,A M,7,52544,53264,576,360,621,397 S,6,52544,53264,0.2688523,0
Sprite,Foreground,Centre,"sb\particle.png",0,0 F,0,52544,,0.66 C,0,52544,,255,232,99 P,0,52544,,A M,7,52544,53264,576,360,528,401 S,6,52544,53264,0.2987646,0
Sprite,Foreground,Centre,"sb\particle.png",0,0 F,0,52544,,0.66 C,0,52544,,255,232,99 P,0,52544,,A M,7,52544,53264,576,360,564,309 S,6,52544,53264,0.09411586,0
Sprite,Foreground,Centre,"sb\particle.png",0,0 F,0,52544,,0.66 C,0,52544,,255,232,99 P,0,52544,,A M,7,52544,53264,576,360,555,312 S,6,52544,53264,0.3844502,0
Sprite,Foreground,Centre,"sb\particle.png",0,0 F,0,52544,,0.66 C,0,52544,,255,232,99 P,0,52544,,A M,7,52544,53264,576,360,593,356 S,6,52544,53264,0.2062356,0
Sprite,Foreground,Centre,"sb\particle.png",0,0 F,0,52544,,0.66 C,0,52544,,255,232,99 P,0,52544,,A M,7,52544,53264,576,360,592,319 S,6,52544,53264,-0.06866509,0
Sprite,Foreground,Centre,"sb\particle.png",0,0 F,0,52544,,0.66 C,0,52544,,255,232,99 P,0,52544,,A M,7,52544,53264,576,360,621,313 S,6,52544,53264,0.2882073,0
Sprite,Foreground,Centre,"sb\particle.png",0,0 F,0,52544,,0.66 C,0,52544,,255,232,99 P,0,52544,,A M,7,52544,53264,576,360,593,369 S,6,52544,53264,-0.2920196,0
Sprite,Foreground,Centre,"sb\particle.png",0,0 F,0,52544,,0.66 C,0,52544,,255,232,99 P,0,52544,,A M,7,52544,53264,576,360,587,399 S,6,52544,53264,-0.1168609,0
Sprite,Foreground,Centre,"sb\particle.png",0,0 F,0,52544,,0.66 C,0,52544,,255,232,99 P,0,52544,,A M,7,52544,53264,576,360,548,384 S,6,52544,53264,0.452439,0
Sprite,Foreground,Centre,"sb\particle.png",0,0 F,0,52921,,0.66 C,0,52921,,245,218,66 P,0,52921,,A M,7,52921,53641,548,252,586,299 S,6,52921,53641,0.3824388,0
Sprite,Foreground,Centre,"sb\particle.png",0,0 F,0,52921,,0.66 C,0,52921,,245,218,66 P,0,52921,,A M,7,52921,53641,548,252,545,285 S,6,52921,53641,0.01657066,0
Sprite,Foreground,Centre,"sb\particle.png",0,0 F,0,52921,,0.66 C,0,52921,,245,218,66 P,0,52921,,A M,7,52921,53641,548,252,559,280 S,6,52921,53641,0.1768655,0
Sprite,Foreground,Centre,"sb\particle.png",0,0 F,0,52921,,0.66 C,0,52921,,245,218,66 P,0,52921,,A M,7,52921,53641,548,252,521,202 S,6,52921,53641,0.4945984,0
Sprite,Foreground,Centre,"sb\particle.png",0,0 F,0,52921,,0.66 C,0,52921,,245,218,66 P,0,52921,,A M,7,52921,53641,548,252,520,205 S,6,52921,53641,0.2720702,0
Sprite,Foreground,Centre,"sb\particle.png",0,0 F,0,52921,,0.66 C,0,52921,,245,218,66 P,0,52921,,A M,7,52921,53641,548,252,549,219 S,6,52921,53641,0.2473125,0
Sprite,Foreground,Centre,"sb\particle.png",0,0 F,0,52921,,0.66 C,0,52921,,245,218,66 P,0,52921,,A M,7,52921,53641,548,252,598,266 S,6,52921,53641,0.4477887,0
Sprite,Foreground,Centre,"sb\particle.png",0,0 F,0,52921,,0.66 C,0,52921,,255,232,99 P,0,52921,,A M,7,52921,53641,548,252,511,259 S,6,52921,53641,0.498256,0
Sprite,Foreground,Centre,"sb\particle.png",0,0 F,0,52921,,0.66 C,0,52921,,255,232,99 P,0,52921,,A M,7,52921,53641,548,252,561,280 S,6,52921,53641,0.04093403,0
Sprite,Foreground,Centre,"sb\particle.png",0,0 F,0,52921,,0.66 C,0,52921,,255,232,99 P,0,52921,,A M,7,52921,53641,548,252,507,203 S,6,52921,53641,0.09460887,0
Sprite,Foreground,Centre,"sb\particle.png",0,0 F,0,52921,,0.66 C,0,52921,,255,232,99 P,0,52921,,A M,7,52921,53641,548,252,569,213 S,6,52921,53641,0.3375064,0
Sprite,Foreground,Centre,"sb\particle.png",0,0 F,0,52921,,0.66 C,0,52921,,255,232,99 P,0,52921,,A M,7,52921,53641,548,252,581,261 S,6,52921,53641,-0.1743407,0
Sprite,Foreground,Centre,"sb\particle.png",0,0 F,0,52921,,0.66 C,0,52921,,255,232,99 P,0,52921,,A M,7,52921,53641,548,252,509,254 S,6,52921,53641,0.02324561,0
Sprite,Foreground,Centre,"sb\particle.png",0,0 F,0,52921,,0.66 C,0,52921,,255,232,99 P,0,52921,,A M,7,52921,53641,548,252,595,241 S,6,52921,53641,0.416014,0
Sprite,Foreground,Centre,"sb\particle.png",0,0 F,0,52921,,0.66 C,0,52921,,255,232,99 P,0,52921,,A M,7,52921,53641,548,252,570,271 S,6,52921,53641,0.1887046,0
Sprite,Foreground,Centre,"sb\particle.png",0,0 F,0,52921,,0.66 C,0,52921,,255,232,99 P,0,52921,,A M,7,52921,53641,548,252,494,220 S,6,52921,53641,0.2618765,0
Sprite,Foreground,Centre,"sb\particle.png",0,0 F,0,52921,,0.66 C,0,52921,,255,232,99 P,0,52921,,A M,7,52921,53641,548,252,581,249 S,6,52921,53641,0.3146869,0
Sprite,Foreground,Centre,"sb\particle.png",0,0 F,0,53488,,0.66 C,0,53488,,245,218,66 P,0,53488,,A M,7,53488,54208,392,300,357,280 S,6,53488,54208,0.1328969,0
Sprite,Foreground,Centre,"sb\particle.png",0,0 F,0,53488,,0.66 C,0,53488,,245,218,66 P,0,53488,,A M,7,53488,54208,392,300,342,345 S,6,53488,54208,0.09998953,0
Sprite,Foreground,Centre,"sb\particle.png",0,0 F,0,53488,,0.66 C,0,53488,,245,218,66 P,0,53488,,A M,7,53488,54208,392,300,397,345 S,6,53488,54208,0.05950925,0
Sprite,Foreground,Centre,"sb\particle.png",0,0 F,0,53488,,0.66 C,0,53488,,245,218,66 P,0,53488,,A M,7,53488,54208,392,300,438,289 S,6,53488,54208,0.3977512,0
Sprite,Foreground,Centre,"sb\particle.png",0,0 F,0,53488,,0.66 C,0,53488,,245,218,66 P,0,53488,,A M,7,53488,54208,392,300,425,349 S,6,53488,54208,0.0296917,0
Sprite,Foreground,Centre,"sb\particle.png",0,0 F,0,53488,,0.66 C,0,53488,,245,218,66 P,0,53488,,A M,7,53488,54208,392,300,404,292 S,6,53488,54208,0.4755544,0
Sprite,Foreground,Centre,"sb\particle.png",0,0 F,0,53488,,0.66 C,0,53488,,245,218,66 P,0,53488,,A M,7,53488,54208,392,300,426,310 S,6,53488,54208,-0.2906037,0
Sprite,Foreground,Centre,"sb\particle.png",0,0 F,0,53488,,0.66 C,0,53488,,255,232,99 P,0,53488,,A M,7,53488,54208,392,300,418,305 S,6,53488,54208,-0.2324086,0
Sprite,Foreground,Centre,"sb\particle.png",0,0 F,0,53488,,0.66 C,0,53488,,255,232,99 P,0,53488,,A M,7,53488,54208,392,300,369,311 S,6,53488,54208,-0.03896381,0
Sprite,Foreground,Centre,"sb\particle.png",0,0 F,0,53488,,0.66 C,0,53488,,255,232,99 P,0,53488,,A M,7,53488,54208,392,300,372,306 S,6,53488,54208,-0.2223489,0
Sprite,Foreground,Centre,"sb\particle.png",0,0 F,0,53488,,0.66 C,0,53488,,255,232,99 P,0,53488,,A M,7,53488,54208,392,300,428,344 S,6,53488,54208,0.1784448,0
Sprite,Foreground,Centre,"sb\particle.png",0,0 F,0,53488,,0.66 C,0,53488,,255,232,99 P,0,53488,,A M,7,53488,54208,392,300,377,313 S,6,53488,54208,-0.2871902,0
Sprite,Foreground,Centre,"sb\particle.png",0,0 F,0,53488,,0.66 C,0,53488,,255,232,99 P,0,53488,,A M,7,53488,54208,392,300,386,252 S,6,53488,54208,0.3289814,0
Sprite,Foreground,Centre,"sb\particle.png",0,0 F,0,53488,,0.66 C,0,53488,,255,232,99 P,0,53488,,A M,7,53488,54208,392,300,408,264 S,6,53488,54208,0.1749586,0
Sprite,Foreground,Centre,"sb\particle.png",0,0 F,0,53488,,0.66 C,0,53488,,255,232,99 P,0,53488,,A M,7,53488,54208,392,300,347,347 S,6,53488,54208,-0.1266628,0
Sprite,Foreground,Centre,"sb\particle.png",0,0 F,0,53488,,0.66 C,0,53488,,255,232,99 P,0,53488,,A M,7,53488,54208,392,300,419,342 S,6,53488,54208,0.04555586,0
Sprite,Foreground,Centre,"sb\particle.png",0,0 F,0,53488,,0.66 C,0,53488,,255,232,99 P,0,53488,,A M,7,53488,54208,392,300,427,267 S,6,53488,54208,-0.1313731,0
//Storyboard Layer 4 (Overlay)
//Storyboard Sound Samples

[TimingPoints]
5723,638.297872340426,4,2,1,45,1,0
5882,869.565217391305,4,2,1,45,1,0
6100,755.191944619257,4,2,1,45,1,0
6100,-125,4,2,1,45,0,0
18183,-111.111111111111,4,2,1,52,0,0
29888,-111.111111111111,4,2,76,69,0,0
30014,-111.111111111111,4,2,75,69,0,0
30266,-100,4,2,1,74,0,1
31021,-100,4,2,2,74,0,1
31257,-100,4,2,1,74,0,1
32531,-100,4,2,2,74,0,1
32720,-100,4,2,1,74,0,1
34042,-100,4,2,2,74,0,1
34230,-100,4,2,1,74,0,1
35552,-100,4,2,2,74,0,1
35741,-100,4,2,1,74,0,1
37062,-100,4,2,2,74,0,1
37298,-100,4,2,1,74,0,1
38573,-100,4,2,2,74,0,1
38762,-100,4,2,1,74,0,1
40083,-100,4,2,2,74,0,1
40272,-100,4,2,1,74,0,1
41405,-100,4,2,1,74,0,0
41594,-100,4,2,2,74,0,0
41782,-100,4,2,1,74,0,0
42349,-100,4,2,1,80,0,1
43104,-100,4,2,2,80,0,1
43340,-100,4,2,1,80,0,1
44614,-100,4,2,2,80,0,1
44803,-100,4,2,1,80,0,1
46125,-100,4,2,2,80,0,1
46313,-100,4,2,1,80,0,1
47635,-100,4,2,2,80,0,1
47824,-100,4,2,1,80,0,1
49145,-100,4,2,2,80,0,1
49334,-100,4,2,1,80,0,1
50656,-100,4,2,2,80,0,1
50845,-100,4,2,1,80,0,1
52166,-100,4,2,2,80,0,1
52355,-100,4,2,1,80,0,1
53677,-100,4,2,2,80,0,1
53865,-100,4,2,1,80,0,1
54432,-125,4,2,1,53,0,0
66515,-111.111111111111,4,2,1,53,0,0
78220,-111.111111111111,4,2,1,30,0,0
78598,-100,4,2,1,75,0,1
79353,-100,4,2,2,75,0,1
79589,-100,4,2,1,75,0,1
80863,-100,4,2,2,75,0,1
81052,-100,4,2,1,75,0,1
82374,-100,4,2,2,75,0,1
82562,-100,4,2,1,75,0,1
83884,-100,4,2,2,75,0,1
84073,-100,4,2,1,75,0,1
85394,-100,4,2,2,75,0,1
85630,-100,4,2,1,75,0,1
86905,-100,4,2,2,75,0,1
87094,-100,4,2,1,75,0,1
88415,-100,4,2,2,75,0,1
88604,-100,4,2,1,75,0,1
89737,-100,4,2,1,75,0,0
89926,-100,4,2,2,74,0,0
90114,-100,4,2,1,74,0,0
90681,-100,4,2,1,85,0,1
91436,-100,4,2,2,85,0,1
91672,-100,4,2,1,85,0,1
92946,-100,4,2,2,85,0,1
93135,-100,4,2,1,85,0,1
94457,-100,4,2,2,85,0,1
94645,-100,4,2,1,85,0,1
95967,-100,4,2,2,85,0,1
96156,-100,4,2,1,85,0,1
97477,-100,4,2,2,85,0,1
97666,-100,4,2,1,85,0,1
98988,-100,4,2,2,85,0,1
99177,-100,4,2,1,85,0,1
100498,-100,4,2,2,85,0,1
100687,-100,4,2,1,85,0,1
102009,-100,4,2,2,85,0,1
102197,-100,4,2,1,85,0,1
102764,-100,4,2,1,60,0,0

[Colours]
Combo1 : 200,202,96
Combo2 : 45,67,74
Combo3 : 238,189,145
Combo4 : 115,139,73
Combo5 : 206,138,70
Combo6 : 193,176,125
Combo7 : 174,174,174

[HitObjects]
39,42,6100,6,0,B|80:17|141:38|97:93|194:95,1,176,2|2,0:2|0:0,0:0:0:0:
268,52,7232,1,10,0:0:0:0:
356,36,7610,2,0,L|476:60,2,88,2|10|0,0:0|0:0|0:0,0:0:0:0:
330,120,8743,2,0,L|339:163,1,44,10|2,0:0|0:0,0:0:0:0:
364,200,9120,6,0,L|344:288,1,88,2|10,0:0|0:0,0:0:0:0:
288,356,9875,2,0,L|200:336,1,88,2|10,0:0|0:0,0:0:0:0:
148,268,10631,2,0,L|56:300,2,88,2|10|2,0:0|0:0|0:0,0:0:0:0:
224,224,11763,1,8,0:0:0:0:
256,144,12141,6,0,P|256:100|228:68,1,88,2|10,0:0|0:0,0:0:0:0:
148,36,12896,2,0,P|100:36|68:60,1,88,2|10,0:0|0:0,0:0:0:0:
44,143,13651,2,0,B|66:238,2,88,2|10|2,0:0|0:0|0:0,0:0:0:0:
129,123,14784,2,0,L|171:133,1,44,10|2,0:0|0:0,0:0:0:0:
201,166,15162,6,0,L|287:148,1,88,2|10,0:0|0:0,0:0:0:0:
316,112,15728,2,0,L|400:136,1,88,2|2,0:0|0:0,0:0:0:0:
442,149,16295,1,10,0:0:0:0:
465,233,16672,2,0,L|450:319,1,88,2|10,0:0|0:0,0:0:0:0:
421,353,17239,2,0,B|362:353|373:293|309:293,1,132,2|8,0:0|0:0,0:0:0:0:
212,284,18183,6,0,L|116:316,1,98.9999969787599,8|2,0:3|0:0,0:0:0:0:
76,288,18750,1,2,3:2:0:0:
76,288,18938,2,0,P|52:252|56:196,1,98.9999969787599,2|2,0:0|0:0,0:0:0:0:
124,128,19693,2,0,L|172:120,2,49.4999984893799,2|0|0,0:0|0:0|0:0,0:0:0:0:
80,40,20448,2,0,L|180:24,1,98.9999969787599,2|0,0:0|3:3,0:0:0:0:
228,20,21015,5,8,0:3:0:0:
228,20,21203,2,0,B|280:20|272:60|316:60,1,98.9999969787599,0|2,3:3|0:0,0:0:0:0:
364,48,21770,1,0,3:3:0:0:
364,48,21959,2,0,P|412:48|448:80,1,98.9999969787599,2|2,0:0|0:0,0:0:0:0:
404,168,22714,2,0,L|356:160,2,49.4999984893799,2|0|0,0:0|0:0|0:0,0:0:0:0:
476,236,23469,2,0,L|456:332,1,98.9999969787599,2|0,0:0|3:3,0:0:0:0:
416,360,24035,5,8,0:3:0:0:
416,360,24224,2,0,L|320:340,1,98.9999969787599,8|2,0:3|0:0,0:0:0:0:
256,264,24979,2,0,L|160:284,1,98.9999969787599,2|2,0:0|0:0,0:0:0:0:
60,300,25734,2,0,L|68:348,2,49.4999984893799,2|0|0,0:0|0:0|0:0,0:0:0:0:
40,204,26490,2,0,P|72:172|124:172,1,98.9999969787599,2|0,0:0|3:3,0:0:0:0:
172,172,27056,5,8,0:3:0:0:
172,172,27245,2,0,B|220:164|220:208|264:200,1,98.9999969787599,0|2,3:3|0:0,0:0:0:0:
308,184,27811,1,8,0:3:0:0:
308,184,28000,2,0,P|336:144|336:96,1,98.9999969787599,2|2,0:0|0:0,0:0:0:0:
272,20,28755,2,0,L|224:28,1,49.4999984893799,2|0,0:0|0:0,0:0:0:0:
184,60,29133,2,0,L|136:48,1,49.4999984893799,2|2,0:0|0:0,0:0:0:0:
88,40,29510,1,2,0:0:0:0:
24,116,29888,2,0,L|32:164,1,49.4999984893799,2|0,0:2|0:0,0:0:0:0:
52,216,30266,6,0,B|108:208|104:256|152:252,1,110,4|8,0:2|0:0,0:0:0:0:
260,248,31021,2,0,L|312:264,1,55,2|2,0:2|0:2,0:0:0:0:
348,300,31398,2,0,L|404:288,1,55,8|2,0:0|3:1,0:0:0:0:
448,256,31776,2,0,P|472:212|452:156,1,110,2|10,0:0|0:0,0:0:0:0:
424,112,32343,1,2,0:0:0:0:
352,32,32720,2,0,L|300:52,1,55,8|8,0:1|0:1,0:0:0:0:
260,92,33098,5,8,0:1:0:0:
260,92,33286,2,0,L|152:68,1,110,0|8,3:1|0:0,0:0:0:0:
48,108,34042,2,0,P|44:136|52:160,1,55,2|0,0:2|3:0,0:0:0:0:
84,208,34419,2,0,P|88:236|80:260,1,55,8|2,0:0|3:1,0:0:0:0:
84,316,34797,2,0,B|140:308|136:356|184:352,1,110,2|10,0:0|0:0,0:0:0:0:
240,356,35363,1,2,0:0:0:0:
312,272,35741,2,0,B|324:248|324:248|312:220,1,55,8|8,0:1|0:1,0:0:0:0:
268,192,36118,5,8,0:1:0:0:
268,192,36307,2,0,B|240:144|240:144|264:96,1,110,0|8,3:0|0:0,0:0:0:0:
356,36,37062,2,0,L|412:44,1,55,2|2,0:2|0:2,0:0:0:0:
460,72,37440,2,0,L|452:128,1,55,8|2,0:0|3:1,0:0:0:0:
444,180,37818,2,0,P|420:228|440:280,1,110,2|10,0:0|0:0,0:0:0:0:
472,320,38384,1,2,0:0:0:0:
376,372,38762,2,0,L|320:360,1,55,8|8,0:1|0:1,0:0:0:0:
272,336,39139,5,8,0:1:0:0:
272,336,39328,2,0,B|216:324|216:372|168:364,1,110,2|8,3:1|0:0,0:0:0:0:
60,352,40083,2,0,P|52:328|60:300,1,55,2|0,0:2|3:0,0:0:0:0:
100,260,40461,2,0,P|108:236|104:208,1,55,8|2,0:0|3:1,0:0:0:0:
68,168,40838,2,0,B|40:124|40:124|64:68,1,110,2|10,0:0|0:0,0:0:0:0:
96,28,41405,2,0,L|204:52,1,110,2|8,0:0|0:1,0:0:0:0:
248,84,41971,2,0,L|304:72,1,55,8|8,0:1|0:1,0:0:0:0:
340,36,42349,6,0,B|392:28|392:76|440:72,1,110,6|10,3:2|0:0,0:0:0:0:
496,168,43104,2,0,P|502:196|496:224,1,55,2|2,0:2|0:2,0:0:0:0:
444,240,43482,2,0,P|438:268|444:296,1,55,10|6,0:0|3:1,0:0:0:0:
452,348,43859,1,2,0:0:0:0:
344,364,44237,1,10,0:0:0:0:
344,364,44425,2,0,L|236:344,1,110,2|8,0:0|0:1,0:0:0:0:
184,328,44992,2,0,L|132:344,1,55,8|8,0:1|0:1,0:0:0:0:
76,348,45369,6,0,P|56:300|76:248,1,110,4|10,3:1|0:0,0:0:0:0:
164,188,46125,2,0,L|220:200,1,55,2|2,0:2|3:2,0:0:0:0:
256,240,46502,2,0,L|312:228,1,55,8|6,0:0|3:1,0:0:0:0:
360,248,46880,1,2,0:0:0:0:
440,172,47257,1,10,0:0:0:0:
440,172,47446,2,0,B|468:124|468:124|440:76,1,110,2|8,0:0|0:1,0:0:0:0:
400,36,48013,2,0,L|344:44,1,55,8|8,0:1|0:1,0:0:0:0:
292,44,48390,6,0,B|244:36|244:88|192:80,1,110,4|10,3:1|0:0,0:0:0:0:
96,28,49145,2,0,L|40:40,1,55,2|2,0:2|0:2,0:0:0:0:
16,88,49523,2,0,L|28:144,1,55,8|6,0:0|3:1,0:0:0:0:
44,196,49901,1,2,0:0:0:0:
100,292,50278,1,10,0:0:0:0:
100,292,50467,2,0,P|156:292|192:256,1,110,2|8,0:0|0:1,0:0:0:0:
228,212,51033,2,0,P|252:196|280:196,1,55,8|8,0:1|0:1,0:0:0:0:
324,228,51411,6,0,L|340:336,1,110,4|10,3:1|0:0,0:0:0:0:
444,368,52166,2,0,L|500:360,1,55,2|0,0:2|3:0,0:0:0:0:
512,304,52544,2,0,L|504:248,1,55,10|2,0:0|0:1,0:0:0:0:
484,196,52921,2,0,L|368:216,1,110,2|8,0:0|0:0,0:0:0:0:
328,244,53488,2,0,L|253:233,1,55,2|2,0:0|0:2,0:0:0:0:
231,209,53865,1,8,0:1:0:0:
231,209,54054,2,0,L|240:154,1,55,8|8,0:1|0:1,0:0:0:0:
252,112,54433,5,0,3:0:0:0:
380,60,66515,6,0,B|428:64|428:32|476:36,2,98.9999969787599,0|2|2,3:3|0:0|0:0,0:0:0:0:
332,44,67459,1,2,0:0:0:0:
266,118,67836,2,0,B|250:166|250:166|270:210,2,98.9999969787599,8|2|2,0:3|0:0|0:0,0:0:0:0:
283,31,68969,2,0,L|331:43,2,49.4999984893799,8|8|8,0:3|0:3|0:3,0:0:0:0:
237,11,69536,1,8,0:3:0:0:
138,7,69913,6,0,L|42:39,1,98.9999969787599,2|2,0:0|0:0,0:0:0:0:
24,84,70480,1,2,0:0:0:0:
92,156,70857,2,0,B|140:156|132:120|184:120,2,98.9999969787599,8|2|2,0:3|0:0|0:0,0:0:0:0:
52,248,71990,2,0,L|4:256,2,49.4999984893799,8|8|8,0:3|0:3|0:3,0:0:0:0:
88,280,72556,6,0,L|188:264,1,98.9999969787599,0|2,3:3|0:0,0:0:0:0:
272,316,73312,1,2,0:0:0:0:
344,248,73689,2,0,P|372:248|392:260,1,49.4999984893799,2|8,0:0|0:3,0:0:0:0:
424,296,74067,1,2,0:0:0:0:
424,296,74256,2,0,P|476:296|508:264,1,98.9999969787599,2|2,0:0|0:0,0:0:0:0:
484,168,75011,2,0,L|436:176,2,49.4999984893799,8|8|8,0:3|0:3|0:3,0:0:0:0:
504,124,75577,6,0,L|488:24,1,98.9999969787599,8|0,0:3|0:0,0:0:0:0:
440,8,76144,1,2,3:2:0:0:
340,8,76521,2,0,L|292:20,1,49.4999984893799,2|2,0:0|0:0,0:0:0:0:
252,48,76899,1,8,0:3:0:0:
252,48,77088,2,0,P|236:96|252:140,1,98.9999969787599,2|0,0:0|0:0,0:0:0:0:
288,172,77654,1,2,0:0:0:0:
396,272,78220,1,2,0:1:0:0:
296,316,78598,6,0,L|188:352,1,110,4|8,0:2|0:0,0:0:0:0:
80,344,79353,2,0,P|68:324|68:292,1,55,2|2,0:2|0:2,0:0:0:0:
108,252,79731,2,0,P|108:224|95:200,1,55,8|2,0:0|3:1,0:0:0:0:
60,160,80108,2,0,L|172:132,1,110,2|10,0:0|0:0,0:0:0:0:
220,124,80675,1,2,0:0:0:0:
320,172,81052,2,0,L|332:228,1,55,8|8,0:1|0:1,0:0:0:0:
368,268,81430,5,8,0:1:0:0:
368,268,81619,2,0,P|428:268|464:236,1,110,0|8,3:0|0:0,0:0:0:0:
504,136,82374,2,0,P|504:108|492:84,1,55,2|0,0:2|3:0,0:0:0:0:
456,40,82751,2,0,P|428:40|404:52,1,55,8|2,0:0|3:1,0:0:0:0:
356,80,83129,2,0,B|304:80|316:36|260:36,1,110,2|10,0:0|0:0,0:0:0:0:
204,36,83695,1,2,0:0:0:0:
92,40,84073,2,0,L|36:52,1,55,8|8,0:1|0:1,0:0:0:0:
16,104,84450,5,8,0:1:0:0:
16,104,84639,2,0,L|36:216,1,110,0|8,3:0|0:0,0:0:0:0:
56,320,85394,2,0,L|112:308,1,55,2|2,0:2|0:2,0:0:0:0:
156,280,85772,2,0,L|209:291,1,55,8|2,0:0|3:1,0:0:0:0:
240,340,86150,2,0,P|292:340|332:300,1,110,2|10,0:0|0:0,0:0:0:0:
344,248,86716,1,2,0:0:0:0:
280,168,87094,2,0,L|224:156,1,55,8|8,0:1|0:1,0:0:0:0:
172,144,87471,5,8,0:1:0:0:
172,144,87660,2,0,B|148:96|148:96|172:44,1,110,2|8,3:1|0:0,0:0:0:0:
276,8,88415,2,0,L|332:20,1,55,2|0,0:2|3:0,0:0:0:0:
364,60,88793,2,0,L|420:52,1,55,8|2,0:0|3:1,0:0:0:0:
468,32,89171,2,0,L|484:148,1,110,2|10,0:0|0:0,0:0:0:0:
488,196,89737,2,0,B|436:196|452:240|392:240,1,110,2|8,0:0|0:1,0:0:0:0:
344,212,90303,2,0,L|288:200,1,55,8|8,0:1|0:1,0:0:0:0:
236,212,90681,6,0,L|220:324,1,110,6|10,3:2|0:0,0:0:0:0:
120,368,91436,2,0,L|64:356,1,55,2|2,0:2|0:2,0:0:0:0:
16,336,91814,2,0,L|24:280,1,55,10|6,0:0|3:1,0:0:0:0:
32,228,92191,1,2,0:0:0:0:
120,160,92569,1,10,0:0:0:0:
120,160,92757,2,0,L|228:180,1,110,2|8,0:0|0:1,0:0:0:0:
272,212,93324,2,0,L|324:196,1,55,8|8,0:1|0:1,0:0:0:0:
356,152,93701,6,0,P|376:104|356:52,1,110,4|10,3:1|0:0,0:0:0:0:
256,4,94457,2,0,L|200:16,1,55,2|2,0:2|3:2,0:0:0:0:
164,56,94834,2,0,L|108:44,1,55,8|6,0:0|3:1,0:0:0:0:
56,36,95212,1,2,0:0:0:0:
20,140,95589,1,10,0:0:0:0:
20,140,95779,2,0,L|40:248,1,110,2|8,0:0|0:1,0:0:0:0:
80,288,96345,2,0,L|136:276,1,55,8|8,0:1|0:1,0:0:0:0:
180,248,96722,6,0,B|228:240|228:292|280:284,1,110,4|10,3:1|0:0,0:0:0:0:
372,344,97478,2,0,L|425:332,1,55,2|2,0:2|0:2,0:0:0:0:
464,292,97855,2,0,L|452:238,1,55,8|6,0:0|3:1,0:0:0:0:
436,184,98233,1,2,0:0:0:0:
336,136,98610,1,10,0:0:0:0:
336,136,98799,2,0,P|296:172|240:172,1,110,2|8,0:0|0:1,0:0:0:0:
212,128,99366,2,0,P|206:100|212:72,1,55,8|8,0:1|0:1,0:0:0:0:
240,28,99743,6,0,L|348:44,1,110,4|10,3:1|0:0,0:0:0:0:
448,92,100498,2,0,P|455:119|449:145,1,55,2|0,0:2|3:0,0:0:0:0:
404,180,100876,2,0,P|397:207|403:233,1,55,10|2,0:0|0:1,0:0:0:0:
416,288,101254,2,0,B|364:288|376:332|320:332,1,110,2|8,0:0|0:0,0:0:0:0:
268,352,101820,2,0,L|185:332,1,55,2|2,0:0|0:2,0:0:0:0:
162,320,102198,1,8,0:1:0:0:
162,320,102386,2,0,P|158:292|166:268,1,55,8|8,0:1|0:1,0:0:0:0:
197,220,102765,5,0,0:0:0:0:
