osu file format v14

[General]
AudioFilename: audio.mp3
AudioLeadIn: 0
PreviewTime: 56444
Countdown: 0
SampleSet: Soft
StackLeniency: 0.2
Mode: 0
LetterboxInBreaks: 0
WidescreenStoryboard: 0

[Editor]
Bookmarks: 127999
DistanceSpacing: 0.2
BeatDivisor: 4
GridSize: 4
TimelineZoom: 1

[Metadata]
Title:1984
TitleUnicode:1984
Artist:glaive
ArtistUnicode:glaive
Creator:ellae
Version:dysphoria
Source:
Tags:english pop hyperpop male vocals all dogs go to heaven eiri- ayyri
BeatmapID:3215602
BeatmapSetID:1574914

[Difficulty]
HPDrainRate:5.7
CircleSize:4
OverallDifficulty:8.8
ApproachRate:9
SliderMultiplier:2.8
SliderTickRate:1

[Events]
//Background and Video events
0,0,"abhishek-koli-PMxTK-bHZhs-unsplash.jpg",0,0
//Break Periods
2,85311,99555
//Storyboard Layer 0 (Background)
//Storyboard Layer 1 (Fail)
//Storyboard Layer 2 (Pass)
//Storyboard Layer 3 (Foreground)
//Storyboard Layer 4 (Overlay)
//Storyboard Sound Samples

[TimingPoints]
0,444.444444444444,4,2,0,55,1,0
7111,-166.666666666667,4,2,1,65,0,0
14111,-166.666666666667,4,2,1,5,0,0
14222,-125,4,2,1,65,0,0
27444,-125,4,2,1,5,0,0
27555,-125,4,2,1,65,0,0
28444,-125,4,2,1,55,0,0
31111,-125,4,2,2,65,0,0
31222,-125,4,2,2,5,0,0
31333,-83.3333333333333,4,2,2,65,0,0
31999,-83.3333333333333,4,2,2,85,0,0
32777,-83.3333333333333,4,2,2,5,0,0
32888,-83.3333333333333,4,2,2,85,0,0
34555,-83.3333333333333,4,2,2,5,0,0
34666,-83.3333333333333,4,2,2,85,0,0
34777,-83.3333333333333,4,2,2,5,0,0
34888,-83.3333333333333,4,2,2,85,0,0
34999,-83.3333333333333,4,2,2,5,0,0
35111,-83.3333333333333,4,2,2,85,0,0
37666,-71.4285714285714,4,2,2,85,0,0
37888,-71.4285714285714,4,2,2,5,0,0
37999,-71.4285714285714,4,2,2,85,0,0
39111,-83.3333333333333,4,2,2,85,0,0
39888,-83.3333333333333,4,2,2,5,0,0
39999,-83.3333333333333,4,2,2,85,0,0
41888,-83.3333333333333,4,2,2,5,0,0
41999,-83.3333333333333,4,2,2,85,0,0
42111,-83.3333333333333,4,2,2,5,0,0
42222,-83.3333333333333,4,2,2,85,0,0
43555,-100,4,2,2,85,0,0
44777,-71.4285714285714,4,2,2,85,0,0
44999,-71.4285714285714,4,2,2,5,0,0
45111,-71.4285714285714,4,2,2,85,0,0
45222,-71.4285714285714,4,2,2,5,0,0
45333,-71.4285714285714,4,2,2,85,0,0
45444,-71.4285714285714,4,2,2,5,0,0
45555,-71.4285714285714,4,2,2,85,0,0
46222,-83.3333333333333,4,2,2,85,0,0
46999,-83.3333333333333,4,2,2,5,0,0
47111,-83.3333333333333,4,2,2,85,0,0
47999,-166.666666666667,4,2,2,85,0,0
48222,-166.666666666667,4,2,2,5,0,0
48333,-166.666666666667,4,2,2,85,0,0
48444,-83.3333333333333,4,2,2,85,0,0
48777,-83.3333333333333,4,2,2,5,0,0
48888,-83.3333333333333,4,2,2,85,0,0
48999,-83.3333333333333,4,2,2,5,0,0
49111,-83.3333333333333,4,2,2,85,0,0
49222,-83.3333333333333,4,2,2,5,0,0
49333,-83.3333333333333,4,2,2,85,0,0
50666,-100,4,2,2,85,0,0
51888,-71.4285714285714,4,2,2,85,0,0
52111,-71.4285714285714,4,2,2,5,0,0
52222,-71.4285714285714,4,2,2,85,0,0
52888,-83.3333333333333,4,2,2,85,0,0
52999,-83.3333333333333,4,2,2,5,0,0
53111,-83.3333333333333,4,2,2,85,0,0
54111,-83.3333333333333,4,2,2,5,0,0
54222,-83.3333333333333,4,2,2,85,0,0
55111,-166.666666666667,4,2,2,85,0,0
55555,-83.3333333333333,4,2,2,85,0,0
55888,-83.3333333333333,4,2,2,5,0,0
55999,-83.3333333333333,4,2,2,85,0,0
56111,-83.3333333333333,4,2,2,5,0,0
56222,-83.3333333333333,4,2,2,85,0,0
56333,-83.3333333333333,4,2,2,5,0,0
56444,-83.3333333333333,4,2,2,85,0,0
56888,-125,4,2,2,65,0,0
58555,-125,4,2,2,5,0,0
58666,-125,4,2,2,65,0,0
63888,-125,4,2,2,5,0,0
63999,-125,4,2,2,65,0,0
65666,-125,4,2,2,5,0,0
65777,-125,4,2,2,65,0,0
67444,-125,4,2,2,5,0,0
67555,-125,4,2,2,65,0,0
69222,-125,4,2,2,5,0,0
69333,-125,4,2,2,65,0,0
70777,-125,4,2,2,5,0,0
70888,-125,4,2,2,65,0,0
71111,-125,4,2,1,65,0,0
78111,-125,4,2,1,5,0,0
78222,-125,4,2,1,65,0,0
79999,-166.666666666667,4,2,1,65,0,0
99555,-166.666666666667,4,2,1,55,0,0
102222,-125,4,2,2,65,0,0
102333,-125,4,2,2,5,0,0
102444,-83.3333333333334,4,2,2,65,0,0
103111,-83.3333333333334,4,2,2,85,0,0
103888,-83.3333333333334,4,2,2,5,0,0
103999,-83.3333333333334,4,2,2,85,0,0
105666,-83.3333333333334,4,2,2,5,0,0
105777,-83.3333333333334,4,2,2,85,0,0
105888,-83.3333333333334,4,2,2,5,0,0
105999,-83.3333333333334,4,2,2,85,0,0
106111,-83.3333333333334,4,2,2,5,0,0
106222,-83.3333333333334,4,2,2,85,0,0
108777,-71.4285714285714,4,2,2,85,0,0
108999,-71.4285714285714,4,2,2,5,0,0
109111,-71.4285714285714,4,2,2,85,0,0
110222,-83.3333333333333,4,2,2,85,0,0
110999,-83.3333333333333,4,2,2,5,0,0
111111,-83.3333333333333,4,2,2,85,0,0
112777,-83.3333333333333,4,2,2,5,0,0
112888,-83.3333333333333,4,2,2,85,0,0
112999,-83.3333333333333,4,2,2,5,0,0
113111,-83.3333333333333,4,2,2,85,0,0
113222,-83.3333333333333,4,2,2,5,0,0
113333,-83.3333333333333,4,2,2,85,0,0
114666,-100,4,2,2,85,0,0
115888,-71.4285714285714,4,2,2,85,0,0
116111,-71.4285714285714,4,2,2,5,0,0
116222,-71.4285714285714,4,2,2,85,0,0
116333,-71.4285714285714,4,2,2,5,0,0
116444,-71.4285714285714,4,2,2,85,0,0
117333,-83.3333333333333,4,2,2,85,0,0
118111,-83.3333333333333,4,2,2,5,0,0
118222,-83.3333333333333,4,2,2,85,0,0
119111,-166.666666666667,4,2,2,85,0,0
119555,-83.3333333333333,4,2,2,85,0,0
119888,-83.3333333333333,4,2,2,5,0,0
119999,-83.3333333333333,4,2,2,85,0,0
122999,-71.4285714285714,4,2,2,85,0,0
123222,-71.4285714285714,4,2,2,5,0,0
123333,-71.4285714285714,4,2,2,85,0,0
123444,-71.4285714285714,4,2,2,5,0,0
123555,-71.4285714285714,4,2,2,85,0,0
124444,-83.3333333333333,4,2,2,85,0,0
124999,-83.3333333333333,4,2,2,5,0,0
125111,-83.3333333333333,4,2,2,85,0,0
125666,-83.3333333333333,4,2,2,5,0,0
125777,-83.3333333333333,4,2,2,85,0,0
126999,-83.3333333333333,4,2,2,5,0,0
127111,-83.3333333333333,4,2,2,85,0,0
127444,-83.3333333333333,4,2,2,5,0,0
127555,-83.3333333333333,4,2,2,65,0,0

[Colours]
Combo1 : 255,196,255
Combo2 : 255,170,85
Combo3 : 255,255,155
Combo4 : 188,122,122

[HitObjects]
66,184,7111,6,0,B|178:141|178:141|200:156|235:157,1,167.999994873047,2|0,0:0|0:0,0:0:0:0:
224,78,7777,1,2,0:0:0:0:
290,206,7999,2,0,L|330:37,1,167.999994873047,0|2,0:0|0:0,0:0:0:0:
402,142,8888,6,0,L|431:276,1,111.999996582031,2|0,0:0|0:0,0:0:0:0:
300,311,9555,6,0,B|343:288|387:308|373:323|421:345|461:326,1,167.999994873047,2|0,0:0|0:0,0:0:0:0:
442,168,10222,2,0,L|425:256,1,83.9999974365235,2|0,0:0|0:0,0:0:0:0:
241,367,10666,6,0,P|221:297|308:224,1,167.999994873047,2|0,0:0|0:0,0:0:0:0:
302,308,11333,1,2,0:0:0:0:
156,236,11555,2,0,L|71:258,1,83.9999974365235
136,333,11999,1,2,0:0:0:0:
23,199,12444,6,0,L|3:115,2,83.9999974365235,2|0|0,0:0|0:0|0:0,0:0:0:0:
96,140,13111,2,0,L|268:99,1,167.999994873047,2|0,0:0|0:0,0:0:0:0:
257,17,13777,2,0,B|218:8|203:-20|203:-20|214:9|195:54,1,125.999996154785
259,101,14222,6,0,B|310:74|379:98|356:126|419:161|479:126,1,224,2|8,3:0|0:0,0:0:0:0:
427,60,14888,1,2,0:0:0:0:
303,170,15111,2,0,L|281:285,2,112,0|0|10,3:0|0:0|0:0,0:0:0:0:
353,106,15777,1,0,0:0:0:0:
210,211,15999,5,2,3:0:0:0:
278,275,16222,1,0,0:0:0:0:
189,365,16444,6,0,P|121:379|75:355,1,112,8|2,0:0|0:0,0:0:0:0:
95,208,16888,2,0,P|138:263|138:306,2,112,0|0|10,3:0|0:0|0:0,0:0:0:0:
43,286,17555,1,0,0:0:0:0:
210,211,17777,6,0,B|357:247|357:247|371:288|412:305,1,224,2|10,3:0|0:0,0:0:0:0:
301,314,18444,1,2,0:0:0:0:
432,226,18666,2,0,L|465:113,2,112,0|0|10,3:0|0:0|0:0,0:0:0:0:
483,294,19333,1,0,0:0:0:0:
367,146,19555,6,0,L|138:91,1,224,2|8,3:0|0:0,0:0:0:0:
249,39,20222,1,2,0:0:0:0:
156,174,20444,5,0,3:0:0:0:
219,242,20666,1,0,0:0:0:0:
149,328,20888,5,8,0:0:0:0:
211,384,21111,1,0,0:0:0:0:
31,217,21333,6,0,L|148:252,1,112,2|0,3:0|0:0,0:0:0:0:
267,321,21777,2,0,L|374:288,1,112,8|2,0:0|0:0,0:0:0:0:
477,204,22222,5,0,3:0:0:0:
414,275,22444,1,0,0:0:0:0:
506,370,22666,5,10,0:0:0:0:
410,264,22888,1,0,0:0:0:0:
506,128,23111,5,2,3:0:0:0:
452,69,23333,2,0,B|469:46|462:15|462:15|475:42|506:51,2,112,0|8|2,0:0|0:0|0:0,0:0:0:0:
382,167,23999,5,0,3:0:0:0:
282,66,24222,2,0,P|343:28|384:29,1,112,0|10,0:0|0:0,0:0:0:0:
376,177,24666,1,0,0:0:0:0:
230,136,24888,2,0,P|196:72|216:17,2,112,2|0|8,3:0|0:0|0:0,0:0:0:0:
283,67,25555,1,2,0:0:0:0:
311,223,25777,6,0,B|260:196|191:220|214:248|151:283|91:248,1,224,2|10,3:0|0:0,0:0:0:0:
136,181,26444,1,0,0:0:0:0:
266,291,26666,5,2,3:0:0:0:
167,362,26888,2,0,L|194:238,1,112,0|8,0:0|0:0,0:0:0:0:
39,101,27333,2,0,L|55:166,1,56,2|0,0:0|0:0,0:0:0:0:
90,285,27555,5,8,3:0:0:0:
265,164,27777,5,8,3:0:0:0:
17,15,27999,5,8,3:0:0:0:
176,350,28222,5,8,3:0:0:0:
266,291,28444,1,2,0:0:0:0:
265,292,31111,6,0,P|234:286|207:269,1,56,8|0,0:0|0:0,0:0:0:0:
100,201,31333,6,0,P|128:279|150:361,2,167.999994873047,0|2|0,0:0|0:0|0:0,0:0:0:0:
452,21,31999,6,0,P|333:114|196:250,1,335.999989746094,6|0,3:0|0:0,0:0:0:0:
214,106,32666,2,0,P|194:69|206:13,1,83.9999974365235,2|0,3:0|0:0,0:0:0:0:
443,240,32888,6,0,B|491:249|453:346|406:350|318:262|375:195,1,251.999992309571,8|0,0:0|0:0,0:0:0:0:
445,154,33333,1,2,3:0:0:0:
272,48,33555,1,0,0:0:0:0:
143,300,33777,5,2,0:0:0:0:
82,245,34111,5,0,0:0:0:0:
66,264,34222,2,0,L|137:-9,1,251.999992309571,0|0,3:0|0:0,0:0:0:0:
2,32,34666,2,0,B|25:36|39:54|39:54|31:34|36:10,1,83.9999974365235,10|0,0:0|0:0,0:0:0:0:
167,201,34888,6,0,L|266:174,1,83.9999974365235,0|0,3:0|0:0,0:0:0:0:
406,113,35111,5,2,3:0:0:0:
383,102,35222,1,0,3:0:0:0:
338,79,35333,1,2,3:0:0:0:
266,95,35444,5,0,3:0:0:0:
232,26,35555,2,0,B|304:1|364:87|364:87|428:192|526:156,1,335.999989746094,6|0,3:0|3:0,0:0:0:0:
465,82,36074,6,0,P|478:52|475:20,2,55.9999982910157,0|0|2,3:0|3:0|3:0,0:0:0:0:
345,220,36444,5,10,0:0:0:0:
495,299,36666,1,0,0:0:0:0:
290,372,36888,5,2,0:0:0:0:
444,201,37111,1,0,0:0:0:0:
160,73,37333,5,2,0:0:0:0:
169,58,37666,6,0,B|149:8|74:22|82:89|82:89|101:164,1,195.999994018555,0|0,3:0|0:0,0:0:0:0:
22,244,37999,2,0,B|63:214|126:229|108:251|173:283|221:248,2,195.999994018555,2|8|0,3:0|0:0|0:0,0:0:0:0:
173,152,38666,5,2,0:0:0:0:
70,313,38888,1,0,0:0:0:0:
277,375,39111,6,0,P|317:266|411:63,1,335.999989746094,2|0,3:0|0:0,0:0:0:0:
262,21,39777,2,0,P|299:44|309:85,1,83.9999974365235,2|0,3:0|0:0,0:0:0:0:
456,216,39999,6,0,P|276:271|201:298,1,251.999992309571,8|0,0:0|0:0,0:0:0:0:
140,254,40444,1,0,3:0:0:0:
371,349,40666,1,0,0:0:0:0:
132,247,40888,5,2,0:0:0:0:
188,188,41222,5,0,0:0:0:0:
202,195,41333,2,0,B|106:138|106:138|81:62|81:62|9:26,1,251.999992309571,0|0,3:0|0:0,0:0:0:0:
208,8,41777,2,0,L|165:93,1,83.9999974365235,10|0,0:0|0:0,0:0:0:0:
39,197,41999,2,0,L|8:99,1,83.9999974365235,2|0,3:0|0:0,0:0:0:0:
258,83,42222,5,2,3:0:0:0:
273,90,42333,1,0,3:0:0:0:
333,118,42444,1,2,3:0:0:0:
376,185,42555,5,0,3:0:0:0:
449,163,42666,2,0,B|539:149|438:10|373:76|342:163|359:228|442:258,1,335.999989746094,6|0,3:0|3:0,0:0:0:0:
493,295,43185,2,0,P|507:260|502:233,2,55.9999982910157,0|0|2,3:0|3:0|3:0,0:0:0:0:
286,291,43555,6,0,B|417:333|417:333|437:370|479:381,1,210,10|0,0:0|0:0,0:0:0:0:
427,252,43999,2,0,L|345:226,1,70,2|0,0:0|0:0,0:0:0:0:
223,185,44222,1,0,0:0:0:0:
95,377,44444,5,2,0:0:0:0:
27,325,44666,5,0,0:0:0:0:
10,349,44777,2,0,B|49:226|49:226|17:193|27:153,1,195.999994018555,0|0,3:0|0:0,0:0:0:0:
86,119,45111,2,0,B|103:132|133:124|133:124|109:138|102:164,1,97.9999970092774,2|0,3:0|0:0,0:0:0:0:
8,49,45333,2,0,P|-8:17|20:38,1,97.9999970092774,8|0,0:0|0:0,0:0:0:0:
128,238,45555,5,0,0:0:0:0:
255,114,45777,1,2,0:0:0:0:
106,45,45999,1,0,0:0:0:0:
233,360,46222,6,0,P|340:287|520:166,1,335.999989746094,2|2,3:0|0:0,0:0:0:0:
362,98,46888,2,0,P|337:147|358:188,1,83.9999974365235,2|0,3:0|0:0,0:0:0:0:
482,361,47111,6,0,P|357:279|239:214,1,251.999992309571,8|0,0:0|0:0,0:0:0:0:
235,152,47555,2,0,P|251:103|236:62,1,83.9999974365235,2|0,3:0|0:0,0:0:0:0:
153,195,47777,2,0,P|180:239|192:275,1,83.9999974365235
457,135,47999,6,0,P|474:74|493:40,1,83.9999974365235,2|0,0:0|0:0,0:0:0:0:
367,83,48333,1,0,0:0:0:0:
389,71,48444,2,0,B|316:43|270:116|270:116|228:186|155:161,1,251.999992309571,0|0,3:0|0:0,0:0:0:0:
161,5,48888,2,0,L|191:96,1,83.9999974365235,10|0,0:0|0:0,0:0:0:0:
351,140,49111,6,0,L|323:253,1,83.9999974365235,2|0,3:0|0:0,0:0:0:0:
115,234,49333,5,2,3:0:0:0:
136,246,49444,1,0,3:0:0:0:
156,257,49555,1,2,3:0:0:0:
223,293,49666,5,0,3:0:0:0:
237,302,49777,2,0,P|97:341|-17:378,1,251.999992309571,6|0,3:0|0:0,0:0:0:0:
37,279,50222,2,0,P|22:266|17:222,3,55.9999982910157,0|0|0|2,3:0|3:0|3:0|3:0,0:0:0:0:
312,384,50666,6,0,P|331:292|375:170,1,210,10|0,0:0|0:0,0:0:0:0:
414,112,51111,2,0,P|449:141|456:176,1,70,2|0,0:0|0:0,0:0:0:0:
424,274,51333,1,0,0:0:0:0:
200,98,51555,5,2,0:0:0:0:
249,29,51777,5,0,0:0:0:0:
267,24,51888,2,0,P|170:14|101:91,1,195.999994018555,0|0,3:0|0:0,0:0:0:0:
30,174,52222,2,0,B|71:144|134:159|116:181|181:213|229:178,2,195.999994018555,2|8|0,3:0|0:0|0:0,0:0:0:0:
198,30,52888,6,0,L|180:124,1,83.9999974365235,2|0,0:0|0:0,0:0:0:0:
75,240,53111,1,0,0:0:0:0:
511,344,53333,6,0,P|346:253|195:175,1,335.999989746094,2|2,3:0|0:0,0:0:0:0:
387,102,53999,2,0,P|344:118|327:177,1,83.9999974365235,2|0,3:0|0:0,0:0:0:0:
318,379,54222,6,0,P|268:244|215:134,1,251.999992309571,8|0,0:0|0:0,0:0:0:0:
262,64,54666,1,2,3:0:0:0:
470,232,54888,1,0,0:0:0:0:
271,72,55111,6,0,P|200:54|121:18,1,125.999996154785,2|0,0:0|0:0,0:0:0:0:
62,56,55555,2,0,B|96:6|37:-42|-23:-15|-35:52|-19:94|6:124|55:135,1,251.999992309571,0|0,3:0|0:0,0:0:0:0:
75,192,55999,2,0,P|105:158|108:105,1,83.9999974365235,10|0,0:0|0:0,0:0:0:0:
3,292,56222,6,0,P|28:340|41:385,1,83.9999974365235,2|0,3:0|0:0,0:0:0:0:
282,352,56444,5,0,3:0:0:0:
266,346,56555,1,0,3:0:0:0:
214,325,56666,1,0,3:0:0:0:
140,352,56777,5,0,3:0:0:0:
121,281,56888,2,0,B|172:248|245:286|220:315|279:343|331:322,1,224,6|8,3:0|0:0,0:0:0:0:
307,204,57555,1,2,0:0:0:0:
301,225,57666,1,0,3:0:0:0:
295,246,57777,1,0,3:0:0:0:
221,197,57999,2,0,L|193:84,1,112,0|10,3:0|0:0,0:0:0:0:
352,95,58444,6,0,L|288:118,1,56
388,169,58666,2,0,B|459:186|459:186|470:205|494:216,2,112,2|0|8,3:0|0:0|0:0,0:0:0:0:
409,256,59333,1,2,0:0:0:0:
414,277,59444,1,0,3:0:0:0:
419,298,59555,1,0,3:0:0:0:
487,362,59777,1,0,3:0:0:0:
329,285,59999,2,0,P|266:271|208:307,1,112,8|0,0:0|0:0,0:0:0:0:
77,363,60444,6,0,P|95:285|125:125,1,224,2|8,3:0|0:0,0:0:0:0:
231,97,61111,1,2,0:0:0:0:
216,114,61222,1,0,3:0:0:0:
212,136,61333,1,0,3:0:0:0:
113,63,61555,2,0,B|77:53|65:30|65:30|74:55|63:92,1,112,0|10,3:0|0:0,0:0:0:0:
143,177,61999,5,0,0:0:0:0:
21,255,62222,2,0,B|72:222|145:260|120:289|179:317|231:296,1,224,2|8,3:0|0:0,0:0:0:0:
203,180,62888,1,2,0:0:0:0:
193,200,63000,1,0,3:0:0:0:
193,224,63111,1,0,3:0:0:0:
280,226,63333,1,0,3:0:0:0:
340,335,63555,6,0,P|422:356|520:382,1,168,8|0,0:0|0:0,0:0:0:0:
432,275,63999,2,0,B|357:188|410:120|477:130|490:186|468:209,1,224,2|8,3:0|0:0,0:0:0:0:
327,249,64666,1,2,0:0:0:0:
306,258,64777,1,0,3:0:0:0:
285,265,64888,1,0,3:0:0:0:
281,178,65111,1,0,3:0:0:0:
207,301,65333,5,10,0:0:0:0:
206,222,65555,2,0,L|185:165,1,56
202,80,65777,2,0,B|120:106|120:106|85:180|85:180|24:201,1,224,2|8,3:0|0:0,0:0:0:0:
11,75,66444,1,2,0:0:0:0:
18,96,66555,1,0,3:0:0:0:
25,117,66666,1,0,3:0:0:0:
83,29,66888,1,0,3:0:0:0:
186,169,67111,6,0,L|351:115,1,168,8|0,0:0|0:0,0:0:0:0:
374,41,67555,2,0,B|454:28|459:120|459:120|413:153|418:210,1,224,2|8,3:0|0:0,0:0:0:0:
512,237,68222,1,2,0:0:0:0:
504,215,68333,1,0,3:0:0:0:
496,193,68444,1,0,3:0:0:0:
351,122,68666,5,0,3:0:0:0:
421,242,68888,1,10,0:0:0:0:
387,317,69111,2,0,L|407:384,1,56
308,355,69333,6,0,B|141:317|141:317|120:333|88:336,1,224,2|8,3:0|0:0,0:0:0:0:
69,214,69999,1,2,0:0:0:0:
78,235,70110,1,0,3:0:0:0:
87,258,70222,1,0,3:0:0:0:
181,223,70444,1,0,3:0:0:0:
42,132,70666,6,0,L|21:72,1,56,10|0,0:0|0:0,0:0:0:0:
129,153,70888,1,0,0:0:0:0:
412,29,71111,6,0,B|361:-4|288:34|313:63|254:91|202:70,1,224,2|8,3:0|0:0,0:0:0:0:
236,0,71777,2,0,P|291:50|290:99,1,112,0|2,0:0|3:0,0:0:0:0:
214,188,72222,1,0,0:0:0:0:
371,102,72444,5,8,0:0:0:0:
316,174,72666,1,0,0:0:0:0:
474,384,72888,6,0,P|441:290|395:167,1,224,0|10,3:0|0:0,0:0:0:0:
509,22,73555,2,0,P|484:85|471:128,1,112,0|2,0:0|3:0,0:0:0:0:
423,248,73999,1,0,0:0:0:0:
494,203,74222,1,8,0:0:0:0:
396,62,74444,1,0,0:0:0:0:
207,74,74666,6,0,P|355:136|427:170,1,224,0|8,3:0|0:0,0:0:0:0:
498,17,75333,2,0,P|436:46|385:65,1,112,0|2,0:0|3:0,0:0:0:0:
278,103,75777,1,0,0:0:0:0:
416,164,75999,5,8,0:0:0:0:
347,219,76222,1,0,0:0:0:0:
213,53,76444,6,0,B|162:20|89:58|114:87|55:115|3:94,1,224,0|10,3:0|0:0,0:0:0:0:
37,17,77111,2,0,L|71:142,2,112,0|0|0,0:0|3:0|0:0,0:0:0:0:
174,125,77777,6,0,L|134:290,1,168,10|0,0:0|0:0,0:0:0:0:
171,357,78222,5,0,3:0:0:0:
62,247,78444,1,0,0:0:0:0:
260,159,78666,1,8,0:0:0:0:
269,153,79111,5,0,3:0:0:0:
52,254,79333,1,0,0:0:0:0:
178,364,79555,1,8,0:0:0:0:
186,371,79999,6,0,L|278:354,2,83.9999974365235,0|0|10,3:0|0:0|0:0,0:0:0:0:
99,329,80666,1,0,0:0:0:0:
277,147,80888,5,0,3:0:0:0:
43,262,81111,1,0,0:0:0:0:
192,378,81333,1,8,0:0:0:0:
184,370,81777,6,0,L|211:275,1,83.9999974365235,0|0,3:0|0:0,0:0:0:0:
110,154,82222,2,0,L|132:234,1,83.9999974365235,8|0,0:0|0:0,0:0:0:0:
268,155,82666,5,2,3:0:0:0:
54,260,82888,1,0,0:0:0:0:
172,366,83111,1,8,0:0:0:0:
183,356,83555,6,0,L|86:328,1,83.9999974365235,0|0,3:0|0:0,0:0:0:0:
0,193,83999,2,0,L|97:165,1,83.9999974365235,8|0,0:0|0:0,0:0:0:0:
334,114,84444,5,8,3:0:0:0:
52,263,84666,1,8,3:0:0:0:
260,378,84888,1,8,3:0:0:0:
14,27,85111,1,8,3:0:0:0:
42,113,102222,6,0,P|27:74|17:51,1,56,8|0,0:0|0:0,0:0:0:0:
163,26,102444,2,0,P|131:103|102:182,2,167.999994873047,0|2|0,0:0|0:0|0:0,0:0:0:0:
350,289,103111,6,0,P|123:343|-1:377,1,335.999989746094,6|0,3:0|0:0,0:0:0:0:
128,254,103777,2,0,P|104:230|101:171,1,83.9999974365235,2|0,3:0|0:0,0:0:0:0:
151,89,103999,2,0,B|178:72|182:33|182:33|275:104|172:192,1,251.999992309571,8|0,0:0|0:0,0:0:0:0:
74,105,104444,5,2,3:0:0:0:
103,28,104555,2,0,P|63:14|23:0,1,83.9999974365235
301,198,104888,5,2,0:0:0:0:
280,118,105222,5,0,0:0:0:0:
267,124,105333,2,0,B|325:93|377:160|377:160|423:224|508:188,1,251.999992309571,0|0,3:0|0:0,0:0:0:0:
474,42,105777,2,0,P|457:93|443:139,1,83.9999974365235,10|0,0:0|0:0,0:0:0:0:
320,278,105999,2,0,B|344:286|355:301|355:301|350:285|368:241,1,83.9999974365235,0|0,3:0|0:0,0:0:0:0:
202,75,106222,5,2,3:0:0:0:
169,64,106333,1,0,3:0:0:0:
98,38,106444,1,2,3:0:0:0:
36,89,106555,5,0,3:0:0:0:
14,17,106666,2,0,P|31:68|104:277,1,251.999992309571,6|0,3:0|0:0,0:0:0:0:
20,363,107111,6,0,P|40:307|49:280,3,55.9999982910157,0|0|0|2,3:0|3:0|3:0|3:0,0:0:0:0:
224,164,107555,5,10,0:0:0:0:
8,244,107777,1,0,0:0:0:0:
289,363,107999,5,2,0:0:0:0:
68,173,108222,1,0,0:0:0:0:
384,60,108444,5,2,0:0:0:0:
375,72,108777,6,0,B|400:54|442:51|442:51|367:43|326:-6,1,195.999994018555,0|0,3:0|0:0,0:0:0:0:
285,72,109111,2,0,P|312:179|338:277,2,195.999994018555,2|8|0,3:0|0:0|0:0,0:0:0:0:
443,193,109777,5,2,0:0:0:0:
223,17,109999,1,0,0:0:0:0:
499,294,110222,6,0,P|338:340|172:385,1,335.999989746094,2|0,3:0|0:0,0:0:0:0:
132,239,110888,2,0,P|175:259|217:280,1,83.9999974365235,2|0,3:0|0:0,0:0:0:0:
459,384,111111,6,0,P|416:305|328:148,1,251.999992309571,8|0,0:0|0:0,0:0:0:0:
353,88,111555,1,0,3:0:0:0:
307,365,111777,1,0,0:0:0:0:
462,226,111999,5,2,0:0:0:0:
385,192,112333,5,0,0:0:0:0:
393,178,112444,2,0,B|423:139|484:144|484:144|396:126|349:33,1,251.999992309571,0|0,3:0|0:0,0:0:0:0:
308,8,112888,2,0,P|287:44|299:101,1,83.9999974365235,10|0,0:0|0:0,0:0:0:0:
452,304,113111,6,0,P|468:266|461:225,1,83.9999974365235,2|0,3:0|0:0,0:0:0:0:
293,166,113333,1,2,3:0:0:0:
252,154,113444,1,0,3:0:0:0:
213,169,113555,1,2,3:0:0:0:
138,223,113666,5,0,3:0:0:0:
63,161,113777,2,0,B|153:147|52:8|-13:74|-44:161|-27:226|56:256,1,335.999989746094,6|0,3:0|3:0,0:0:0:0:
101,296,114296,2,0,P|117:262|115:235,2,55.9999982910157,0|0|2,3:0|3:0|3:0,0:0:0:0:
159,66,114666,6,0,P|258:99|377:146,1,210,10|0,0:0|0:0,0:0:0:0:
326,210,115111,2,0,P|352:216|406:202,1,70,2|0,0:0|0:0,0:0:0:0:
257,124,115333,1,0,0:0:0:0:
173,360,115555,5,2,0:0:0:0:
250,327,115777,5,0,0:0:0:0:
271,347,115888,2,0,P|154:310|62:283,1,195.999994018555,0|0,3:0|0:0,0:0:0:0:
41,224,116222,2,0,B|26:204|6:198|6:198|49:208|83:182,1,97.9999970092774,2|0,3:0|0:0,0:0:0:0:
199,139,116444,2,0,P|188:178|170:245,1,97.9999970092774,8|0,0:0|0:0,0:0:0:0:
75,377,116666,5,0,0:0:0:0:
320,278,116888,1,2,0:0:0:0:
101,152,117111,1,0,0:0:0:0:
456,357,117333,6,0,P|429:258|365:18,1,335.999989746094,2|2,3:0|0:0,0:0:0:0:
507,3,117999,2,0,P|479:18|470:81,1,83.9999974365235,2|0,3:0|0:0,0:0:0:0:
251,163,118222,6,0,P|361:208|492:260,1,251.999992309571,8|0,0:0|0:0,0:0:0:0:
320,278,118666,2,0,P|266:301|229:319,1,83.9999974365235,2|0,3:0|0:0,0:0:0:0:
178,201,118888,2,0,P|166:157|199:105,1,83.9999974365235
264,23,119111,6,0,B|306:13|322:-12|322:-12|303:25|314:70,1,125.999996154785,2|0,0:0|0:0,0:0:0:0:
258,102,119555,2,0,P|136:132|0:167,1,251.999992309571,0|0,3:0|0:0,0:0:0:0:
0,39,119999,2,0,P|50:54|99:67,1,83.9999974365235,10|0,0:0|0:0,0:0:0:0:
339,120,120222,5,2,3:0:0:0:
177,10,120444,1,2,3:0:0:0:
170,34,120555,1,0,3:0:0:0:
147,106,120666,5,2,3:0:0:0:
118,185,120777,1,0,3:0:0:0:
65,250,120888,6,0,P|187:280|328:317,1,251.999992309571,6|0,3:0|0:0,0:0:0:0:
371,357,121333,2,0,P|385:328|383:299,3,55.9999982910157,0|0|0|2,3:0|3:0|3:0|3:0,0:0:0:0:
199,202,121777,6,0,P|311:177|449:144,1,251.999992309571,10|0,0:0|0:0,0:0:0:0:
501,90,122222,2,0,B|499:70|510:50|510:50|498:66|475:73,1,83.9999974365235,2|0,0:0|0:0,0:0:0:0:
410,231,122444,1,0,0:0:0:0:
455,3,122666,5,2,0:0:0:0:
392,79,122888,1,0,0:0:0:0:
379,63,122999,2,0,P|413:194|432:269,1,195.999994018555,0|0,3:0|0:0,0:0:0:0:
472,347,123333,2,0,B|477:328|493:295|493:295|474:323|438:327,1,97.9999970092774,2|0,3:0|0:0,0:0:0:0:
228,279,123555,6,0,B|277:262|308:307|308:307|340:364|392:356,2,195.999994018555,8|0|2,0:0|0:0|0:0,0:0:0:0:
382,278,124222,1,0,0:0:0:0:
238,359,124444,6,0,P|154:317|245:205,1,251.999992309571,2|0,3:0|0:0,0:0:0:0:
275,157,124888,2,0,P|292:197|274:254,1,83.9999974365235,2|0,0:0|0:0,0:0:0:0:
159,327,125111,1,2,3:0:0:0:
0,74,125333,6,0,P|124:142|232:214,1,251.999992309571,8|0,0:0|0:0,0:0:0:0:
211,103,125777,1,2,3:0:0:0:
59,203,125999,1,0,0:0:0:0:
201,21,126222,5,2,0:0:0:0:
137,145,126555,1,0,0:0:0:0:
132,161,126666,6,0,P|237:92|348:32,1,251.999992309571,0|0,3:0|0:0,0:0:0:0:
195,27,127111,2,0,P|159:21|122:-14,1,83.9999974365235,10|0,0:0|0:0,0:0:0:0:
255,187,127333,2,0,P|286:159|326:151,1,83.9999974365235,2|0,3:0|0:0,0:0:0:0:
505,276,127555,5,0,3:0:0:0:
470,299,127666,1,0,3:0:0:0:
403,293,127777,1,0,3:0:0:0:
334,244,127888,5,0,3:0:0:0:
324,230,127999,1,2,3:0:0:0:
