osu file format v14

[General]
AudioFilename: audio.mp3
AudioLeadIn: 0
PreviewTime: 85567
Countdown: 0
SampleSet: Soft
StackLeniency: 0.4
Mode: 0
LetterboxInBreaks: 0
WidescreenStoryboard: 0

[Editor]
DistanceSpacing: 0.6
BeatDivisor: 4
GridSize: 32
TimelineZoom: 3.199999

[Metadata]
Title:internet l0ve nightcore
TitleUnicode:internet l0ve nightcore
Artist:gitarakuru
ArtistUnicode:gitarakuru
Creator:Alumetri
Version:long distance relationship.
Source:
Tags:TinyL0liGirl drain дрейн d-_-b Annelium Kelp1e MAX WiRED Flexo123 SweetDream MORGENSHTERN- Yamakudzi dopaminos ryxliee Giani
BeatmapID:3121178
BeatmapSetID:1525506

[Difficulty]
HPDrainRate:4
CircleSize:3.7
OverallDifficulty:9
ApproachRate:9.5
SliderMultiplier:1.83
SliderTickRate:1

[Events]
//Background and Video events
0,0,"bfdafa.png",0,0
//Break Periods
2,65908,74528
//Storyboard Layer 0 (Background)
//Storyboard Layer 1 (Fail)
//Storyboard Layer 2 (Pass)
//Storyboard Layer 3 (Foreground)
//Storyboard Layer 4 (Overlay)
//Storyboard Sound Samples

[TimingPoints]
291,292.041859333171,4,2,0,50,1,0
9636,-200,4,2,0,50,0,0
18981,-86.9565217391304,4,2,0,50,0,1
27158,-100,4,2,0,50,0,1
27742,-100,4,2,0,50,0,0
28327,-86.9565217391304,4,2,0,50,0,1
37088,-100,4,2,0,50,0,1
37672,-133.333333333333,4,2,0,50,0,0
40008,-200,4,2,0,50,0,0
42345,-133.333333333333,4,2,0,50,0,0
47017,-90.9090909090909,4,2,0,50,0,0
56363,-86.9565217391304,4,2,0,50,0,0
75053,-133.333333333334,4,2,0,50,0,0
85567,-80,4,2,0,50,0,1
104184,-80,4,2,0,50,0,0
104257,-83.3333333333333,4,2,0,50,0,1
113603,-83.3333333333333,4,2,0,50,0,0

[Colours]
Combo1 : 157,157,255
Combo2 : 192,192,192
Combo3 : 255,255,255
Combo4 : 128,128,255

[HitObjects]
58,61,9636,6,0,L|156:44,2,91.5
22,145,10512,1,0,0:0:0:0:
279,133,10804,6,0,L|181:116,2,91.5
367,155,11680,1,0,0:0:0:0:
376,141,11826,1,0,0:0:0:0:
472,239,11972,6,0,B|432:257|432:257|379:246,2,91.5
501,152,12848,1,0,0:0:0:0:
395,329,13140,6,0,B|441:338|441:338|481:320,2,91.5
304,315,13870,1,0,0:0:0:0:
279,221,14016,1,0,0:0:0:0:
306,325,14162,1,0,0:0:0:0:
372,208,14309,6,0,L|387:160,1,45.75
266,82,14601,2,0,L|279:125,1,45.75
411,89,14893,2,0,L|426:41,1,45.75
259,95,15185,2,0,L|272:138,1,45.75
380,219,15477,6,0,L|434:211,1,45.75
307,297,15769,2,0,L|253:289,1,45.75
383,208,16061,2,0,L|437:200,1,45.75
301,312,16353,1,0,0:0:0:0:
217,210,16499,1,0,0:0:0:0:
141,353,16645,6,0,L|133:295,1,45.75
238,194,16937,2,0,L|231:239,1,45.75
132,366,17229,2,0,L|124:308,1,45.75
105,222,17521,1,0,0:0:0:0:
256,192,17667,12,0,18835,0:0:0:0:
121,91,18981,5,0,0:0:0:0:
128,128,19054,1,0,0:0:0:0:
147,108,19127,1,0,0:0:0:0:
100,114,19200,1,0,0:0:0:0:
119,83,19273,5,0,0:0:0:0:
154,300,19419,1,0,0:0:0:0:
0,173,19565,5,0,0:0:0:0:
261,128,19711,1,0,0:0:0:0:
118,374,19857,5,0,0:0:0:0:
266,116,20003,1,0,0:0:0:0:
35,352,20149,6,0,B|8:305|8:305|22:243,1,105.225002007008
119,83,20441,5,0,0:0:0:0:
262,289,20587,1,0,0:0:0:0:
0,173,20733,5,0,0:0:0:0:
284,82,20879,1,0,0:0:0:0:
154,300,21025,5,0,0:0:0:0:
201,14,21171,1,0,0:0:0:0:
262,289,21318,6,0,B|315:302|315:302|396:267,1,105.225002007008
439,82,21610,5,0,0:0:0:0:
474,334,21756,1,0,0:0:0:0:
440,96,21902,5,0,0:0:0:0:
380,368,22048,1,0,0:0:0:0:
336,73,22194,5,0,0:0:0:0:
477,343,22340,1,0,0:0:0:0:
276,142,22486,5,0,0:0:0:0:
202,362,22632,1,0,0:0:0:0:
197,89,22778,5,0,0:0:0:0:
388,244,22924,1,0,0:0:0:0:
62,257,23070,5,0,0:0:0:0:
272,48,23216,1,0,0:0:0:0:
293,323,23362,5,0,0:0:0:0:
22,182,23508,1,0,0:0:0:0:
276,142,23654,6,0,L|313:140,1,26.3062505017519
297,134,23727,2,0,L|334:132,1,26.3062505017519
318,126,23800,2,0,L|355:124,1,26.3062505017519
339,118,23873,2,0,L|376:116,1,26.3062505017519
360,110,23946,5,0,0:0:0:0:
293,323,24092,1,0,0:0:0:0:
272,48,24238,5,0,0:0:0:0:
294,333,24384,1,0,0:0:0:0:
462,150,24530,5,0,0:0:0:0:
180,105,24676,1,0,0:0:0:0:
381,330,24822,6,0,B|433:344|433:344|486:319,1,105.225002007008
360,110,25114,5,0,0:0:0:0:
383,348,25260,1,0,0:0:0:0:
271,95,25406,5,0,0:0:0:0:
294,333,25552,1,0,0:0:0:0:
185,80,25698,5,0,0:0:0:0:
208,318,25844,1,0,0:0:0:0:
360,110,25990,6,0,B|412:96|412:96|465:121,1,105.225002007008
383,348,26282,5,0,0:0:0:0:
221,227,26428,1,0,0:0:0:0:
498,187,26574,5,0,0:0:0:0:
294,333,26720,1,0,0:0:0:0:
271,95,26866,5,0,0:0:0:0:
289,351,27012,1,0,0:0:0:0:
458,117,27158,6,0,B|475:79|475:79|446:-9,1,91.5
198,53,27450,2,0,B|181:91|181:91|210:179,1,91.5
412,185,27742,6,0,P|456:200|515:169,1,91.5
196,138,28034,2,0,P|152:124|87:192,1,137.25
104,256,28327,6,0,L|109:291,6,26.3062505017519
88,179,28619,5,0,0:0:0:0:
127,372,28765,1,0,0:0:0:0:
196,138,28911,5,0,0:0:0:0:
249,373,29057,1,0,0:0:0:0:
320,122,29203,5,0,0:0:0:0:
244,349,29349,1,0,0:0:0:0:
254,61,29495,5,0,0:0:0:0:
415,241,29641,1,0,0:0:0:0:
157,312,29787,5,0,0:0:0:0:
320,122,29933,1,0,0:0:0:0:
385,365,30079,5,0,0:0:0:0:
330,104,30225,1,0,0:0:0:0:
265,375,30371,5,0,0:0:0:0:
481,194,30517,1,0,0:0:0:0:
157,312,30663,6,0,B|107:321|107:321|59:294,1,105.225002007008
180,94,30955,5,0,0:0:0:0:
278,287,31101,1,0,0:0:0:0:
184,73,31247,5,0,0:0:0:0:
59,294,31393,1,0,0:0:0:0:
331,208,31539,5,0,0:0:0:0:
70,127,31685,1,0,0:0:0:0:
240,366,31831,6,0,B|296:374|296:374|344:344,1,105.225002007008
390,110,32123,5,0,0:0:0:0:
492,323,32269,1,0,0:0:0:0:
234,235,32415,5,0,0:0:0:0:
505,153,32561,1,0,0:0:0:0:
337,348,32707,5,0,0:0:0:0:
283,94,32853,1,0,0:0:0:0:
116,282,32999,5,0,0:0:0:0:
111,250,33072,1,0,0:0:0:0:
104,218,33145,1,0,0:0:0:0:
97,186,33218,1,0,0:0:0:0:
91,154,33291,6,0,P|127:121|181:135,1,105.225002007008
226,344,33583,5,0,0:0:0:0:
283,94,33729,1,0,0:0:0:0:
337,348,33875,5,0,0:0:0:0:
284,73,34021,1,0,0:0:0:0:
116,282,34167,6,0,P|63:287|23:244,1,105.225002007008
194,46,34459,5,0,0:0:0:0:
309,258,34605,1,0,0:0:0:0:
97,186,34751,5,0,0:0:0:0:
406,120,34897,1,0,0:0:0:0:
237,329,35043,5,0,0:0:0:0:
284,73,35190,1,0,0:0:0:0:
390,309,35336,6,0,B|411:260|411:260|387:201,1,105.225002007008
97,186,35628,5,0,0:0:0:0:
309,258,35774,1,0,0:0:0:0:
42,307,35920,5,0,0:0:0:0:
289,176,36066,1,0,0:0:0:0:
6,125,36212,5,0,0:0:0:0:
241,316,36358,1,0,0:0:0:0:
163,73,36504,6,0,B|118:48|118:48|52:65,1,105.225002007008
241,316,36796,2,0,B|293:329|293:329|338:304,1,105.225002007008
105,136,37088,6,0,B|85:172|85:172|98:224,1,91.5
338,304,37380,2,0,B|369:246|369:246|348:162,1,137.25
331,100,37672,6,0,B|363:45|318:-12|229:-28|134:105|262:347,1,480.375018324853
472,281,38840,2,0,B|316:258|316:258|183:348|183:348|23:328,1,480.375018324853
183,258,40008,6,0,B|345:149|345:149|382:194|382:194|474:208|474:208|418:166,1,411.75
389,57,41468,2,0,B|250:52|298:109|173:119,1,228.75
42,82,42345,6,0,P|36:47|20:11,1,68.6250026178361
173,118,42637,2,0,P|159:149|154:183,1,68.6250026178361
32,77,42929,2,0,P|26:42|10:6,1,68.6250026178361
180,129,43221,2,0,P|166:160|161:194,1,68.6250026178361
235,322,43513,6,0,L|330:336,1,68.6250026178361
447,211,43805,2,0,L|379:221,1,68.6250026178361
228,334,44097,2,0,L|323:348,1,68.6250026178361
452,201,44389,2,0,L|384:211,1,68.6250026178361
251,235,44681,5,0,0:0:0:0:
251,235,44827,1,0,0:0:0:0:
198,148,44973,1,0,0:0:0:0:
198,148,45119,1,0,0:0:0:0:
271,79,45265,1,0,0:0:0:0:
271,79,45411,1,0,0:0:0:0:
199,7,45557,1,0,0:0:0:0:
199,7,45703,1,0,0:0:0:0:
271,79,45849,6,0,L|349:68,1,68.6250026178361
198,148,46141,2,0,L|120:137,1,68.6250026178361
251,235,46433,2,0,L|329:224,1,68.6250026178361
198,322,46725,2,0,L|120:311,1,68.6250026178361
215,135,47017,5,0,0:0:0:0:
287,357,47163,1,0,0:0:0:0:
221,122,47309,1,0,0:0:0:0:
130,312,47455,1,0,0:0:0:0:
226,105,47601,1,0,0:0:0:0:
290,368,47747,1,0,0:0:0:0:
231,91,47893,1,0,0:0:0:0:
129,323,48039,1,0,0:0:0:0:
314,140,48185,6,0,B|358:117|358:117|412:131,1,100.650003071594
290,368,48477,1,0,0:0:0:0:
166,197,48623,1,0,0:0:0:0:
421,234,48769,1,0,0:0:0:0:
196,350,48915,1,0,0:0:0:0:
231,91,49061,1,0,0:0:0:0:
357,295,49208,1,0,0:0:0:0:
147,110,49354,6,0,P|104:84|43:93,1,100.650003071594
196,350,49646,1,0,0:0:0:0:
334,161,49792,1,0,0:0:0:0:
194,367,49938,1,0,0:0:0:0:
231,91,50084,1,0,0:0:0:0:
357,295,50230,1,0,0:0:0:0:
128,220,50376,1,0,0:0:0:0:
319,65,50522,5,0,0:0:0:0:
278,318,50668,1,0,0:0:0:0:
147,110,50814,1,0,0:0:0:0:
280,335,50960,1,0,0:0:0:0:
415,104,51106,1,0,0:0:0:0:
281,351,51252,1,0,0:0:0:0:
231,91,51398,2,0,L|225:62,6,25.1625007678986
249,169,51690,6,0,B|292:196|292:196|354:192,1,100.650003071594
481,52,51982,1,0,0:0:0:0:
508,285,52128,1,0,0:0:0:0:
415,104,52274,1,0,0:0:0:0:
357,295,52420,1,0,0:0:0:0:
509,159,52566,1,0,0:0:0:0:
311,107,52712,1,0,0:0:0:0:
477,367,52858,6,0,B|513:340|513:340|506:271,1,100.650003071594
341,192,53150,1,0,0:0:0:0:
295,367,53296,1,0,0:0:0:0:
311,107,53442,1,0,0:0:0:0:
357,295,53588,1,0,0:0:0:0:
376,51,53734,1,0,0:0:0:0:
268,258,53880,1,0,0:0:0:0:
220,36,54026,6,0,B|170:24|170:24|122:51,1,100.650003071594
79,266,54318,1,0,0:0:0:0:
180,111,54464,1,0,0:0:0:0:
119,343,54610,1,0,0:0:0:0:
51,114,54756,1,0,0:0:0:0:
121,358,54902,1,0,0:0:0:0:
261,190,55048,1,0,0:0:0:0:
2,217,55194,5,0,0:0:0:0:
214,355,55340,1,0,0:0:0:0:
180,111,55486,1,0,0:0:0:0:
47,296,55632,1,0,0:0:0:0:
127,48,55778,1,0,0:0:0:0:
243,271,55924,1,0,0:0:0:0:
92,123,56070,2,0,B|42:116|42:116|-8:147,1,100.650003071594
213,354,56363,6,0,B|266:361|266:361|316:328,1,105.225002007008
415,144,56655,1,0,0:0:0:0:
415,144,56801,1,0,0:0:0:0:
472,346,56947,1,0,0:0:0:0:
243,271,57093,1,0,0:0:0:0:
243,271,57239,1,0,0:0:0:0:
488,194,57385,1,0,0:0:0:0:
309,332,57531,6,0,B|266:361|266:361|213:354,1,105.225002007008
293,122,57823,1,0,0:0:0:0:
396,263,57969,1,0,0:0:0:0:
277,40,58115,1,0,0:0:0:0:
243,271,58261,1,0,0:0:0:0:
386,102,58407,1,0,0:0:0:0:
147,142,58553,1,0,0:0:0:0:
396,263,58699,6,0,L|504:243,1,105.225002007008
293,122,58991,1,0,0:0:0:0:
213,354,59137,1,0,0:0:0:0:
288,141,59283,1,0,0:0:0:0:
351,371,59429,1,0,0:0:0:0:
136,245,59575,1,0,0:0:0:0:
402,272,59721,1,0,0:0:0:0:
120,257,59867,5,0,0:0:0:0:
393,167,60013,1,0,0:0:0:0:
213,354,60159,1,0,0:0:0:0:
179,109,60305,1,0,0:0:0:0:
179,109,60378,1,0,0:0:0:0:
179,109,60451,1,0,0:0:0:0:
249,255,60597,1,0,0:0:0:0:
310,46,60743,1,0,0:0:0:0:
310,46,60816,1,0,0:0:0:0:
310,46,60889,1,0,0:0:0:0:
176,208,61035,6,0,B|157:256|157:256|184:321,1,105.225002007008
381,356,61327,1,0,0:0:0:0:
339,156,61473,1,0,0:0:0:0:
253,365,61619,1,0,0:0:0:0:
456,262,61765,1,0,0:0:0:0:
177,305,61911,1,0,0:0:0:0:
343,135,62057,1,0,0:0:0:0:
253,365,62203,6,0,B|202:374|202:374|142:341,1,105.225002007008
223,118,62495,1,0,0:0:0:0:
346,300,62641,1,0,0:0:0:0:
294,55,62787,1,0,0:0:0:0:
294,55,62860,1,0,0:0:0:0:
294,55,62933,1,0,0:0:0:0:
258,232,63079,1,0,0:0:0:0:
125,108,63226,1,0,0:0:0:0:
125,108,63299,1,0,0:0:0:0:
125,108,63372,6,0,B|108:157|108:157|130:205,1,105.225002007008
251,359,63664,1,0,0:0:0:0:
317,169,63810,1,0,0:0:0:0:
158,334,63956,1,0,0:0:0:0:
223,118,64102,1,0,0:0:0:0:
337,297,64248,1,0,0:0:0:0:
85,272,64394,1,0,0:0:0:0:
301,88,64540,6,0,B|366:59|366:59|505:98,1,210.450004014015
337,297,64978,1,0,0:0:0:0:
223,118,65124,2,0,B|177:93|177:93|117:97,1,105.225002007008
302,378,65416,2,0,B|354:381|354:381|400:356,1,105.225002007008
370,146,65708,5,0,0:0:0:0:
438,150,75053,6,0,B|389:69|261:67|248:188|313:226|376:177,2,274.500010471344
314,339,76805,2,0,B|263:321|214:350|214:350|185:295|107:299,1,205.875007853508
18,225,77390,6,0,B|5:183|40:138|141:167|115:276|42:352,2,274.500010471344
69,52,79142,2,0,P|158:44|210:146,1,205.875007853508
237,270,79726,6,0,P|254:115|357:16,2,274.500010471344
478,201,81478,2,0,P|419:169|335:267,1,205.875007853508
341,334,82062,5,0,0:0:0:0:
97,253,82354,1,0,0:0:0:0:
376,153,82646,1,0,0:0:0:0:
47,86,82938,1,0,0:0:0:0:
376,153,83230,5,0,0:0:0:0:
97,253,83376,1,0,0:0:0:0:
341,334,83522,1,0,0:0:0:0:
178,96,83668,1,0,0:0:0:0:
68,364,83814,5,0,0:0:0:0:
102,360,83887,1,0,0:0:0:0:
136,356,83960,1,0,0:0:0:0:
170,352,84033,1,0,0:0:0:0:
204,348,84106,1,0,0:0:0:0:
238,345,84179,1,0,0:0:0:0:
272,341,84252,1,0,0:0:0:0:
306,337,84325,1,0,0:0:0:0:
340,333,84398,5,0,0:0:0:0:
256,192,84472,12,0,85421,0:0:0:0:
109,97,85567,6,0,B|161:71|161:71|222:86,1,114.375
239,109,85786,1,0,0:0:0:0:
239,109,85859,5,0,0:0:0:0:
206,313,86005,1,0,0:0:0:0:
328,83,86151,5,0,0:0:0:0:
394,317,86297,1,0,0:0:0:0:
215,84,86443,5,0,0:0:0:0:
183,343,86589,1,0,0:0:0:0:
439,217,86735,6,0,B|453:162|453:162|412:101,1,114.375
160,164,87027,5,0,0:0:0:0:
394,317,87173,1,0,0:0:0:0:
326,67,87319,5,0,0:0:0:0:
163,255,87465,1,0,0:0:0:0:
420,114,87611,5,0,0:0:0:0:
322,363,87757,1,0,0:0:0:0:
219,101,87903,6,0,B|166:77|166:77|104:92,1,114.375
86,328,88195,5,0,0:0:0:0:
291,214,88341,1,0,0:0:0:0:
17,174,88487,5,0,0:0:0:0:
174,381,88633,1,0,0:0:0:0:
219,101,88779,5,0,0:0:0:0:
86,328,88925,1,0,0:0:0:0:
111,90,89071,6,0,B|166:77|166:77|219:101,1,114.375
313,365,89363,5,0,0:0:0:0:
415,105,89509,1,0,0:0:0:0:
313,382,89655,5,0,0:0:0:0:
219,101,89801,1,0,0:0:0:0:
491,225,89947,5,0,0:0:0:0:
216,357,90093,1,0,0:0:0:0:
415,105,90239,5,0,0:0:0:0:
408,142,90312,1,0,0:0:0:0:
389,122,90385,1,0,0:0:0:0:
436,128,90458,1,0,0:0:0:0:
417,97,90531,5,0,0:0:0:0:
363,314,90677,1,0,0:0:0:0:
305,44,90823,5,0,0:0:0:0:
231,300,90969,1,0,0:0:0:0:
72,91,91116,5,0,0:0:0:0:
301,178,91262,1,0,0:0:0:0:
79,291,91408,6,0,B|54:239|54:239|75:172,1,114.375
222,55,91700,5,0,0:0:0:0:
231,300,91846,1,0,0:0:0:0:
72,91,91992,5,0,0:0:0:0:
106,369,92138,1,0,0:0:0:0:
301,178,92284,5,0,0:0:0:0:
79,291,92430,1,0,0:0:0:0:
222,55,92576,6,0,B|281:47|281:47|330:84,1,114.375
363,314,92868,5,0,0:0:0:0:
158,188,93014,1,0,0:0:0:0:
439,135,93160,5,0,0:0:0:0:
270,355,93306,1,0,0:0:0:0:
324,80,93452,5,0,0:0:0:0:
468,317,93598,1,0,0:0:0:0:
225,133,93744,6,0,B|179:104|179:104|112:114,1,114.375
140,354,94036,5,0,0:0:0:0:
336,204,94182,1,0,0:0:0:0:
31,142,94328,5,0,0:0:0:0:
270,355,94474,1,0,0:0:0:0:
324,80,94620,5,0,0:0:0:0:
140,354,94766,1,0,0:0:0:0:
52,51,94912,6,0,L|42:16,6,28.59375
31,142,95204,5,0,0:0:0:0:
324,80,95350,1,0,0:0:0:0:
22,234,95496,5,0,0:0:0:0:
375,159,95642,1,0,0:0:0:0:
13,326,95788,5,0,0:0:0:0:
426,238,95934,1,0,0:0:0:0:
158,62,96080,6,0,B|109:36|109:36|52:50,1,114.375
444,54,96372,5,0,0:0:0:0:
31,142,96518,1,0,0:0:0:0:
435,146,96664,5,0,0:0:0:0:
82,221,96810,1,0,0:0:0:0:
426,238,96956,5,0,0:0:0:0:
133,300,97102,1,0,0:0:0:0:
337,65,97248,6,0,B|386:39|386:39|443:53,1,114.375
322,312,97540,5,0,0:0:0:0:
206,94,97686,1,0,0:0:0:0:
229,370,97832,5,0,0:0:0:0:
461,211,97979,1,0,0:0:0:0:
133,300,98125,5,0,0:0:0:0:
261,13,98271,1,0,0:0:0:0:
322,312,98417,6,0,B|369:343|369:343|433:337,1,114.375
337,65,98709,5,0,0:0:0:0:
233,270,98855,1,0,0:0:0:0:
108,46,99001,5,0,0:0:0:0:
36,315,99147,1,0,0:0:0:0:
311,204,99293,5,0,0:0:0:0:
41,104,99439,1,0,0:0:0:0:
187,347,99585,6,0,B|243:363|243:363|305:329,1,114.375
311,307,99804,1,0,0:0:0:0:
311,307,99877,5,0,0:0:0:0:
219,75,100023,1,0,0:0:0:0:
89,274,100169,5,0,0:0:0:0:
368,199,100315,1,0,0:0:0:0:
105,77,100461,5,0,0:0:0:0:
187,347,100607,1,0,0:0:0:0:
327,124,100753,2,0,P|386:114|443:161,1,114.375
397,361,101045,5,0,0:0:0:0:
227,141,101191,1,0,0:0:0:0:
506,196,101337,5,0,0:0:0:0:
248,332,101483,1,0,0:0:0:0:
273,56,101629,5,0,0:0:0:0:
456,269,101775,1,0,0:0:0:0:
227,141,101921,6,0,B|176:118|176:118|106:136,1,114.375
154,377,102213,5,0,0:0:0:0:
340,179,102359,1,0,0:0:0:0:
55,224,102505,5,0,0:0:0:0:
360,171,102651,1,0,0:0:0:0:
54,333,102797,5,0,0:0:0:0:
273,56,102943,1,0,0:0:0:0:
154,377,103089,6,0,B|133:322|133:322|166:260,1,114.375
448,135,103381,5,0,0:0:0:0:
119,39,103527,1,0,0:0:0:0:
308,339,103673,5,0,0:0:0:0:
413,42,103819,1,0,0:0:0:0:
69,200,103965,5,0,0:0:0:0:
439,307,104111,1,0,0:0:0:0:
273,56,104257,6,0,P|220:51|173:91,1,109.79999664917
211,311,104549,2,0,P|253:343|307:338,1,109.79999664917
314,161,104841,2,0,P|290:208|275:285,1,109.79999664917
69,200,105134,2,0,P|56:146|31:97,1,109.79999664917
273,56,105426,5,0,0:0:0:0:
273,56,105499,1,0,0:0:0:0:
273,56,105572,1,0,0:0:0:0:
156,232,105718,1,0,0:0:0:0:
176,83,105864,1,0,0:0:0:0:
276,263,106010,2,0,P|322:297|390:285,1,109.79999664917
483,111,106302,2,0,P|429:109|386:142,1,109.79999664917
200,314,106594,5,0,0:0:0:0:
273,56,106740,1,0,0:0:0:0:
372,294,106886,1,0,0:0:0:0:
274,79,107032,1,0,0:0:0:0:
194,333,107178,2,0,B|137:338|137:338|82:298,1,109.79999664917
124,156,107470,2,0,B|181:151|181:151|236:191,1,109.79999664917
372,294,107762,6,0,P|385:240|418:181,1,109.79999664917
273,56,108054,5,0,0:0:0:0:
194,333,108200,1,0,0:0:0:0:
265,41,108346,5,0,0:0:0:0:
207,351,108492,1,0,0:0:0:0:
258,27,108638,5,0,0:0:0:0:
218,371,108784,1,0,0:0:0:0:
186,88,108930,6,0,P|138:60|68:65,1,109.79999664917
292,300,109222,2,0,P|346:298|393:271,1,109.79999664917
84,59,109514,2,0,P|102:112|107:175,1,109.79999664917
393,271,109806,2,0,P|398:216|416:164,1,109.79999664917
107,165,110098,6,0,P|55:166|10:212,1,109.79999664917
175,343,110390,1,0,0:0:0:0:
175,343,110463,1,0,0:0:0:0:
175,343,110536,1,0,0:0:0:0:
274,152,110682,2,0,P|256:204|251:267,1,109.79999664917
37,309,110974,2,0,P|31:254|13:202,1,109.79999664917
231,82,111266,6,0,P|280:69|336:99,1,109.79999664917
388,308,111558,1,0,0:0:0:0:
166,213,111704,1,0,0:0:0:0:
467,166,111850,1,0,0:0:0:0:
147,218,111997,1,0,0:0:0:0:
457,358,112143,2,0,B|477:308|477:308|451:237,1,109.79999664917
331,93,112435,5,0,0:0:0:0:
241,313,112581,1,0,0:0:0:0:
231,82,112727,5,0,0:0:0:0:
239,332,112873,1,0,0:0:0:0:
412,175,113019,6,0,L|472:165,1,54.899998324585
147,218,113165,2,0,L|87:208,1,54.899998324585
457,255,113311,6,0,L|517:245,1,54.899998324585
141,129,113457,2,0,L|81:119,1,54.899998324585
388,308,113603,5,0,0:0:0:0:
