osu file format v14

[General]
AudioFilename: audio.mp3
AudioLeadIn: 0
PreviewTime: 47846
Countdown: 0
SampleSet: Normal
StackLeniency: 0.7
Mode: 1
LetterboxInBreaks: 0
WidescreenStoryboard: 1

[Editor]
Bookmarks: 14760,22144,29529,36914,47991,55375,62760,70144,77298
DistanceSpacing: 0.5
BeatDivisor: 4
GridSize: 32
TimelineZoom: 1.5

[Metadata]
Title:we fell in love in october (Cut Ver.)
TitleUnicode:we fell in love in october (Cut Ver.)
Artist:girl in red
ArtistUnicode:girl in red
Creator:Tachibana_
Version:ryxliee's kantan
Source:
Tags:alternative rock forget her lgbt lesbian a collection of every song i've ive ever posted on soundcloud indie english Ryxliee clockbite
BeatmapID:3963581
BeatmapSetID:1919980

[Difficulty]
HPDrainRate:10
CircleSize:2
OverallDifficulty:3
ApproachRate:9
SliderMultiplier:1.4
SliderTickRate:1

[Events]
//Background and Video events
0,0,"please be my girl ^^.jpg",0,0
//Break Periods
//Storyboard Layer 0 (Background)
//Storyboard Layer 1 (Fail)
//Storyboard Layer 2 (Pass)
//Storyboard Layer 3 (Foreground)
//Storyboard Layer 4 (Overlay)
//Storyboard Sound Samples

[TimingPoints]
-9,461.538461538462,4,1,0,26,1,0
14760,-100,4,1,0,26,0,0
18452,-100,4,1,0,32,0,0
22144,-100,4,1,0,38,0,0
33221,-100,4,1,0,42,0,0
46144,-100,4,1,0,36,0,0
47991,-100,4,1,0,68,0,1
77298,-100,4,1,0,68,0,0

[HitObjects]
256,192,14760,8,0,18221,0:0:0:0:
256,192,18452,5,12,0:0:0:0:
256,192,19375,1,0,0:0:0:0:
256,192,20298,1,8,0:0:0:0:
256,192,22144,1,0,0:0:0:0:
256,192,22606,1,8,0:0:0:0:
256,192,23529,1,8,0:0:0:0:
256,192,24452,1,8,0:0:0:0:
256,192,24914,1,0,0:0:0:0:
256,192,25837,1,8,0:0:0:0:
256,192,26760,1,0,0:0:0:0:
256,192,27221,1,8,0:0:0:0:
256,192,27683,1,8,0:0:0:0:
256,192,28144,1,0,0:0:0:0:
256,192,29529,1,0,0:0:0:0:
256,192,29991,1,8,0:0:0:0:
256,192,30914,1,8,0:0:0:0:
256,192,31837,1,8,0:0:0:0:
256,192,32760,1,8,0:0:0:0:
256,192,33221,1,0,0:0:0:0:
256,192,34144,1,0,0:0:0:0:
256,192,35067,1,8,0:0:0:0:
256,192,35760,1,0,0:0:0:0:
256,192,36221,1,8,0:0:0:0:
256,192,36914,1,0,0:0:0:0:
256,192,37375,1,8,0:0:0:0:
256,192,37837,1,8,0:0:0:0:
256,192,39221,1,8,0:0:0:0:
256,192,39683,1,0,0:0:0:0:
256,192,40606,1,8,0:0:0:0:
256,192,41529,1,0,0:0:0:0:
256,192,41991,1,8,0:0:0:0:
256,192,42452,1,0,0:0:0:0:
256,192,43144,1,8,0:0:0:0:
256,192,43837,1,8,0:0:0:0:
256,192,44298,1,0,0:0:0:0:
256,192,45221,1,0,0:0:0:0:
256,192,45683,1,8,0:0:0:0:
256,192,46144,1,0,0:0:0:0:
256,192,46837,1,0,0:0:0:0:
256,192,47991,1,4,0:0:0:0:
256,192,48452,1,8,0:0:0:0:
256,192,49375,1,8,0:0:0:0:
256,192,50529,1,0,0:0:0:0:
256,192,51221,1,8,0:0:0:0:
256,192,51683,1,0,0:0:0:0:
256,192,52144,1,8,0:0:0:0:
256,192,53067,1,8,0:0:0:0:
256,192,53529,1,0,0:0:0:0:
256,192,53991,1,0,0:0:0:0:
256,192,54452,1,8,0:0:0:0:
256,192,55375,1,12,0:0:0:0:
256,192,55837,1,0,0:0:0:0:
256,192,56760,1,0,0:0:0:0:
256,192,57914,1,8,0:0:0:0:
256,192,58606,1,0,0:0:0:0:
256,192,59067,1,8,0:0:0:0:
256,192,59529,1,0,0:0:0:0:
256,192,60452,1,0,0:0:0:0:
256,192,60914,1,8,0:0:0:0:
256,192,61375,1,8,0:0:0:0:
256,192,61837,1,0,0:0:0:0:
256,192,62760,1,4,0:0:0:0:
256,192,63221,1,8,0:0:0:0:
256,192,64144,1,8,0:0:0:0:
256,192,65298,1,0,0:0:0:0:
256,192,65991,1,8,0:0:0:0:
256,192,66452,1,0,0:0:0:0:
256,192,66914,1,8,0:0:0:0:
256,192,67837,1,8,0:0:0:0:
256,192,68298,1,0,0:0:0:0:
256,192,68760,1,0,0:0:0:0:
256,192,69221,1,8,0:0:0:0:
256,192,70144,1,4,0:0:0:0:
256,192,70606,1,8,0:0:0:0:
256,192,71529,1,0,0:0:0:0:
256,192,72452,1,8,0:0:0:0:
256,192,73375,1,0,0:0:0:0:
256,192,73837,1,8,0:0:0:0:
256,192,74298,1,0,0:0:0:0:
256,192,75221,1,8,0:0:0:0:
256,192,76144,1,0,0:0:0:0:
256,192,77067,1,8,0:0:0:0:
