osu file format v14

[General]
AudioFilename: audio.mp3
AudioLeadIn: 0
PreviewTime: 47846
Countdown: 0
SampleSet: Normal
StackLeniency: 0.7
Mode: 1
LetterboxInBreaks: 0
WidescreenStoryboard: 1

[Editor]
Bookmarks: 14760,18452,22144,33221,47991,55375,62760,69683,77298
DistanceSpacing: 0.5
BeatDivisor: 4
GridSize: 32
TimelineZoom: 1.5

[Metadata]
Title:we fell in love in october (Cut Ver.)
TitleUnicode:we fell in love in october (Cut Ver.)
Artist:girl in red
ArtistUnicode:girl in red
Creator:Tachibana_
Version:futsuu
Source:
Tags:alternative rock forget her lgbt lesbian a collection of every song i've ive ever posted on soundcloud indie english Ryxliee clockbite
BeatmapID:3962548
BeatmapSetID:1919980

[Difficulty]
HPDrainRate:9
CircleSize:0
OverallDifficulty:4
ApproachRate:9
SliderMultiplier:1.4
SliderTickRate:1

[Events]
//Background and Video events
0,0,"please be my girl ^^.jpg",0,0
//Break Periods
//Storyboard Layer 0 (Background)
//Storyboard Layer 1 (Fail)
//Storyboard Layer 2 (Pass)
//Storyboard Layer 3 (Foreground)
//Storyboard Layer 4 (Overlay)
//Storyboard Sound Samples

[TimingPoints]
-9,461.538461538462,4,1,0,26,1,0
14760,-100,4,1,0,26,0,0
18452,-100,4,1,0,32,0,0
22144,-100,4,1,0,38,0,0
33221,-100,4,1,0,42,0,0
46144,-100,4,1,0,36,0,0
47991,-100,4,1,0,68,0,1
77298,-100,4,1,0,68,0,0

[HitObjects]
256,192,14760,8,0,18221,0:0:0:0:
256,192,18452,5,12,0:0:0:0:
256,192,18914,1,0,0:0:0:0:
256,192,19375,1,0,0:0:0:0:
256,192,19606,1,8,0:0:0:0:
256,192,19837,1,0,0:0:0:0:
256,192,20298,1,0,0:0:0:0:
256,192,21221,1,8,0:0:0:0:
256,192,22144,1,0,0:0:0:0:
256,192,22606,1,8,0:0:0:0:
256,192,23067,1,0,0:0:0:0:
256,192,23529,1,8,0:0:0:0:
256,192,23991,1,0,0:0:0:0:
256,192,24452,1,8,0:0:0:0:
256,192,24914,1,4,0:0:0:0:
256,192,25375,1,0,0:0:0:0:
256,192,25606,1,8,0:0:0:0:
256,192,25837,1,8,0:0:0:0:
256,192,26298,1,8,0:0:0:0:
256,192,26760,1,0,0:0:0:0:
256,192,26990,1,0,0:0:0:0:
256,192,27221,1,8,0:0:0:0:
256,192,27683,1,8,0:0:0:0:
256,192,27914,1,8,0:0:0:0:
256,192,28144,1,0,0:0:0:0:
256,192,28606,1,8,0:0:0:0:
256,192,29067,1,8,0:0:0:0:
256,192,29529,1,0,0:0:0:0:
256,192,29991,1,8,0:0:0:0:
256,192,30914,1,8,0:0:0:0:
256,192,31375,1,0,0:0:0:0:
256,192,31837,1,8,0:0:0:0:
256,192,32298,1,4,0:0:0:0:
256,192,32760,1,0,0:0:0:0:
256,192,32991,1,0,0:0:0:0:
256,192,33221,1,8,0:0:0:0:
256,192,33683,1,0,0:0:0:0:
256,192,33914,1,8,0:0:0:0:
256,192,34144,1,0,0:0:0:0:
256,192,34606,1,8,0:0:0:0:
256,192,35067,1,0,0:0:0:0:
256,192,35298,1,0,0:0:0:0:
256,192,35760,1,0,0:0:0:0:
256,192,36221,1,8,0:0:0:0:
256,192,36452,1,8,0:0:0:0:
256,192,36914,1,0,0:0:0:0:
256,192,37375,1,8,0:0:0:0:
256,192,37837,1,0,0:0:0:0:
256,192,38760,1,0,0:0:0:0:
256,192,39221,1,8,0:0:0:0:
256,192,39683,1,12,0:0:0:0:
256,192,39914,1,0,0:0:0:0:
256,192,40375,1,0,0:0:0:0:
256,192,40606,1,8,0:0:0:0:
256,192,41067,1,0,0:0:0:0:
256,192,41529,1,8,0:0:0:0:
256,192,41760,1,0,0:0:0:0:
256,192,41991,1,8,0:0:0:0:
256,192,42452,1,0,0:0:0:0:
256,192,42914,1,8,0:0:0:0:
256,192,43144,1,0,0:0:0:0:
256,192,43606,1,0,0:0:0:0:
256,192,43837,1,0,0:0:0:0:
256,192,44298,1,8,0:0:0:0:
256,192,45221,1,8,0:0:0:0:
256,192,45452,1,0,0:0:0:0:
256,192,45683,1,8,0:0:0:0:
256,192,46144,1,8,0:0:0:0:
256,192,46606,1,0,0:0:0:0:
256,192,46837,1,8,0:0:0:0:
256,192,47529,1,0,0:0:0:0:
256,192,47991,1,12,0:0:0:0:
256,192,48452,1,0,0:0:0:0:
256,192,48683,1,8,0:0:0:0:
256,192,48914,1,0,0:0:0:0:
256,192,49375,1,8,0:0:0:0:
256,192,49606,1,8,0:0:0:0:
256,192,49837,1,0,0:0:0:0:
256,192,50298,1,0,0:0:0:0:
256,192,50529,1,8,0:0:0:0:
256,192,50760,1,0,0:0:0:0:
256,192,50991,1,0,0:0:0:0:
256,192,51221,1,8,0:0:0:0:
256,192,51452,1,8,0:0:0:0:
256,192,51683,1,0,0:0:0:0:
256,192,52144,1,8,0:0:0:0:
256,192,53067,1,0,0:0:0:0:
256,192,53529,1,8,0:0:0:0:
256,192,53760,1,0,0:0:0:0:
256,192,53991,1,8,0:0:0:0:
256,192,54452,1,8,0:0:0:0:
256,192,54683,1,0,0:0:0:0:
256,192,54914,1,8,0:0:0:0:
256,192,55144,1,8,0:0:0:0:
256,192,55375,1,4,0:0:0:0:
256,192,55837,1,8,0:0:0:0:
256,192,56067,1,8,0:0:0:0:
256,192,56298,1,0,0:0:0:0:
256,192,56760,1,0,0:0:0:0:
256,192,56991,1,8,0:0:0:0:
256,192,57221,1,0,0:0:0:0:
256,192,57683,1,0,0:0:0:0:
256,192,57914,1,8,0:0:0:0:
256,192,58144,1,8,0:0:0:0:
256,192,58375,1,8,0:0:0:0:
256,192,58606,1,0,0:0:0:0:
256,192,58837,1,0,0:0:0:0:
256,192,59067,1,8,0:0:0:0:
256,192,59529,1,0,0:0:0:0:
256,192,60452,1,0,0:0:0:0:
256,192,60914,1,8,0:0:0:0:
256,192,61144,1,8,0:0:0:0:
256,192,61375,1,0,0:0:0:0:
256,192,61837,1,8,0:0:0:0:
256,192,62067,1,8,0:0:0:0:
256,192,62298,1,0,0:0:0:0:
256,192,62529,1,0,0:0:0:0:
256,192,62760,1,8,0:0:0:0:
256,192,63221,1,0,0:0:0:0:
256,192,63452,1,8,0:0:0:0:
256,192,63683,1,0,0:0:0:0:
256,192,64144,1,8,0:0:0:0:
256,192,64375,1,8,0:0:0:0:
256,192,64606,1,0,0:0:0:0:
256,192,65067,1,8,0:0:0:0:
256,192,65298,1,0,0:0:0:0:
256,192,65529,1,8,0:0:0:0:
256,192,65760,1,8,0:0:0:0:
256,192,65991,1,0,0:0:0:0:
256,192,66221,1,0,0:0:0:0:
256,192,66452,1,8,0:0:0:0:
256,192,66914,1,0,0:0:0:0:
256,192,67837,1,0,0:0:0:0:
256,192,68298,1,8,0:0:0:0:
256,192,68529,1,0,0:0:0:0:
256,192,68760,1,8,0:0:0:0:
256,192,69221,1,8,0:0:0:0:
256,192,69452,1,8,0:0:0:0:
256,192,69683,1,0,0:0:0:0:
256,192,69914,1,0,0:0:0:0:
256,192,70144,1,12,0:0:0:0:
256,192,70606,1,8,0:0:0:0:
256,192,70836,1,0,0:0:0:0:
256,192,71067,1,8,0:0:0:0:
256,192,71529,1,0,0:0:0:0:
256,192,71991,1,8,0:0:0:0:
256,192,72452,1,0,0:0:0:0:
256,192,72914,1,8,0:0:0:0:
256,192,73375,1,0,0:0:0:0:
256,192,73606,1,0,0:0:0:0:
256,192,73837,1,8,0:0:0:0:
256,192,74298,1,0,0:0:0:0:
256,192,74760,1,8,0:0:0:0:
256,192,75221,1,0,0:0:0:0:
256,192,75683,1,8,0:0:0:0:
256,192,75914,1,8,0:0:0:0:
256,192,76144,1,0,0:0:0:0:
256,192,76606,1,8,0:0:0:0:
256,192,76837,1,8,0:0:0:0:
256,192,77067,1,0,0:0:0:0:
256,192,77298,1,0,0:0:0:0:
