osu file format v14

[General]
AudioFilename: audio.mp3
AudioLeadIn: 0
PreviewTime: 47846
Countdown: 0
SampleSet: Normal
StackLeniency: 0.7
Mode: 1
LetterboxInBreaks: 0
WidescreenStoryboard: 1

[Editor]
Bookmarks: 14760,18452,22144,33221,47991,55375,62760,69683,77298
DistanceSpacing: 0.5
BeatDivisor: 4
GridSize: 32
TimelineZoom: 1.8

[Metadata]
Title:we fell in love in october (Cut Ver.)
TitleUnicode:we fell in love in october (Cut Ver.)
Artist:girl in red
ArtistUnicode:girl in red
Creator:Tachibana_
Version:clockbite's muzukashii
Source:
Tags:alternative rock forget her lgbt lesbian a collection of every song i've ive ever posted on soundcloud indie english Ryxliee clockbite
BeatmapID:3963214
BeatmapSetID:1919980

[Difficulty]
HPDrainRate:8
CircleSize:0
OverallDifficulty:5
ApproachRate:9
SliderMultiplier:1.4
SliderTickRate:1

[Events]
//Background and Video events
0,0,"please be my girl ^^.jpg",0,0
//Break Periods
//Storyboard Layer 0 (Background)
//Storyboard Layer 1 (Fail)
//Storyboard Layer 2 (Pass)
//Storyboard Layer 3 (Foreground)
//Storyboard Layer 4 (Overlay)
//Storyboard Sound Samples

[TimingPoints]
-9,461.538461538462,4,1,0,26,1,0
14760,-100,4,1,0,26,0,0
18452,-100,4,1,0,32,0,0
22144,-100,4,1,0,38,0,0
22606,-100,4,1,0,38,0,0
23067,-100,4,1,0,38,0,0
23298,-100,4,1,0,38,0,0
23529,-100,4,1,0,38,0,0
23991,-100,4,1,0,38,0,0
24452,-100,4,1,0,38,0,0
24914,-100,4,1,0,38,0,0
25375,-100,4,1,0,38,0,0
25606,-100,4,1,0,38,0,0
25837,-100,4,1,0,38,0,0
26298,-100,4,1,0,38,0,0
26760,-100,4,1,0,38,0,0
26991,-100,4,1,0,38,0,0
27221,-100,4,1,0,38,0,0
27452,-100,4,1,0,38,0,0
27683,-100,4,1,0,38,0,0
27914,-100,4,1,0,38,0,0
28144,-100,4,1,0,38,0,0
28606,-100,4,1,0,38,0,0
29067,-100,4,1,0,38,0,0
29298,-100,4,1,0,38,0,0
29529,-100,4,1,0,38,0,0
29991,-100,4,1,0,38,0,0
30452,-100,4,1,0,38,0,0
30683,-100,4,1,0,38,0,0
30914,-100,4,1,0,38,0,0
31375,-100,4,1,0,38,0,0
31837,-100,4,1,0,38,0,0
32298,-100,4,1,0,38,0,0
32760,-100,4,1,0,38,0,0
32991,-100,4,1,0,38,0,0
33221,-100,4,1,0,42,0,0
44991,-100,4,1,0,42,0,0
45221,-100,4,1,0,42,0,0
45452,-100,4,1,0,42,0,0
45683,-100,4,1,0,42,0,0
46144,-100,4,1,0,36,0,0
46606,-100,4,1,0,36,0,0
46837,-100,4,1,0,36,0,0
47529,-100,4,1,0,36,0,0
47991,-100,4,1,0,68,0,1
53760,-100,4,1,0,68,0,1
53991,-100,4,1,0,68,0,1
54452,-100,4,1,0,68,0,1
54567,-100,4,1,0,68,0,1
54683,-100,4,1,0,68,0,1
54914,-100,4,1,0,68,0,1
55144,-100,4,1,0,68,0,1
55375,-100,4,1,0,68,0,1
61144,-100,4,1,0,68,0,1
61375,-100,4,1,0,68,0,1
61837,-100,4,1,0,68,0,1
61952,-100,4,1,0,68,0,1
62067,-100,4,1,0,68,0,1
62298,-100,4,1,0,68,0,1
62529,-100,4,1,0,68,0,1
62760,-100,4,1,0,68,0,1
68529,-100,4,1,0,68,0,1
68760,-100,4,1,0,68,0,1
68875,-100,4,1,0,68,0,1
68991,-100,4,1,0,68,0,1
69221,-100,4,1,0,68,0,1
69452,-100,4,1,0,68,0,1
69683,-100,4,1,0,68,0,1
69914,-100,4,1,0,68,0,1
70144,-100,4,1,0,68,0,1
73952,-100,4,1,0,68,0,1
74067,-100,4,1,0,68,0,1
74298,-100,4,1,0,68,0,1
74414,-100,4,1,0,68,0,1
74529,-100,4,1,0,68,0,1
74760,-100,4,1,0,68,0,1
74875,-100,4,1,0,68,0,1
74991,-100,4,1,0,68,0,1
75221,-100,4,1,0,68,0,1
75337,-100,4,1,0,68,0,1
75452,-100,4,1,0,68,0,1
75683,-100,4,1,0,68,0,1
75798,-100,4,1,0,68,0,1
75914,-100,4,1,0,68,0,1
76144,-100,4,1,0,68,0,1
76375,-100,4,1,0,68,0,1
76606,-100,4,1,0,68,0,1
76721,-100,4,1,0,68,0,1
76837,-100,4,1,0,68,0,1
77067,-100,4,1,0,68,0,1
77298,-100,4,1,0,68,0,0

[HitObjects]
215,221,18452,5,4,0:0:0:0:
261,222,18914,1,8,0:0:0:0:
261,222,19375,1,8,0:0:0:0:
261,222,19606,1,8,0:0:0:0:
261,222,19837,1,0,0:0:0:0:
261,222,20298,1,8,0:0:0:0:
261,222,21221,1,8,0:0:0:0:
261,222,22144,1,0,0:0:0:0:
135,169,22606,1,8,0:0:0:0:
177,180,23067,1,0,0:0:0:0:
177,180,23529,1,8,0:0:0:0:
177,180,23991,1,0,0:0:0:0:
177,180,24452,1,8,0:0:0:0:
172,186,24914,1,8,0:0:0:0:
171,190,25375,1,8,0:0:0:0:
172,186,25606,1,8,0:0:0:0:
172,186,25837,1,0,0:0:0:0:
186,136,26298,1,8,0:0:0:0:
186,136,26760,1,8,0:0:0:0:
186,136,26991,1,8,0:0:0:0:
186,136,27221,1,0,0:0:0:0:
186,136,27452,1,0,0:0:0:0:
186,136,27683,1,8,0:0:0:0:
186,136,28144,1,8,0:0:0:0:
186,136,28606,1,8,0:0:0:0:
186,136,29067,1,8,0:0:0:0:
186,136,29529,1,0,0:0:0:0:
186,136,29991,1,8,0:0:0:0:
186,136,30452,1,0,0:0:0:0:
203,102,30914,1,8,0:0:0:0:
130,162,31375,1,0,0:0:0:0:
171,169,31837,1,8,0:0:0:0:
197,166,32298,1,8,0:0:0:0:
197,166,32760,1,8,0:0:0:0:
197,166,32991,1,8,0:0:0:0:
197,166,33221,1,0,0:0:0:0:
207,139,33683,1,0,0:0:0:0:
208,176,33914,1,8,0:0:0:0:
208,178,34144,1,0,0:0:0:0:
208,178,34606,1,8,0:0:0:0:
208,178,35067,1,8,0:0:0:0:
208,178,35298,1,8,0:0:0:0:
194,108,35529,1,0,0:0:0:0:
208,178,35760,1,8,0:0:0:0:
194,108,36221,1,8,0:0:0:0:
194,108,36452,1,8,0:0:0:0:
190,115,36914,1,0,0:0:0:0:
205,133,37375,1,8,0:0:0:0:
205,133,37837,1,0,0:0:0:0:
205,133,38298,1,8,0:0:0:0:
205,133,38760,1,0,0:0:0:0:
205,133,39221,1,8,0:0:0:0:
205,133,39683,1,8,0:0:0:0:
205,133,39914,1,0,0:0:0:0:
205,133,40144,1,8,0:0:0:0:
205,133,40375,1,8,0:0:0:0:
205,133,40606,1,0,0:0:0:0:
205,133,41067,1,8,0:0:0:0:
205,133,41529,1,0,0:0:0:0:
205,133,41760,1,0,0:0:0:0:
205,133,41991,1,8,0:0:0:0:
205,133,42452,1,0,0:0:0:0:
205,133,42914,1,8,0:0:0:0:
205,133,43144,1,0,0:0:0:0:
205,133,43375,1,0,0:0:0:0:
205,133,43606,1,8,0:0:0:0:
205,133,43837,1,8,0:0:0:0:
205,133,44298,1,0,0:0:0:0:
205,133,44760,1,8,0:0:0:0:
205,133,45221,1,0,0:0:0:0:
205,133,45452,1,0,0:0:0:0:
205,133,45683,1,8,0:0:0:0:
205,133,46144,1,0,0:0:0:0:
205,133,46606,1,8,0:0:0:0:
195,135,47991,1,12,0:0:0:0:
210,173,48452,1,8,0:0:0:0:
210,172,48683,1,0,0:0:0:0:
210,173,48798,1,0,0:0:0:0:
210,172,48914,1,0,0:0:0:0:
183,143,49144,1,0,0:0:0:0:
210,173,49375,1,8,0:0:0:0:
167,189,49606,1,0,0:0:0:0:
167,189,49721,1,0,0:0:0:0:
184,180,49837,1,0,0:0:0:0:
210,173,50298,1,8,0:0:0:0:
208,174,50529,1,8,0:0:0:0:
215,175,50644,1,8,0:0:0:0:
214,175,50760,1,8,0:0:0:0:
210,173,50991,1,0,0:0:0:0:
210,173,51221,1,8,0:0:0:0:
217,178,51452,1,8,0:0:0:0:
215,175,51683,1,0,0:0:0:0:
217,178,52144,1,8,0:0:0:0:
215,175,52606,1,0,0:0:0:0:
217,178,53067,1,8,0:0:0:0:
215,175,53529,1,8,0:0:0:0:
215,175,53644,1,8,0:0:0:0:
217,178,53760,1,8,0:0:0:0:
217,178,53991,1,8,0:0:0:0:
217,186,54221,1,0,0:0:0:0:
216,186,54452,1,0,0:0:0:0:
216,186,54567,1,0,0:0:0:0:
216,187,54683,1,0,0:0:0:0:
215,189,54914,1,8,0:0:0:0:
217,186,55144,1,8,0:0:0:0:
210,173,55375,1,4,0:0:0:0:
183,145,55837,1,8,0:0:0:0:
210,172,56067,1,8,0:0:0:0:
210,173,56182,1,8,0:0:0:0:
210,172,56298,1,8,0:0:0:0:
183,143,56528,1,0,0:0:0:0:
210,173,56759,1,8,0:0:0:0:
167,189,56990,1,0,0:0:0:0:
167,189,57105,1,0,0:0:0:0:
184,180,57221,1,0,0:0:0:0:
210,173,57682,1,8,0:0:0:0:
208,174,57913,1,8,0:0:0:0:
215,175,58028,1,8,0:0:0:0:
214,175,58144,1,8,0:0:0:0:
210,173,58375,1,0,0:0:0:0:
210,173,58605,1,8,0:0:0:0:
217,178,58836,1,8,0:0:0:0:
215,175,59067,1,0,0:0:0:0:
217,178,59528,1,8,0:0:0:0:
215,175,59990,1,0,0:0:0:0:
217,178,60451,1,8,0:0:0:0:
215,175,60913,1,8,0:0:0:0:
215,175,61028,1,8,0:0:0:0:
217,178,61144,1,8,0:0:0:0:
217,178,61375,1,0,0:0:0:0:
217,186,61605,1,0,0:0:0:0:
216,186,61836,1,8,0:0:0:0:
216,186,61951,1,8,0:0:0:0:
216,187,62067,1,8,0:0:0:0:
215,189,62298,1,8,0:0:0:0:
217,186,62528,1,8,0:0:0:0:
195,135,62760,1,4,0:0:0:0:
210,173,63221,1,0,0:0:0:0:
210,172,63452,1,8,0:0:0:0:
210,173,63567,1,8,0:0:0:0:
210,172,63683,1,8,0:0:0:0:
183,143,63913,1,0,0:0:0:0:
210,173,64144,1,8,0:0:0:0:
167,189,64375,1,0,0:0:0:0:
167,189,64490,1,0,0:0:0:0:
184,180,64606,1,0,0:0:0:0:
210,173,65067,1,8,0:0:0:0:
208,174,65298,1,8,0:0:0:0:
215,175,65413,1,8,0:0:0:0:
214,175,65529,1,8,0:0:0:0:
210,173,65760,1,0,0:0:0:0:
210,173,65990,1,8,0:0:0:0:
217,178,66221,1,8,0:0:0:0:
215,175,66452,1,0,0:0:0:0:
217,178,66913,1,8,0:0:0:0:
215,175,67375,1,0,0:0:0:0:
217,178,67836,1,8,0:0:0:0:
215,175,68298,1,8,0:0:0:0:
215,175,68413,1,8,0:0:0:0:
217,178,68529,1,8,0:0:0:0:
217,186,68760,1,0,0:0:0:0:
217,178,68990,1,8,0:0:0:0:
216,186,69221,1,0,0:0:0:0:
216,186,69336,1,0,0:0:0:0:
216,187,69452,1,0,0:0:0:0:
215,189,69683,1,8,0:0:0:0:
217,186,69913,1,8,0:0:0:0:
210,173,70144,1,4,0:0:0:0:
209,157,70606,1,0,0:0:0:0:
185,160,70837,1,8,0:0:0:0:
209,157,71067,1,0,0:0:0:0:
209,157,71529,1,8,0:0:0:0:
209,157,71991,1,8,0:0:0:0:
209,157,72221,1,8,0:0:0:0:
209,157,72452,1,8,0:0:0:0:
219,130,72914,1,0,0:0:0:0:
219,132,73144,1,0,0:0:0:0:
219,132,73375,1,8,0:0:0:0:
177,191,73606,1,8,0:0:0:0:
177,191,73837,1,0,0:0:0:0:
177,191,74298,1,8,0:0:0:0:
177,191,74760,1,0,0:0:0:0:
177,191,74991,1,0,0:0:0:0:
177,191,75221,1,8,0:0:0:0:
177,191,75683,1,8,0:0:0:0:
177,191,75914,1,8,0:0:0:0:
177,191,76144,1,8,0:0:0:0:
177,191,76606,1,0,0:0:0:0:
177,191,76837,1,0,0:0:0:0:
177,191,77067,1,8,0:0:0:0:
177,191,77298,1,8,0:0:0:0:
