osu file format v14

[General]
AudioFilename: audio.mp3
AudioLeadIn: 0
PreviewTime: 130723
Countdown: 0
SampleSet: Soft
StackLeniency: 0.6
Mode: 0
LetterboxInBreaks: 0
WidescreenStoryboard: 1

[Editor]
Bookmarks: 28572,30091,55154,61230,70723,73192,78223,80787,83635,104141,109458,158065,168318,173255,185407
DistanceSpacing: 1
BeatDivisor: 4
GridSize: 16
TimelineZoom: 2.899999

[Metadata]
Title:i'll die anyway.
TitleUnicode:i'll die anyway.
Artist:girl in red
ArtistUnicode:girl in red
Creator:yousick
Version:sightread & yousick's normal
Source:
Tags:Marie Ulven Ringheim pop indie english Lylaera sylvantia Renumi hewwo Klee4ko TryFly2 Sightread bedroom alternative
BeatmapID:4155575
BeatmapSetID:1992574

[Difficulty]
HPDrainRate:3
CircleSize:3.3
OverallDifficulty:3
ApproachRate:5
SliderMultiplier:1
SliderTickRate:1

[Events]
//Background and Video events
0,0,"bg.jpg",0,0
//Break Periods
2,109657,120409
2,130543,132561
2,158265,159903
//Storyboard Layer 0 (Background)
//Storyboard Layer 1 (Fail)
//Storyboard Layer 2 (Pass)
//Storyboard Layer 3 (Foreground)
//Storyboard Layer 4 (Overlay)
//Storyboard Sound Samples

[TimingPoints]
91,379.746835443038,4,2,1,50,1,0
91,-117.647058823529,4,2,1,50,0,0
1515,-117.647058823529,4,2,1,50,0,0
1609,-117.647058823529,4,2,1,50,0,0
4553,-117.647058823529,4,2,1,50,0,0
4647,-117.647058823529,4,2,1,50,0,0
4932,-117.647058823529,4,2,1,50,0,0
5027,-117.647058823529,4,2,1,75,0,0
6166,-117.647058823529,4,2,1,50,0,0
7591,-117.647058823529,4,2,1,50,0,0
7685,-117.647058823529,4,2,1,50,0,0
9204,-117.647058823529,4,2,1,55,0,0
10628,-117.647058823529,4,2,1,55,0,0
10723,-117.647058823529,4,2,1,60,0,0
12242,-105.263157894737,4,2,1,65,0,0
15185,-105.263157894737,4,2,1,65,0,0
15280,-105.263157894737,4,2,1,65,0,0
16799,-105.263157894737,4,2,1,65,0,0
17084,-105.263157894737,4,2,1,65,0,0
17179,-105.263157894737,4,2,1,65,0,0
18318,-105.263157894737,4,2,1,65,0,0
21261,-105.263157894737,4,2,1,65,0,0
21356,-105.263157894737,4,2,1,65,0,0
22875,-105.263157894737,4,2,1,65,0,0
23160,-105.263157894737,4,2,1,65,0,0
23255,-105.263157894737,4,2,1,65,0,0
24394,-111.111111111111,4,2,1,50,0,0
27337,-111.111111111111,4,2,1,50,0,0
27432,-111.111111111111,4,2,1,50,0,0
33413,-111.111111111111,4,2,1,50,0,0
33508,-111.111111111111,4,2,1,50,0,0
39489,-111.111111111111,4,2,1,50,0,0
39584,-111.111111111111,4,2,1,50,0,0
45565,-111.111111111111,4,2,1,50,0,0
45660,-111.111111111111,4,2,1,50,0,0
48698,-105.263157894737,4,2,1,65,0,0
59331,-105.263157894737,4,2,1,50,0,0
60850,-105.263157894737,4,2,1,65,0,0
66926,-105.263157894737,4,2,1,65,0,0
73002,-100,4,2,1,70,0,1
75945,-100,4,2,1,70,0,1
76040,-100,4,2,1,70,0,1
77559,-100,4,2,1,70,0,1
77844,-100,4,2,1,70,0,1
77939,-100,4,2,1,70,0,1
78413,-100,4,2,1,70,0,1
78508,-100,4,2,1,70,0,1
78698,-100,4,2,1,70,0,1
82021,-100,4,2,1,70,0,1
82116,-100,4,2,1,70,0,1
83635,-100,4,2,1,70,0,1
83920,-100,4,2,1,70,0,1
84015,-100,4,2,1,70,0,1
84489,-100,4,2,1,70,0,1
84584,-100,4,2,1,75,0,1
84774,-100,4,2,1,70,0,1
85154,-111.111111111111,4,2,1,50,0,0
88097,-111.111111111111,4,2,1,50,0,0
88192,-111.111111111111,4,2,1,50,0,0
94173,-111.111111111111,4,2,1,50,0,0
94268,-111.111111111111,4,2,1,50,0,0
100249,-111.111111111111,4,2,1,50,0,0
100344,-111.111111111111,4,2,1,50,0,0
106325,-111.111111111111,4,2,1,50,0,0
106420,-111.111111111111,4,2,1,50,0,0
109458,-111.111111111111,4,2,1,30,0,0
121230,-111.111111111111,4,2,1,20,0,0
121609,-117.647058823529,4,2,1,50,0,0
130723,-117.647058823529,4,2,1,50,0,0
133761,-105.263157894737,4,2,1,65,0,0
145913,-105.263157894737,4,2,1,65,0,0
153508,-105.263157894737,4,2,1,65,0,0
158065,-117.647058823529,4,2,1,30,0,0
161103,-100,4,2,1,70,0,1
164046,-100,4,2,1,70,0,1
164141,-100,4,2,1,70,0,1
165660,-100,4,2,1,70,0,1
165945,-100,4,2,1,70,0,1
166040,-100,4,2,1,70,0,1
166515,-100,4,2,1,70,0,1
166610,-100,4,2,1,70,0,1
167179,-100,4,2,1,70,0,1
170122,-100,4,2,1,70,0,1
170217,-100,4,2,1,70,0,1
171736,-100,4,2,1,70,0,1
172021,-100,4,2,1,70,0,1
172116,-100,4,2,1,70,0,1
173255,-100,4,2,1,70,0,1
176198,-100,4,2,1,70,0,1
176293,-100,4,2,1,70,0,1
177812,-100,4,2,1,70,0,1
178097,-100,4,2,1,70,0,1
178192,-100,4,2,1,70,0,1
178666,-100,4,2,1,70,0,1
178761,-100,4,2,1,70,0,1
179331,-100,4,2,1,70,0,1
182274,-100,4,2,1,70,0,1
182369,-100,4,2,1,70,0,1
183888,-100,4,2,1,70,0,1
184173,-100,4,2,1,70,0,1
184268,-100,4,2,1,70,0,1
184742,-100,4,2,1,70,0,1
184837,-100,4,2,1,70,0,1
185407,-117.647058823529,4,2,1,50,0,0
189964,-117.647058823529,4,2,1,5,0,0

[Colours]
Combo1 : 194,135,135
Combo2 : 255,168,81
Combo3 : 201,197,137
Combo4 : 149,167,227

[HitObjects]
16,14,12242,6,0,P|118:26|124:26,1,94.9999974632264,4|8,3:2|0:0,0:0:0:0:
150,51,12812,2,0,P|252:39|258:39,1,94.9999974632264
291,39,13382,1,8,0:0:0:0:
370,91,13761,2,0,B|380:141|380:141|346:184,1,94.9999974632264,0|8,3:2|0:0,0:0:0:0:
322,212,14331,1,0,0:0:0:0:
236,183,14711,1,0,0:0:0:0:
236,183,14901,1,8,0:0:0:0:
144,157,15280,6,0,P|92:144|41:172,1,94.9999974632264,0|8,3:2|0:0,0:0:0:0:
19,191,15850,2,0,P|6:242|34:294,1,94.9999974632264
48,319,16420,1,8,0:0:0:0:
135,355,16799,2,0,P|241:366|243:366,1,94.9999974632264,0|8,3:2|0:0,0:0:0:0:
277,365,17369,1,0,0:0:0:0:
372,362,17749,2,0,L|444:350,1,47.4999987316132,0|8,3:2|0:0,0:0:0:0:
470,352,18128,1,8,0:0:0:0:
470,352,18318,6,0,P|464:301|468:248,1,94.9999974632264,0|8,3:2|0:0,0:0:0:0:
441,217,18888,2,0,P|459:132|458:118,1,94.9999974632264
457,76,19458,1,8,0:0:0:0:
378,23,19837,2,0,L|262:32,1,94.9999974632264,0|8,3:2|0:0,0:0:0:0:
236,38,20407,1,0,0:0:0:0:
181,116,20787,1,0,0:0:0:0:
181,116,20977,1,8,0:0:0:0:
173,210,21356,6,0,P|103:229|69:213,1,94.9999974632264,0|8,3:2|0:0,0:0:0:0:
41,200,21926,2,0,P|22:130|38:96,1,94.9999974632264
52,70,22496,1,8,0:0:0:0:
133,21,22875,2,0,L|247:24,1,94.9999974632264,0|8,3:2|0:0,0:0:0:0:
275,28,23445,1,0,0:0:0:0:
337,106,23825,1,0,3:2:0:0:
337,106,24015,1,10,0:0:0:0:
395,174,24394,6,0,P|404:233|422:268,2,89.9999972534181,0|10|0,3:2|0:0|3:2,0:0:0:0:
424,88,25534,1,8,0:0:0:0:
345,43,25913,2,0,L|239:66,1,89.9999972534181,0|8,3:2|0:0,0:0:0:0:
213,73,26483,1,2,0:0:0:0:
125,92,26863,2,0,P|111:133|101:192,1,89.9999972534181,2|2,0:0|0:0,0:0:0:0:
95,223,27432,6,0,P|136:236|195:247,1,89.9999972534181,0|8,3:2|0:0,0:0:0:0:
271,257,28192,1,0,3:2:0:0:
334,193,28572,1,8,0:0:0:0:
423,192,28951,2,0,B|467:212|467:212|478:268,1,89.9999972534181,0|8,3:2|0:0,0:0:0:0:
469,342,29711,2,0,L|514:355,2,44.999998626709,0|0|8,0:0|3:2|0:0,0:0:0:0:
429,358,30280,1,8,0:0:0:0:
429,358,30470,6,0,P|343:364|322:362,1,89.9999972534181,2|10,3:2|0:0,0:0:0:0:
249,351,31230,1,2,3:2:0:0:
193,280,31609,1,8,0:0:0:0:
201,190,31989,2,0,P|221:144|220:85,1,89.9999972534181,2|10,3:2|0:0,0:0:0:0:
212,15,32749,1,6,3:2:0:0:
122,10,33128,1,10,0:0:0:0:
39,45,33508,6,0,L|21:148,1,89.9999972534181,0|8,3:2|0:0,0:0:0:0:
11,223,34268,2,0,L|114:241,1,89.9999972534181,0|8,3:2|0:0,0:0:0:0:
189,247,35027,1,0,3:2:0:0:
259,302,35407,1,8,0:0:0:0:
348,298,35787,2,0,L|336:364,2,44.999998626709,0|2|10,0:0|3:2|0:0,0:0:0:0:
369,260,36356,1,8,0:0:0:0:
369,260,36546,6,0,P|354:200|348:144,1,89.9999972534181,0|10,3:2|0:0,0:0:0:0:
331,83,37306,1,0,3:2:0:0:
397,22,37685,1,8,0:0:0:0:
486,27,38065,2,0,P|496:130|497:136,1,89.9999972534181,0|10,3:2|0:0,0:0:0:0:
501,210,38825,1,6,3:2:0:0:
501,210,39015,2,0,P|413:236|407:234,1,89.9999972534181,2|2,0:0|0:0,0:0:0:0:
375,231,39584,5,0,3:2:0:0:
321,158,39964,1,8,0:0:0:0:
243,111,40344,2,0,L|129:132,1,89.9999972534181,0|8,3:2|0:0,0:0:0:0:
66,148,41103,1,0,3:2:0:0:
25,228,41483,1,8,0:0:0:0:
43,316,41863,2,0,L|4:371,2,44.999998626709,0|0|10,0:0|3:2|0:0,0:0:0:0:
91,315,42432,1,8,0:0:0:0:
91,315,42622,6,0,P|189:318|205:317,1,89.9999972534181,2|10,3:2|0:0,0:0:0:0:
270,311,43382,1,2,3:2:0:0:
328,243,43761,1,10,0:0:0:0:
273,171,44141,2,0,P|262:117|261:67,1,89.9999972534181,2|8,3:2|0:0,0:0:0:0:
327,20,44901,2,0,P|380:9|431:8,1,89.9999972534181,4|10,3:2|0:0,0:0:0:0:
492,54,45660,6,0,L|486:150,1,89.9999972534181,0|8,3:2|0:0,0:0:0:0:
485,234,46420,1,0,3:2:0:0:
421,297,46799,1,8,0:0:0:0:
333,319,47179,2,0,P|267:323|236:300,1,89.9999972534181,0|8,3:2|0:0,0:0:0:0:
182,250,47939,2,0,L|124:281,2,44.999998626709,0|0|10,0:0|3:2|0:0,0:0:0:0:
208,213,48508,1,8,0:0:0:0:
208,213,48698,6,0,P|213:154|206:113,1,94.9999974632264,2|2,3:2|3:2,0:0:0:0:
163,34,49458,1,2,3:2:0:0:
72,32,49837,1,2,3:2:0:0:
72,32,50027,2,0,P|51:90|34:128,1,94.9999974632264,2|2,0:0|0:0,0:0:0:0:
7,210,50787,2,0,P|65:230|103:248,1,94.9999974632264,2|0,0:0|0:0,0:0:0:0:
140,258,51356,1,0,3:2:0:0:
232,279,51736,5,2,3:2:0:0:
295,207,52116,1,2,3:2:0:0:
375,156,52496,2,0,B|425:162|425:162|458:217,1,94.9999974632264,2|0,3:2|3:2,0:0:0:0:
475,239,53065,2,0,P|465:315|449:333,1,94.9999974632264,2|2,0:0|0:0,0:0:0:0:
365,360,53825,2,0,L|244:369,1,94.9999974632264,2|0,0:0|0:0,0:0:0:0:
222,365,54394,1,0,3:2:0:0:
150,302,54774,5,0,3:2:0:0:
56,320,55154,2,0,L|40:368,2,47.4999987316132,2|2|0,3:2|0:0|0:0,0:0:0:0:
73,226,55913,2,0,P|50:178|42:126,1,94.9999974632264,2|2,3:2|3:2,0:0:0:0:
36,42,56673,1,0,3:2:0:0:
128,16,57053,2,0,L|250:37,1,94.9999974632264,0|0,3:0|3:2,0:0:0:0:
301,84,57812,6,0,L|423:63,1,94.9999974632264,0|2,3:2|3:2,0:0:0:0:
441,56,58382,2,0,L|457:149,1,94.9999974632264,2|2,0:0|0:0,0:0:0:0:
466,196,58951,1,2,3:2:0:0:
465,291,59331,2,0,L|525:311,2,47.4999987316132,2|2|2,3:2|0:0|3:2,0:0:0:0:
418,280,59901,2,0,P|354:276|307:290,1,94.9999974632264,2|0,0:0|0:0,0:0:0:0:
280,301,60470,1,0,3:2:0:0:
211,367,60850,5,6,3:2:0:0:
128,318,61230,1,2,3:2:0:0:
48,265,61609,2,0,P|70:177|73:150,1,94.9999974632264,2|2,3:2|3:2,0:0:0:0:
82,126,62179,1,2,0:0:0:0:
166,83,62559,1,2,0:0:0:0:
241,140,62939,2,0,L|344:152,1,94.9999974632264,2|0,0:0|0:0,0:0:0:0:
367,185,63508,2,0,L|418:178,1,47.4999987316132,0|2,3:2|0:0,0:0:0:0:
461,174,63888,5,2,3:2:0:0:
506,90,64268,1,2,3:2:0:0:
444,17,64647,2,0,P|345:28|333:27,1,94.9999974632264,2|2,3:2|3:2,0:0:0:0:
302,26,65217,1,2,0:0:0:0:
223,79,65597,1,2,0:0:0:0:
143,26,65977,2,0,B|93:31|93:31|68:86,1,94.9999974632264,2|0,0:0|0:0,0:0:0:0:
60,117,66546,1,0,3:2:0:0:
32,208,66926,6,0,P|20:298|22:313,1,94.9999974632264,0|2,3:2|3:2,0:0:0:0:
26,348,67496,2,0,P|116:359|131:357,1,94.9999974632264,2|2,0:0|0:0,0:0:0:0:
166,350,68065,2,0,L|199:306,1,47.4999987316132,2|8,3:2|0:0,0:0:0:0:
221,272,68445,1,10,0:0:0:0:
172,190,68825,1,2,3:2:0:0:
220,108,69204,1,0,3:2:0:0:
295,50,69584,2,0,L|374:66,1,47.4999987316132,0|10,3:2|0:0,0:0:0:0:
387,73,69964,6,0,P|375:172|367:189,1,94.9999974632264,0|2,3:2|3:2,0:0:0:0:
335,189,70534,2,0,P|347:288|355:305,1,94.9999974632264,10|0,0:0|0:0,0:0:0:0:
373,320,71103,2,0,L|433:330,1,47.4999987316132,2|8,3:2|0:0,0:0:0:0:
467,333,71483,2,0,P|497:286|499:280,1,47.4999987316132,10|2,0:0|0:0,0:0:0:0:
508,248,71863,1,2,3:2:0:0:
506,153,72242,2,0,L|482:101,1,47.4999987316132,0|8,3:2|0:0,0:0:0:0:
467,65,72622,2,0,P|415:49|366:29,1,94.9999974632264,8|4,0:0|3:2,0:0:0:0:
283,14,73382,5,8,0:0:0:0:
283,14,73572,2,0,L|165:27,1,100,0|0,0:0|3:2,0:0:0:0:
134,31,74141,1,8,0:0:0:0:
78,114,74521,2,0,P|61:192|52:217,1,100,0|8,3:2|0:0,0:0:0:0:
89,254,75091,1,0,0:0:0:0:
89,254,75280,2,0,P|106:332|115:357,1,100,4|8,3:2|0:0,0:0:0:0:
212,362,76040,6,0,L|330:359,1,100,0|8,3:2|0:0,0:0:0:0:
361,356,76609,2,0,L|358:238,1,100
355,205,77179,2,0,P|318:196|270:178,1,50,8|0,0:0|0:0,0:0:0:0:
257,179,77559,1,0,3:2:0:0:
180,243,77939,1,8,0:0:0:0:
126,165,78318,1,0,0:0:0:0:
126,165,78508,2,0,L|52:181,2,50,8|8|0,0:0|0:0|0:0,0:0:0:0:
161,129,79078,6,0,P|259:123|280:116,1,100,0|8,3:2|0:0,0:0:0:0:
308,135,79647,2,0,P|406:141|427:148,1,100,0|0,0:0|3:2,0:0:0:0:
454,158,80217,1,8,0:0:0:0:
506,243,80597,2,0,B|509:293|509:293|458:327,1,100,0|8,3:2|0:0,0:0:0:0:
376,360,81356,2,0,L|312:354,1,50,4|0,3:2|0:0,0:0:0:0:
276,351,81736,1,8,0:0:0:0:
176,345,82116,6,0,P|77:352|65:350,1,100,0|8,3:2|0:0,0:0:0:0:
36,321,82685,2,0,P|29:222|31:210,1,100
35,172,83255,1,8,0:0:0:0:
112,108,83635,2,0,L|245:116,1,100,0|8,3:2|0:0,0:0:0:0:
261,119,84204,1,0,0:0:0:0:
344,183,84584,1,8,0:0:0:0:
344,183,84774,1,10,0:0:0:0:
424,141,85154,6,0,P|448:101|435:36,1,89.9999972534181,0|10,3:2|0:0,0:0:0:0:
364,21,85913,1,0,3:2:0:0:
283,61,86293,2,0,L|230:51,1,44.999998626709,8|0,0:0|0:0,0:0:0:0:
195,39,86673,2,0,P|150:45|101:25,1,89.9999972534181,0|8,3:2|0:0,0:0:0:0:
19,19,87433,1,4,3:2:0:0:
5,107,87812,1,8,0:0:0:0:
63,175,88192,6,0,P|67:222|54:270,1,89.9999972534181,0|8,3:2|0:0,0:0:0:0:
34,350,88952,1,0,0:0:0:0:
123,336,89332,1,8,0:0:0:0:
206,302,89711,2,0,B|236:291|247:291|235:302|247:301|265:309|311:299,1,89.9999972534181,0|8,3:2|0:0,0:0:0:0:
378,333,90471,2,0,P|380:356|373:380,2,44.999998626709,0|0|10,3:2|3:2|0:0,0:0:0:0:
397,294,91040,1,0,0:0:0:0:
397,294,91230,6,0,P|400:244|421:201,1,89.9999972534181,2|8,3:2|0:0,0:0:0:0:
472,137,91990,1,2,3:2:0:0:
428,58,92369,1,8,0:0:0:0:
341,89,92749,2,0,P|291:85|248:64,1,89.9999972534181,2|8,3:2|0:0,0:0:0:0:
178,21,93509,1,4,3:2:0:0:
109,78,93888,1,8,0:0:0:0:
173,140,94268,6,0,B|192:180|192:180|171:223,1,89.9999972534181,0|8,3:2|0:0,0:0:0:0:
89,256,95027,2,0,B|70:296|70:296|91:339,1,89.9999972534181,0|8,3:2|0:0,0:0:0:0:
177,361,95787,1,0,3:2:0:0:
250,308,96167,1,8,0:0:0:0:
337,329,96547,2,0,P|348:347|367:365,2,44.999998626709,0|2|10,3:2|3:2|0:0,0:0:0:0:
357,290,97116,1,0,0:0:0:0:
357,290,97306,6,0,P|347:244|323:194,1,89.9999972534181,0|10,3:2|0:0,0:0:0:0:
263,145,98066,1,0,3:2:0:0:
298,62,98445,1,8,0:0:0:0:
386,43,98825,2,0,P|433:36|469:58,1,89.9999972534181,0|8,3:2|0:0,0:0:0:0:
502,145,99585,1,4,3:2:0:0:
502,145,99775,2,0,L|493:240,1,89.9999972534181,2|2,0:0|0:0,0:0:0:0:
483,278,100344,5,0,3:2:0:0:
402,318,100724,1,8,0:0:0:0:
339,252,101104,2,0,P|290:249|251:273,1,89.9999972534181,0|8,3:2|0:0,0:0:0:0:
195,335,101863,1,0,3:2:0:0:
124,279,102243,1,8,0:0:0:0:
44,322,102623,2,0,P|39:346|52:379,2,44.999998626709,0|0|8,3:2|3:2|0:0,0:0:0:0:
36,282,103192,1,0,0:0:0:0:
36,282,103382,6,0,P|39:237|14:184,1,89.9999972534181,2|8,3:2|0:0,0:0:0:0:
20,105,104141,1,0,3:2:0:0:
93,52,104521,2,0,L|137:70,1,44.999998626709,10|0,0:0|0:0,0:0:0:0:
168,98,104900,2,0,B|210:109|210:109|273:91,1,89.9999972534181,2|8,3:2|0:0,0:0:0:0:
316,30,105660,2,0,P|358:26|406:42,1,89.9999972534181,4|10,3:2|0:0,0:0:0:0:
466,103,106419,6,0,L|457:198,1,89.9999972534181,0|8,3:2|0:0,0:0:0:0:
456,284,107179,2,0,P|408:293|363:310,1,89.9999972534181,0|8,0:0|0:0,0:0:0:0:
298,362,107939,1,4,3:2:0:0:
261,279,108318,1,4,3:2:0:0:
179,316,108698,2,0,B|139:340|139:340|114:337|108:310,2,89.9999972534181,4|6|2,3:2|3:2|0:0,0:0:0:0:
256,192,121609,6,0,B|308:165|308:165|340:220|298:272,2,170.000003242493,2|8|2,3:2|0:0|3:2,0:0:0:0:
176,160,123508,1,0,0:0:0:0:
91,156,123888,2,0,B|59:169|61:194|16:218,1,85.0000016212464,8|0,0:0|0:0,0:0:0:0:
10,295,124647,5,2,3:2:0:0:
168,356,125407,1,8,0:0:0:0:
239,309,125787,2,0,B|260:274|260:274|246:232,1,85.0000016212464,2|2,0:0|3:2,0:0:0:0:
205,157,126546,1,0,0:0:0:0:
243,80,126926,2,0,B|256:84|256:84|280:87|309:73|309:73|343:83,1,85.0000016212464,8|0,0:0|0:0,0:0:0:0:
401,113,127685,6,0,B|438:79|424:30|424:30|460:37|511:-6,2,170.000003242493,2|0|2,3:2|0:0|3:2,0:0:0:0:
366,190,129584,1,0,0:0:0:0:
281,177,129964,2,0,P|258:131|266:93,1,85.0000016212464
256,192,133761,5,6,3:2:0:0:
187,258,134141,1,2,3:2:0:0:
92,248,134520,2,0,P|68:211|84:163,1,94.9999974632264,2|2,3:2|3:2,0:0:0:0:
116,131,135090,1,2,0:0:0:0:
125,36,135470,1,2,0:0:0:0:
214,59,135850,2,0,L|308:74,1,94.9999974632264,2|0,0:0|0:0,0:0:0:0:
342,106,136419,2,0,B|362:107|362:107|389:98,1,47.4999987316132,0|0,3:2|0:0,0:0:0:0:
430,78,136799,5,2,3:2:0:0:
495,146,137179,1,2,3:2:0:0:
421,206,137558,2,0,P|375:225|326:221,1,94.9999974632264,2|0,3:2|3:2,0:0:0:0:
290,196,138128,1,2,0:0:0:0:
231,271,138508,1,2,0:0:0:0:
148,223,138888,2,0,P|108:240|94:294,1,94.9999974632264,2|0,0:0|3:2,0:0:0:0:
103,333,139457,1,0,3:0:0:0:
191,367,139837,6,0,L|285:351,1,94.9999974632264,0|2,3:2|3:2,0:0:0:0:
323,324,140407,2,0,P|368:325|425:349,1,94.9999974632264,2|2,0:0|0:0,0:0:0:0:
460,356,140977,2,0,L|486:308,1,47.4999987316132,2|8,3:2|0:0,0:0:0:0:
492,267,141356,2,0,L|468:157,1,94.9999974632264,10|0,0:0|3:2,0:0:0:0:
443,83,142115,1,0,3:2:0:0:
350,106,142495,2,0,L|302:98,1,47.4999987316132,0|8,3:2|0:0,0:0:0:0:
256,87,142875,6,0,B|227:86|210:104|210:104|231:131|225:158,1,94.9999974632264,8|2,0:0|3:2,0:0:0:0:
246,187,143445,2,0,P|258:241|240:279,1,94.9999974632264,10|0,0:0|0:0,0:0:0:0:
212,312,144014,1,2,3:2:0:0:
126,354,144394,2,0,L|78:361,2,47.4999987316132,10|2|2,0:0|0:0|3:2,0:0:0:0:
133,306,144964,1,8,0:0:0:0:
133,306,145154,2,0,P|130:255|104:197,1,94.9999974632264,8|8,0:0|0:0,0:0:0:0:
104,168,145723,1,8,0:0:0:0:
104,168,145913,1,2,3:2:0:0:
59,83,146293,5,2,3:2:0:0:
137,29,146672,2,0,P|225:51|252:54,1,94.9999974632264,2|2,3:2|3:2,0:0:0:0:
276,57,147242,1,2,0:0:0:0:
243,146,147622,1,2,0:0:0:0:
339,146,148002,2,0,P|388:145|431:121,1,94.9999974632264,2|0,0:0|0:0,0:0:0:0:
462,90,148572,1,0,3:2:0:0:
385,35,148951,5,2,3:2:0:0:
295,70,149331,1,2,3:2:0:0:
344,152,149710,2,0,P|339:200|309:250,1,94.9999974632264,2|2,3:2|3:2,0:0:0:0:
282,273,150280,1,2,0:0:0:0:
316,361,150660,1,2,0:0:0:0:
221,365,151040,2,0,B|187:358|160:330|118:330,1,94.9999974632264,2|0,0:0|0:0,0:0:0:0:
85,336,151609,1,0,3:2:0:0:
25,261,151989,6,0,P|28:211|49:168,1,94.9999974632264,0|2,3:2|3:2,0:0:0:0:
91,151,152559,2,0,P|83:117|93:51,1,94.9999974632264,2|2,0:0|0:0,0:0:0:0:
117,18,153128,1,2,3:2:0:0:
195,71,153508,2,0,L|287:46,1,94.9999974632264,10|8,0:0|0:0,0:0:0:0:
376,77,154267,1,0,3:2:0:0:
437,149,154647,2,0,B|435:172|435:172|424:195,1,47.4999987316132,0|8,3:2|0:0,0:0:0:0:
387,222,155027,6,0,P|341:236|296:207,1,94.9999974632264,8|2,0:0|3:2,0:0:0:0:
250,205,155597,2,0,P|248:259|222:306,1,94.9999974632264,10|0,0:0|0:0,0:0:0:0:
189,316,156166,1,2,3:2:0:0:
103,274,156546,2,0,L|55:281,2,47.4999987316132,10|2|2,0:0|0:0|3:2,0:0:0:0:
110,226,157116,1,8,0:0:0:0:
110,226,157306,2,0,P|107:175|81:117,1,94.9999974632264,0|8,3:2|0:0,0:0:0:0:
81,88,157875,1,8,0:0:0:0:
81,88,158065,1,0,0:0:0:0:
256,192,161103,5,4,3:2:0:0:
315,111,161483,1,8,0:0:0:0:
315,111,161673,2,0,P|337:62|384:39,1,100
425,46,162242,1,8,0:0:0:0:
485,126,162622,2,0,P|463:175|416:198,1,100,0|8,3:2|0:0,0:0:0:0:
373,195,163192,1,0,0:0:0:0:
373,195,163381,2,0,P|352:231|351:297,1,100,4|8,3:2|0:0,0:0:0:0:
277,358,164141,6,0,P|226:331|168:330,1,100,0|8,3:2|0:0,0:0:0:0:
134,333,164711,2,0,P|160:282|161:224,1,100
121,213,165280,2,0,L|59:196,1,50,8|0,0:0|0:0,0:0:0:0:
22,195,165660,1,0,3:2:0:0:
81,114,166040,1,10,0:0:0:0:
60,21,166419,1,0,0:0:0:0:
60,21,166609,2,0,L|11:31,2,50,10|10|0,0:0|0:0|0:0,0:0:0:0:
110,24,167179,6,0,L|206:49,1,100,0|10,3:2|0:0,0:0:0:0:
252,68,167748,2,0,P|302:66|360:39,1,100
391,22,168318,1,8,0:0:0:0:
450,102,168698,2,0,P|453:128|434:200,1,100,0|8,3:2|0:0,0:0:0:0:
335,207,169457,2,0,P|322:230|318:268,1,50,4|0,3:2|0:0,0:0:0:0:
333,301,169837,1,8,0:0:0:0:
251,359,170217,6,0,P|197:354|145:328,1,100,0|8,3:2|0:0,0:0:0:0:
105,336,170787,2,0,P|124:290|127:240,1,100
86,212,171356,1,8,0:0:0:0:
168,155,171736,2,0,P|192:113|205:40,1,100,0|10,3:2|0:0,0:0:0:0:
193,14,172305,1,2,0:0:0:0:
93,7,172685,2,0,L|38:27,1,50,2|10,0:0|0:0,0:0:0:0:
16,64,173065,2,0,B|3:85|3:85|-1:125,1,50,8|0,0:0|3:2,0:0:0:0:
67,192,173635,5,10,0:0:0:0:
67,192,173825,2,0,L|38:300,1,100
34,338,174394,1,8,0:0:0:0:
133,326,174774,2,0,P|181:323|232:358,1,100,0|8,3:2|0:0,0:0:0:0:
278,360,175344,1,0,0:0:0:0:
277,359,175534,2,0,P|327:362|369:337,1,100,4|8,3:2|0:0,0:0:0:0:
456,288,176293,6,0,L|480:187,1,100,0|8,3:2|0:0,0:0:0:0:
495,144,176863,2,0,P|449:112|416:74,1,100
387,40,177432,2,0,B|325:32,1,50,8|0,0:0|0:0,0:0:0:0:
287,25,177812,1,0,3:2:0:0:
208,87,178192,1,10,0:0:0:0:
275,168,178571,1,0,0:0:0:0:
275,168,178761,2,0,L|291:229,2,50,10|10|0,0:0|0:0|0:0,0:0:0:0:
310,132,179331,6,0,L|419:103,1,100,0|10,3:2|0:0,0:0:0:0:
456,99,179901,2,0,P|479:142|479:191,1,100
470,240,180470,1,8,0:0:0:0:
398,310,180850,2,0,P|367:306|290:281,1,100,0|8,3:2|0:0,0:0:0:0:
211,242,181609,2,0,L|227:181,1,50,4|0,3:2|0:0,0:0:0:0:
244,147,181989,1,8,0:0:0:0:
178,71,182369,6,0,P|132:72|74:102,1,100,0|8,3:2|0:0,0:0:0:0:
46,128,182939,2,0,L|32:240,1,100
30,277,183508,1,8,0:0:0:0:
125,307,183888,2,0,L|234:336,1,100,0|12,3:2|0:0,0:0:0:0:
270,346,184457,1,0,0:0:0:0:
334,269,184837,1,8,0:0:0:0:
334,269,185027,1,8,0:0:0:0:
